  0
SECTION
  2
HEADER
  9
$ACADVER
  1
AC1014
  9
$ACADMAINTVER
 70
     9
  9
$DWGCODEPAGE
  3
ANSI_932
  9
$INSBASE
 10
0.0
 20
0.0
 30
0.0
  9
$EXTMIN
 10
-205.3846398254008
 20
-152.3103392660259
 30
-0.0015258207003583
  9
$EXTMAX
 10
199.0212610711087
 20
86.68093075678497
 30
0.0000000349246037
  9
$LIMMIN
 10
-242.063475
 20
-163.836956
  9
$LIMMAX
 10
206.990153
 20
108.578591
  9
$ORTHOMODE
 70
     0
  9
$REGENMODE
 70
     1
  9
$FILLMODE
 70
     1
  9
$QTEXTMODE
 70
     0
  9
$MIRRTEXT
 70
     1
  9
$DRAGMODE
 70
     2
  9
$LTSCALE
 40
10.0
  9
$OSMODE
 70
  3071
  9
$ATTMODE
 70
     1
  9
$TEXTSIZE
 40
3.0
  9
$TRACEWID
 40
0.05
  9
$TEXTSTYLE
  7
KANJI
  9
$CLAYER
  8
1
  9
$CELTYPE
  6
BYLAYER
  9
$CECOLOR
 62
   256
  9
$CELTSCALE
 40
1.0
  9
$DELOBJ
 70
     1
  9
$DISPSILH
 70
     0
  9
$DIMSCALE
 40
1.5
  9
$DIMASZ
 40
2.0
  9
$DIMEXO
 40
2.0
  9
$DIMDLI
 40
2.0
  9
$DIMRND
 40
0.0
  9
$DIMDLE
 40
0.0
  9
$DIMEXE
 40
2.0
  9
$DIMTP
 40
0.0
  9
$DIMTM
 40
0.0
  9
$DIMTXT
 40
2.0
  9
$DIMCEN
 40
2.0
  9
$DIMTSZ
 40
0.0
  9
$DIMTOL
 70
     0
  9
$DIMLIM
 70
     0
  9
$DIMTIH
 70
     0
  9
$DIMTOH
 70
     1
  9
$DIMSE1
 70
     0
  9
$DIMSE2
 70
     0
  9
$DIMTAD
 70
     3
  9
$DIMZIN
 70
     0
  9
$DIMBLK
  1
OPEN30
  9
$DIMASO
 70
     0
  9
$DIMSHO
 70
     0
  9
$DIMPOST
  1

  9
$DIMAPOST
  1

  9
$DIMALT
 70
     0
  9
$DIMALTD
 70
     2
  9
$DIMALTF
 40
25.4
  9
$DIMLFAC
 40
1.0
  9
$DIMTOFL
 70
     0
  9
$DIMTVP
 40
0.0
  9
$DIMTIX
 70
     0
  9
$DIMSOXD
 70
     0
  9
$DIMSAH
 70
     0
  9
$DIMBLK1
  1

  9
$DIMBLK2
  1

  9
$DIMSTYLE
  2
STANDARD
  9
$DIMCLRD
 70
     0
  9
$DIMCLRE
 70
     0
  9
$DIMCLRT
 70
     0
  9
$DIMTFAC
 40
1.0
  9
$DIMGAP
 40
1.0
  9
$DIMJUST
 70
     0
  9
$DIMSD1
 70
     0
  9
$DIMSD2
 70
     0
  9
$DIMTOLJ
 70
     1
  9
$DIMTZIN
 70
     0
  9
$DIMALTZ
 70
     0
  9
$DIMALTTZ
 70
     0
  9
$DIMFIT
 70
     3
  9
$DIMUPT
 70
     0
  9
$DIMUNIT
 70
     2
  9
$DIMDEC
 70
     0
  9
$DIMTDEC
 70
     0
  9
$DIMALTU
 70
     2
  9
$DIMALTTD
 70
     2
  9
$DIMTXSTY
  7
STANDARD
  9
$DIMAUNIT
 70
     0
  9
$LUNITS
 70
     2
  9
$LUPREC
 70
     2
  9
$SKETCHINC
 40
1.0
  9
$FILLETRAD
 40
0.0
  9
$AUNITS
 70
     1
  9
$AUPREC
 70
     2
  9
$MENU
  1
ACAD
  9
$ELEVATION
 40
0.0
  9
$PELEVATION
 40
0.0
  9
$THICKNESS
 40
0.0
  9
$LIMCHECK
 70
     1
  9
$BLIPMODE
 70
     0
  9
$CHAMFERA
 40
0.0
  9
$CHAMFERB
 40
0.0
  9
$CHAMFERC
 40
0.0
  9
$CHAMFERD
 40
0.0
  9
$SKPOLY
 70
     0
  9
$TDCREATE
 40
2452304.377240856
  9
$TDUPDATE
 40
2453384.403008345
  9
$TDINDWG
 40
0.0944944213
  9
$TDUSRTIMER
 40
0.0944940625
  9
$USRTIMER
 70
     1
  9
$ANGBASE
 50
0.0
  9
$ANGDIR
 70
     0
  9
$PDMODE
 70
     0
  9
$PDSIZE
 40
0.4
  9
$PLINEWID
 40
0.0
  9
$COORDS
 70
     2
  9
$SPLFRAME
 70
     0
  9
$SPLINETYPE
 70
     6
  9
$SPLINESEGS
 70
     8
  9
$ATTDIA
 70
     0
  9
$ATTREQ
 70
     1
  9
$HANDLING
 70
 22529
  9
$HANDSEED
  5
31FC
  9
$SURFTAB1
 70
     6
  9
$SURFTAB2
 70
     6
  9
$SURFTYPE
 70
     6
  9
$SURFU
 70
     6
  9
$SURFV
 70
     6
  9
$UCSNAME
  2

  9
$UCSORG
 10
0.0
 20
0.0
 30
0.0
  9
$UCSXDIR
 10
1.0
 20
0.0
 30
0.0
  9
$UCSYDIR
 10
0.0
 20
1.0
 30
0.0
  9
$PUCSNAME
  2

  9
$PUCSORG
 10
0.0
 20
0.0
 30
0.0
  9
$PUCSXDIR
 10
1.0
 20
0.0
 30
0.0
  9
$PUCSYDIR
 10
0.0
 20
1.0
 30
0.0
  9
$USERI1
 70
     0
  9
$USERI2
 70
     0
  9
$USERI3
 70
     0
  9
$USERI4
 70
     0
  9
$USERI5
 70
     0
  9
$USERR1
 40
0.0
  9
$USERR2
 40
0.0
  9
$USERR3
 40
0.0
  9
$USERR4
 40
0.0
  9
$USERR5
 40
0.0
  9
$WORLDVIEW
 70
     1
  9
$SHADEDGE
 70
     3
  9
$SHADEDIF
 70
    70
  9
$TILEMODE
 70
     1
  9
$MAXACTVP
 70
    48
  9
$PINSBASE
 10
0.0
 20
0.0
 30
0.0
  9
$PLIMCHECK
 70
     0
  9
$PEXTMIN
 10
1.000000000000000E+20
 20
1.000000000000000E+20
 30
1.000000000000000E+20
  9
$PEXTMAX
 10
-1.000000000000000E+20
 20
-1.000000000000000E+20
 30
-1.000000000000000E+20
  9
$PLIMMIN
 10
0.0
 20
0.0
  9
$PLIMMAX
 10
12.0
 20
9.0
  9
$UNITMODE
 70
     0
  9
$VISRETAIN
 70
     1
  9
$PLINEGEN
 70
     0
  9
$PSLTSCALE
 70
     1
  9
$TREEDEPTH
 70
  3020
  9
$PICKSTYLE
 70
     1
  9
$CMLSTYLE
  2
STANDARD
  9
$CMLJUST
 70
     0
  9
$CMLSCALE
 40
1.0
  9
$PROXYGRAPHICS
 70
     1
  9
$MEASUREMENT
 70
     0
  0
ENDSEC
  0
SECTION
  2
CLASSES
  0
CLASS
  1
ACDBDICTIONARYWDFLT
  2
AcDbDictionaryWithDefault
  3
AutoCAD 2000
 90
        0
280
     0
281
     0
  0
CLASS
  1
ACDBPLACEHOLDER
  2
AcDbPlaceHolder
  3
AutoCAD 2000
 90
        0
280
     0
281
     0
  0
CLASS
  1
LAYOUT
  2
AcDbLayout
  3
AutoCAD 2000
 90
        0
280
     0
281
     0
  0
CLASS
  1
DICTIONARYVAR
  2
AcDbDictionaryVar
  3
AutoCAD 2000
 90
        0
280
     0
281
     0
  0
CLASS
  1
LONG_TRANSACTION
  2
AcDbLongTransaction
  3
AutoCAD 2000
 90
        0
280
     0
281
     0
  0
CLASS
  1
LWPOLYLINE
  2
AcDbPolyline
  3
AutoCAD 2000
 90
        0
280
     0
281
     1
  0
CLASS
  1
HATCH
  2
AcDbHatch
  3
AutoCAD 2000
 90
        0
280
     0
281
     1
  0
CLASS
  1
XRECORD
  2
AcDbXrecord
  3
AutoCAD 2000
 90
        0
280
     0
281
     0
  0
CLASS
  1
LONG_TRANSACTION
  2
AcDbLongTransaction
  3
AutoCAD 2000
 90
        0
280
     0
281
     0
  0
CLASS
  1
LWPOLYLINE
  2
AcDbPolyline
  3
AutoCAD 2000
 90
        0
280
     0
281
     1
  0
CLASS
  1
HATCH
  2
AcDbHatch
  3
AutoCAD 2000
 90
        0
280
     0
281
     1
  0
CLASS
  1
XRECORD
  2
AcDbXrecord
  3
AutoCAD 2000
 90
        0
280
     0
281
     0
  0
CLASS
  1
LONG_TRANSACTION
  2
AcDbLongTransaction
  3
AutoCAD 2000
 90
        0
280
     0
281
     0
  0
CLASS
  1
LWPOLYLINE
  2
AcDbPolyline
  3
AutoCAD 2000
 90
        0
280
     0
281
     1
  0
CLASS
  1
HATCH
  2
AcDbHatch
  3
AutoCAD 2000
 90
        0
280
     0
281
     1
  0
CLASS
  1
XRECORD
  2
AcDbXrecord
  3
AutoCAD 2000
 90
        0
280
     0
281
     0
  0
ENDSEC
  0
SECTION
  2
TABLES
  0
TABLE
  2
VPORT
  5
8
330
0
100
AcDbSymbolTable
 70
     9
  0
VPORT
  5
31D8
330
8
100
AcDbSymbolTableRecord
100
AcDbViewportTableRecord
  2
*ACTIVE
 70
     0
 10
0.0
 20
0.0
 11
1.0
 21
1.0
 12
-17.53666100000003
 22
-27.62918250000001
 13
0.0
 23
0.0
 14
1.0
 24
1.0
 15
10.0
 25
10.0
 16
0.0
 26
0.0
 36
1.0
 17
0.0
 27
0.0
 37
0.0
 40
334.5045975958937
 41
1.354207436399217
 42
50.0
 43
0.0
 44
0.0
 50
0.0
 51
0.0
 71
     0
 72
   100
 73
     1
 74
     1
 75
     0
 76
     1
 77
     0
 78
     0
  0
ENDTAB
  0
TABLE
  2
LTYPE
  5
5
330
0
100
AcDbSymbolTable
 70
    46
  0
LTYPE
  5
12
330
5
100
AcDbSymbolTableRecord
100
AcDbLinetypeTableRecord
  2
BYBLOCK
 70
     0
  3

 72
    65
 73
     0
 40
0.0
  0
LTYPE
  5
13
330
5
100
AcDbSymbolTableRecord
100
AcDbLinetypeTableRecord
  2
BYLAYER
 70
     0
  3

 72
    65
 73
     0
 40
0.0
  0
LTYPE
  5
14
330
5
100
AcDbSymbolTableRecord
100
AcDbLinetypeTableRecord
  2
CONTINUOUS
 70
     0
  3
SolidLine
 72
    65
 73
     0
 40
0.0
  0
LTYPE
  5
20
330
5
100
AcDbSymbolTableRecord
100
AcDbLinetypeTableRecord
  2
HIDDEN
 70
     0
  3
Hidden __ __ __ __ __ __ __ __ __ __ __ __ __ _
 72
    65
 73
     2
 40
0.375
 49
0.25
 74
     0
 49
-0.125
 74
     0
  0
LTYPE
  5
22
330
5
100
AcDbSymbolTableRecord
100
AcDbLinetypeTableRecord
  2
DASHDOT
 70
     0
  3
Dash dot __ . __ . __ . __ . __ . __ . __ . __
 72
    65
 73
     4
 40
1.0
 49
0.5
 74
     0
 49
-0.25
 74
     0
 49
0.0
 74
     0
 49
-0.25
 74
     0
  0
LTYPE
  5
694
330
5
100
AcDbSymbolTableRecord
100
AcDbLinetypeTableRecord
  2
CENTER
 70
     0
  3
Center ____ _ ____ _ ____ _ ____ _ ____ _ ____
 72
    65
 73
     4
 40
2.0
 49
1.25
 74
     0
 49
-0.25
 74
     0
 49
0.25
 74
     0
 49
-0.25
 74
     0
  0
LTYPE
  5
695
330
5
100
AcDbSymbolTableRecord
100
AcDbLinetypeTableRecord
  2
PHANTOM
 70
     0
  3
Phantom ______  __  __  ______  __  __  ______
 72
    65
 73
     6
 40
2.5
 49
1.25
 74
     0
 49
-0.25
 74
     0
 49
0.25
 74
     0
 49
-0.25
 74
     0
 49
0.25
 74
     0
 49
-0.25
 74
     0
  0
LTYPE
  5
696
330
5
100
AcDbSymbolTableRecord
100
AcDbLinetypeTableRecord
  2
DASHED
 70
     0
  3
Dashed __ __ __ __ __ __ __ __ __ __ __ __ __ _
 72
    65
 73
     2
 40
0.75
 49
0.5
 74
     0
 49
-0.25
 74
     0
  0
LTYPE
  5
314C
330
5
100
AcDbSymbolTableRecord
100
AcDbLinetypeTableRecord
  2
ACAD_ISO02W100
 70
     0
  3
ISO dash __ __ __ __ __ __ __ __ __ __ __ __ __
 72
    65
 73
     2
 40
15.0
 49
12.0
 74
     0
 49
-3.0
 74
     0
  0
LTYPE
  5
314D
330
5
100
AcDbSymbolTableRecord
100
AcDbLinetypeTableRecord
  2
ACAD_ISO03W100
 70
     0
  3
ISO dash space __    __    __    __    __    __
 72
    65
 73
     2
 40
30.0
 49
12.0
 74
     0
 49
-18.0
 74
     0
  0
LTYPE
  5
314E
330
5
100
AcDbSymbolTableRecord
100
AcDbLinetypeTableRecord
  2
ACAD_ISO04W100
 70
     0
  3
ISO long-dash dot ____ . ____ . ____ . ____ . _
 72
    65
 73
     4
 40
30.0
 49
24.0
 74
     0
 49
-3.0
 74
     0
 49
0.0
 74
     0
 49
-3.0
 74
     0
  0
LTYPE
  5
314F
330
5
100
AcDbSymbolTableRecord
100
AcDbLinetypeTableRecord
  2
ACAD_ISO05W100
 70
     0
  3
ISO long-dash double-dot ____ .. ____ .. ____ .
 72
    65
 73
     6
 40
33.0
 49
24.0
 74
     0
 49
-3.0
 74
     0
 49
0.0
 74
     0
 49
-3.0
 74
     0
 49
0.0
 74
     0
 49
-3.0
 74
     0
  0
LTYPE
  5
3150
330
5
100
AcDbSymbolTableRecord
100
AcDbLinetypeTableRecord
  2
ACAD_ISO06W100
 70
     0
  3
ISO long-dash triple-dot ____ ... ____ ... ____
 72
    65
 73
     8
 40
36.0
 49
24.0
 74
     0
 49
-3.0
 74
     0
 49
0.0
 74
     0
 49
-3.0
 74
     0
 49
0.0
 74
     0
 49
-3.0
 74
     0
 49
0.0
 74
     0
 49
-3.0
 74
     0
  0
LTYPE
  5
3151
330
5
100
AcDbSymbolTableRecord
100
AcDbLinetypeTableRecord
  2
ACAD_ISO07W100
 70
     0
  3
ISO dot . . . . . . . . . . . . . . . . . . . .
 72
    65
 73
     2
 40
3.0
 49
0.0
 74
     0
 49
-3.0
 74
     0
  0
LTYPE
  5
3152
330
5
100
AcDbSymbolTableRecord
100
AcDbLinetypeTableRecord
  2
ACAD_ISO08W100
 70
     0
  3
ISO long-dash short-dash ____ __ ____ __ ____ _
 72
    65
 73
     4
 40
36.0
 49
24.0
 74
     0
 49
-3.0
 74
     0
 49
6.0
 74
     0
 49
-3.0
 74
     0
  0
LTYPE
  5
3153
330
5
100
AcDbSymbolTableRecord
100
AcDbLinetypeTableRecord
  2
ACAD_ISO09W100
 70
     0
  3
ISO long-dash double-short-dash ____ __ __ ____
 72
    65
 73
     6
 40
45.0
 49
24.0
 74
     0
 49
-3.0
 74
     0
 49
6.0
 74
     0
 49
-3.0
 74
     0
 49
6.0
 74
     0
 49
-3.0
 74
     0
  0
LTYPE
  5
3154
330
5
100
AcDbSymbolTableRecord
100
AcDbLinetypeTableRecord
  2
ACAD_ISO10W100
 70
     0
  3
ISO dash dot __ . __ . __ . __ . __ . __ . __ .
 72
    65
 73
     4
 40
18.0
 49
12.0
 74
     0
 49
-3.0
 74
     0
 49
0.0
 74
     0
 49
-3.0
 74
     0
  0
LTYPE
  5
3155
330
5
100
AcDbSymbolTableRecord
100
AcDbLinetypeTableRecord
  2
ACAD_ISO11W100
 70
     0
  3
ISO double-dash dot __ __ . __ __ . __ __ . __ 
 72
    65
 73
     6
 40
33.0
 49
12.0
 74
     0
 49
-3.0
 74
     0
 49
12.0
 74
     0
 49
-3.0
 74
     0
 49
0.0
 74
     0
 49
-3.0
 74
     0
  0
LTYPE
  5
3156
330
5
100
AcDbSymbolTableRecord
100
AcDbLinetypeTableRecord
  2
ACAD_ISO12W100
 70
     0
  3
ISO dash double-dot __ . . __ . . __ . . __ . .
 72
    65
 73
     6
 40
21.0
 49
12.0
 74
     0
 49
-3.0
 74
     0
 49
0.0
 74
     0
 49
-3.0
 74
     0
 49
0.0
 74
     0
 49
-3.0
 74
     0
  0
LTYPE
  5
3157
330
5
100
AcDbSymbolTableRecord
100
AcDbLinetypeTableRecord
  2
ACAD_ISO13W100
 70
     0
  3
ISO double-dash double-dot __ __ . . __ __ . . 
 72
    65
 73
     8
 40
36.0
 49
12.0
 74
     0
 49
-3.0
 74
     0
 49
12.0
 74
     0
 49
-3.0
 74
     0
 49
0.0
 74
     0
 49
-3.0
 74
     0
 49
0.0
 74
     0
 49
-3.0
 74
     0
  0
LTYPE
  5
3158
330
5
100
AcDbSymbolTableRecord
100
AcDbLinetypeTableRecord
  2
ACAD_ISO14W100
 70
     0
  3
ISO dash triple-dot __ . . . __ . . . __ . . . 
 72
    65
 73
     8
 40
24.0
 49
12.0
 74
     0
 49
-3.0
 74
     0
 49
0.0
 74
     0
 49
-3.0
 74
     0
 49
0.0
 74
     0
 49
-3.0
 74
     0
 49
0.0
 74
     0
 49
-3.0
 74
     0
  0
LTYPE
  5
3159
330
5
100
AcDbSymbolTableRecord
100
AcDbLinetypeTableRecord
  2
ACAD_ISO15W100
 70
     0
  3
ISO double-dash triple-dot __ __ . . . __ __ . 
 72
    65
 73
    10
 40
39.0
 49
12.0
 74
     0
 49
-3.0
 74
     0
 49
12.0
 74
     0
 49
-3.0
 74
     0
 49
0.0
 74
     0
 49
-3.0
 74
     0
 49
0.0
 74
     0
 49
-3.0
 74
     0
 49
0.0
 74
     0
 49
-3.0
 74
     0
  0
LTYPE
  5
315A
330
5
100
AcDbSymbolTableRecord
100
AcDbLinetypeTableRecord
  2
BATTING
 70
     0
  3
Batting SSSSSSSSSSSSSSSSSSSSSSSSSSSSSSSSSSSSSSS
 72
    65
 73
     4
 40
0.4001000000000001
 49
0.0001
 74
     0
 49
-0.1
 74
     4
 75
   134
340
314B
 46
0.1
 50
0.0
 44
-0.1
 45
0.0
 49
-0.2
 74
     4
 75
   134
340
314B
 46
0.1
 50
180.0
 44
0.1
 45
0.0
 49
-0.1
 74
     0
  0
LTYPE
  5
315B
330
5
100
AcDbSymbolTableRecord
100
AcDbLinetypeTableRecord
  2
BORDER
 70
     0
  3
Border __ __ . __ __ . __ __ . __ __ . __ __ .
 72
    65
 73
     6
 40
1.75
 49
0.5
 74
     0
 49
-0.25
 74
     0
 49
0.5
 74
     0
 49
-0.25
 74
     0
 49
0.0
 74
     0
 49
-0.25
 74
     0
  0
LTYPE
  5
315C
330
5
100
AcDbSymbolTableRecord
100
AcDbLinetypeTableRecord
  2
BORDER2
 70
     0
  3
Border (.5x) __.__.__.__.__.__.__.__.__.__.__.
 72
    65
 73
     6
 40
0.875
 49
0.25
 74
     0
 49
-0.125
 74
     0
 49
0.25
 74
     0
 49
-0.125
 74
     0
 49
0.0
 74
     0
 49
-0.125
 74
     0
  0
LTYPE
  5
315D
330
5
100
AcDbSymbolTableRecord
100
AcDbLinetypeTableRecord
  2
BORDERX2
 70
     0
  3
Border (2x) ____  ____  .  ____  ____  .  ___
 72
    65
 73
     6
 40
3.5
 49
1.0
 74
     0
 49
-0.5
 74
     0
 49
1.0
 74
     0
 49
-0.5
 74
     0
 49
0.0
 74
     0
 49
-0.5
 74
     0
  0
LTYPE
  5
315E
330
5
100
AcDbSymbolTableRecord
100
AcDbLinetypeTableRecord
  2
CENTER2
 70
     0
  3
Center (.5x) ___ _ ___ _ ___ _ ___ _ ___ _ ___
 72
    65
 73
     4
 40
1.125
 49
0.75
 74
     0
 49
-0.125
 74
     0
 49
0.125
 74
     0
 49
-0.125
 74
     0
  0
LTYPE
  5
315F
330
5
100
AcDbSymbolTableRecord
100
AcDbLinetypeTableRecord
  2
CENTERX2
 70
     0
  3
Center (2x) ________  __  ________  __  _____
 72
    65
 73
     4
 40
4.0
 49
2.5
 74
     0
 49
-0.5
 74
     0
 49
0.5
 74
     0
 49
-0.5
 74
     0
  0
LTYPE
  5
3160
330
5
100
AcDbSymbolTableRecord
100
AcDbLinetypeTableRecord
  2
DASHDOT2
 70
     0
  3
Dash dot (.5x) _._._._._._._._._._._._._._._.
 72
    65
 73
     4
 40
0.5
 49
0.25
 74
     0
 49
-0.125
 74
     0
 49
0.0
 74
     0
 49
-0.125
 74
     0
  0
LTYPE
  5
3161
330
5
100
AcDbSymbolTableRecord
100
AcDbLinetypeTableRecord
  2
DASHDOTX2
 70
     0
  3
Dash dot (2x) ____  .  ____  .  ____  .  ___
 72
    65
 73
     4
 40
2.0
 49
1.0
 74
     0
 49
-0.5
 74
     0
 49
0.0
 74
     0
 49
-0.5
 74
     0
  0
LTYPE
  5
3162
330
5
100
AcDbSymbolTableRecord
100
AcDbLinetypeTableRecord
  2
DASHED2
 70
     0
  3
Dashed (.5x) _ _ _ _ _ _ _ _ _ _ _ _ _ _ _ _ _
 72
    65
 73
     2
 40
0.375
 49
0.25
 74
     0
 49
-0.125
 74
     0
  0
LTYPE
  5
3163
330
5
100
AcDbSymbolTableRecord
100
AcDbLinetypeTableRecord
  2
DASHEDX2
 70
     0
  3
Dashed (2x) ____  ____  ____  ____  ____  ___
 72
    65
 73
     2
 40
1.5
 49
1.0
 74
     0
 49
-0.5
 74
     0
  0
LTYPE
  5
3164
330
5
100
AcDbSymbolTableRecord
100
AcDbLinetypeTableRecord
  2
DIVIDE
 70
     0
  3
Divide ____ . . ____ . . ____ . . ____ . . ____
 72
    65
 73
     6
 40
1.25
 49
0.5
 74
     0
 49
-0.25
 74
     0
 49
0.0
 74
     0
 49
-0.25
 74
     0
 49
0.0
 74
     0
 49
-0.25
 74
     0
  0
LTYPE
  5
3165
330
5
100
AcDbSymbolTableRecord
100
AcDbLinetypeTableRecord
  2
DIVIDE2
 70
     0
  3
Divide (.5x) __..__..__..__..__..__..__..__.._
 72
    65
 73
     6
 40
0.625
 49
0.25
 74
     0
 49
-0.125
 74
     0
 49
0.0
 74
     0
 49
-0.125
 74
     0
 49
0.0
 74
     0
 49
-0.125
 74
     0
  0
LTYPE
  5
3166
330
5
100
AcDbSymbolTableRecord
100
AcDbLinetypeTableRecord
  2
DIVIDEX2
 70
     0
  3
Divide (2x) ________  .  .  ________  .  .  _
 72
    65
 73
     6
 40
2.5
 49
1.0
 74
     0
 49
-0.5
 74
     0
 49
0.0
 74
     0
 49
-0.5
 74
     0
 49
0.0
 74
     0
 49
-0.5
 74
     0
  0
LTYPE
  5
3167
330
5
100
AcDbSymbolTableRecord
100
AcDbLinetypeTableRecord
  2
DOT
 70
     0
  3
Dot . . . . . . . . . . . . . . . . . . . . . .
 72
    65
 73
     2
 40
0.25
 49
0.0
 74
     0
 49
-0.25
 74
     0
  0
LTYPE
  5
3168
330
5
100
AcDbSymbolTableRecord
100
AcDbLinetypeTableRecord
  2
DOT2
 70
     0
  3
Dot (.5x) .....................................
 72
    65
 73
     2
 40
0.125
 49
0.0
 74
     0
 49
-0.125
 74
     0
  0
LTYPE
  5
3169
330
5
100
AcDbSymbolTableRecord
100
AcDbLinetypeTableRecord
  2
DOTX2
 70
     0
  3
Dot (2x) .  .  .  .  .  .  .  .  .  .  .  .  . 
 72
    65
 73
     2
 40
0.5
 49
0.0
 74
     0
 49
-0.5
 74
     0
  0
LTYPE
  5
316A
330
5
100
AcDbSymbolTableRecord
100
AcDbLinetypeTableRecord
  2
FENCELINE1
 70
     0
  3
Fenceline circle ----0-----0----0-----0----0---
 72
    65
 73
     4
 40
1.45
 49
0.25
 74
     0
 49
-0.1
 74
     4
 75
   133
340
314B
 46
0.1
 50
0.0
 44
-0.1
 45
0.0
 49
-0.1
 74
     0
 49
1.0
 74
     0
  0
LTYPE
  5
316B
330
5
100
AcDbSymbolTableRecord
100
AcDbLinetypeTableRecord
  2
FENCELINE2
 70
     0
  3
Fenceline square ----[]-----[]----[]-----[]----
 72
    65
 73
     4
 40
1.45
 49
0.25
 74
     0
 49
-0.1
 74
     4
 75
   132
340
314B
 46
0.1
 50
0.0
 44
-0.1
 45
0.0
 49
-0.1
 74
     0
 49
1.0
 74
     0
  0
LTYPE
  5
316C
330
5
100
AcDbSymbolTableRecord
100
AcDbLinetypeTableRecord
  2
GAS_LINE
 70
     0
  3
Gas line ----GAS----GAS----GAS----GAS----GAS---
 72
    65
 73
     3
 40
0.95
 49
0.5
 74
     0
 49
-0.2
 74
     2
 75
     0
340
F
 46
0.1
 50
0.0
 44
-0.1
 45
-0.05
  9
GAS
 49
-0.25
 74
     0
  0
LTYPE
  5
316D
330
5
100
AcDbSymbolTableRecord
100
AcDbLinetypeTableRecord
  2
HIDDEN2
 70
     0
  3
Hidden (.5x) _ _ _ _ _ _ _ _ _ _ _ _ _ _ _ _ _
 72
    65
 73
     2
 40
0.1875
 49
0.125
 74
     0
 49
-0.0625
 74
     0
  0
LTYPE
  5
316E
330
5
100
AcDbSymbolTableRecord
100
AcDbLinetypeTableRecord
  2
HIDDENX2
 70
     0
  3
Hidden (2x) ____ ____ ____ ____ ____ ____ ____
 72
    65
 73
     2
 40
0.75
 49
0.5
 74
     0
 49
-0.25
 74
     0
  0
LTYPE
  5
316F
330
5
100
AcDbSymbolTableRecord
100
AcDbLinetypeTableRecord
  2
HOT_WATER_SUPPLY
 70
     0
  3
Hot water supply ---- HW ---- HW ---- HW ----
 72
    65
 73
     3
 40
0.9
 49
0.5
 74
     0
 49
-0.2
 74
     2
 75
     0
340
F
 46
0.1
 50
0.0
 44
-0.1
 45
-0.05
  9
HW
 49
-0.2
 74
     0
  0
LTYPE
  5
3170
330
5
100
AcDbSymbolTableRecord
100
AcDbLinetypeTableRecord
  2
PHANTOM2
 70
     0
  3
Phantom (.5x) ___ _ _ ___ _ _ ___ _ _ ___ _ _
 72
    65
 73
     6
 40
1.25
 49
0.625
 74
     0
 49
-0.125
 74
     0
 49
0.125
 74
     0
 49
-0.125
 74
     0
 49
0.125
 74
     0
 49
-0.125
 74
     0
  0
LTYPE
  5
3171
330
5
100
AcDbSymbolTableRecord
100
AcDbLinetypeTableRecord
  2
PHANTOMX2
 70
     0
  3
Phantom (2x) ____________    ____    ____   _
 72
    65
 73
     6
 40
5.0
 49
2.5
 74
     0
 49
-0.5
 74
     0
 49
0.5
 74
     0
 49
-0.5
 74
     0
 49
0.5
 74
     0
 49
-0.5
 74
     0
  0
LTYPE
  5
3172
330
5
100
AcDbSymbolTableRecord
100
AcDbLinetypeTableRecord
  2
TRACKS
 70
     0
  3
Tracks -|-|-|-|-|-|-|-|-|-|-|-|-|-|-|-|-|-|-|-|
 72
    65
 73
     2
 40
0.3
 49
0.15
 74
     4
 75
   130
340
314B
 46
0.25
 50
0.0
 44
0.0
 45
0.0
 49
0.15
 74
     0
  0
LTYPE
  5
3173
330
5
100
AcDbSymbolTableRecord
100
AcDbLinetypeTableRecord
  2
ZIGZAG
 70
     0
  3
Zig zag /\/\/\/\/\/\/\/\/\/\/\/\/\/\/\/\/\/\/\/
 72
    65
 73
     4
 40
0.8001000000000001
 49
0.0001
 74
     0
 49
-0.2
 74
     4
 75
   131
340
314B
 46
0.2
 50
0.0
 44
-0.2
 45
0.0
 49
-0.4
 74
     4
 75
   131
340
314B
 46
0.2
 50
180.0
 44
0.2
 45
0.0
 49
-0.2
 74
     0
  0
ENDTAB
  0
TABLE
  2
LAYER
  5
2
330
0
100
AcDbSymbolTable
 70
    19
  0
LAYER
  5
E
330
2
100
AcDbSymbolTableRecord
100
AcDbLayerTableRecord
  2
0
 70
     0
 62
     7
  6
CONTINUOUS
  0
LAYER
  5
1F
330
2
100
AcDbSymbolTableRecord
100
AcDbLayerTableRecord
  2
1
 70
     0
 62
     7
  6
CONTINUOUS
  0
LAYER
  5
2A
330
2
100
AcDbSymbolTableRecord
100
AcDbLayerTableRecord
  2
2
 70
     0
 62
     7
  6
CONTINUOUS
  0
LAYER
  5
2B
330
2
100
AcDbSymbolTableRecord
100
AcDbLayerTableRecord
  2
3
 70
     0
 62
     7
  6
CONTINUOUS
  0
LAYER
  5
2C
330
2
100
AcDbSymbolTableRecord
100
AcDbLayerTableRecord
  2
4
 70
     0
 62
     7
  6
CONTINUOUS
  0
LAYER
  5
2D
330
2
100
AcDbSymbolTableRecord
100
AcDbLayerTableRecord
  2
5
 70
     0
 62
     7
  6
CONTINUOUS
  0
LAYER
  5
2E
330
2
100
AcDbSymbolTableRecord
100
AcDbLayerTableRecord
  2
6
 70
     0
 62
     7
  6
CONTINUOUS
  0
LAYER
  5
2F
330
2
100
AcDbSymbolTableRecord
100
AcDbLayerTableRecord
  2
7
 70
     0
 62
     7
  6
CONTINUOUS
  0
LAYER
  5
30
330
2
100
AcDbSymbolTableRecord
100
AcDbLayerTableRecord
  2
8
 70
     0
 62
     7
  6
CONTINUOUS
  0
LAYER
  5
31
330
2
100
AcDbSymbolTableRecord
100
AcDbLayerTableRecord
  2
9
 70
     0
 62
     7
  6
CONTINUOUS
  0
LAYER
  5
36
330
2
100
AcDbSymbolTableRecord
100
AcDbLayerTableRecord
  2
14
 70
     0
 62
     7
  6
CONTINUOUS
  0
LAYER
  5
3C
330
2
100
AcDbSymbolTableRecord
100
AcDbLayerTableRecord
  2
HATCH
 70
     0
 62
     7
  6
CONTINUOUS
  0
LAYER
  5
697
330
2
100
AcDbSymbolTableRecord
100
AcDbLayerTableRecord
  2
DEFAULT_1
 70
     0
 62
     7
  6
CENTER
  0
LAYER
  5
698
330
2
100
AcDbSymbolTableRecord
100
AcDbLayerTableRecord
  2
DEFAULT_3
 70
     0
 62
     7
  6
PHANTOM
  0
LAYER
  5
699
330
2
100
AcDbSymbolTableRecord
100
AcDbLayerTableRecord
  2
1_ALL_DRAFT_DIMS
 70
     0
 62
     7
  6
CONTINUOUS
  0
LAYER
  5
69A
330
2
100
AcDbSymbolTableRecord
100
AcDbLayerTableRecord
  2
2_ALL_NOTES
 70
     0
 62
     7
  6
CONTINUOUS
  0
LAYER
  5
69B
330
2
100
AcDbSymbolTableRecord
100
AcDbLayerTableRecord
  2
7_ALL_DRAFT_GEOMS
 70
     0
 62
     7
  6
CONTINUOUS
  0
LAYER
  5
69C
330
2
100
AcDbSymbolTableRecord
100
AcDbLayerTableRecord
  2
8_ALL_DTL_ITEMS
 70
     0
 62
     7
  6
CONTINUOUS
  0
LAYER
  5
2D6A
330
2
100
AcDbSymbolTableRecord
100
AcDbLayerTableRecord
  2
DEFPOINTS
 70
     0
 62
     7
  6
CONTINUOUS
  0
ENDTAB
  0
TABLE
  2
STYLE
  5
3
330
0
100
AcDbSymbolTable
 70
     4
  0
STYLE
  5
F
330
3
100
AcDbSymbolTableRecord
100
AcDbTextStyleTableRecord
  2
STANDARD
 70
     0
 40
0.0
 41
1.0
 50
0.0
 71
     0
 42
3.0
  3
TXT.shx
  4
bigfont.shx
  0
STYLE
  5
41
330
3
100
AcDbSymbolTableRecord
100
AcDbTextStyleTableRecord
  2
KANJI
 70
     0
 40
0.0
 41
1.0
 50
0.0
 71
     0
 42
3.0
  3
TXT.shx
  4
bigfont.shx
  0
STYLE
  5
667
330
3
100
AcDbSymbolTableRecord
100
AcDbTextStyleTableRecord
  2
STANDARD1
 70
     0
 40
0.0
 41
1.0
 50
0.0
 71
     0
 42
4.0
  3
monotxt.shx
  4
bigfont.shx
  0
STYLE
  5
314B
330
3
100
AcDbSymbolTableRecord
100
AcDbTextStyleTableRecord
  2

 70
     1
 40
0.0
 41
1.0
 50
0.0
 71
     0
 42
3.174999999999999
  3
ltypeshp.shx
  4

  0
ENDTAB
  0
TABLE
  2
VIEW
  5
6
330
0
100
AcDbSymbolTable
 70
     0
  0
ENDTAB
  0
TABLE
  2
UCS
  5
7
330
0
100
AcDbSymbolTable
 70
     0
  0
ENDTAB
  0
TABLE
  2
APPID
  5
9
330
0
100
AcDbSymbolTable
 70
     1
  0
APPID
  5
10
330
9
100
AcDbSymbolTableRecord
100
AcDbRegAppTableRecord
  2
ACAD
 70
     0
  0
ENDTAB
  0
TABLE
  2
DIMSTYLE
  5
A
330
0
100
AcDbSymbolTable
 70
     2
  0
DIMSTYLE
105
661
102
{ACAD_REACTORS
330
26D6
330
26D7
330
26E1
330
26E2
330
26E3
330
2701
330
28DB
102
}
330
A
100
AcDbSymbolTableRecord
100
AcDbDimStyleTableRecord
  2
STANDARD
 70
     0
  3

  4

  5
OPEN30
  6

  7

 40
1.5
 41
2.0
 42
2.0
 43
2.0
 44
2.0
 45
0.0
 46
0.0
 47
0.0
 48
0.0
140
2.0
141
2.0
142
0.0
143
25.4
144
1.0
145
0.0
146
1.0
147
1.0
 71
     0
 72
     0
 73
     0
 74
     1
 75
     0
 76
     0
 77
     3
 78
     0
170
     0
171
     2
172
     0
173
     0
174
     0
175
     0
176
     0
177
     0
178
     0
270
     2
271
     0
272
     0
273
     2
274
     2
340
F
275
     0
280
     0
281
     0
282
     0
283
     1
284
     0
285
     0
286
     0
287
     3
288
     0
  0
DIMSTYLE
105
69D
330
A
100
AcDbSymbolTableRecord
100
AcDbDimStyleTableRecord
  2
ISO-25
 70
     0
  3

  4

  5

  6

  7

 40
1.0
 41
2.5
 42
0.625
 43
3.75
 44
1.25
 45
0.0
 46
0.0
 47
0.0
 48
0.0
140
2.5
141
2.5
142
0.0
143
0.03937007874016
144
1.0
145
0.0
146
1.0
147
0.625
 71
     0
 72
     0
 73
     0
 74
     0
 75
     0
 76
     0
 77
     1
 78
     8
170
     0
171
     3
172
     1
173
     0
174
     0
175
     0
176
     0
177
     0
178
     0
270
     2
271
     2
272
     2
273
     2
274
     3
340
F
275
     0
280
     0
281
     0
282
     0
283
     0
284
     8
285
     0
286
     0
287
     3
288
     0
  0
ENDTAB
  0
TABLE
  2
BLOCK_RECORD
  5
1
330
0
100
AcDbSymbolTable
 70
    16
  0
BLOCK_RECORD
  5
18
102
{ACAD_XDICTIONARY
360
1F6C
102
}
330
1
100
AcDbSymbolTableRecord
100
AcDbBlockTableRecord
  2
*MODEL_SPACE
  0
BLOCK_RECORD
  5
15
102
{ACAD_XDICTIONARY
360
1F6A
102
}
330
1
100
AcDbSymbolTableRecord
100
AcDbBlockTableRecord
  2
*PAPER_SPACE
  0
BLOCK_RECORD
  5
1FD2
330
1
100
AcDbSymbolTableRecord
100
AcDbBlockTableRecord
  2
*D0
  0
BLOCK_RECORD
  5
1FDC
330
1
100
AcDbSymbolTableRecord
100
AcDbBlockTableRecord
  2
*D1
  0
BLOCK_RECORD
  5
1FE6
330
1
100
AcDbSymbolTableRecord
100
AcDbBlockTableRecord
  2
*D2
  0
BLOCK_RECORD
  5
1FF0
330
1
100
AcDbSymbolTableRecord
100
AcDbBlockTableRecord
  2
*D3
  0
BLOCK_RECORD
  5
1FFA
330
1
100
AcDbSymbolTableRecord
100
AcDbBlockTableRecord
  2
*D4
  0
BLOCK_RECORD
  5
2004
330
1
100
AcDbSymbolTableRecord
100
AcDbBlockTableRecord
  2
*D5
  0
BLOCK_RECORD
  5
200E
330
1
100
AcDbSymbolTableRecord
100
AcDbBlockTableRecord
  2
*D6
  0
BLOCK_RECORD
  5
2D6B
330
1
100
AcDbSymbolTableRecord
100
AcDbBlockTableRecord
  2
*D8
  0
BLOCK_RECORD
  5
2D78
330
1
100
AcDbSymbolTableRecord
100
AcDbBlockTableRecord
  2
*D9
  0
BLOCK_RECORD
  5
2D85
330
1
100
AcDbSymbolTableRecord
100
AcDbBlockTableRecord
  2
*D10
  0
BLOCK_RECORD
  5
2D92
330
1
100
AcDbSymbolTableRecord
100
AcDbBlockTableRecord
  2
*D11
  0
BLOCK_RECORD
  5
2D9F
330
1
100
AcDbSymbolTableRecord
100
AcDbBlockTableRecord
  2
*D12
  0
BLOCK_RECORD
  5
2DAC
330
1
100
AcDbSymbolTableRecord
100
AcDbBlockTableRecord
  2
*D13
  0
BLOCK_RECORD
  5
2DB9
330
1
100
AcDbSymbolTableRecord
100
AcDbBlockTableRecord
  2
*D14
  0
BLOCK_RECORD
  5
2EC3
330
1
100
AcDbSymbolTableRecord
100
AcDbBlockTableRecord
  2
_OPEN30
  0
ENDTAB
  0
ENDSEC
  0
SECTION
  2
BLOCKS
  0
BLOCK
  5
19
330
18
100
AcDbEntity
  8
0
100
AcDbBlockBegin
  2
*MODEL_SPACE
 70
     0
 10
0.0
 20
0.0
 30
0.0
  3
*MODEL_SPACE
  1

  0
ENDBLK
  5
1A
330
18
100
AcDbEntity
  8
0
100
AcDbBlockEnd
  0
BLOCK
  5
16
330
15
100
AcDbEntity
 67
     1
  8
0
100
AcDbBlockBegin
  2
*PAPER_SPACE
 70
     0
 10
0.0
 20
0.0
 30
0.0
  3
*PAPER_SPACE
  1

  0
ENDBLK
  5
17
330
15
100
AcDbEntity
 67
     1
  8
0
100
AcDbBlockEnd
  0
BLOCK
  5
1FDA
330
1FD2
100
AcDbEntity
  8
0
 62
     2
100
AcDbBlockBegin
  2
*D0
 70
     1
 10
0.0
 20
0.0
 30
0.0
  3
*D0
  1

  0
TEXT
  5
1FD3
330
1FD2
100
AcDbEntity
  8
1_ALL_DRAFT_DIMS
  6
CONTINUOUS
 62
     2
100
AcDbText
 10
32.4973514033
 20
112.0884179163999
 30
0.0
 40
2.799999999999999
  1
60
 50
90.0
 41
1.066666666666667
 72
     5
 11
32.4973514033
 21
116.5684179164
 31
0.0
100
AcDbText
  0
LINE
  5
1FD4
330
1FD2
100
AcDbEntity
  8
1_ALL_DRAFT_DIMS
  6
CONTINUOUS
 62
     2
100
AcDbLine
 10
54.16430405619999
 20
148.1417064149999
 30
0.0
 11
32.1973514033
 21
148.1417064149999
 31
0.0
  0
LINE
  5
1FD5
330
1FD2
100
AcDbEntity
  8
1_ALL_DRAFT_DIMS
  6
CONTINUOUS
 62
     2
100
AcDbLine
 10
54.16430405619999
 20
88.141706415
 30
0.0
 11
32.1973514033
 21
88.141706415
 31
0.0
  0
LINE
  5
1FD6
330
1FD2
100
AcDbEntity
  8
1_ALL_DRAFT_DIMS
  6
CONTINUOUS
 62
     2
100
AcDbLine
 10
33.19735140329999
 20
148.1417064149999
 30
0.0
 11
33.19735140329999
 21
118.141706415
 31
0.0
  0
LINE
  5
1FD7
330
1FD2
100
AcDbEntity
  8
1_ALL_DRAFT_DIMS
  6
CONTINUOUS
 62
     2
100
AcDbLine
 10
33.19735140329999
 20
88.141706415
 30
0.0
 11
33.19735140329999
 21
118.141706415
 31
0.0
  0
LWPOLYLINE
  5
1FD8
330
1FD2
100
AcDbEntity
  8
1_ALL_DRAFT_DIMS
  6
CONTINUOUS
 62
     2
100
AcDbPolyline
 90
        3
 70
     0
 43
0.0
 10
33.82235140329999
 20
146.1417064149999
 10
33.19735140329999
 20
148.1417064149999
 10
32.57235140329999
 20
146.1417064149999
  0
LWPOLYLINE
  5
1FD9
330
1FD2
100
AcDbEntity
  8
1_ALL_DRAFT_DIMS
  6
CONTINUOUS
 62
     2
100
AcDbPolyline
 90
        3
 70
     0
 43
0.0
 10
32.57235140329999
 20
90.14170641499999
 10
33.19735140329999
 20
88.141706415
 10
33.82235140329999
 20
90.14170641499999
  0
ENDBLK
  5
1FDB
330
1FD2
100
AcDbEntity
  8
0
100
AcDbBlockEnd
  0
BLOCK
  5
1FE4
330
1FDC
100
AcDbEntity
  8
0
 62
     2
100
AcDbBlockBegin
  2
*D1
 70
     1
 10
0.0
 20
0.0
 30
0.0
  3
*D1
  1

  0
TEXT
  5
1FDD
330
1FDC
100
AcDbEntity
  8
1_ALL_DRAFT_DIMS
  6
CONTINUOUS
 62
     2
100
AcDbText
 10
132.2043210374999
 20
135.8483669185
 30
0.0
 40
2.799999999999999
  1
40
 50
90.0
 41
1.066666666666664
 72
     5
 11
132.2043210374999
 21
140.3283669184999
 31
0.0
100
AcDbText
  0
LINE
  5
1FDE
330
1FDC
100
AcDbEntity
  8
1_ALL_DRAFT_DIMS
  6
CONTINUOUS
 62
     2
100
AcDbLine
 10
125.5308682527
 20
118.141706415
 30
0.0
 11
133.9043210375
 21
118.141706415
 31
0.0
  0
LINE
  5
1FDF
330
1FDC
100
AcDbEntity
  8
1_ALL_DRAFT_DIMS
  6
CONTINUOUS
 62
     2
100
AcDbLine
 10
101.6643040562
 20
158.1417064149999
 30
0.0
 11
133.9043210375
 21
158.1417064149999
 31
0.0
  0
LINE
  5
1FE0
330
1FDC
100
AcDbEntity
  8
1_ALL_DRAFT_DIMS
  6
CONTINUOUS
 62
     2
100
AcDbLine
 10
132.9043210375
 20
118.141706415
 30
0.0
 11
132.9043210375
 21
138.1417064149999
 31
0.0
  0
LINE
  5
1FE1
330
1FDC
100
AcDbEntity
  8
1_ALL_DRAFT_DIMS
  6
CONTINUOUS
 62
     2
100
AcDbLine
 10
132.9043210375
 20
158.1417064149999
 30
0.0
 11
132.9043210375
 21
138.1417064149999
 31
0.0
  0
LWPOLYLINE
  5
1FE2
330
1FDC
100
AcDbEntity
  8
1_ALL_DRAFT_DIMS
  6
CONTINUOUS
 62
     2
100
AcDbPolyline
 90
        3
 70
     0
 43
0.0
 10
132.2793210375
 20
120.1417064149999
 10
132.9043210375
 20
118.141706415
 10
133.5293210375
 20
120.1417064149999
  0
LWPOLYLINE
  5
1FE3
330
1FDC
100
AcDbEntity
  8
1_ALL_DRAFT_DIMS
  6
CONTINUOUS
 62
     2
100
AcDbPolyline
 90
        3
 70
     0
 43
0.0
 10
133.5293210375
 20
156.1417064149999
 10
132.9043210375
 20
158.1417064149999
 10
132.2793210375
 20
156.1417064149999
  0
ENDBLK
  5
1FE5
330
1FDC
100
AcDbEntity
  8
0
100
AcDbBlockEnd
  0
BLOCK
  5
1FEE
330
1FE6
100
AcDbEntity
  8
0
 62
     2
100
AcDbBlockBegin
  2
*D2
 70
     1
 10
0.0
 20
0.0
 30
0.0
  3
*D2
  1

  0
TEXT
  5
1FE7
330
1FE6
100
AcDbEntity
  8
1_ALL_DRAFT_DIMS
  6
CONTINUOUS
 62
     2
100
AcDbText
 10
81.20785522899998
 20
177.4569379781
 30
0.0
 40
2.799999999999999
  1
70
 41
1.066666666666667
 72
     5
 11
85.68785522899998
 21
177.4569379781
 31
0.0
100
AcDbText
  0
LINE
  5
1FE8
330
1FE6
100
AcDbEntity
  8
1_ALL_DRAFT_DIMS
  6
CONTINUOUS
 62
     2
100
AcDbLine
 10
49.66430405619999
 20
143.6417064149999
 30
0.0
 11
49.66430405619999
 21
177.7569379781
 31
0.0
  0
LINE
  5
1FE9
330
1FE6
100
AcDbEntity
  8
1_ALL_DRAFT_DIMS
  6
CONTINUOUS
 62
     2
100
AcDbLine
 10
119.6643040562
 20
143.6417064149999
 30
0.0
 11
119.6643040562
 21
177.7569379781
 31
0.0
  0
LINE
  5
1FEA
330
1FE6
100
AcDbEntity
  8
1_ALL_DRAFT_DIMS
  6
CONTINUOUS
 62
     2
100
AcDbLine
 10
49.66430405619999
 20
176.7569379781
 30
0.0
 11
84.6643040562
 21
176.7569379781
 31
0.0
  0
LINE
  5
1FEB
330
1FE6
100
AcDbEntity
  8
1_ALL_DRAFT_DIMS
  6
CONTINUOUS
 62
     2
100
AcDbLine
 10
119.6643040562
 20
176.7569379781
 30
0.0
 11
84.6643040562
 21
176.7569379781
 31
0.0
  0
LWPOLYLINE
  5
1FEC
330
1FE6
100
AcDbEntity
  8
1_ALL_DRAFT_DIMS
  6
CONTINUOUS
 62
     2
100
AcDbPolyline
 90
        3
 70
     0
 43
0.0
 10
51.66430405619999
 20
177.3819379781
 10
49.66430405619999
 20
176.7569379781
 10
51.66430405619999
 20
176.1319379781
  0
LWPOLYLINE
  5
1FED
330
1FE6
100
AcDbEntity
  8
1_ALL_DRAFT_DIMS
  6
CONTINUOUS
 62
     2
100
AcDbPolyline
 90
        3
 70
     0
 43
0.0
 10
117.6643040562
 20
176.1319379781
 10
119.6643040562
 20
176.7569379781
 10
117.6643040562
 20
177.3819379781
  0
ENDBLK
  5
1FEF
330
1FE6
100
AcDbEntity
  8
0
100
AcDbBlockEnd
  0
BLOCK
  5
1FF8
330
1FF0
100
AcDbEntity
  8
0
 62
     2
100
AcDbBlockBegin
  2
*D3
 70
     1
 10
0.0
 20
0.0
 30
0.0
  3
*D3
  1

  0
TEXT
  5
1FF1
330
1FF0
100
AcDbEntity
  8
1_ALL_DRAFT_DIMS
  6
CONTINUOUS
 62
     2
100
AcDbText
 10
196.0035015575
 20
177.6601503916999
 30
0.0
 40
2.799999999999999
  1
30
 41
1.066666666666671
 72
     5
 11
200.4835015574999
 21
177.6601503916999
 31
0.0
100
AcDbText
  0
LINE
  5
1FF2
330
1FF0
100
AcDbEntity
  8
1_ALL_DRAFT_DIMS
  6
CONTINUOUS
 62
     2
100
AcDbLine
 10
210.3527046757
 20
216.1706865081
 30
0.0
 11
210.3527046757
 21
175.9601503916999
 31
0.0
  0
LINE
  5
1FF3
330
1FF0
100
AcDbEntity
  8
1_ALL_DRAFT_DIMS
  6
CONTINUOUS
 62
     2
100
AcDbLine
 10
180.3527046757
 20
214.9206865081
 30
0.0
 11
180.3527046757
 21
175.9601503916999
 31
0.0
  0
LINE
  5
1FF4
330
1FF0
100
AcDbEntity
  8
1_ALL_DRAFT_DIMS
  6
CONTINUOUS
 62
     2
100
AcDbLine
 10
210.3527046757
 20
176.9601503916999
 30
0.0
 11
195.3527046757
 21
176.9601503916999
 31
0.0
  0
LINE
  5
1FF5
330
1FF0
100
AcDbEntity
  8
1_ALL_DRAFT_DIMS
  6
CONTINUOUS
 62
     2
100
AcDbLine
 10
180.3527046757
 20
176.9601503916999
 30
0.0
 11
195.3527046757
 21
176.9601503916999
 31
0.0
  0
LWPOLYLINE
  5
1FF6
330
1FF0
100
AcDbEntity
  8
1_ALL_DRAFT_DIMS
  6
CONTINUOUS
 62
     2
100
AcDbPolyline
 90
        3
 70
     0
 43
0.0
 10
208.3527046757
 20
176.3351503916999
 10
210.3527046757
 20
176.9601503916999
 10
208.3527046757
 20
177.5851503916999
  0
LWPOLYLINE
  5
1FF7
330
1FF0
100
AcDbEntity
  8
1_ALL_DRAFT_DIMS
  6
CONTINUOUS
 62
     2
100
AcDbPolyline
 90
        3
 70
     0
 43
0.0
 10
182.3527046757
 20
177.5851503916999
 10
180.3527046757
 20
176.9601503916999
 10
182.3527046757
 20
176.3351503916999
  0
ENDBLK
  5
1FF9
330
1FF0
100
AcDbEntity
  8
0
100
AcDbBlockEnd
  0
BLOCK
  5
2002
330
1FFA
100
AcDbEntity
  8
0
 62
     2
100
AcDbBlockBegin
  2
*D4
 70
     1
 10
0.0
 20
0.0
 30
0.0
  3
*D4
  1

  0
TEXT
  5
1FFB
330
1FFA
100
AcDbEntity
  8
1_ALL_DRAFT_DIMS
  6
CONTINUOUS
 62
     2
100
AcDbText
 10
166.4866242399
 20
177.6601503916999
 30
0.0
 40
2.799999999999999
  1
27
 41
0.959999999999998
 72
     5
 11
170.9666242399
 21
177.6601503916999
 31
0.0
100
AcDbText
  0
LINE
  5
1FFC
330
1FFA
100
AcDbEntity
  8
1_ALL_DRAFT_DIMS
  6
CONTINUOUS
 62
     2
100
AcDbLine
 10
153.3527046757
 20
205.1706865080999
 30
0.0
 11
153.3527046757
 21
175.9601503916999
 31
0.0
  0
LINE
  5
1FFD
330
1FFA
100
AcDbEntity
  8
1_ALL_DRAFT_DIMS
  6
CONTINUOUS
 62
     2
100
AcDbLine
 10
180.3527046757
 20
214.9206865081
 30
0.0
 11
180.3527046757
 21
175.9601503916999
 31
0.0
  0
LINE
  5
1FFE
330
1FFA
100
AcDbEntity
  8
1_ALL_DRAFT_DIMS
  6
CONTINUOUS
 62
     2
100
AcDbLine
 10
153.3527046757
 20
176.9601503916999
 30
0.0
 11
166.8527046757
 21
176.9601503916999
 31
0.0
  0
LINE
  5
1FFF
330
1FFA
100
AcDbEntity
  8
1_ALL_DRAFT_DIMS
  6
CONTINUOUS
 62
     2
100
AcDbLine
 10
180.3527046757
 20
176.9601503916999
 30
0.0
 11
166.8527046757
 21
176.9601503916999
 31
0.0
  0
LWPOLYLINE
  5
2000
330
1FFA
100
AcDbEntity
  8
1_ALL_DRAFT_DIMS
  6
CONTINUOUS
 62
     2
100
AcDbPolyline
 90
        3
 70
     0
 43
0.0
 10
155.3527046757
 20
177.5851503916999
 10
153.3527046757
 20
176.9601503916999
 10
155.3527046757
 20
176.3351503916999
  0
LWPOLYLINE
  5
2001
330
1FFA
100
AcDbEntity
  8
1_ALL_DRAFT_DIMS
  6
CONTINUOUS
 62
     2
100
AcDbPolyline
 90
        3
 70
     0
 43
0.0
 10
178.3527046757
 20
176.3351503916999
 10
180.3527046757
 20
176.9601503916999
 10
178.3527046757
 20
177.5851503916999
  0
ENDBLK
  5
2003
330
1FFA
100
AcDbEntity
  8
0
100
AcDbBlockEnd
  0
BLOCK
  5
200C
330
2004
100
AcDbEntity
  8
0
 62
     2
100
AcDbBlockBegin
  2
*D5
 70
     1
 10
0.0
 20
0.0
 30
0.0
  3
*D5
  1

  0
TEXT
  5
2005
330
2004
100
AcDbEntity
  8
1_ALL_DRAFT_DIMS
  6
CONTINUOUS
 62
     2
100
AcDbText
 10
207.5303069373
 20
272.0020206649999
 30
0.0
 40
2.799999999999999
  1
128
 41
1.028571428571428
 72
     5
 11
214.2503069372999
 21
272.0020206649999
 31
0.0
100
AcDbText
  0
LINE
  5
2006
330
2004
100
AcDbEntity
  8
1_ALL_DRAFT_DIMS
  6
CONTINUOUS
 62
     2
100
AcDbLine
 10
153.3527046757
 20
237.1706865081
 30
0.0
 11
153.3527046757
 21
272.3020206649999
 31
0.0
  0
LINE
  5
2007
330
2004
100
AcDbEntity
  8
1_ALL_DRAFT_DIMS
  6
CONTINUOUS
 62
     2
100
AcDbLine
 10
281.4527046756999
 20
221.6706865081
 30
0.0
 11
281.4527046756999
 21
272.3020206649999
 31
0.0
  0
LINE
  5
2008
330
2004
100
AcDbEntity
  8
1_ALL_DRAFT_DIMS
  6
CONTINUOUS
 62
     2
100
AcDbLine
 10
153.3527046757
 20
271.3020206649999
 30
0.0
 11
217.4027046757
 21
271.3020206649999
 31
0.0
  0
LINE
  5
2009
330
2004
100
AcDbEntity
  8
1_ALL_DRAFT_DIMS
  6
CONTINUOUS
 62
     2
100
AcDbLine
 10
281.4527046756999
 20
271.3020206649999
 30
0.0
 11
217.4027046757
 21
271.3020206649999
 31
0.0
  0
LWPOLYLINE
  5
200A
330
2004
100
AcDbEntity
  8
1_ALL_DRAFT_DIMS
  6
CONTINUOUS
 62
     2
100
AcDbPolyline
 90
        3
 70
     0
 43
0.0
 10
155.3527046757
 20
271.927020665
 10
153.3527046757
 20
271.3020206649999
 10
155.3527046757
 20
270.6770206649999
  0
LWPOLYLINE
  5
200B
330
2004
100
AcDbEntity
  8
1_ALL_DRAFT_DIMS
  6
CONTINUOUS
 62
     2
100
AcDbPolyline
 90
        3
 70
     0
 43
0.0
 10
279.4527046757
 20
270.6770206649999
 10
281.4527046756999
 20
271.3020206649999
 10
279.4527046757
 20
271.927020665
  0
ENDBLK
  5
200D
330
2004
100
AcDbEntity
  8
0
100
AcDbBlockEnd
  0
BLOCK
  5
2018
330
200E
100
AcDbEntity
  8
0
 62
     2
100
AcDbBlockBegin
  2
*D6
 70
     1
 10
0.0
 20
0.0
 30
0.0
  3
*D6
  1

  0
TEXT
  5
200F
330
200E
100
AcDbEntity
  8
0
  6
CONTINUOUS
 62
     2
100
AcDbText
 10
32.4973514033
 20
148.5702986096999
 30
0.0
 40
2.799999999999999
  1
(
 50
90.0
 41
2.40000000000001
 72
     5
 11
32.4973514033
 21
150.8102986097
 31
0.0
100
AcDbText
  0
TEXT
  5
2010
330
200E
100
AcDbEntity
  8
0
  6
CONTINUOUS
 62
     2
100
AcDbText
 10
32.4973514033
 20
155.2902986096999
 30
0.0
 40
2.799999999999999
  1
)
 50
90.0
 41
2.40000000000001
 72
     5
 11
32.4973514033
 21
157.5302986097
 31
0.0
100
AcDbText
  0
TEXT
  5
2011
330
200E
100
AcDbEntity
  8
0
  6
CONTINUOUS
 62
     2
100
AcDbText
 10
32.4973514033
 20
150.8102986097
 30
0.0
 40
2.799999999999999
  1
10
 50
90.0
 41
1.371428571428568
 72
     5
 11
32.4973514033
 21
155.2902986096999
 31
0.0
100
AcDbText
  0
LINE
  5
2012
330
200E
100
AcDbEntity
  8
0
  6
CONTINUOUS
 62
     2
100
AcDbLine
 10
67.66430405619999
 20
158.1417064149999
 30
0.0
 11
32.1973514033
 21
158.1417064149999
 31
0.0
  0
LINE
  5
2013
330
200E
100
AcDbEntity
  8
0
  6
CONTINUOUS
 62
     2
100
AcDbLine
 10
54.16430405619999
 20
148.1417064149999
 30
0.0
 11
32.1973514033
 21
148.1417064149999
 31
0.0
  0
LINE
  5
2014
330
200E
100
AcDbEntity
  8
0
  6
CONTINUOUS
 62
     2
100
AcDbLine
 10
33.19735140329999
 20
158.1417064149999
 30
0.0
 11
33.19735140329999
 21
153.141706415
 31
0.0
  0
LINE
  5
2015
330
200E
100
AcDbEntity
  8
0
  6
CONTINUOUS
 62
     2
100
AcDbLine
 10
33.19735140329999
 20
148.1417064149999
 30
0.0
 11
33.19735140329999
 21
153.141706415
 31
0.0
  0
LWPOLYLINE
  5
2016
330
200E
100
AcDbEntity
  8
0
  6
CONTINUOUS
 62
     2
100
AcDbPolyline
 90
        3
 70
     0
 43
0.0
 10
33.82235140329999
 20
156.1417064149999
 10
33.19735140329999
 20
158.1417064149999
 10
32.57235140329999
 20
156.1417064149999
  0
LWPOLYLINE
  5
2017
330
200E
100
AcDbEntity
  8
0
  6
CONTINUOUS
 62
     2
100
AcDbPolyline
 90
        3
 70
     0
 43
0.0
 10
32.57235140329999
 20
150.1417064149999
 10
33.19735140329999
 20
148.1417064149999
 10
33.82235140329999
 20
150.1417064149999
  0
ENDBLK
  5
2019
330
200E
100
AcDbEntity
  8
0
100
AcDbBlockEnd
  0
BLOCK
  5
2D76
330
2D6B
100
AcDbEntity
  8
0
100
AcDbBlockBegin
  2
*D8
 70
     1
 10
0.0
 20
0.0
 30
0.0
  3
*D8
  1

  0
LINE
  5
311C
330
2D6B
100
AcDbEntity
  8
1_ALL_DRAFT_DIMS
  6
CONTINUOUS
 62
     0
100
AcDbLine
 10
-79.51945018699837
 20
49.84686366202658
 30
0.0
 11
-79.51945018699837
 21
83.97819781892655
 31
0.0
  0
LINE
  5
311D
330
2D6B
100
AcDbEntity
  8
1_ALL_DRAFT_DIMS
  6
CONTINUOUS
 62
     0
100
AcDbLine
 10
48.5805498130016
 20
34.34686366202658
 30
0.0
 11
48.5805498130016
 21
83.97819781892655
 31
0.0
  0
LINE
  5
311E
330
2D6B
100
AcDbEntity
  8
1_ALL_DRAFT_DIMS
  6
CONTINUOUS
 62
     0
100
AcDbLine
 10
-76.51945018699837
 20
80.97819781892656
 30
0.0
 11
45.58054981300159
 21
80.97819781892656
 31
0.0
  0
INSERT
  5
311F
330
2D6B
100
AcDbEntity
  8
1_ALL_DRAFT_DIMS
  6
CONTINUOUS
 62
     0
100
AcDbBlockReference
  2
_OPEN30
 10
-79.51945018699837
 20
80.97819781892656
 30
0.0
 41
3.0
 42
3.0
 43
3.0
 50
180.0
  0
INSERT
  5
3120
330
2D6B
100
AcDbEntity
  8
1_ALL_DRAFT_DIMS
  6
CONTINUOUS
 62
     0
100
AcDbBlockReference
  2
_OPEN30
 10
48.5805498130016
 20
80.97819781892656
 30
0.0
 41
3.0
 42
3.0
 43
3.0
  0
MTEXT
  5
3121
330
2D6B
100
AcDbEntity
  8
1_ALL_DRAFT_DIMS
  6
CONTINUOUS
 62
     0
100
AcDbMText
 10
-15.46945018699838
 20
84.57819781892656
 30
0.0
 40
4.199999999999999
 41
0.0
 71
     5
 72
     1
  1
\A1;128
1001
ACAD
1000
MTEXTBEGIN
1070
    73
1070
     1
1070
    44
1040
1.0
1070
    74
1070
     0
1000
MTEXTEND
  0
POINT
  5
3122
330
2D6B
100
AcDbEntity
  8
DEFPOINTS
  6
CONTINUOUS
 62
     0
100
AcDbPoint
 10
-79.51945018699837
 20
46.84686366202657
 30
0.0
  0
POINT
  5
3123
330
2D6B
100
AcDbEntity
  8
DEFPOINTS
  6
CONTINUOUS
 62
     0
100
AcDbPoint
 10
48.5805498130016
 20
31.34686366202657
 30
0.0
  0
POINT
  5
3124
330
2D6B
100
AcDbEntity
  8
DEFPOINTS
  6
CONTINUOUS
 62
     0
100
AcDbPoint
 10
48.5805498130016
 20
80.97819781892656
 30
0.0
  0
ENDBLK
  5
2D77
330
2D6B
100
AcDbEntity
  8
0
100
AcDbBlockEnd
  0
BLOCK
  5
2D83
330
2D78
100
AcDbEntity
  8
0
100
AcDbBlockBegin
  2
*D9
 70
     1
 10
0.0
 20
0.0
 30
0.0
  3
*D9
  1

  0
LINE
  5
310A
330
2D78
100
AcDbEntity
  8
1_ALL_DRAFT_DIMS
  6
CONTINUOUS
 62
     0
100
AcDbLine
 10
-22.51945018699836
 20
22.84686366202657
 30
0.0
 11
-22.51945018699837
 21
-16.36367245437344
 31
0.0
  0
LINE
  5
310B
330
2D78
100
AcDbEntity
  8
1_ALL_DRAFT_DIMS
  6
CONTINUOUS
 62
     0
100
AcDbLine
 10
-52.51945018699837
 20
21.59686366202657
 30
0.0
 11
-52.51945018699837
 21
-16.36367245437344
 31
0.0
  0
LINE
  5
310C
330
2D78
100
AcDbEntity
  8
1_ALL_DRAFT_DIMS
  6
CONTINUOUS
 62
     0
100
AcDbLine
 10
-25.51945018699837
 20
-13.36367245437344
 30
0.0
 11
-49.51945018699837
 21
-13.36367245437344
 31
0.0
  0
INSERT
  5
310D
330
2D78
100
AcDbEntity
  8
1_ALL_DRAFT_DIMS
  6
CONTINUOUS
 62
     0
100
AcDbBlockReference
  2
_OPEN30
 10
-22.51945018699837
 20
-13.36367245437344
 30
0.0
 41
3.0
 42
3.0
 43
3.0
  0
INSERT
  5
310E
330
2D78
100
AcDbEntity
  8
1_ALL_DRAFT_DIMS
  6
CONTINUOUS
 62
     0
100
AcDbBlockReference
  2
_OPEN30
 10
-52.51945018699837
 20
-13.36367245437344
 30
0.0
 41
3.0
 42
3.0
 43
3.0
 50
180.0
  0
MTEXT
  5
310F
330
2D78
100
AcDbEntity
  8
1_ALL_DRAFT_DIMS
  6
CONTINUOUS
 62
     0
100
AcDbMText
 10
-37.51945018699837
 20
-9.763672454373443
 30
0.0
 40
4.199999999999999
 41
0.0
 71
     5
 72
     1
  1
\A1;30
1001
ACAD
1000
MTEXTBEGIN
1070
    73
1070
     1
1070
    44
1040
1.0
1070
    74
1070
     0
1000
MTEXTEND
  0
POINT
  5
3110
330
2D78
100
AcDbEntity
  8
DEFPOINTS
  6
CONTINUOUS
 62
     0
100
AcDbPoint
 10
-22.51945018699836
 20
25.84686366202658
 30
0.0
  0
POINT
  5
3111
330
2D78
100
AcDbEntity
  8
DEFPOINTS
  6
CONTINUOUS
 62
     0
100
AcDbPoint
 10
-52.51945018699837
 20
24.59686366202658
 30
0.0
  0
POINT
  5
3112
330
2D78
100
AcDbEntity
  8
DEFPOINTS
  6
CONTINUOUS
 62
     0
100
AcDbPoint
 10
-52.51945018699837
 20
-13.36367245437344
 30
0.0
  0
ENDBLK
  5
2D84
330
2D78
100
AcDbEntity
  8
0
100
AcDbBlockEnd
  0
BLOCK
  5
2D90
330
2D85
100
AcDbEntity
  8
0
100
AcDbBlockBegin
  2
*D10
 70
     1
 10
0.0
 20
0.0
 30
0.0
  3
*D10
  1

  0
LINE
  5
3140
330
2D85
100
AcDbEntity
  8
0
  6
CONTINUOUS
 62
     0
100
AcDbLine
 10
-168.2078508064983
 20
-32.18211643107343
 30
0.0
 11
-202.6748034593984
 21
-32.18211643107343
 31
0.0
  0
LINE
  5
3141
330
2D85
100
AcDbEntity
  8
0
  6
CONTINUOUS
 62
     0
100
AcDbLine
 10
-181.7078508064983
 20
-42.18211643107344
 30
0.0
 11
-202.6748034593984
 21
-42.18211643107344
 31
0.0
  0
LINE
  5
3142
330
2D85
100
AcDbEntity
  8
0
  6
CONTINUOUS
 62
     0
100
AcDbLine
 10
-199.6748034593983
 20
-35.18211643107343
 30
0.0
 11
-199.6748034593983
 21
-39.18211643107344
 31
0.0
  0
INSERT
  5
3143
330
2D85
100
AcDbEntity
  8
0
  6
CONTINUOUS
 62
     0
100
AcDbBlockReference
  2
_OPEN30
 10
-199.6748034593983
 20
-32.18211643107343
 30
0.0
 41
3.0
 42
3.0
 43
3.0
 50
90.0
  0
INSERT
  5
3144
330
2D85
100
AcDbEntity
  8
0
  6
CONTINUOUS
 62
     0
100
AcDbBlockReference
  2
_OPEN30
 10
-199.6748034593983
 20
-42.18211643107344
 30
0.0
 41
3.0
 42
3.0
 43
3.0
 50
270.0
  0
MTEXT
  5
3145
330
2D85
100
AcDbEntity
  8
0
  6
CONTINUOUS
 62
     0
100
AcDbMText
 10
-203.2748034593983
 20
-37.18211643107347
 30
0.0
 40
4.199999999999999
 41
0.0
 71
     5
 72
     1
  1
\A1;10
 11
0.0000000000000001
 21
1.0
 31
0.0
1001
ACAD
1000
MTEXTBEGIN
1070
    73
1070
     1
1070
    44
1040
1.0
1070
    74
1070
     0
1000
MTEXTEND
  0
POINT
  5
3146
330
2D85
100
AcDbEntity
  8
DEFPOINTS
  6
CONTINUOUS
 62
     0
100
AcDbPoint
 10
-165.2078508064983
 20
-32.18211643107343
 30
0.0
  0
POINT
  5
3147
330
2D85
100
AcDbEntity
  8
DEFPOINTS
  6
CONTINUOUS
 62
     0
100
AcDbPoint
 10
-178.7078508064983
 20
-42.18211643107344
 30
0.0
  0
POINT
  5
3148
330
2D85
100
AcDbEntity
  8
DEFPOINTS
  6
CONTINUOUS
 62
     0
100
AcDbPoint
 10
-199.6748034593983
 20
-42.18211643107344
 30
0.0
  0
ENDBLK
  5
2D91
330
2D85
100
AcDbEntity
  8
0
100
AcDbBlockEnd
  0
BLOCK
  5
2D9D
330
2D92
100
AcDbEntity
  8
0
100
AcDbBlockBegin
  2
*D11
 70
     1
 10
0.0
 20
0.0
 30
0.0
  3
*D11
  1

  0
LINE
  5
312E
330
2D92
100
AcDbEntity
  8
1_ALL_DRAFT_DIMS
  6
CONTINUOUS
 62
     0
100
AcDbLine
 10
-183.2078508064983
 20
-43.68211643107343
 30
0.0
 11
-183.2078508064983
 21
-10.56688486797341
 31
0.0
  0
LINE
  5
312F
330
2D92
100
AcDbEntity
  8
1_ALL_DRAFT_DIMS
  6
CONTINUOUS
 62
     0
100
AcDbLine
 10
-113.2078508064983
 20
-43.68211643107343
 30
0.0
 11
-113.2078508064983
 21
-10.56688486797341
 31
0.0
  0
LINE
  5
3130
330
2D92
100
AcDbEntity
  8
1_ALL_DRAFT_DIMS
  6
CONTINUOUS
 62
     0
100
AcDbLine
 10
-180.2078508064983
 20
-13.56688486797341
 30
0.0
 11
-116.2078508064983
 21
-13.56688486797341
 31
0.0
  0
INSERT
  5
3131
330
2D92
100
AcDbEntity
  8
1_ALL_DRAFT_DIMS
  6
CONTINUOUS
 62
     0
100
AcDbBlockReference
  2
_OPEN30
 10
-183.2078508064983
 20
-13.56688486797341
 30
0.0
 41
3.0
 42
3.0
 43
3.0
 50
180.0
  0
INSERT
  5
3132
330
2D92
100
AcDbEntity
  8
1_ALL_DRAFT_DIMS
  6
CONTINUOUS
 62
     0
100
AcDbBlockReference
  2
_OPEN30
 10
-113.2078508064983
 20
-13.56688486797341
 30
0.0
 41
3.0
 42
3.0
 43
3.0
  0
MTEXT
  5
3133
330
2D92
100
AcDbEntity
  8
1_ALL_DRAFT_DIMS
  6
CONTINUOUS
 62
     0
100
AcDbMText
 10
-148.2078508064983
 20
-9.966884867973414
 30
0.0
 40
4.199999999999999
 41
0.0
 71
     5
 72
     1
  1
\A1;70
1001
ACAD
1000
MTEXTBEGIN
1070
    73
1070
     1
1070
    44
1040
1.0
1070
    74
1070
     0
1000
MTEXTEND
  0
POINT
  5
3134
330
2D92
100
AcDbEntity
  8
DEFPOINTS
  6
CONTINUOUS
 62
     0
100
AcDbPoint
 10
-183.2078508064983
 20
-46.68211643107343
 30
0.0
  0
POINT
  5
3135
330
2D92
100
AcDbEntity
  8
DEFPOINTS
  6
CONTINUOUS
 62
     0
100
AcDbPoint
 10
-113.2078508064983
 20
-46.68211643107343
 30
0.0
  0
POINT
  5
3136
330
2D92
100
AcDbEntity
  8
DEFPOINTS
  6
CONTINUOUS
 62
     0
100
AcDbPoint
 10
-113.2078508064983
 20
-13.56688486797341
 30
0.0
  0
ENDBLK
  5
2D9E
330
2D92
100
AcDbEntity
  8
0
100
AcDbBlockEnd
  0
BLOCK
  5
2DAA
330
2D9F
100
AcDbEntity
  8
0
100
AcDbBlockBegin
  2
*D12
 70
     1
 10
0.0
 20
0.0
 30
0.0
  3
*D12
  1

  0
LINE
  5
3125
330
2D9F
100
AcDbEntity
  8
1_ALL_DRAFT_DIMS
  6
CONTINUOUS
 62
     0
100
AcDbLine
 10
-104.3412866099983
 20
-72.18211643107342
 30
0.0
 11
-96.96783382519837
 21
-72.18211643107342
 31
0.0
  0
LINE
  5
3126
330
2D9F
100
AcDbEntity
  8
1_ALL_DRAFT_DIMS
  6
CONTINUOUS
 62
     0
100
AcDbLine
 10
-128.2078508064983
 20
-32.18211643107343
 30
0.0
 11
-96.96783382519837
 21
-32.18211643107344
 31
0.0
  0
LINE
  5
3127
330
2D9F
100
AcDbEntity
  8
1_ALL_DRAFT_DIMS
  6
CONTINUOUS
 62
     0
100
AcDbLine
 10
-99.96783382519836
 20
-69.18211643107342
 30
0.0
 11
-99.96783382519836
 21
-35.18211643107344
 31
0.0
  0
INSERT
  5
3128
330
2D9F
100
AcDbEntity
  8
1_ALL_DRAFT_DIMS
  6
CONTINUOUS
 62
     0
100
AcDbBlockReference
  2
_OPEN30
 10
-99.96783382519836
 20
-72.18211643107342
 30
0.0
 41
3.0
 42
3.0
 43
3.0
 50
270.0
  0
INSERT
  5
3129
330
2D9F
100
AcDbEntity
  8
1_ALL_DRAFT_DIMS
  6
CONTINUOUS
 62
     0
100
AcDbBlockReference
  2
_OPEN30
 10
-99.96783382519836
 20
-32.18211643107344
 30
0.0
 41
3.0
 42
3.0
 43
3.0
 50
90.0
  0
MTEXT
  5
312A
330
2D9F
100
AcDbEntity
  8
1_ALL_DRAFT_DIMS
  6
CONTINUOUS
 62
     0
100
AcDbMText
 10
-103.5678338251983
 20
-52.18211643107345
 30
0.0
 40
4.199999999999999
 41
0.0
 71
     5
 72
     1
  1
\A1;40
 11
0.0000000000000001
 21
1.0
 31
0.0
1001
ACAD
1000
MTEXTBEGIN
1070
    73
1070
     1
1070
    44
1040
1.0
1070
    74
1070
     0
1000
MTEXTEND
  0
POINT
  5
312B
330
2D9F
100
AcDbEntity
  8
DEFPOINTS
  6
CONTINUOUS
 62
     0
100
AcDbPoint
 10
-107.3412866099983
 20
-72.18211643107342
 30
0.0
  0
POINT
  5
312C
330
2D9F
100
AcDbEntity
  8
DEFPOINTS
  6
CONTINUOUS
 62
     0
100
AcDbPoint
 10
-131.2078508064983
 20
-32.18211643107343
 30
0.0
  0
POINT
  5
312D
330
2D9F
100
AcDbEntity
  8
DEFPOINTS
  6
CONTINUOUS
 62
     0
100
AcDbPoint
 10
-99.96783382519836
 20
-32.18211643107344
 30
0.0
  0
ENDBLK
  5
2DAB
330
2D9F
100
AcDbEntity
  8
0
100
AcDbBlockEnd
  0
BLOCK
  5
2DB7
330
2DAC
100
AcDbEntity
  8
0
100
AcDbBlockBegin
  2
*D13
 70
     1
 10
0.0
 20
0.0
 30
0.0
  3
*D13
  1

  0
LINE
  5
3137
330
2DAC
100
AcDbEntity
  8
1_ALL_DRAFT_DIMS
  6
CONTINUOUS
 62
     0
100
AcDbLine
 10
-181.7078508064983
 20
-42.18211643107344
 30
0.0
 11
-202.6748034593983
 21
-42.18211643107344
 31
0.0
  0
LINE
  5
3138
330
2DAC
100
AcDbEntity
  8
1_ALL_DRAFT_DIMS
  6
CONTINUOUS
 62
     0
100
AcDbLine
 10
-181.7078508064983
 20
-102.1821164310734
 30
0.0
 11
-202.6748034593984
 21
-102.1821164310734
 31
0.0
  0
LINE
  5
3139
330
2DAC
100
AcDbEntity
  8
1_ALL_DRAFT_DIMS
  6
CONTINUOUS
 62
     0
100
AcDbLine
 10
-199.6748034593983
 20
-45.18211643107344
 30
0.0
 11
-199.6748034593983
 21
-99.18211643107342
 31
0.0
  0
INSERT
  5
313A
330
2DAC
100
AcDbEntity
  8
1_ALL_DRAFT_DIMS
  6
CONTINUOUS
 62
     0
100
AcDbBlockReference
  2
_OPEN30
 10
-199.6748034593983
 20
-42.18211643107344
 30
0.0
 41
3.0
 42
3.0
 43
3.0
 50
90.0
  0
INSERT
  5
313B
330
2DAC
100
AcDbEntity
  8
1_ALL_DRAFT_DIMS
  6
CONTINUOUS
 62
     0
100
AcDbBlockReference
  2
_OPEN30
 10
-199.6748034593983
 20
-102.1821164310734
 30
0.0
 41
3.0
 42
3.0
 43
3.0
 50
270.0
  0
MTEXT
  5
313C
330
2DAC
100
AcDbEntity
  8
1_ALL_DRAFT_DIMS
  6
CONTINUOUS
 62
     0
100
AcDbMText
 10
-203.2748034593983
 20
-72.18211643107345
 30
0.0
 40
4.199999999999999
 41
0.0
 71
     5
 72
     1
  1
\A1;60
 11
0.0000000000000001
 21
1.0
 31
0.0
1001
ACAD
1000
MTEXTBEGIN
1070
    73
1070
     1
1070
    44
1040
1.0
1070
    74
1070
     0
1000
MTEXTEND
  0
POINT
  5
313D
330
2DAC
100
AcDbEntity
  8
DEFPOINTS
  6
CONTINUOUS
 62
     0
100
AcDbPoint
 10
-178.7078508064983
 20
-42.18211643107344
 30
0.0
  0
POINT
  5
313E
330
2DAC
100
AcDbEntity
  8
DEFPOINTS
  6
CONTINUOUS
 62
     0
100
AcDbPoint
 10
-178.7078508064983
 20
-102.1821164310734
 30
0.0
  0
POINT
  5
313F
330
2DAC
100
AcDbEntity
  8
DEFPOINTS
  6
CONTINUOUS
 62
     0
100
AcDbPoint
 10
-199.6748034593983
 20
-102.1821164310734
 30
0.0
  0
ENDBLK
  5
2DB8
330
2DAC
100
AcDbEntity
  8
0
100
AcDbBlockEnd
  0
BLOCK
  5
2DC4
330
2DB9
100
AcDbEntity
  8
0
100
AcDbBlockBegin
  2
*D14
 70
     1
 10
0.0
 20
0.0
 30
0.0
  3
*D14
  1

  0
LINE
  5
3113
330
2DB9
100
AcDbEntity
  8
1_ALL_DRAFT_DIMS
  6
CONTINUOUS
 62
     0
100
AcDbLine
 10
-79.51945018699837
 20
11.84686366202657
 30
0.0
 11
-79.51945018699837
 21
-16.36367245437344
 31
0.0
  0
LINE
  5
3114
330
2DB9
100
AcDbEntity
  8
1_ALL_DRAFT_DIMS
  6
CONTINUOUS
 62
     0
100
AcDbLine
 10
-52.51945018699837
 20
21.59686366202657
 30
0.0
 11
-52.51945018699837
 21
-16.36367245437344
 31
0.0
  0
LINE
  5
3115
330
2DB9
100
AcDbEntity
  8
1_ALL_DRAFT_DIMS
  6
CONTINUOUS
 62
     0
100
AcDbLine
 10
-76.51945018699837
 20
-13.36367245437344
 30
0.0
 11
-55.51945018699837
 21
-13.36367245437344
 31
0.0
  0
INSERT
  5
3116
330
2DB9
100
AcDbEntity
  8
1_ALL_DRAFT_DIMS
  6
CONTINUOUS
 62
     0
100
AcDbBlockReference
  2
_OPEN30
 10
-79.51945018699837
 20
-13.36367245437344
 30
0.0
 41
3.0
 42
3.0
 43
3.0
 50
180.0
  0
INSERT
  5
3117
330
2DB9
100
AcDbEntity
  8
1_ALL_DRAFT_DIMS
  6
CONTINUOUS
 62
     0
100
AcDbBlockReference
  2
_OPEN30
 10
-52.51945018699837
 20
-13.36367245437344
 30
0.0
 41
3.0
 42
3.0
 43
3.0
  0
MTEXT
  5
3118
330
2DB9
100
AcDbEntity
  8
1_ALL_DRAFT_DIMS
  6
CONTINUOUS
 62
     0
100
AcDbMText
 10
-66.01945018699836
 20
-9.763672454373443
 30
0.0
 40
4.199999999999999
 41
0.0
 71
     5
 72
     1
  1
\A1;27
1001
ACAD
1000
MTEXTBEGIN
1070
    73
1070
     1
1070
    44
1040
1.0
1070
    74
1070
     0
1000
MTEXTEND
  0
POINT
  5
3119
330
2DB9
100
AcDbEntity
  8
DEFPOINTS
  6
CONTINUOUS
 62
     0
100
AcDbPoint
 10
-79.51945018699837
 20
14.84686366202657
 30
0.0
  0
POINT
  5
311A
330
2DB9
100
AcDbEntity
  8
DEFPOINTS
  6
CONTINUOUS
 62
     0
100
AcDbPoint
 10
-52.51945018699837
 20
24.59686366202658
 30
0.0
  0
POINT
  5
311B
330
2DB9
100
AcDbEntity
  8
DEFPOINTS
  6
CONTINUOUS
 62
     0
100
AcDbPoint
 10
-52.51945018699837
 20
-13.36367245437344
 30
0.0
  0
ENDBLK
  5
2DC5
330
2DB9
100
AcDbEntity
  8
0
100
AcDbBlockEnd
  0
BLOCK
  5
2EC7
330
2EC3
100
AcDbEntity
  8
0
100
AcDbBlockBegin
  2
_OPEN30
 70
     0
 10
0.0
 20
0.0
 30
0.0
  3
_OPEN30
  1

  0
LINE
  5
2EC4
330
2EC3
100
AcDbEntity
  8
0
  6
BYBLOCK
 62
     0
100
AcDbLine
 10
-1.0
 20
0.26794919
 30
0.0
 11
0.0
 21
0.0
 31
0.0
  0
LINE
  5
2EC5
330
2EC3
100
AcDbEntity
  8
0
  6
BYBLOCK
 62
     0
100
AcDbLine
 10
0.0
 20
0.0
 30
0.0
 11
-1.0
 21
-0.26794919
 31
0.0
  0
LINE
  5
2EC6
330
2EC3
100
AcDbEntity
  8
0
  6
BYBLOCK
 62
     0
100
AcDbLine
 10
0.0
 20
0.0
 30
0.0
 11
-1.0
 21
0.0
 31
0.0
  0
ENDBLK
  5
2EC8
330
2EC3
100
AcDbEntity
  8
0
100
AcDbBlockEnd
  0
ENDSEC
  0
SECTION
  2
ENTITIES
  0
LINE
  5
677
330
18
100
AcDbEntity
  8
0
100
AcDbLine
 10
198.9910759999999
 20
-152.2903379999999
 30
0.0
 11
65.45038100000001
 21
-152.2903379999999
 31
0.0
  0
LINE
  5
678
330
18
100
AcDbEntity
  8
0
100
AcDbLine
 10
198.9910759999999
 20
-138.9362679999999
 30
0.0
 11
65.45038100000001
 21
-138.9362679999999
 31
0.0
  0
LINE
  5
679
330
18
100
AcDbEntity
  8
0
100
AcDbLine
 10
198.9910759999999
 20
-125.582199
 30
0.0
 11
65.45038100000001
 21
-125.582199
 31
0.0
  0
TEXT
  5
67A
330
18
100
AcDbEntity
  8
0
100
AcDbText
 10
102.066055
 20
-136.145792
 30
0.0
 40
6.677035
  1
カラーカメラ
 41
0.9
  7
STANDARD1
100
AcDbText
  0
TEXT
  5
67B
330
18
100
AcDbEntity
  8
0
100
AcDbText
 10
75.357916
 20
-136.145792
 30
0.0
 40
6.677035
  1
品名
  7
STANDARD1
100
AcDbText
  0
TEXT
  5
67C
330
18
100
AcDbEntity
  8
0
100
AcDbText
 10
75.357916
 20
-149.499861
 30
0.0
 40
6.677035
  1
型名
  7
STANDARD1
100
AcDbText
  0
LINE
  5
67D
330
18
100
AcDbEntity
  8
0
100
AcDbLine
 10
65.45038100000001
 20
-125.582199
 30
0.0
 11
65.45038100000001
 21
-152.2903379999999
 31
0.0
  0
TEXT
  5
67E
330
18
100
AcDbEntity
  8
0
100
AcDbText
 10
102.066055
 20
-149.499861
 30
0.0
 40
6.677035
  1
ＣＩＴ－８０００
  7
STANDARD1
100
AcDbText
  0
LINE
  5
67F
330
18
100
AcDbEntity
  8
0
100
AcDbLine
 10
98.83555499999999
 20
-125.582199
 30
0.0
 11
98.83555499999999
 21
-152.2903379999999
 31
0.0
  0
LINE
  5
680
330
18
100
AcDbEntity
  8
0
100
AcDbLine
 10
198.9910759999999
 20
-125.582199
 30
0.0
 11
198.9910759999999
 21
-152.2903379999999
 31
0.0
  0
CIRCLE
  5
26C4
330
18
100
AcDbEntity
  8
0
  6
CONTINUOUS
 62
     7
100
AcDbCircle
 10
-22.51945018699836
 20
30.84686366202658
 30
0.0
 40
2.0
  0
CIRCLE
  5
26C5
330
18
100
AcDbEntity
  8
0
  6
CONTINUOUS
 62
     7
100
AcDbCircle
 10
-22.51945018699836
 20
30.84686366202658
 30
0.0
 40
4.5
  0
LINE
  5
26C6
330
18
100
AcDbEntity
  8
0
  6
CONTINUOUS
 62
     7
100
AcDbLine
 10
-55.51945018699837
 20
65.84686366202658
 30
0.0
 11
42.4396616792016
 21
65.84686366202658
 31
0.0
  0
LINE
  5
26C7
330
18
100
AcDbEntity
  8
0
  6
CONTINUOUS
 62
     7
100
AcDbLine
 10
-56.51945018699837
 20
60.84686366202658
 30
0.0
 11
42.43962322790162
 21
60.84686366202658
 31
0.0
  0
LINE
  5
26C8
330
18
100
AcDbEntity
  8
0
  6
CONTINUOUS
 62
     7
100
AcDbLine
 10
-58.01945018699837
 20
48.34686366202658
 30
0.0
 11
-10.01945018699837
 21
48.34686366202658
 31
0.0
  0
LINE
  5
26C9
330
18
100
AcDbEntity
  8
0
  6
CONTINUOUS
 62
     7
100
AcDbLine
 10
-45.21945018699841
 20
47.34686366202658
 30
0.0
 11
-9.019450186998369
 21
47.34686366202658
 31
0.0
  0
LINE
  5
26CB
330
18
100
AcDbEntity
  8
0
  6
CONTINUOUS
 62
     7
100
AcDbLine
 10
-45.21945018699841
 20
14.34686366202657
 30
0.0
 11
-9.019450186998369
 21
14.34686366202657
 31
0.0
  0
LINE
  5
26CC
330
18
100
AcDbEntity
  8
0
  6
CONTINUOUS
 62
     7
100
AcDbLine
 10
-58.01945018699837
 20
13.34686366202658
 30
0.0
 11
-10.01945018699837
 21
13.34686366202658
 31
0.0
  0
LINE
  5
26CD
330
18
100
AcDbEntity
  8
2_ALL_NOTES
  6
CONTINUOUS
100
AcDbLine
 10
-51.67828829039843
 20
27.70760472662658
 30
0.0
 11
0.7732575483016149
 21
-20.89179074827342
 31
0.0
  0
LINE
  5
26CE
330
18
100
AcDbEntity
  8
0
  6
CONTINUOUS
 62
     7
100
AcDbLine
 10
-56.51945018699837
 20
0.8468636620265783
 30
0.0
 11
42.43961258250164
 21
0.8468636620265783
 31
0.0
  0
LINE
  5
26CF
330
18
100
AcDbEntity
  8
0
  6
CONTINUOUS
 62
     7
100
AcDbLine
 10
-55.51945018699837
 20
-4.153136337973421
 30
0.0
 11
42.4396616792016
 21
-4.153136337973421
 31
0.0
  0
LINE
  5
26D0
330
18
100
AcDbEntity
  8
0
  6
CONTINUOUS
 62
     7
100
AcDbLine
 10
-58.01945018699837
 20
-32.18211643107343
 30
0.0
 11
-10.01945018699837
 21
-32.18211643107343
 31
0.0
  0
LINE
  5
26D1
330
18
100
AcDbEntity
  8
0
  6
CONTINUOUS
 62
     7
100
AcDbLine
 10
-59.01945018699837
 20
-33.18211643107344
 30
0.0
 11
-9.019450186998369
 21
-33.18211643107344
 31
0.0
  0
LINE
  5
26D2
330
18
100
AcDbEntity
  8
0
  6
CONTINUOUS
 62
     7
100
AcDbLine
 10
-59.01945018699837
 20
-42.18211643107344
 30
0.0
 11
43.56237607670158
 21
-42.18211643107344
 31
0.0
  0
LINE
  5
26D3
330
18
100
AcDbEntity
  8
0
  6
CONTINUOUS
 62
     7
100
AcDbLine
 10
-56.51945018699837
 20
-47.18211643107344
 30
0.0
 11
48.5805498130016
 21
-47.18211643107344
 31
0.0
  0
LINE
  5
26D4
330
18
100
AcDbEntity
  8
0
  6
CONTINUOUS
 62
     7
100
AcDbLine
 10
-56.51945018699837
 20
-97.18211643107343
 30
0.0
 11
48.5805498130016
 21
-97.18211643107343
 31
0.0
  0
LINE
  5
26D5
330
18
100
AcDbEntity
  8
0
  6
CONTINUOUS
 62
     7
100
AcDbLine
 10
-55.51945018699837
 20
-102.1821164310734
 30
0.0
 11
43.56237607670158
 21
-102.1821164310734
 31
0.0
  0
DIMENSION
  5
26D6
330
18
100
AcDbEntity
  8
1_ALL_DRAFT_DIMS
  6
CONTINUOUS
100
AcDbDimension
  2
*D8
 10
48.5805498130016
 20
80.97819781892656
 30
0.0
 11
-15.46945018699838
 21
84.57819781892656
 31
0.0
 70
    32
  3
STANDARD
100
AcDbAlignedDimension
 13
-79.51945018699837
 23
46.84686366202657
 33
0.0
 14
48.5805498130016
 24
31.34686366202657
 34
0.0
100
AcDbRotatedDimension
1001
ACAD
1000
DSTYLE
1002
{
1070
   140
1040
2.799999999999999
1002
}
  0
DIMENSION
  5
26D7
330
18
100
AcDbEntity
  8
1_ALL_DRAFT_DIMS
  6
CONTINUOUS
100
AcDbDimension
  2
*D9
 10
-52.51945018699837
 20
-13.36367245437344
 30
0.0
 11
-37.51945018699837
 21
-9.763672454373443
 31
0.0
 70
    32
  3
STANDARD
100
AcDbAlignedDimension
 13
-22.51945018699836
 23
25.84686366202658
 33
0.0
 14
-52.51945018699837
 24
24.59686366202658
 34
0.0
 50
180.0
100
AcDbRotatedDimension
1001
ACAD
1000
DSTYLE
1002
{
1070
   140
1040
2.799999999999999
1002
}
  0
ARC
  5
26D8
330
18
100
AcDbEntity
  8
0
  6
CONTINUOUS
 62
     7
100
AcDbCircle
 10
-118.2078508064983
 20
-47.18211643107344
 30
0.0
 40
5.0
100
AcDbArc
 50
0.0
 51
90.0
  0
ARC
  5
26D9
330
18
100
AcDbEntity
  8
0
  6
CONTINUOUS
 62
     7
100
AcDbCircle
 10
-178.2078508064983
 20
-47.18211643107344
 30
0.0
 40
5.0
100
AcDbArc
 50
90.0
 51
180.0
  0
LINE
  5
26DA
330
18
100
AcDbEntity
  8
0
  6
CONTINUOUS
 62
     7
100
AcDbLine
 10
-130.7078508064983
 20
-42.18211643107344
 30
0.0
 11
-130.7078508064983
 21
-33.18211643107344
 31
0.0
  0
LINE
  5
26DB
330
18
100
AcDbEntity
  8
0
  6
CONTINUOUS
 62
     7
100
AcDbLine
 10
-131.7078508064983
 20
-42.18211643107344
 30
0.0
 11
-131.7078508064983
 21
-32.18211643107343
 31
0.0
  0
LINE
  5
26DC
330
18
100
AcDbEntity
  8
DEFAULT_1
  6
CENTER
100
AcDbLine
 10
-148.2078508064983
 20
-111.7202305058734
 30
0.0
 11
-148.2078508064983
 21
-26.49005163267341
 31
0.0
  0
LINE
  5
26DD
330
18
100
AcDbEntity
  8
0
  6
CONTINUOUS
 62
     7
100
AcDbLine
 10
-164.7078508064983
 20
-42.18211643107344
 30
0.0
 11
-164.7078508064983
 21
-32.18211643107343
 31
0.0
  0
LINE
  5
26DE
330
18
100
AcDbEntity
  8
0
  6
CONTINUOUS
 62
     7
100
AcDbLine
 10
-165.7078508064983
 20
-42.18211643107344
 30
0.0
 11
-165.7078508064983
 21
-33.18211643107344
 31
0.0
  0
LINE
  5
26DF
330
18
100
AcDbEntity
  8
0
  6
CONTINUOUS
 62
     7
100
AcDbLine
 10
-58.01945018699837
 20
-42.18211643107344
 30
0.0
 11
-58.01945018699837
 21
-32.18211643107343
 31
0.0
  0
LINE
  5
26E0
330
18
100
AcDbEntity
  8
0
  6
CONTINUOUS
 62
     7
100
AcDbLine
 10
-59.01945018699837
 20
-42.18211643107344
 30
0.0
 11
-59.01945018699837
 21
-33.18211643107344
 31
0.0
  0
DIMENSION
  5
26E1
330
18
100
AcDbEntity
  8
0
  6
CONTINUOUS
100
AcDbDimension
  2
*D10
 10
-199.6748034593983
 20
-42.18211643107344
 30
0.0
 11
-203.2748034593983
 21
-37.18211643107347
 31
0.0
 70
    32
  3
STANDARD
100
AcDbAlignedDimension
 13
-165.2078508064983
 23
-32.18211643107343
 33
0.0
 14
-178.7078508064983
 24
-42.18211643107344
 34
0.0
 50
270.0
100
AcDbRotatedDimension
1001
ACAD
1000
DSTYLE
1002
{
1070
   140
1040
2.799999999999999
1002
}
  0
DIMENSION
  5
26E2
330
18
100
AcDbEntity
  8
1_ALL_DRAFT_DIMS
  6
CONTINUOUS
100
AcDbDimension
  2
*D11
 10
-113.2078508064983
 20
-13.56688486797341
 30
0.0
 11
-148.2078508064983
 21
-9.966884867973414
 31
0.0
 70
    32
  3
STANDARD
100
AcDbAlignedDimension
 13
-183.2078508064983
 23
-46.68211643107343
 33
0.0
 14
-113.2078508064983
 24
-46.68211643107343
 34
0.0
100
AcDbRotatedDimension
1001
ACAD
1000
DSTYLE
1002
{
1070
   140
1040
2.799999999999999
1002
}
  0
DIMENSION
  5
26E3
330
18
100
AcDbEntity
  8
1_ALL_DRAFT_DIMS
  6
CONTINUOUS
100
AcDbDimension
  2
*D12
 10
-99.96783382519836
 20
-32.18211643107344
 30
0.0
 11
-103.5678338251983
 21
-52.18211643107345
 31
0.0
 70
    32
  3
STANDARD
100
AcDbAlignedDimension
 13
-107.3412866099983
 23
-72.18211643107342
 33
0.0
 14
-131.2078508064983
 24
-32.18211643107343
 34
0.0
 50
90.0
100
AcDbRotatedDimension
1001
ACAD
1000
DSTYLE
1002
{
1070
   140
1040
2.799999999999999
1002
}
  0
ARC
  5
26E4
330
18
100
AcDbEntity
  8
0
  6
CONTINUOUS
 62
     7
100
AcDbCircle
 10
-148.2078508064983
 20
-72.18211643107342
 30
0.0
 40
16.0
100
AcDbArc
 50
352.1677568427001
 51
339.7597558209997
  0
CIRCLE
  5
26E5
330
18
100
AcDbEntity
  8
0
  6
CONTINUOUS
 62
     7
100
AcDbCircle
 10
-148.2078508064983
 20
-72.18211643107342
 30
0.0
 40
15.5
  0
CIRCLE
  5
26E6
330
18
100
AcDbEntity
  8
0
  6
CONTINUOUS
 62
     7
100
AcDbCircle
 10
-148.2078508064983
 20
-72.18211643107342
 30
0.0
 40
12.25
  0
CIRCLE
  5
26E7
330
18
100
AcDbEntity
  8
0
  6
CONTINUOUS
 62
     7
100
AcDbCircle
 10
-148.2078508064983
 20
-72.18211643107342
 30
0.0
 40
12.75
  0
ARC
  5
26E8
330
18
100
AcDbEntity
  8
0
  6
CONTINUOUS
 62
     7
100
AcDbCircle
 10
-148.2078508064983
 20
-72.18211643107342
 30
0.0
 40
14.5
100
AcDbArc
 50
63.95457212209994
 51
176.0454278779001
  0
ARC
  5
26E9
330
18
100
AcDbEntity
  8
0
  6
CONTINUOUS
 62
     7
100
AcDbCircle
 10
-148.2078508064983
 20
-72.18211643107342
 30
0.0
 40
14.5
100
AcDbArc
 50
183.9545721220998
 51
296.0454278779
  0
LINE
  5
26EA
330
18
100
AcDbEntity
  8
0
  6
CONTINUOUS
 62
     7
100
AcDbLine
 10
-178.2078508064983
 20
-42.18211643107344
 30
0.0
 11
-118.2078508064983
 21
-42.18211643107344
 31
0.0
  0
LINE
  5
26EB
330
18
100
AcDbEntity
  8
0
  6
CONTINUOUS
 62
     7
100
AcDbLine
 10
-158.3078508064983
 20
-42.98211643107342
 30
0.0
 11
-138.1078508064983
 21
-42.98211643107342
 31
0.0
  0
LINE
  5
26EC
330
18
100
AcDbEntity
  8
0
  6
CONTINUOUS
 62
     7
100
AcDbLine
 10
-153.3078508064983
 20
-42.99999326197343
 30
0.0
 11
-158.3078508064983
 21
-42.99999326197343
 31
0.0
  0
LINE
  5
26ED
330
18
100
AcDbEntity
  8
0
  6
CONTINUOUS
 62
     7
100
AcDbLine
 10
-138.1078508064983
 20
-43.61713769447343
 30
0.0
 11
-158.3078508064983
 21
-43.61713769447343
 31
0.0
  0
LINE
  5
26EE
330
18
100
AcDbEntity
  8
0
  6
CONTINUOUS
 62
     7
100
AcDbLine
 10
-118.7285718947983
 20
-44.20763414777343
 30
0.0
 11
-177.6871297181983
 21
-44.20763414777343
 31
0.0
  0
LINE
  5
26EF
330
18
100
AcDbEntity
  8
0
  6
CONTINUOUS
 62
     7
100
AcDbLine
 10
-118.7285718947983
 20
-44.70694891517342
 30
0.0
 11
-177.6871297181983
 21
-44.70694891517342
 31
0.0
  0
LINE
  5
26F0
330
18
100
AcDbEntity
  8
0
  6
CONTINUOUS
 62
     7
100
AcDbLine
 10
-176.6817820724983
 20
-45.71229656087342
 30
0.0
 11
-119.7339195404983
 21
-45.71229656087342
 31
0.0
  0
LINE
  5
26F1
330
18
100
AcDbEntity
  8
0
  6
CONTINUOUS
 62
     7
100
AcDbLine
 10
-179.6776706766983
 20
-48.70818516517343
 30
0.0
 11
-116.7380309361983
 21
-48.70818516517343
 31
0.0
  0
LINE
  5
26F2
330
18
100
AcDbEntity
  8
DEFAULT_1
  6
CENTER
100
AcDbLine
 10
-107.8412866099983
 20
-72.18211643107342
 30
0.0
 11
-192.6298583387984
 21
-72.18211643107342
 31
0.0
  0
LINE
  5
26F3
330
18
100
AcDbEntity
  8
0
  6
CONTINUOUS
 62
     7
100
AcDbLine
 10
-179.6776706766983
 20
-95.65604769707343
 30
0.0
 11
-116.7380309361983
 21
-95.65604769707343
 31
0.0
  0
LINE
  5
26F4
330
18
100
AcDbEntity
  8
0
  6
CONTINUOUS
 62
     7
100
AcDbLine
 10
-119.7339195404983
 20
-98.65193630137344
 30
0.0
 11
-176.6817820724983
 21
-98.65193630137344
 31
0.0
  0
LINE
  5
26F5
330
18
100
AcDbEntity
  8
0
  6
CONTINUOUS
 62
     7
100
AcDbLine
 10
-177.6871297181983
 20
-99.65728394707342
 30
0.0
 11
-118.7285718947983
 21
-99.65728394707342
 31
0.0
  0
LINE
  5
26F6
330
18
100
AcDbEntity
  8
0
  6
CONTINUOUS
 62
     7
100
AcDbLine
 10
-177.6871297181983
 20
-100.1565987144734
 30
0.0
 11
-118.7285718947983
 21
-100.1565987144734
 31
0.0
  0
LINE
  5
26F7
330
18
100
AcDbEntity
  8
0
  6
CONTINUOUS
 62
     7
100
AcDbLine
 10
-138.1078508064983
 20
-100.7470951677734
 30
0.0
 11
-158.3078508064983
 21
-100.7470951677734
 31
0.0
  0
LINE
  5
26F8
330
18
100
AcDbEntity
  8
0
  6
CONTINUOUS
 62
     7
100
AcDbLine
 10
-153.3078508064983
 20
-101.3642396002734
 30
0.0
 11
-158.3078508064983
 21
-101.3642396002734
 31
0.0
  0
LINE
  5
26F9
330
18
100
AcDbEntity
  8
0
  6
CONTINUOUS
 62
     7
100
AcDbLine
 10
-138.1078508064983
 20
-101.3821164310734
 30
0.0
 11
-158.3078508064983
 21
-101.3821164310734
 31
0.0
  0
LINE
  5
26FA
330
18
100
AcDbEntity
  8
0
  6
CONTINUOUS
 62
     7
100
AcDbLine
 10
-118.2078508064983
 20
-102.1821164310734
 30
0.0
 11
-178.2078508064983
 21
-102.1821164310734
 31
0.0
  0
LINE
  5
26FB
330
18
100
AcDbEntity
  8
0
  6
CONTINUOUS
 62
     7
100
AcDbLine
 10
-176.6817820724983
 20
-98.65193630137344
 30
0.0
 11
-176.6817820724983
 21
-45.71229656087342
 31
0.0
  0
LINE
  5
26FC
330
18
100
AcDbEntity
  8
0
  6
CONTINUOUS
 62
     7
100
AcDbLine
 10
-179.6776706766983
 20
-95.65604769707343
 30
0.0
 11
-179.6776706766983
 21
-48.70818516517343
 31
0.0
  0
LINE
  5
26FD
330
18
100
AcDbEntity
  8
0
  6
CONTINUOUS
 62
     7
100
AcDbLine
 10
-180.6830183224983
 20
-47.70283751937341
 30
0.0
 11
-180.6830183224983
 21
-96.66139534287344
 31
0.0
  0
LINE
  5
26FE
330
18
100
AcDbEntity
  8
0
  6
CONTINUOUS
 62
     7
100
AcDbLine
 10
-181.1823330898983
 20
-47.70283751937341
 30
0.0
 11
-181.1823330898983
 21
-96.66139534287344
 31
0.0
  0
LINE
  5
26FF
330
18
100
AcDbEntity
  8
0
  6
CONTINUOUS
 62
     7
100
AcDbLine
 10
-182.2078508064983
 20
-97.18211643107343
 30
0.0
 11
-182.2078508064983
 21
-47.18211643107344
 31
0.0
  0
LINE
  5
2700
330
18
100
AcDbEntity
  8
0
  6
CONTINUOUS
 62
     7
100
AcDbLine
 10
-183.2078508064983
 20
-97.18211643107343
 30
0.0
 11
-183.2078508064983
 21
-47.18211643107344
 31
0.0
  0
DIMENSION
  5
2701
330
18
100
AcDbEntity
  8
1_ALL_DRAFT_DIMS
  6
CONTINUOUS
100
AcDbDimension
  2
*D13
 10
-199.6748034593983
 20
-102.1821164310734
 30
0.0
 11
-203.2748034593983
 21
-72.18211643107345
 31
0.0
 70
    32
  3
STANDARD
100
AcDbAlignedDimension
 13
-178.7078508064983
 23
-42.18211643107344
 33
0.0
 14
-178.7078508064983
 24
-102.1821164310734
 34
0.0
 50
270.0
100
AcDbRotatedDimension
1001
ACAD
1000
DSTYLE
1002
{
1070
   140
1040
2.799999999999999
1002
}
  0
LINE
  5
2702
330
18
100
AcDbEntity
  8
0
  6
CONTINUOUS
 62
     7
100
AcDbLine
 10
-158.3078508064983
 20
-101.1821164310734
 30
0.0
 11
-178.2078508064983
 21
-101.1821164310734
 31
0.0
  0
ARC
  5
2703
330
18
100
AcDbEntity
  8
0
  6
CONTINUOUS
 62
     7
100
AcDbCircle
 10
-178.2078508064983
 20
-97.18211643107343
 30
0.0
 40
3.999998828399999
100
AcDbArc
 50
180.0
 51
270.0
  0
ARC
  5
2704
330
18
100
AcDbEntity
  8
0
  6
CONTINUOUS
 62
     7
100
AcDbCircle
 10
-178.2078508064983
 20
-97.18211643107343
 30
0.0
 40
5.0
100
AcDbArc
 50
180.0
 51
270.0
  0
LINE
  5
2705
330
18
100
AcDbEntity
  8
0
  6
CONTINUOUS
 62
     7
100
AcDbLine
 10
-177.6871297181983
 20
-100.1565987144734
 30
0.0
 11
-177.6871297181983
 21
-99.65728394707342
 31
0.0
  0
LWPOLYLINE
  5
2706
330
18
100
AcDbEntity
  8
0
  6
CONTINUOUS
 62
     7
100
AcDbPolyline
 90
       14
 70
     0
 43
0.0
 10
-181.1823330898983
 20
-96.66139534287344
 10
-181.1686420698984
 20
-96.97084250897344
 10
-181.1167692905983
 20
-97.33595520267343
 10
-181.0121526980983
 20
-97.73978178737342
 10
-180.8442608267983
 20
-98.16227885157342
 10
-180.6086151141983
 20
-98.58136918097343
 10
-180.3078513225983
 20
-98.97524391317341
 10
-179.9512995897984
 20
-99.32514367737342
 10
-179.5541154262983
 20
-99.61699876647344
 10
-179.1361315798983
 20
-99.84264243687341
 10
-178.7196414894983
 20
-100.0009236066734
 10
-178.3266400984983
 20
-100.0977283309734
 10
-177.9768149769983
 20
-100.1446032113734
 10
-177.6871297181983
 20
-100.1565987144734
  0
LINE
  5
2707
330
18
100
AcDbEntity
  8
0
  6
CONTINUOUS
 62
     7
100
AcDbLine
 10
-178.2078508064983
 20
-102.1821164310734
 30
0.0
 11
-178.2078508064983
 21
-101.1821164310734
 31
0.0
  0
LWPOLYLINE
  5
2708
330
18
100
AcDbEntity
  8
0
  6
CONTINUOUS
 62
     7
100
AcDbPolyline
 90
       14
 70
     0
 43
0.0
 10
-180.6830183224983
 20
-96.66139534287344
 10
-180.6714015634983
 20
-96.92671692777343
 10
-180.6270769660983
 20
-97.23973317897344
 10
-180.5375552715983
 20
-97.58592370367344
 10
-180.3937906437983
 20
-97.94812429897344
 10
-180.1919154625983
 20
-98.30741906087343
 10
-179.9341628347983
 20
-98.64510404097343
 10
-179.6285187874983
 20
-98.94507662847344
 10
-179.2879815130983
 20
-99.19525426447343
 10
-178.9295771060983
 20
-99.38862371407342
 10
-178.5724481058983
 20
-99.52420294027342
 10
-178.2354706574983
 20
-99.60705832287343
 10
-177.9355254687983
 20
-99.64711195037343
 10
-177.6871297181983
 20
-99.65728394707342
  0
LWPOLYLINE
  5
2709
330
18
100
AcDbEntity
  8
0
  6
CONTINUOUS
 62
     7
100
AcDbPolyline
 90
        7
 70
     0
 43
0.0
 10
-176.6817820724983
 20
-98.65193630137344
 10
-177.4558568737983
 20
-98.54808731387343
 10
-178.1773625197983
 20
-98.24783343157342
 10
-178.7972999443983
 20
-97.77156556897343
 10
-179.2735678069983
 20
-97.15162814447344
 10
-179.5738216891983
 20
-96.43012249847343
 10
-179.6776706766983
 20
-95.65604769707343
  0
LINE
  5
270A
330
18
100
AcDbEntity
  8
0
  6
CONTINUOUS
 62
     7
100
AcDbLine
 10
-183.2078508064983
 20
-97.18211643107343
 30
0.0
 11
-182.2078508064983
 21
-97.18211643107343
 31
0.0
  0
LINE
  5
270B
330
18
100
AcDbEntity
  8
0
  6
CONTINUOUS
 62
     7
100
AcDbLine
 10
-179.6776706766983
 20
-95.65604769707343
 30
0.0
 11
-180.6830183224983
 21
-96.66139534287344
 31
0.0
  0
LINE
  5
270C
330
18
100
AcDbEntity
  8
0
  6
CONTINUOUS
 62
     7
100
AcDbLine
 10
-181.1823330898983
 20
-96.66139534287344
 30
0.0
 11
-180.6830183224983
 21
-96.66139534287344
 31
0.0
  0
LINE
  5
270D
330
18
100
AcDbEntity
  8
0
  6
CONTINUOUS
 62
     7
100
AcDbLine
 10
-176.6817820724983
 20
-98.65193630137344
 30
0.0
 11
-177.6871297181983
 21
-99.65728394707342
 31
0.0
  0
LWPOLYLINE
  5
270E
330
18
100
AcDbEntity
  8
0
  6
CONTINUOUS
 62
     7
100
AcDbPolyline
 90
        4
 70
     0
 43
0.0
 10
-163.2078508064983
 20
-103.5563252601734
 10
-162.8493193374983
 20
-103.6041650901734
 10
-162.5158482276983
 20
-103.6368710823734
 10
-162.2078508064983
 20
-103.6570851027734
  0
LINE
  5
270F
330
18
100
AcDbEntity
  8
0
  6
CONTINUOUS
 62
     7
100
AcDbLine
 10
-159.1602155029983
 20
-103.3521502655734
 30
0.0
 11
-164.2554861099983
 21
-103.3521502655734
 31
0.0
  0
LINE
  5
2710
330
18
100
AcDbEntity
  8
0
  6
CONTINUOUS
 62
     7
100
AcDbLine
 10
-163.2078508064983
 20
-103.5689763977734
 30
0.0
 11
-163.2078508064983
 21
-103.5563252601734
 31
0.0
  0
LINE
  5
2711
330
18
100
AcDbEntity
  8
0
  6
CONTINUOUS
 62
     7
100
AcDbLine
 10
-164.2554861099983
 20
-103.3521502655734
 30
0.0
 11
-164.3578508064983
 21
-102.1821164310734
 31
0.0
  0
LINE
  5
2712
330
18
100
AcDbEntity
  8
0
  6
CONTINUOUS
 62
     7
100
AcDbLine
 10
-163.2078508064983
 20
-103.5689763977734
 30
0.0
 11
-164.2554861099983
 21
-103.3521502655734
 31
0.0
  0
LINE
  5
2713
330
18
100
AcDbEntity
  8
0
  6
CONTINUOUS
 62
     7
100
AcDbLine
 10
-159.1602155029983
 20
-103.3521502655734
 30
0.0
 11
-159.0578508064983
 21
-102.1821164310734
 31
0.0
  0
LINE
  5
2714
330
18
100
AcDbEntity
  8
0
  6
CONTINUOUS
 62
     7
100
AcDbLine
 10
-158.3078508064983
 20
-102.1821164310734
 30
0.0
 11
-158.3078508064983
 21
-100.7470951677734
 31
0.0
  0
LINE
  5
2715
330
18
100
AcDbEntity
  8
0
  6
CONTINUOUS
 62
     7
100
AcDbLine
 10
-160.2078508064983
 20
-103.5563252601734
 30
0.0
 11
-160.2078508064983
 21
-103.5689763977734
 31
0.0
  0
LINE
  5
2716
330
18
100
AcDbEntity
  8
0
  6
CONTINUOUS
 62
     7
100
AcDbLine
 10
-161.2078508064984
 20
-103.5563252601734
 30
0.0
 11
-161.2078508064984
 21
-103.6570851027734
 31
0.0
  0
LINE
  5
2717
330
18
100
AcDbEntity
  8
0
  6
CONTINUOUS
 62
     7
100
AcDbLine
 10
-162.2078508064983
 20
-103.6570851027734
 30
0.0
 11
-162.2078508064983
 21
-103.5563252601734
 31
0.0
  0
LWPOLYLINE
  5
2718
330
18
100
AcDbEntity
  8
0
  6
CONTINUOUS
 62
     7
100
AcDbPolyline
 90
        3
 70
     0
 43
0.0
 10
-162.2078508064983
 20
-103.5563252601734
 10
-161.7078508064983
 20
-103.5689763977734
 10
-161.2078508064984
 20
-103.5563252601734
  0
LWPOLYLINE
  5
2719
330
18
100
AcDbEntity
  8
0
  6
CONTINUOUS
 62
     7
100
AcDbPolyline
 90
        4
 70
     0
 43
0.0
 10
-161.2078508064984
 20
-103.6570851027734
 10
-160.8998533851983
 20
-103.6368710823734
 10
-160.5663822754983
 20
-103.6041650901734
 10
-160.2078508064983
 20
-103.5563252601734
  0
LINE
  5
271A
330
18
100
AcDbEntity
  8
0
  6
CONTINUOUS
 62
     7
100
AcDbLine
 10
-160.2078508064983
 20
-103.5689763977734
 30
0.0
 11
-159.1602155029983
 21
-103.3521502655734
 31
0.0
  0
LINE
  5
271B
330
18
100
AcDbEntity
  8
0
  6
CONTINUOUS
 62
     7
100
AcDbLine
 10
-154.2078508064983
 20
-101.3821164310734
 30
0.0
 11
-154.2078508064983
 21
-101.3642396002734
 31
0.0
  0
LINE
  5
271C
330
18
100
AcDbEntity
  8
0
  6
CONTINUOUS
 62
     7
100
AcDbLine
 10
-162.2078508064983
 20
-71.18211643107343
 30
0.0
 11
-162.6733269479983
 21
-71.18211643107343
 31
0.0
  0
LINE
  5
271D
330
18
100
AcDbEntity
  8
0
  6
CONTINUOUS
 62
     7
100
AcDbLine
 10
-162.6733269479983
 20
-73.18211643107343
 30
0.0
 11
-162.2078508064983
 21
-73.18211643107343
 31
0.0
  0
LINE
  5
271E
330
18
100
AcDbEntity
  8
0
  6
CONTINUOUS
 62
     7
100
AcDbLine
 10
-162.2078508064983
 20
-73.18211643107343
 30
0.0
 11
-162.2078508064983
 21
-71.18211643107343
 31
0.0
  0
LINE
  5
271F
330
18
100
AcDbEntity
  8
0
  6
CONTINUOUS
 62
     7
100
AcDbLine
 10
-173.2078508064983
 20
-42.08211643107341
 30
0.0
 11
-165.7078508064983
 21
-42.08211643107341
 31
0.0
  0
LINE
  5
2720
330
18
100
AcDbEntity
  8
0
  6
CONTINUOUS
 62
     7
100
AcDbLine
 10
-178.2078508064983
 20
-43.18211643107344
 30
0.0
 11
-158.3078508064983
 21
-43.18211643107344
 31
0.0
  0
ARC
  5
2721
330
18
100
AcDbEntity
  8
0
  6
CONTINUOUS
 62
     7
100
AcDbCircle
 10
-178.2078508064983
 20
-47.18211643107344
 30
0.0
 40
3.999998828399999
100
AcDbArc
 50
90.0
 51
180.0
  0
LWPOLYLINE
  5
2722
330
18
100
AcDbEntity
  8
0
  6
CONTINUOUS
 62
     7
100
AcDbPolyline
 90
       14
 70
     0
 43
0.0
 10
-177.6871297181983
 20
-44.70694891517342
 10
-177.9524513030983
 20
-44.71856567407343
 10
-178.2654675543983
 20
-44.76289027157341
 10
-178.6116580790984
 20
-44.85241196597343
 10
-178.9738586743983
 20
-44.99617659377344
 10
-179.3331534361984
 20
-45.19805177507342
 10
-179.6708384163983
 20
-45.45580440277342
 10
-179.9708110037983
 20
-45.76144845017341
 10
-180.2209886398983
 20
-46.10198572447342
 10
-180.4143580894983
 20
-46.46039013157341
 10
-180.5499373155983
 20
-46.81751913167341
 10
-180.6327926982983
 20
-47.15449658007341
 10
-180.6728463257983
 20
-47.45444176877342
 10
-180.6830183224983
 20
-47.70283751937341
  0
LWPOLYLINE
  5
2723
330
18
100
AcDbEntity
  8
0
  6
CONTINUOUS
 62
     7
100
AcDbPolyline
 90
       14
 70
     0
 43
0.0
 10
-177.6871297181983
 20
-44.20763414777343
 10
-177.9965768842983
 20
-44.22132516777341
 10
-178.3616895780983
 20
-44.27319794707344
 10
-178.7655161627983
 20
-44.37781453947343
 10
-179.1880132268983
 20
-44.54570641087343
 10
-179.6071035563983
 20
-44.78135212337341
 10
-180.0009782885983
 20
-45.08211591497342
 10
-180.3508780526983
 20
-45.43866764777343
 10
-180.6427331417983
 20
-45.83585181137343
 10
-180.8683768121984
 20
-46.25383565767342
 10
-181.0266579819983
 20
-46.67032574807342
 10
-181.1234627063983
 20
-47.06332713917342
 10
-181.1703375866983
 20
-47.41315226057344
 10
-181.1823330898983
 20
-47.70283751937341
  0
LWPOLYLINE
  5
2724
330
18
100
AcDbEntity
  8
0
  6
CONTINUOUS
 62
     7
100
AcDbPolyline
 90
        7
 70
     0
 43
0.0
 10
-179.6776706766983
 20
-48.70818516517343
 10
-179.5738216891983
 20
-47.93411036377344
 10
-179.2735678069983
 20
-47.21260471777341
 10
-178.7972999443983
 20
-46.5926672931734
 10
-178.1773625197983
 20
-46.11639943067342
 10
-177.4558568737983
 20
-45.81614554837341
 10
-176.6817820724983
 20
-45.71229656087342
  0
LINE
  5
2725
330
18
100
AcDbEntity
  8
0
  6
CONTINUOUS
 62
     7
100
AcDbLine
 10
-181.1823330898983
 20
-47.70283751937341
 30
0.0
 11
-180.6830183224983
 21
-47.70283751937341
 31
0.0
  0
LINE
  5
2726
330
18
100
AcDbEntity
  8
0
  6
CONTINUOUS
 62
     7
100
AcDbLine
 10
-179.6776706766983
 20
-48.70818516517343
 30
0.0
 11
-180.6830183224983
 21
-47.70283751937341
 31
0.0
  0
LINE
  5
2727
330
18
100
AcDbEntity
  8
0
  6
CONTINUOUS
 62
     7
100
AcDbLine
 10
-183.2078508064983
 20
-47.18211643107344
 30
0.0
 11
-182.2078508064983
 21
-47.18211643107344
 31
0.0
  0
LINE
  5
2728
330
18
100
AcDbEntity
  8
0
  6
CONTINUOUS
 62
     7
100
AcDbLine
 10
-176.6817820724983
 20
-45.71229656087342
 30
0.0
 11
-177.6871297181983
 21
-44.70694891517342
 31
0.0
  0
LINE
  5
2729
330
18
100
AcDbEntity
  8
0
  6
CONTINUOUS
 62
     7
100
AcDbLine
 10
-177.6871297181983
 20
-44.20763414777343
 30
0.0
 11
-177.6871297181983
 21
-44.70694891517342
 31
0.0
  0
LINE
  5
272A
330
18
100
AcDbEntity
  8
0
  6
CONTINUOUS
 62
     7
100
AcDbLine
 10
-178.2078508064983
 20
-42.18211643107344
 30
0.0
 11
-178.2078508064983
 21
-43.18211643107344
 31
0.0
  0
LINE
  5
272B
330
18
100
AcDbEntity
  8
0
  6
CONTINUOUS
 62
     7
100
AcDbLine
 10
-173.2078508064983
 20
-42.18211643107344
 30
0.0
 11
-173.2078508064983
 21
-42.08211643107341
 31
0.0
  0
LINE
  5
272C
330
18
100
AcDbEntity
  8
0
  6
CONTINUOUS
 62
     7
100
AcDbLine
 10
-158.3078508064983
 20
-42.18211643107344
 30
0.0
 11
-158.3078508064983
 21
-43.61713769447343
 31
0.0
  0
ARC
  5
272D
330
18
100
AcDbEntity
  8
0
  6
CONTINUOUS
 62
     7
100
AcDbCircle
 10
-124.2078508064983
 20
-78.18211643107343
 30
0.0
 40
8.999990268200001
100
AcDbArc
 50
177.0404195737001
 51
270.0
  0
LINE
  5
272E
330
18
100
AcDbEntity
  8
0
  6
CONTINUOUS
 62
     7
100
AcDbLine
 10
-113.2078508064983
 20
-47.18211643107344
 30
0.0
 11
-113.2078508064983
 21
-97.18211643107343
 31
0.0
  0
LINE
  5
272F
330
18
100
AcDbEntity
  8
0
  6
CONTINUOUS
 62
     7
100
AcDbLine
 10
-114.2078508064983
 20
-47.18211643107344
 30
0.0
 11
-114.2078508064983
 21
-97.18211643107343
 31
0.0
  0
LINE
  5
2730
330
18
100
AcDbEntity
  8
0
  6
CONTINUOUS
 62
     7
100
AcDbLine
 10
-115.2333685230984
 20
-96.66139534287344
 30
0.0
 11
-115.2333685230984
 21
-47.70283751937341
 31
0.0
  0
LINE
  5
2731
330
18
100
AcDbEntity
  8
0
  6
CONTINUOUS
 62
     7
100
AcDbLine
 10
-115.7326832904983
 20
-96.66139534287344
 30
0.0
 11
-115.7326832904983
 21
-47.70283751937341
 31
0.0
  0
LINE
  5
2732
330
18
100
AcDbEntity
  8
0
  6
CONTINUOUS
 62
     7
100
AcDbLine
 10
-116.7380309361983
 20
-87.18211643107343
 30
0.0
 11
-116.7380309361983
 21
-95.65604769707343
 31
0.0
  0
LINE
  5
2733
330
18
100
AcDbEntity
  8
0
  6
CONTINUOUS
 62
     7
100
AcDbLine
 10
-119.7339195404983
 20
-98.65193630137344
 30
0.0
 11
-119.7339195404983
 21
-86.18211643107342
 31
0.0
  0
LINE
  5
2735
330
18
100
AcDbEntity
  8
0
  6
CONTINUOUS
 62
     7
100
AcDbLine
 10
-118.2078508064983
 20
-101.1821164310734
 30
0.0
 11
-138.1078508064983
 21
-101.1821164310734
 31
0.0
  0
LINE
  5
2736
330
18
100
AcDbEntity
  8
0
  6
CONTINUOUS
 62
     7
100
AcDbLine
 10
-143.1078508064983
 20
-101.0300219777734
 30
0.0
 11
-153.3078508064983
 21
-101.0300219777734
 31
0.0
  0
LINE
  5
2737
330
18
100
AcDbEntity
  8
0
  6
CONTINUOUS
 62
     7
100
AcDbLine
 10
-153.3078508064983
 20
-101.1821164310734
 30
0.0
 11
-143.1078508064983
 21
-101.1821164310734
 31
0.0
  0
LINE
  5
2738
330
18
100
AcDbEntity
  8
0
  6
CONTINUOUS
 62
     7
100
AcDbLine
 10
-152.1318035797983
 20
-101.0300219777734
 30
0.0
 11
-152.2078508064983
 21
-101.1821164310734
 31
0.0
  0
LINE
  5
2739
330
18
100
AcDbEntity
  8
0
  6
CONTINUOUS
 62
     7
100
AcDbLine
 10
-152.2078508064983
 20
-101.3821164310734
 30
0.0
 11
-152.2078508064983
 21
-101.1821164310734
 31
0.0
  0
LINE
  5
273A
330
18
100
AcDbEntity
  8
0
  6
CONTINUOUS
 62
     7
100
AcDbLine
 10
-153.3078508064983
 20
-101.0300219777734
 30
0.0
 11
-153.3078508064983
 21
-101.3642396002734
 31
0.0
  0
LINE
  5
273B
330
18
100
AcDbEntity
  8
0
  6
CONTINUOUS
 62
     7
100
AcDbLine
 10
-138.1078508064983
 20
-101.3642396002734
 30
0.0
 11
-143.1078508064983
 21
-101.3642396002734
 31
0.0
  0
LINE
  5
273C
330
18
100
AcDbEntity
  8
0
  6
CONTINUOUS
 62
     7
100
AcDbLine
 10
-143.1078508064983
 20
-101.0300219777734
 30
0.0
 11
-143.1078508064983
 21
-101.3642396002734
 31
0.0
  0
LINE
  5
273D
330
18
100
AcDbEntity
  8
0
  6
CONTINUOUS
 62
     7
100
AcDbLine
 10
-144.2078508064983
 20
-101.3821164310734
 30
0.0
 11
-144.2078508064983
 21
-101.1821164310734
 31
0.0
  0
LINE
  5
273E
330
18
100
AcDbEntity
  8
0
  6
CONTINUOUS
 62
     7
100
AcDbLine
 10
-144.2838980330984
 20
-101.0300219777734
 30
0.0
 11
-144.2078508064983
 21
-101.1821164310734
 31
0.0
  0
LINE
  5
273F
330
18
100
AcDbEntity
  8
0
  6
CONTINUOUS
 62
     7
100
AcDbLine
 10
-138.1078508064983
 20
-102.1821164310734
 30
0.0
 11
-138.1078508064983
 21
-100.7470951677734
 31
0.0
  0
LINE
  5
2740
330
18
100
AcDbEntity
  8
0
  6
CONTINUOUS
 62
     7
100
AcDbLine
 10
-132.1602155029983
 20
-103.3521502655734
 30
0.0
 11
-137.2554861099983
 21
-103.3521502655734
 31
0.0
  0
LWPOLYLINE
  5
2741
330
18
100
AcDbEntity
  8
0
  6
CONTINUOUS
 62
     7
100
AcDbPolyline
 90
        4
 70
     0
 43
0.0
 10
-134.2078508064983
 20
-103.6570851027734
 10
-133.8998533851983
 20
-103.6368710823734
 10
-133.5663822754983
 20
-103.6041650901734
 10
-133.2078508064983
 20
-103.5563252601734
  0
LINE
  5
2742
330
18
100
AcDbEntity
  8
0
  6
CONTINUOUS
 62
     7
100
AcDbLine
 10
-134.2078508064983
 20
-103.5563252601734
 30
0.0
 11
-134.2078508064983
 21
-103.6570851027734
 31
0.0
  0
LINE
  5
2743
330
18
100
AcDbEntity
  8
0
  6
CONTINUOUS
 62
     7
100
AcDbLine
 10
-135.2078508064983
 20
-103.6570851027734
 30
0.0
 11
-135.2078508064983
 21
-103.5563252601734
 31
0.0
  0
LINE
  5
2744
330
18
100
AcDbEntity
  8
0
  6
CONTINUOUS
 62
     7
100
AcDbLine
 10
-136.2078508064983
 20
-103.5689763977734
 30
0.0
 11
-136.2078508064983
 21
-103.5563252601734
 31
0.0
  0
LINE
  5
2745
330
18
100
AcDbEntity
  8
0
  6
CONTINUOUS
 62
     7
100
AcDbLine
 10
-137.2554861099983
 20
-103.3521502655734
 30
0.0
 11
-137.3578508064983
 21
-102.1821164310734
 31
0.0
  0
LINE
  5
2746
330
18
100
AcDbEntity
  8
0
  6
CONTINUOUS
 62
     7
100
AcDbLine
 10
-136.2078508064983
 20
-103.5689763977734
 30
0.0
 11
-137.2554861099983
 21
-103.3521502655734
 31
0.0
  0
LWPOLYLINE
  5
2747
330
18
100
AcDbEntity
  8
0
  6
CONTINUOUS
 62
     7
100
AcDbPolyline
 90
        4
 70
     0
 43
0.0
 10
-136.2078508064983
 20
-103.5563252601734
 10
-135.8493193374983
 20
-103.6041650901734
 10
-135.5158482276983
 20
-103.6368710823734
 10
-135.2078508064983
 20
-103.6570851027734
  0
LWPOLYLINE
  5
2748
330
18
100
AcDbEntity
  8
0
  6
CONTINUOUS
 62
     7
100
AcDbPolyline
 90
        3
 70
     0
 43
0.0
 10
-135.2078508064983
 20
-103.5563252601734
 10
-134.7078508064983
 20
-103.5689763977734
 10
-134.2078508064983
 20
-103.5563252601734
  0
LINE
  5
2749
330
18
100
AcDbEntity
  8
0
  6
CONTINUOUS
 62
     7
100
AcDbLine
 10
-132.1602155029983
 20
-103.3521502655734
 30
0.0
 11
-132.0578508064983
 21
-102.1821164310734
 31
0.0
  0
LINE
  5
274A
330
18
100
AcDbEntity
  8
0
  6
CONTINUOUS
 62
     7
100
AcDbLine
 10
-133.2078508064983
 20
-103.5563252601734
 30
0.0
 11
-133.2078508064983
 21
-103.5689763977734
 31
0.0
  0
LINE
  5
274B
330
18
100
AcDbEntity
  8
0
  6
CONTINUOUS
 62
     7
100
AcDbLine
 10
-133.2078508064983
 20
-103.5689763977734
 30
0.0
 11
-132.1602155029983
 21
-103.3521502655734
 31
0.0
  0
ARC
  5
274C
330
18
100
AcDbEntity
  8
0
  6
CONTINUOUS
 62
     7
100
AcDbCircle
 10
-118.2078508064983
 20
-97.18211643107343
 30
0.0
 40
3.999998828399999
100
AcDbArc
 50
270.0
 51
0.0
  0
ARC
  5
274D
330
18
100
AcDbEntity
  8
0
  6
CONTINUOUS
 62
     7
100
AcDbCircle
 10
-118.2078508064983
 20
-97.18211643107343
 30
0.0
 40
5.0
100
AcDbArc
 50
270.0
 51
0.0
  0
LINE
  5
274E
330
18
100
AcDbEntity
  8
0
  6
CONTINUOUS
 62
     7
100
AcDbLine
 10
-118.7285718947983
 20
-100.1565987144734
 30
0.0
 11
-118.7285718947983
 21
-99.65728394707342
 31
0.0
  0
LWPOLYLINE
  5
274F
330
18
100
AcDbEntity
  8
0
  6
CONTINUOUS
 62
     7
100
AcDbPolyline
 90
       14
 70
     0
 43
0.0
 10
-118.7285718947983
 20
-100.1565987144734
 10
-118.4191247286983
 20
-100.1429076944734
 10
-118.0540120348984
 20
-100.0910349151734
 10
-117.6501854501983
 20
-99.98641832277343
 10
-117.2276883859983
 20
-99.81852645137344
 10
-116.8085980565983
 20
-99.58288073887343
 10
-116.4147233243983
 20
-99.28211694727345
 10
-116.0648235601983
 20
-98.92556521447342
 10
-115.7729684710983
 20
-98.52838105087343
 10
-115.5473248007983
 20
-98.11039720457344
 10
-115.3890436308983
 20
-97.69390711417344
 10
-115.2922389065983
 20
-97.30090572307343
 10
-115.2453640262983
 20
-96.95108060167342
 10
-115.2333685230984
 20
-96.66139534287344
  0
LINE
  5
2750
330
18
100
AcDbEntity
  8
0
  6
CONTINUOUS
 62
     7
100
AcDbLine
 10
-118.2078508064983
 20
-102.1821164310734
 30
0.0
 11
-118.2078508064983
 21
-101.1821164310734
 31
0.0
  0
LWPOLYLINE
  5
2751
330
18
100
AcDbEntity
  8
0
  6
CONTINUOUS
 62
     7
100
AcDbPolyline
 90
        7
 70
     0
 43
0.0
 10
-116.7380309361983
 20
-95.65604769707343
 10
-116.8418799237983
 20
-96.43012249847343
 10
-117.1421338059983
 20
-97.15162814447344
 10
-117.6184016685983
 20
-97.77156556897343
 10
-118.2383390930983
 20
-98.24783343157342
 10
-118.9598447391983
 20
-98.54808731387343
 10
-119.7339195404983
 20
-98.65193630137344
  0
LWPOLYLINE
  5
2752
330
18
100
AcDbEntity
  8
0
  6
CONTINUOUS
 62
     7
100
AcDbPolyline
 90
       14
 70
     0
 43
0.0
 10
-118.7285718947983
 20
-99.65728394707342
 10
-118.4632503098983
 20
-99.64566718817343
 10
-118.1502340585983
 20
-99.60134259067341
 10
-117.8040435338983
 20
-99.51182089627344
 10
-117.4418429385983
 20
-99.36805626847343
 10
-117.0825481767983
 20
-99.16618108717344
 10
-116.7448631965983
 20
-98.90842845947343
 10
-116.4448906090983
 20
-98.60278441207343
 10
-116.1947129730983
 20
-98.26224713777342
 10
-116.0013435234983
 20
-97.90384273067342
 10
-115.8657642972983
 20
-97.54671373057343
 10
-115.7829089146984
 20
-97.20973628207344
 10
-115.7428552871983
 20
-96.90979109347344
 10
-115.7326832904983
 20
-96.66139534287344
  0
LINE
  5
2753
330
18
100
AcDbEntity
  8
0
  6
CONTINUOUS
 62
     7
100
AcDbLine
 10
-119.7339195404983
 20
-98.65193630137344
 30
0.0
 11
-118.7285718947983
 21
-99.65728394707342
 31
0.0
  0
LINE
  5
2754
330
18
100
AcDbEntity
  8
0
  6
CONTINUOUS
 62
     7
100
AcDbLine
 10
-116.7380309361983
 20
-95.65604769707343
 30
0.0
 11
-115.7326832904983
 21
-96.66139534287344
 31
0.0
  0
LINE
  5
2755
330
18
100
AcDbEntity
  8
0
  6
CONTINUOUS
 62
     7
100
AcDbLine
 10
-115.2333685230984
 20
-96.66139534287344
 30
0.0
 11
-115.7326832904983
 21
-96.66139534287344
 31
0.0
  0
LINE
  5
2756
330
18
100
AcDbEntity
  8
0
  6
CONTINUOUS
 62
     7
100
AcDbLine
 10
-113.2078508064983
 20
-97.18211643107343
 30
0.0
 11
-114.2078508064983
 21
-97.18211643107343
 31
0.0
  0
CIRCLE
  5
2757
330
18
100
AcDbEntity
  8
0
  6
CONTINUOUS
 62
     7
100
AcDbCircle
 10
-124.2078508064983
 20
-78.18211643107343
 30
0.0
 40
7.2
  0
ARC
  5
2758
330
18
100
AcDbEntity
  8
0
  6
CONTINUOUS
 62
     7
100
AcDbCircle
 10
-124.2078508064983
 20
-78.18211643107343
 30
0.0
 40
6.75
100
AcDbArc
 50
188.5196242540997
 51
171.4803757459002
  0
ARC
  5
2759
330
18
100
AcDbEntity
  8
0
  6
CONTINUOUS
 62
     7
100
AcDbCircle
 10
-124.2078508064983
 20
-78.18211643107343
 30
0.0
 40
5.75
100
AcDbArc
 50
190.0154101682997
 51
169.9845898317002
  0
CIRCLE
  5
275A
330
18
100
AcDbEntity
  8
0
  6
CONTINUOUS
 62
     7
100
AcDbCircle
 10
-124.2078508064983
 20
-78.18211643107343
 30
0.0
 40
7.5
  0
LINE
  5
275B
330
18
100
AcDbEntity
  8
0
  6
CONTINUOUS
 62
     7
100
AcDbLine
 10
-138.1078508064983
 20
-43.18211643107344
 30
0.0
 11
-118.2078508064983
 21
-43.18211643107344
 31
0.0
  0
LINE
  5
275C
330
18
100
AcDbEntity
  8
0
  6
CONTINUOUS
 62
     7
100
AcDbLine
 10
-124.2078508064983
 20
-69.18211643107342
 30
0.0
 11
-116.6250587669984
 21
-69.18211643107342
 31
0.0
  0
LINE
  5
275D
330
18
100
AcDbEntity
  8
0
  6
CONTINUOUS
 62
     7
100
AcDbLine
 10
-124.2078508064983
 20
-70.18211643107342
 30
0.0
 11
-117.6788378331983
 21
-70.18211643107342
 31
0.0
  0
LINE
  5
275F
330
18
100
AcDbEntity
  8
0
  6
CONTINUOUS
 62
     7
100
AcDbLine
 10
-117.6787670691983
 20
-86.18211643107342
 30
0.0
 11
-124.2078508064983
 21
-86.18211643107342
 31
0.0
  0
LINE
  5
2760
330
18
100
AcDbEntity
  8
0
  6
CONTINUOUS
 62
     7
100
AcDbLine
 10
-116.6250587669984
 20
-87.18211643107343
 30
0.0
 11
-124.2078508064983
 21
-87.18211643107343
 31
0.0
  0
ARC
  5
2761
330
18
100
AcDbEntity
  8
0
  6
CONTINUOUS
 62
     7
100
AcDbCircle
 10
-148.2078508064983
 20
-72.18211643107342
 30
0.0
 40
14.5
100
AcDbArc
 50
303.9545721221005
 51
56.04542787789946
  0
LINE
  5
2762
330
18
100
AcDbEntity
  8
0
  6
CONTINUOUS
 62
     7
100
AcDbLine
 10
-140.3418254026983
 20
-83.80647208407342
 30
0.0
 11
-142.0738762102983
 21
-84.80647208407342
 31
0.0
  0
LINE
  5
2763
330
18
100
AcDbEntity
  8
0
  6
CONTINUOUS
 62
     7
100
AcDbLine
 10
-142.0738762102983
 20
-84.80647208407342
 30
0.0
 11
-141.8411381394983
 21
-85.20958624747342
 31
0.0
  0
LINE
  5
2764
330
18
100
AcDbEntity
  8
0
  6
CONTINUOUS
 62
     7
100
AcDbLine
 10
-140.1090873319983
 20
-84.20958624747342
 30
0.0
 11
-140.3418254026983
 21
-83.80647208407342
 31
0.0
  0
ARC
  5
2765
330
18
100
AcDbEntity
  8
0
  6
CONTINUOUS
 62
     7
100
AcDbCircle
 10
-124.2078508064983
 20
-78.18211643107343
 30
0.0
 40
8.0
100
AcDbArc
 50
90.0
 51
270.0
  0
LWPOLYLINE
  5
2766
330
18
100
AcDbEntity
  8
0
  6
CONTINUOUS
 62
     7
100
AcDbPolyline
 90
        7
 70
     0
 43
0.0
 10
-133.1958466607984
 20
-77.71743318187343
 10
-133.0667461439983
 20
-77.21259384517343
 10
-132.9349257208983
 20
-76.69557340767342
 10
-132.8056506161983
 20
-76.18353428697343
 10
-132.6815938097983
 20
-75.68595257437343
 10
-132.5646727221984
 20
-75.21153288687343
 10
-132.3571098540983
 20
-74.36248595487342
  0
LINE
  5
2767
330
18
100
AcDbEntity
  8
0
  6
CONTINUOUS
 62
     7
100
AcDbLine
 10
-133.1958466606983
 20
-77.71743318197343
 30
0.0
 11
-132.1971804547983
 21
-77.76906465447343
 31
0.0
  0
LINE
  5
2768
330
18
100
AcDbEntity
  8
0
  6
CONTINUOUS
 62
     7
100
AcDbLine
 10
-130.8833657678984
 20
-77.18211643107342
 30
0.0
 11
-129.8702266328983
 21
-77.18211643107342
 31
0.0
  0
LINE
  5
2769
330
18
100
AcDbEntity
  8
0
  6
CONTINUOUS
 62
     7
100
AcDbLine
 10
-129.8702266328983
 20
-79.18211643107342
 30
0.0
 11
-130.8833657678984
 21
-79.18211643107342
 31
0.0
  0
LINE
  5
276A
330
18
100
AcDbEntity
  8
0
  6
CONTINUOUS
 62
     7
100
AcDbLine
 10
-124.2078508064983
 20
-87.18211643107343
 30
0.0
 11
-124.2078508064983
 21
-86.18211643107342
 31
0.0
  0
ARC
  5
276B
330
18
100
AcDbEntity
  8
0
  6
CONTINUOUS
 62
     7
100
AcDbCircle
 10
-124.2078508064983
 20
-78.18211643107343
 30
0.0
 40
8.9999977258
100
AcDbArc
 50
90.0
 51
154.8870942597004
  0
LINE
  5
276C
330
18
100
AcDbEntity
  8
0
  6
CONTINUOUS
 62
     7
100
AcDbLine
 10
-132.3571098539983
 20
-74.36248595497342
 30
0.0
 11
-131.4516366268984
 21
-74.78688934177341
 31
0.0
  0
LINE
  5
276D
330
18
100
AcDbEntity
  8
0
  6
CONTINUOUS
 62
     7
100
AcDbLine
 10
-124.2078508064983
 20
-69.18211643107342
 30
0.0
 11
-124.2078508064983
 21
-70.18211643107342
 31
0.0
  0
LINE
  5
276E
330
18
100
AcDbEntity
  8
0
  6
CONTINUOUS
 62
     7
100
AcDbLine
 10
-141.8411381394983
 20
-59.15464661477344
 30
0.0
 11
-142.0738762102983
 21
-59.55776077817342
 31
0.0
  0
LINE
  5
276F
330
18
100
AcDbEntity
  8
0
  6
CONTINUOUS
 62
     7
100
AcDbLine
 10
-142.0738762102983
 20
-59.55776077817342
 30
0.0
 11
-140.3418254026983
 21
-60.55776077817341
 31
0.0
  0
LINE
  5
2770
330
18
100
AcDbEntity
  8
0
  6
CONTINUOUS
 62
     7
100
AcDbLine
 10
-140.3418254026983
 20
-60.55776077817341
 30
0.0
 11
-140.1090873319983
 21
-60.15464661477344
 31
0.0
  0
LINE
  5
2771
330
18
100
AcDbEntity
  8
0
  6
CONTINUOUS
 62
     7
100
AcDbLine
 10
-143.1078508064983
 20
-43.33421088437342
 30
0.0
 11
-153.3078508064983
 21
-43.33421088437342
 31
0.0
  0
LINE
  5
2772
330
18
100
AcDbEntity
  8
0
  6
CONTINUOUS
 62
     7
100
AcDbLine
 10
-152.2078508064983
 20
-43.18211643107344
 30
0.0
 11
-153.3078508064983
 21
-43.18211643107344
 31
0.0
  0
LINE
  5
2773
330
18
100
AcDbEntity
  8
0
  6
CONTINUOUS
 62
     7
100
AcDbLine
 10
-152.2078508064983
 20
-43.33421088437342
 30
0.0
 11
-152.2078508064983
 21
-42.98211643107342
 31
0.0
  0
LINE
  5
2774
330
18
100
AcDbEntity
  8
0
  6
CONTINUOUS
 62
     7
100
AcDbLine
 10
-153.3078508064983
 20
-43.33421088437342
 30
0.0
 11
-153.3078508064983
 21
-42.99999326197343
 31
0.0
  0
LINE
  5
2775
330
18
100
AcDbEntity
  8
0
  6
CONTINUOUS
 62
     7
100
AcDbLine
 10
-138.1078508064983
 20
-42.99999326197343
 30
0.0
 11
-143.1078508064983
 21
-42.99999326197343
 31
0.0
  0
LINE
  5
2776
330
18
100
AcDbEntity
  8
0
  6
CONTINUOUS
 62
     7
100
AcDbLine
 10
-143.1078508064983
 20
-43.18211643107344
 30
0.0
 11
-143.4078508064983
 21
-43.18211643107344
 31
0.0
  0
LINE
  5
2777
330
18
100
AcDbEntity
  8
0
  6
CONTINUOUS
 62
     7
100
AcDbLine
 10
-142.2078508064983
 20
-42.98211643107342
 30
0.0
 11
-142.2078508064983
 21
-42.99999326197343
 31
0.0
  0
LINE
  5
2778
330
18
100
AcDbEntity
  8
0
  6
CONTINUOUS
 62
     7
100
AcDbLine
 10
-143.1078508064983
 20
-43.33421088437342
 30
0.0
 11
-143.1078508064983
 21
-42.99999326197343
 31
0.0
  0
LINE
  5
2779
330
18
100
AcDbEntity
  8
0
  6
CONTINUOUS
 62
     7
100
AcDbLine
 10
-143.4078508064983
 20
-42.98211643107342
 30
0.0
 11
-143.4078508064983
 21
-43.33421088437342
 31
0.0
  0
LINE
  5
277A
330
18
100
AcDbEntity
  8
0
  6
CONTINUOUS
 62
     7
100
AcDbLine
 10
-138.1078508064983
 20
-43.61713769447343
 30
0.0
 11
-138.1078508064983
 21
-42.18211643107344
 31
0.0
  0
LINE
  5
277B
330
18
100
AcDbEntity
  8
0
  6
CONTINUOUS
 62
     7
100
AcDbLine
 10
-129.5828506872984
 20
-41.98211643107342
 30
0.0
 11
-129.2078506872983
 21
-41.98211643107342
 31
0.0
  0
LINE
  5
277C
330
18
100
AcDbEntity
  8
0
  6
CONTINUOUS
 62
     7
100
AcDbLine
 10
-130.7078508064983
 20
-42.08211643107341
 30
0.0
 11
-123.2078508064983
 21
-42.08211643107341
 31
0.0
  0
LINE
  5
277D
330
18
100
AcDbEntity
  8
0
  6
CONTINUOUS
 62
     7
100
AcDbLine
 10
-129.5828506872984
 20
-42.08211643107341
 30
0.0
 11
-129.5828506872984
 21
-41.98211643107342
 31
0.0
  0
LINE
  5
277E
330
18
100
AcDbEntity
  8
0
  6
CONTINUOUS
 62
     7
100
AcDbLine
 10
-130.7078508064983
 20
-41.98211643107342
 30
0.0
 11
-130.0828509256983
 21
-41.98211643107342
 31
0.0
  0
LINE
  5
277F
330
18
100
AcDbEntity
  8
0
  6
CONTINUOUS
 62
     7
100
AcDbLine
 10
-130.0828509256983
 20
-42.08211643107341
 30
0.0
 11
-130.0828509256983
 21
-41.98211643107342
 31
0.0
  0
LINE
  5
2780
330
18
100
AcDbEntity
  8
0
  6
CONTINUOUS
 62
     7
100
AcDbLine
 10
-125.7078508064983
 20
-42.08211643107341
 30
0.0
 11
-125.7078508064983
 21
-41.98211643107342
 31
0.0
  0
LINE
  5
2781
330
18
100
AcDbEntity
  8
0
  6
CONTINUOUS
 62
     7
100
AcDbLine
 10
-126.2703508064983
 20
-42.08211643107341
 30
0.0
 11
-126.2703508064983
 21
-41.98211643107342
 31
0.0
  0
LINE
  5
2782
330
18
100
AcDbEntity
  8
0
  6
CONTINUOUS
 62
     7
100
AcDbLine
 10
-127.2078508064983
 20
-42.08211643107341
 30
0.0
 11
-127.2078508064983
 21
-41.98211643107342
 31
0.0
  0
LINE
  5
2783
330
18
100
AcDbEntity
  8
0
  6
CONTINUOUS
 62
     7
100
AcDbLine
 10
-128.1453508064983
 20
-42.08211643107341
 30
0.0
 11
-128.1453508064983
 21
-41.98211643107342
 31
0.0
  0
LINE
  5
2784
330
18
100
AcDbEntity
  8
0
  6
CONTINUOUS
 62
     7
100
AcDbLine
 10
-128.7078508064983
 20
-42.08211643107341
 30
0.0
 11
-128.7078508064983
 21
-41.98211643107342
 31
0.0
  0
LINE
  5
2785
330
18
100
AcDbEntity
  8
0
  6
CONTINUOUS
 62
     7
100
AcDbLine
 10
-129.2078506872983
 20
-42.08211643107341
 30
0.0
 11
-129.2078506872983
 21
-41.98211643107342
 31
0.0
  0
LINE
  5
2786
330
18
100
AcDbEntity
  8
0
  6
CONTINUOUS
 62
     7
100
AcDbLine
 10
-128.7078508064983
 20
-41.98211643107342
 30
0.0
 11
-125.7078508064983
 21
-41.98211643107342
 31
0.0
  0
LINE
  5
2787
330
18
100
AcDbEntity
  8
0
  6
CONTINUOUS
 62
     7
100
AcDbLine
 10
-123.2078508064983
 20
-42.18211643107344
 30
0.0
 11
-123.2078508064983
 21
-42.08211643107341
 31
0.0
  0
LINE
  5
2788
330
18
100
AcDbEntity
  8
0
  6
CONTINUOUS
 62
     7
100
AcDbLine
 10
-116.7380309361983
 20
-48.70818516517343
 30
0.0
 11
-116.7380309361983
 21
-69.18211643107342
 31
0.0
  0
LINE
  5
2789
330
18
100
AcDbEntity
  8
0
  6
CONTINUOUS
 62
     7
100
AcDbLine
 10
-119.7339195404983
 20
-45.71229656087342
 30
0.0
 11
-119.7339195404983
 21
-70.18211643107342
 31
0.0
  0
LINE
  5
278A
330
18
100
AcDbEntity
  8
0
  6
CONTINUOUS
 62
     7
100
AcDbLine
 10
-116.6250587669984
 20
-69.18211643107342
 30
0.0
 11
-116.6250587669984
 21
-87.18211643107343
 31
0.0
  0
LINE
  5
278B
330
18
100
AcDbEntity
  8
0
  6
CONTINUOUS
 62
     7
100
AcDbLine
 10
-117.6773947231983
 20
-81.68215350077343
 30
0.0
 11
-117.6773947231983
 21
-86.18211737017343
 31
0.0
  0
LWPOLYLINE
  5
278C
330
18
100
AcDbEntity
  8
0
  6
CONTINUOUS
 62
     7
100
AcDbPolyline
 90
        6
 70
     0
 43
0.0
 10
-116.7380309361983
 20
-87.18211643107343
 10
-116.7869085235983
 20
-86.87309580567342
 10
-116.9287559615983
 20
-86.59432600507342
 10
-117.1496862538983
 20
-86.37309543927342
 10
-117.4280713636983
 20
-86.23105848677342
 10
-117.7366604709983
 20
-86.18211643107342
  0
LWPOLYLINE
  5
278D
330
18
100
AcDbEntity
  8
0
  6
CONTINUOUS
 62
     7
100
AcDbPolyline
 90
        7
 70
     0
 43
0.0
 10
-117.6773947231983
 20
-86.18211737017343
 10
-117.3776248488983
 20
-86.22383950707343
 10
-117.1199930525983
 20
-86.33432193927342
 10
-116.9087339068983
 20
-86.49952729087342
 10
-116.7522169775983
 20
-86.70590602317341
 10
-116.6550076677983
 20
-86.94540316657342
 10
-116.6250587669984
 20
-87.18211643107343
  0
LINE
  5
278E
330
18
100
AcDbEntity
  8
0
  6
CONTINUOUS
 62
     7
100
AcDbLine
 10
-117.6773947231983
 20
-70.18211549207343
 30
0.0
 11
-117.6773947231983
 21
-74.68207936147344
 31
0.0
  0
LWPOLYLINE
  5
278F
330
18
100
AcDbEntity
  8
0
  6
CONTINUOUS
 62
     7
100
AcDbPolyline
 90
        5
 70
     0
 43
0.0
 10
-116.7380309361983
 20
-69.18211643107342
 10
-116.7869073443984
 20
-69.49113342567341
 10
-116.9287522062983
 20
-69.76990168367342
 10
-117.1496807580983
 20
-69.99113342567341
 10
-117.4280669737983
 20
-70.13317294747342
  0
LWPOLYLINE
  5
2790
330
18
100
AcDbEntity
  8
0
  6
CONTINUOUS
 62
     7
100
AcDbPolyline
 90
        7
 70
     0
 43
0.0
 10
-116.6250587669984
 20
-69.18211643107342
 10
-116.6550076677983
 20
-69.41882969567342
 10
-116.7522169775983
 20
-69.65832683907343
 10
-116.9087339068983
 20
-69.86470557137343
 10
-117.1199930525983
 20
-70.02991092287342
 10
-117.3776248488983
 20
-70.14039335517343
 10
-117.6773947231983
 20
-70.18211549207343
  0
LINE
  5
2791
330
18
100
AcDbEntity
  8
0
  6
CONTINUOUS
 62
     7
100
AcDbLine
 10
-117.4280669737983
 20
-70.13317294747342
 30
0.0
 11
-117.7366604709983
 21
-70.18211643107342
 31
0.0
  0
LWPOLYLINE
  5
2792
330
18
100
AcDbEntity
  8
0
  6
CONTINUOUS
 62
     7
100
AcDbPolyline
 90
       14
 70
     0
 43
0.0
 10
-115.7326832904983
 20
-47.70283751937341
 10
-115.7443000493983
 20
-47.43751593447342
 10
-115.7886246468983
 20
-47.12449968327343
 10
-115.8781463413984
 20
-46.77830915857342
 10
-116.0219109691983
 20
-46.41610856327341
 10
-116.2237861503983
 20
-46.05681380137343
 10
-116.4815387781983
 20
-45.71912882127344
 10
-116.7871828254984
 20
-45.41915623377343
 10
-117.1277200998983
 20
-45.16897859767342
 10
-117.4861245068983
 20
-44.97560914817341
 10
-117.8432535070983
 20
-44.84002992197344
 10
-118.1802309554983
 20
-44.75717453937344
 10
-118.4801761441983
 20
-44.71712091187342
 10
-118.7285718947983
 20
-44.70694891517342
  0
LWPOLYLINE
  5
2793
330
18
100
AcDbEntity
  8
0
  6
CONTINUOUS
 62
     7
100
AcDbPolyline
 90
       14
 70
     0
 43
0.0
 10
-115.2333685230984
 20
-47.70283751937341
 10
-115.2470595430983
 20
-47.39339035327342
 10
-115.2989323223983
 20
-47.02827765957343
 10
-115.4035489148983
 20
-46.6244510748734
 10
-115.5714407861983
 20
-46.2019540106734
 10
-115.8070864987983
 20
-45.78286368127343
 10
-116.1078502903984
 20
-45.38898894907342
 10
-116.4644020231983
 20
-45.0390891848734
 10
-116.8615861866983
 20
-44.74723409577342
 10
-117.2795700330983
 20
-44.52159042537343
 10
-117.6960601233983
 20
-44.36330925557342
 10
-118.0890615144983
 20
-44.26650453127343
 10
-118.4388866359983
 20
-44.21962965087343
 10
-118.7285718947983
 20
-44.20763414777343
  0
LWPOLYLINE
  5
2794
330
18
100
AcDbEntity
  8
0
  6
CONTINUOUS
 62
     7
100
AcDbPolyline
 90
        7
 70
     0
 43
0.0
 10
-119.7339195404983
 20
-45.71229656087342
 10
-118.9598447391983
 20
-45.81614554837341
 10
-118.2383390930983
 20
-46.11639943067342
 10
-117.6184016685983
 20
-46.5926672931734
 10
-117.1421338059983
 20
-47.21260471777341
 10
-116.8418799237983
 20
-47.93411036377344
 10
-116.7380309361983
 20
-48.70818516517343
  0
LINE
  5
2795
330
18
100
AcDbEntity
  8
0
  6
CONTINUOUS
 62
     7
100
AcDbLine
 10
-115.2333685230984
 20
-47.70283751937341
 30
0.0
 11
-115.7326832904983
 21
-47.70283751937341
 31
0.0
  0
LINE
  5
2796
330
18
100
AcDbEntity
  8
0
  6
CONTINUOUS
 62
     7
100
AcDbLine
 10
-116.7380309361983
 20
-48.70818516517343
 30
0.0
 11
-115.7326832904983
 21
-47.70283751937341
 31
0.0
  0
ARC
  5
2797
330
18
100
AcDbEntity
  8
0
  6
CONTINUOUS
 62
     7
100
AcDbCircle
 10
-118.2078508064983
 20
-47.18211643107344
 30
0.0
 40
3.999998828399999
100
AcDbArc
 50
0.0
 51
90.0
  0
LINE
  5
2798
330
18
100
AcDbEntity
  8
0
  6
CONTINUOUS
 62
     7
100
AcDbLine
 10
-118.2078508064983
 20
-42.18211643107344
 30
0.0
 11
-118.2078508064983
 21
-43.18211643107344
 31
0.0
  0
LINE
  5
2799
330
18
100
AcDbEntity
  8
0
  6
CONTINUOUS
 62
     7
100
AcDbLine
 10
-118.7285718947983
 20
-44.20763414777343
 30
0.0
 11
-118.7285718947983
 21
-44.70694891517342
 31
0.0
  0
LINE
  5
279A
330
18
100
AcDbEntity
  8
0
  6
CONTINUOUS
 62
     7
100
AcDbLine
 10
-119.7339195404983
 20
-45.71229656087342
 30
0.0
 11
-118.7285718947983
 21
-44.70694891517342
 31
0.0
  0
LINE
  5
279B
330
18
100
AcDbEntity
  8
0
  6
CONTINUOUS
 62
     7
100
AcDbLine
 10
-113.2078508064983
 20
-47.18211643107344
 30
0.0
 11
-114.2078508064983
 21
-47.18211643107344
 31
0.0
  0
LINE
  5
279C
330
18
100
AcDbEntity
  8
0
  6
CONTINUOUS
 62
     7
100
AcDbLine
 10
-53.01945018699837
 20
-102.1821164310734
 30
0.0
 11
-53.01945018699837
 21
-42.18211643107344
 31
0.0
  0
LINE
  5
279D
330
18
100
AcDbEntity
  8
0
  6
CONTINUOUS
 62
     7
100
AcDbLine
 10
-55.51945018699837
 20
-42.18211643107344
 30
0.0
 11
-55.51945018699837
 21
-102.1821164310734
 31
0.0
  0
LINE
  5
279E
330
18
100
AcDbEntity
  8
0
  6
CONTINUOUS
 62
     7
100
AcDbLine
 10
-56.51945018699837
 20
-43.18211643107344
 30
0.0
 11
-56.51945018699837
 21
-101.1821164310734
 31
0.0
  0
LINE
  5
279F
330
18
100
AcDbEntity
  8
0
  6
CONTINUOUS
 62
     7
100
AcDbLine
 10
-56.99328220889833
 20
-96.66139534287344
 30
0.0
 11
-56.99328220889833
 21
-47.70283751937341
 31
0.0
  0
LINE
  5
27A0
330
18
100
AcDbEntity
  8
0
  6
CONTINUOUS
 62
     7
100
AcDbLine
 10
-76.17645805569839
 20
-87.18211643107343
 30
0.0
 11
-76.17645805569839
 21
-95.65604769707343
 31
0.0
  0
LINE
  5
27A1
330
18
100
AcDbEntity
  8
0
  6
CONTINUOUS
 62
     7
100
AcDbLine
 10
-79.01945018699837
 20
-95.65604769707343
 30
0.0
 11
-79.01945018699837
 21
-85.38211643107343
 31
0.0
  0
ARC
  5
27A2
330
18
100
AcDbEntity
  8
0
  6
CONTINUOUS
 62
     7
100
AcDbCircle
 10
-55.51945018699837
 20
-101.1821164310734
 30
0.0
 40
1.0
100
AcDbArc
 50
180.0
 51
270.0
  0
LINE
  5
27A3
330
18
100
AcDbEntity
  8
0
  6
CONTINUOUS
 62
     7
100
AcDbLine
 10
-76.17645805569839
 20
-95.65604769707343
 30
0.0
 11
-56.99328220889833
 21
-96.66139534287344
 31
0.0
  0
LINE
  5
27A4
330
18
100
AcDbEntity
  8
0
  6
CONTINUOUS
 62
     7
100
AcDbLine
 10
-76.17645805569839
 20
-98.65193630137344
 30
0.0
 11
-56.99328220889833
 21
-99.65728394707342
 31
0.0
  0
ARC
  5
27A5
330
18
100
AcDbEntity
  8
0
  6
CONTINUOUS
 62
     7
100
AcDbCircle
 10
-76.01945018699836
 20
-95.65604769707343
 30
0.0
 40
3.0
100
AcDbArc
 50
180.0
 51
266.9999999999992
  0
LINE
  5
27A6
330
18
100
AcDbEntity
  8
0
  6
CONTINUOUS
 62
     7
100
AcDbLine
 10
-76.17645805569839
 20
-95.65604769707343
 30
0.0
 11
-79.01945018699837
 21
-95.65604769707343
 31
0.0
  0
LWPOLYLINE
  5
27A7
330
18
100
AcDbEntity
  8
0
  6
CONTINUOUS
 62
     7
100
AcDbPolyline
 90
        7
 70
     0
 43
0.0
 10
-76.17645805569839
 20
-95.65604769707343
 10
-76.21158310219835
 20
-96.43012249847343
 10
-76.23365997169838
 20
-97.15162814447344
 10
-76.24118937439835
 20
-97.77156556897343
 10
-76.23365997169838
 20
-98.24783343157342
 10
-76.21158310219835
 20
-98.54808731387343
 10
-76.17645805569839
 20
-98.65193630137344
  0
ARC
  5
27A8
330
18
100
AcDbEntity
  8
0
  6
CONTINUOUS
 62
     7
100
AcDbCircle
 10
-57.01945018699837
 20
-100.1565987116734
 30
0.0
 40
0.4999999996000001
100
AcDbArc
 50
359.9999996734001
 51
86.9999999829
  0
LINE
  5
27A9
330
18
100
AcDbEntity
  8
0
  6
CONTINUOUS
 62
     7
100
AcDbLine
 10
-56.51945018699837
 20
-96.66139534287344
 30
0.0
 11
-56.99328220889833
 21
-96.66139534287344
 31
0.0
  0
LWPOLYLINE
  5
27AA
330
18
100
AcDbEntity
  8
0
  6
CONTINUOUS
 62
     7
100
AcDbPolyline
 90
       13
 70
     0
 43
0.0
 10
-56.99328220889833
 20
-99.65728394707342
 10
-56.9910803024984
 20
-99.64566718817343
 10
-56.98874830609838
 20
-99.60134259067341
 10
-56.98652069199841
 20
-99.51182089627344
 10
-56.98462495479839
 20
-99.36805626847343
 10
-56.9832588195984
 20
-99.16618108717344
 10
-56.9825651955984
 20
-98.90842845947343
 10
-56.98261447889837
 20
-98.60278441207343
 10
-56.98339869489837
 20
-98.26224713777342
 10
-56.98483095119837
 20
-97.90384273067342
 10
-56.98675367059843
 20
-97.54671373057343
 10
-56.98895911409841
 20
-97.20973628207344
 10
-56.99328220889833
 20
-96.66139534287344
  0
LINE
  5
27AB
330
18
100
AcDbEntity
  8
0
  6
CONTINUOUS
 62
     7
100
AcDbLine
 10
-47.71945018699841
 20
-103.5689763977734
 30
0.0
 11
-46.67181488339838
 21
-103.3521502655734
 31
0.0
  0
LINE
  5
27AC
330
18
100
AcDbEntity
  8
0
  6
CONTINUOUS
 62
     7
100
AcDbLine
 10
-51.7670854904984
 20
-103.3521502655734
 30
0.0
 11
-46.67181488339838
 21
-103.3521502655734
 31
0.0
  0
LINE
  5
27AD
330
18
100
AcDbEntity
  8
0
  6
CONTINUOUS
 62
     7
100
AcDbLine
 10
-50.71945018699842
 20
-103.5689763977734
 30
0.0
 11
-51.7670854904984
 21
-103.3521502655734
 31
0.0
  0
LINE
  5
27AE
330
18
100
AcDbEntity
  8
0
  6
CONTINUOUS
 62
     7
100
AcDbLine
 10
-51.7670854904984
 20
-103.3521502655734
 30
0.0
 11
-51.86945018699839
 21
-102.1821164310734
 31
0.0
  0
LWPOLYLINE
  5
27AF
330
18
100
AcDbEntity
  8
0
  6
CONTINUOUS
 62
     7
100
AcDbPolyline
 90
        4
 70
     0
 43
0.0
 10
-48.71945018699841
 20
-103.6570851027734
 10
-48.38392409309836
 20
-103.6345983399734
 10
-48.05313004979836
 20
-103.6012745273734
 10
-47.71945018699841
 20
-103.5563252601734
  0
LINE
  5
27B0
330
18
100
AcDbEntity
  8
0
  6
CONTINUOUS
 62
     7
100
AcDbLine
 10
-47.71945018699841
 20
-103.5563252601734
 30
0.0
 11
-47.71945018699841
 21
-103.5689763977734
 31
0.0
  0
LINE
  5
27B1
330
18
100
AcDbEntity
  8
0
  6
CONTINUOUS
 62
     7
100
AcDbLine
 10
-48.71945018699841
 20
-103.5563252601734
 30
0.0
 11
-48.71945018699841
 21
-103.6570851027734
 31
0.0
  0
LWPOLYLINE
  5
27B2
330
18
100
AcDbEntity
  8
0
  6
CONTINUOUS
 62
     7
100
AcDbPolyline
 90
        3
 70
     0
 43
0.0
 10
-49.71945018699841
 20
-103.5563252601734
 10
-49.46778082169839
 20
-103.5658572156734
 10
-49.21945018699841
 20
-103.5689763977734
  0
LWPOLYLINE
  5
27B3
330
18
100
AcDbEntity
  8
0
  6
CONTINUOUS
 62
     7
100
AcDbPolyline
 90
        3
 70
     0
 43
0.0
 10
-49.21945018699841
 20
-103.5689763977734
 10
-48.96970925169842
 20
-103.5658216809734
 10
-48.71945018699841
 20
-103.5563252601734
  0
LINE
  5
27B4
330
18
100
AcDbEntity
  8
0
  6
CONTINUOUS
 62
     7
100
AcDbLine
 10
-49.71945018699841
 20
-103.6570851027734
 30
0.0
 11
-49.71945018699841
 21
-103.5563252601734
 31
0.0
  0
LINE
  5
27B5
330
18
100
AcDbEntity
  8
0
  6
CONTINUOUS
 62
     7
100
AcDbLine
 10
-50.71945018699842
 20
-103.5689763977734
 30
0.0
 11
-50.71945018699842
 21
-103.5563252601734
 31
0.0
  0
LWPOLYLINE
  5
27B6
330
18
100
AcDbEntity
  8
0
  6
CONTINUOUS
 62
     7
100
AcDbPolyline
 90
        4
 70
     0
 43
0.0
 10
-50.71945018699842
 20
-103.5563252601734
 10
-50.36975275919838
 20
-103.6031448048734
 10
-50.03733430499835
 20
-103.6360636667734
 10
-49.71945018699841
 20
-103.6570851027734
  0
LINE
  5
27B7
330
18
100
AcDbEntity
  8
0
  6
CONTINUOUS
 62
     7
100
AcDbLine
 10
-46.67181488339838
 20
-103.3521502655734
 30
0.0
 11
-46.56945018699838
 21
-102.1821164310734
 31
0.0
  0
ARC
  5
27B8
330
18
100
AcDbEntity
  8
0
  6
CONTINUOUS
 62
     7
100
AcDbCircle
 10
-55.51945018699837
 20
-43.18211643107344
 30
0.0
 40
1.0
100
AcDbArc
 50
90.0
 51
180.0
  0
LINE
  5
27B9
330
18
100
AcDbEntity
  8
0
  6
CONTINUOUS
 62
     7
100
AcDbLine
 10
-76.17645805569839
 20
-48.70818516517343
 30
0.0
 11
-76.17645805569839
 21
-69.18211643107342
 31
0.0
  0
LINE
  5
27BA
330
18
100
AcDbEntity
  8
0
  6
CONTINUOUS
 62
     7
100
AcDbLine
 10
-79.01957225729836
 20
-85.37963636707344
 30
0.0
 11
-79.01945018699837
 21
-48.70818516517343
 31
0.0
  0
LINE
  5
27BB
330
18
100
AcDbEntity
  8
0
  6
CONTINUOUS
 62
     7
100
AcDbLine
 10
-79.51945018699837
 20
-87.68184559307343
 30
0.0
 11
-79.51945018699837
 21
-56.68238726917343
 31
0.0
  0
LINE
  5
27BC
330
18
100
AcDbEntity
  8
0
  6
CONTINUOUS
 62
     7
100
AcDbLine
 10
-74.02082065219838
 20
-69.18211643107342
 30
0.0
 11
-74.02082065219838
 21
-87.18211643107343
 31
0.0
  0
LINE
  5
27BD
330
18
100
AcDbEntity
  8
0
  6
CONTINUOUS
 62
     7
100
AcDbLine
 10
-75.01945018699837
 20
-70.18211549207343
 30
0.0
 11
-75.01945018699837
 21
-86.18211737017343
 31
0.0
  0
LINE
  5
27BE
330
18
100
AcDbEntity
  8
0
  6
CONTINUOUS
 62
     7
100
AcDbLine
 10
-75.31957225729837
 20
-70.68211643107343
 30
0.0
 11
-75.31957225729837
 21
-85.68211643107343
 31
0.0
  0
LINE
  5
27BF
330
18
100
AcDbEntity
  8
0
  6
CONTINUOUS
 62
     7
100
AcDbLine
 10
-78.71957225729841
 20
-70.68211643107343
 30
0.0
 11
-78.71957225729841
 21
-85.68211643107343
 31
0.0
  0
LINE
  5
27C0
330
18
100
AcDbEntity
  8
0
  6
CONTINUOUS
 62
     7
100
AcDbLine
 10
-78.71957225729841
 20
-85.68211643107343
 30
0.0
 11
-75.31957225729837
 21
-85.68211643107343
 31
0.0
  0
LINE
  5
27C1
330
18
100
AcDbEntity
  8
0
  6
CONTINUOUS
 62
     7
100
AcDbLine
 10
-75.01945018699837
 20
-86.18211643107342
 30
0.0
 11
-78.01945018699837
 21
-86.18211643107342
 31
0.0
  0
LINE
  5
27C2
330
18
100
AcDbEntity
  8
0
  6
CONTINUOUS
 62
     7
100
AcDbLine
 10
-74.02082065219838
 20
-87.18211643107343
 30
0.0
 11
-79.01945018699837
 21
-87.18211643107343
 31
0.0
  0
ARC
  5
27C3
330
18
100
AcDbEntity
  8
0
  6
CONTINUOUS
 62
     7
100
AcDbCircle
 10
-79.51945018699837
 20
-88.18211643107343
 30
0.0
 40
0.5
100
AcDbArc
 50
0.0
 51
90.0
  0
ARC
  5
27C4
330
18
100
AcDbEntity
  8
0
  6
CONTINUOUS
 62
     7
100
AcDbCircle
 10
-78.01945018699837
 20
-87.18211643107343
 30
0.0
 40
1.0
100
AcDbArc
 50
90.0
 51
180.0
  0
LINE
  5
27C5
330
18
100
AcDbEntity
  8
0
  6
CONTINUOUS
 62
     7
100
AcDbLine
 10
-79.01957225729836
 20
-85.38211643107343
 30
0.0
 11
-78.71957225729841
 21
-85.68211643107343
 31
0.0
  0
LINE
  5
27C6
330
18
100
AcDbEntity
  8
0
  6
CONTINUOUS
 62
     7
100
AcDbLine
 10
-78.01945018699837
 20
-86.18211643107342
 30
0.0
 11
-78.01945018699837
 21
-85.68211643107343
 31
0.0
  0
LWPOLYLINE
  5
27C7
330
18
100
AcDbEntity
  8
0
  6
CONTINUOUS
 62
     7
100
AcDbPolyline
 90
        7
 70
     0
 43
0.0
 10
-75.01945018699837
 20
-86.18211737017343
 10
-74.73497919809836
 20
-86.22383950707343
 10
-74.49049575209835
 20
-86.33432193927342
 10
-74.29001830849836
 20
-86.49952729087342
 10
-74.14148928839836
 20
-86.70590602317341
 10
-74.0492410978984
 20
-86.94540316657342
 10
-74.02082065219838
 20
-87.18211643107343
  0
LWPOLYLINE
  5
27C8
330
18
100
AcDbEntity
  8
0
  6
CONTINUOUS
 62
     7
100
AcDbPolyline
 90
        6
 70
     0
 43
0.0
 10
-76.17645805569839
 20
-87.18211643107343
 10
-76.17389650579838
 20
-86.87309580567342
 10
-76.16646260769835
 20
-86.59432600507342
 10
-76.15488414219839
 20
-86.37309543927342
 10
-76.14029458719835
 20
-86.23105848677342
 10
-76.12412209949837
 20
-86.18211643107342
  0
LINE
  5
27C9
330
18
100
AcDbEntity
  8
0
  6
CONTINUOUS
 62
     7
100
AcDbLine
 10
-75.01957225729836
 20
-81.68211643107342
 30
0.0
 11
-75.31957225729837
 21
-81.68211643107342
 31
0.0
  0
LINE
  5
27CA
330
18
100
AcDbEntity
  8
0
  6
CONTINUOUS
 62
     7
100
AcDbLine
 10
-79.01957225729836
 20
-70.98211643107342
 30
0.0
 11
-78.71957225729841
 21
-70.68211643107343
 31
0.0
  0
LINE
  5
27CB
330
18
100
AcDbEntity
  8
0
  6
CONTINUOUS
 62
     7
100
AcDbLine
 10
-75.01957225729836
 20
-74.68211643107342
 30
0.0
 11
-75.31957225729837
 21
-74.68211643107342
 31
0.0
  0
LINE
  5
27CC
330
18
100
AcDbEntity
  8
0
  6
CONTINUOUS
 62
     7
100
AcDbLine
 10
-79.01945018699837
 20
-69.18211643107342
 30
0.0
 11
-74.02082065219838
 21
-69.18211643107342
 31
0.0
  0
LINE
  5
27CD
330
18
100
AcDbEntity
  8
0
  6
CONTINUOUS
 62
     7
100
AcDbLine
 10
-78.01945018699837
 20
-70.18211643107342
 30
0.0
 11
-75.01945018699837
 21
-70.18211643107342
 31
0.0
  0
LINE
  5
27CE
330
18
100
AcDbEntity
  8
0
  6
CONTINUOUS
 62
     7
100
AcDbLine
 10
-78.71957225729841
 20
-70.68211643107343
 30
0.0
 11
-75.31957225729837
 21
-70.68211643107343
 31
0.0
  0
ARC
  5
27CF
330
18
100
AcDbEntity
  8
0
  6
CONTINUOUS
 62
     7
100
AcDbCircle
 10
-78.01945018699837
 20
-69.18211643107342
 30
0.0
 40
1.0
100
AcDbArc
 50
180.0
 51
270.0
  0
LINE
  5
27D0
330
18
100
AcDbEntity
  8
0
  6
CONTINUOUS
 62
     7
100
AcDbLine
 10
-78.01945018699837
 20
-70.68211643107343
 30
0.0
 11
-78.01945018699837
 21
-70.18211643107342
 31
0.0
  0
LWPOLYLINE
  5
27D1
330
18
100
AcDbEntity
  8
0
  6
CONTINUOUS
 62
     7
100
AcDbPolyline
 90
        7
 70
     0
 43
0.0
 10
-74.02082065219838
 20
-69.18211643107342
 10
-74.0492410978984
 20
-69.41882969567342
 10
-74.14148928839836
 20
-69.65832683907343
 10
-74.29001830849836
 20
-69.86470557137343
 10
-74.49049575209835
 20
-70.02991092287342
 10
-74.73497919809836
 20
-70.14039335517343
 10
-75.01945018699837
 20
-70.18211549207343
  0
LWPOLYLINE
  5
27D2
330
18
100
AcDbEntity
  8
0
  6
CONTINUOUS
 62
     7
100
AcDbPolyline
 90
        6
 70
     0
 43
0.0
 10
-76.17645805569839
 20
-69.18211643107342
 10
-76.17389654729834
 20
-69.49113342567341
 10
-76.16646277439838
 20
-69.76990168367342
 10
-76.15488440109834
 20
-69.99113342567341
 10
-76.14029479899841
 20
-70.13317294747342
 10
-76.12412209949837
 20
-70.18211643107342
  0
LINE
  5
27D3
330
18
100
AcDbEntity
  8
0
  6
CONTINUOUS
 62
     7
100
AcDbLine
 10
-76.17645805569839
 20
-45.71229656087342
 30
0.0
 11
-56.99328220889833
 21
-44.70694891517342
 31
0.0
  0
LINE
  5
27D4
330
18
100
AcDbEntity
  8
0
  6
CONTINUOUS
 62
     7
100
AcDbLine
 10
-76.17645805569839
 20
-48.70818516517343
 30
0.0
 11
-56.99328220889833
 21
-47.70283751937341
 31
0.0
  0
ARC
  5
27D5
330
18
100
AcDbEntity
  8
0
  6
CONTINUOUS
 62
     7
100
AcDbCircle
 10
-79.51945018699837
 20
-56.18211643107343
 30
0.0
 40
0.5
100
AcDbArc
 50
270.0
 51
359.9999906062003
  0
ARC
  5
27D6
330
18
100
AcDbEntity
  8
0
  6
CONTINUOUS
 62
     7
100
AcDbCircle
 10
-76.01945018699836
 20
-48.70818516517343
 30
0.0
 40
3.0
100
AcDbArc
 50
93.00000000000071
 51
180.0
  0
LWPOLYLINE
  5
27D7
330
18
100
AcDbEntity
  8
0
  6
CONTINUOUS
 62
     7
100
AcDbPolyline
 90
        7
 70
     0
 43
0.0
 10
-76.17645805569839
 20
-45.71229656087342
 10
-76.21158310219835
 20
-45.81614554837341
 10
-76.23365997169838
 20
-46.11639943067342
 10
-76.24118937439835
 20
-46.5926672931734
 10
-76.23365997169838
 20
-47.21260471777341
 10
-76.21158310219835
 20
-47.93411036377344
 10
-76.17645805569839
 20
-48.70818516517343
  0
LINE
  5
27D8
330
18
100
AcDbEntity
  8
0
  6
CONTINUOUS
 62
     7
100
AcDbLine
 10
-76.17645805569839
 20
-48.70818516517343
 30
0.0
 11
-79.01945018699837
 21
-48.70818516517343
 31
0.0
  0
LINE
  5
27D9
330
18
100
AcDbEntity
  8
0
  6
CONTINUOUS
 62
     7
100
AcDbLine
 10
-56.99328220889833
 20
-47.70283751937341
 30
0.0
 11
-56.98874830609838
 21
-47.12449968327343
 31
0.0
  0
LINE
  5
27DA
330
18
100
AcDbEntity
  8
0
  6
CONTINUOUS
 62
     7
100
AcDbLine
 10
-56.51945018699837
 20
-47.70283751937341
 30
0.0
 11
-56.99328220889833
 21
-47.70283751937341
 31
0.0
  0
ARC
  5
27DB
330
18
100
AcDbEntity
  8
0
  6
CONTINUOUS
 62
     7
100
AcDbCircle
 10
-57.01945018699837
 20
-44.20763414777343
 30
0.0
 40
0.5
100
AcDbArc
 50
273.0000000000007
 51
0.0
  0
LWPOLYLINE
  5
27DC
330
18
100
AcDbEntity
  8
0
  6
CONTINUOUS
 62
     7
100
AcDbPolyline
 90
       12
 70
     0
 43
0.0
 10
-56.98874830609838
 20
-47.12449968327343
 10
-56.98652069199841
 20
-46.77830915857342
 10
-56.98462495479839
 20
-46.41610856327341
 10
-56.9832588195984
 20
-46.05681380137343
 10
-56.9825651955984
 20
-45.71912882127344
 10
-56.98261447889837
 20
-45.41915623377343
 10
-56.98339869489837
 20
-45.16897859767342
 10
-56.98483095119837
 20
-44.97560914817341
 10
-56.98675367059843
 20
-44.84002992197344
 10
-56.98895911409841
 20
-44.75717453937344
 10
-56.99121466259839
 20
-44.71712091187342
 10
-56.99328220889833
 20
-44.70694891517342
  0
CIRCLE
  5
27DD
330
18
100
AcDbEntity
  8
0
  6
CONTINUOUS
 62
     7
100
AcDbCircle
 10
-42.91945018699834
 20
-69.78211643107343
 30
0.0
 40
0.5
  0
CIRCLE
  5
27DE
330
18
100
AcDbEntity
  8
0
  6
CONTINUOUS
 62
     7
100
AcDbCircle
 10
-42.91945018699834
 20
-67.98211643107342
 30
0.0
 40
0.5
  0
CIRCLE
  5
27DF
330
18
100
AcDbEntity
  8
0
  6
CONTINUOUS
 62
     7
100
AcDbCircle
 10
-42.91945018699834
 20
-66.18211643107343
 30
0.0
 40
0.5
  0
ARC
  5
27E0
330
18
100
AcDbEntity
  8
0
  6
CONTINUOUS
 62
     7
100
AcDbCircle
 10
-42.91945018699834
 20
-68.38211643107342
 30
0.0
 40
1.5
100
AcDbArc
 50
250.3454345102998
 51
289.6545654897002
  0
CIRCLE
  5
27E1
330
18
100
AcDbEntity
  8
0
  6
CONTINUOUS
 62
     7
100
AcDbCircle
 10
-44.71945018699841
 20
-69.78211643107343
 30
0.0
 40
0.5
  0
CIRCLE
  5
27E2
330
18
100
AcDbEntity
  8
0
  6
CONTINUOUS
 62
     7
100
AcDbCircle
 10
-44.71945018699841
 20
-67.98211643107342
 30
0.0
 40
0.5
  0
CIRCLE
  5
27E3
330
18
100
AcDbEntity
  8
0
  6
CONTINUOUS
 62
     7
100
AcDbCircle
 10
-44.71945018699841
 20
-66.18211643107343
 30
0.0
 40
0.5
  0
ARC
  5
27E4
330
18
100
AcDbEntity
  8
0
  6
CONTINUOUS
 62
     7
100
AcDbCircle
 10
-42.91945018699834
 20
-68.38211643107342
 30
0.0
 40
1.5
100
AcDbArc
 50
157.2092402768996
 51
179.441679167
  0
CIRCLE
  5
27E5
330
18
100
AcDbEntity
  8
0
  6
CONTINUOUS
 62
     7
100
AcDbCircle
 10
-41.11945018699839
 20
-69.78211643107343
 30
0.0
 40
0.5
  0
CIRCLE
  5
27E6
330
18
100
AcDbEntity
  8
0
  6
CONTINUOUS
 62
     7
100
AcDbCircle
 10
-41.11945018699839
 20
-67.98211643107342
 30
0.0
 40
0.5
  0
CIRCLE
  5
27E7
330
18
100
AcDbEntity
  8
0
  6
CONTINUOUS
 62
     7
100
AcDbCircle
 10
-41.11945018699839
 20
-66.18211643107343
 30
0.0
 40
0.5
  0
ARC
  5
27E8
330
18
100
AcDbEntity
  8
0
  6
CONTINUOUS
 62
     7
100
AcDbCircle
 10
-42.91945018699834
 20
-68.38211643107342
 30
0.0
 40
1.5
100
AcDbArc
 50
0.5583208329999444
 51
22.79075972310039
  0
LINE
  5
27E9
330
18
100
AcDbEntity
  8
0
  6
CONTINUOUS
100
AcDbLine
 10
-39.21945018699841
 20
-51.98211643107342
 30
0.0
 11
-39.48611659929838
 21
-52.05020152937342
 31
0.0
  0
LINE
  5
27EA
330
18
100
AcDbEntity
  8
0
  6
CONTINUOUS
100
AcDbLine
 10
-38.81945018699838
 20
-54.77360579387343
 30
0.0
 11
-39.35278377459837
 21
-54.77360579387343
 31
0.0
  0
LINE
  5
27EB
330
18
100
AcDbEntity
  8
0
  6
CONTINUOUS
100
AcDbLine
 10
-39.35278377459837
 20
-55.18211643107344
 30
0.0
 11
-38.81945018699838
 21
-55.18211643107344
 31
0.0
  0
LINE
  5
27EC
330
18
100
AcDbEntity
  8
0
  6
CONTINUOUS
100
AcDbLine
 10
-39.21945018699841
 20
-53.34381858717344
 30
0.0
 11
-39.41945018699835
 21
-53.27573348887344
 31
0.0
  0
LINE
  5
27ED
330
18
100
AcDbEntity
  8
0
  6
CONTINUOUS
100
AcDbLine
 10
-39.48611659929838
 20
-53.68424407847342
 30
0.0
 11
-39.21945018699841
 21
-53.75232917677343
 31
0.0
  0
LINE
  5
27EE
330
18
100
AcDbEntity
  8
0
  6
CONTINUOUS
100
AcDbLine
 10
-39.41945018699835
 20
-52.45871211897344
 30
0.0
 11
-39.21945018699841
 21
-52.3906270206734
 31
0.0
  0
LINE
  5
27EF
330
18
100
AcDbEntity
  8
0
  6
CONTINUOUS
100
AcDbLine
 10
-40.01945018699837
 20
-53.27573348887344
 30
0.0
 11
-39.75278377459835
 21
-53.54807388197343
 31
0.0
  0
LINE
  5
27F0
330
18
100
AcDbEntity
  8
0
  6
CONTINUOUS
100
AcDbLine
 10
-47.41945018699834
 20
-51.98211643107342
 30
0.0
 11
-46.41945018699835
 21
-54.84169089207345
 31
0.0
  0
LINE
  5
27F1
330
18
100
AcDbEntity
  8
0
  6
CONTINUOUS
100
AcDbLine
 10
-46.6861168853984
 20
-55.18211643107344
 30
0.0
 11
-47.61945018699839
 21
-52.66296741377343
 31
0.0
  0
LINE
  5
27F2
330
18
100
AcDbEntity
  8
0
  6
CONTINUOUS
100
AcDbLine
 10
-41.88611698079841
 20
-52.32254192247342
 30
0.0
 11
-41.88611698079841
 21
-55.18211643107344
 31
0.0
  0
LINE
  5
27F3
330
18
100
AcDbEntity
  8
0
  6
CONTINUOUS
100
AcDbLine
 10
-42.2861169807984
 20
-55.18211643107344
 30
0.0
 11
-42.2861169807984
 21
-52.32254192247342
 31
0.0
  0
LINE
  5
27F4
330
18
100
AcDbEntity
  8
0
  6
CONTINUOUS
100
AcDbLine
 10
-43.88611698079841
 20
-51.98211643107342
 30
0.0
 11
-43.88611698079841
 21
-55.18211643107344
 31
0.0
  0
LINE
  5
27F5
330
18
100
AcDbEntity
  8
0
  6
CONTINUOUS
100
AcDbLine
 10
-45.21945018699841
 20
-52.66296741377343
 30
0.0
 11
-46.15278358389838
 21
-55.18211643107344
 31
0.0
  0
LINE
  5
27F6
330
18
100
AcDbEntity
  8
0
  6
CONTINUOUS
100
AcDbLine
 10
-46.41945018699835
 20
-54.84169089207345
 30
0.0
 11
-45.41945018699834
 21
-51.98211643107342
 31
0.0
  0
LINE
  5
27F7
330
18
100
AcDbEntity
  8
0
  6
CONTINUOUS
100
AcDbLine
 10
-44.2861169807984
 20
-55.18211643107344
 30
0.0
 11
-44.2861169807984
 21
-51.98211643107342
 31
0.0
  0
LINE
  5
27F8
330
18
100
AcDbEntity
  8
0
  6
CONTINUOUS
100
AcDbLine
 10
-44.81945018699838
 20
-51.98211643107342
 30
0.0
 11
-44.81945018699838
 21
-55.18211643107344
 31
0.0
  0
LINE
  5
27F9
330
18
100
AcDbEntity
  8
0
  6
CONTINUOUS
100
AcDbLine
 10
-45.21945018699841
 20
-55.18211643107344
 30
0.0
 11
-45.21945018699841
 21
-52.66296741377343
 31
0.0
  0
LINE
  5
27FA
330
18
100
AcDbEntity
  8
0
  6
CONTINUOUS
100
AcDbLine
 10
-47.61945018699839
 20
-52.66296741377343
 30
0.0
 11
-47.61945018699839
 21
-55.18211643107344
 31
0.0
  0
LINE
  5
27FB
330
18
100
AcDbEntity
  8
0
  6
CONTINUOUS
100
AcDbLine
 10
-48.01945018699837
 20
-55.18211643107344
 30
0.0
 11
-48.01945018699837
 21
-51.98211643107342
 31
0.0
  0
LINE
  5
27FC
330
18
100
AcDbEntity
  8
0
  6
CONTINUOUS
100
AcDbLine
 10
-47.61945018699839
 20
-55.18211643107344
 30
0.0
 11
-48.01945018699837
 21
-55.18211643107344
 31
0.0
  0
LINE
  5
27FD
330
18
100
AcDbEntity
  8
0
  6
CONTINUOUS
100
AcDbLine
 10
-46.15278358389838
 20
-55.18211643107344
 30
0.0
 11
-46.6861168853984
 21
-55.18211643107344
 31
0.0
  0
LINE
  5
27FE
330
18
100
AcDbEntity
  8
0
  6
CONTINUOUS
100
AcDbLine
 10
-44.81945018699838
 20
-55.18211643107344
 30
0.0
 11
-45.21945018699841
 21
-55.18211643107344
 31
0.0
  0
LINE
  5
27FF
330
18
100
AcDbEntity
  8
0
  6
CONTINUOUS
100
AcDbLine
 10
-43.88611698079841
 20
-55.18211643107344
 30
0.0
 11
-44.2861169807984
 21
-55.18211643107344
 31
0.0
  0
LINE
  5
2800
330
18
100
AcDbEntity
  8
0
  6
CONTINUOUS
100
AcDbLine
 10
-44.2861169807984
 20
-54.18407281207342
 30
0.0
 11
-43.88611698079841
 21
-53.78407281207342
 31
0.0
  0
LINE
  5
2801
330
18
100
AcDbEntity
  8
0
  6
CONTINUOUS
100
AcDbLine
 10
-45.21945018699841
 20
-55.11740601827341
 30
0.0
 11
-44.81945018699838
 21
-54.71740601827341
 31
0.0
  0
LINE
  5
2802
330
18
100
AcDbEntity
  8
0
  6
CONTINUOUS
100
AcDbLine
 10
-39.88611659929836
 20
-54.29701005827343
 30
0.0
 11
-40.28611659929834
 21
-54.29701005827343
 31
0.0
  0
LINE
  5
2803
330
18
100
AcDbEntity
  8
0
  6
CONTINUOUS
100
AcDbLine
 10
-41.88611698079841
 20
-55.18211643107344
 30
0.0
 11
-42.2861169807984
 21
-55.18211643107344
 31
0.0
  0
LINE
  5
2804
330
18
100
AcDbEntity
  8
0
  6
CONTINUOUS
100
AcDbLine
 10
-39.35278377459837
 20
-54.77360579387343
 30
0.0
 11
-39.61945018699839
 21
-54.70552069557342
 31
0.0
  0
LINE
  5
2805
330
18
100
AcDbEntity
  8
0
  6
CONTINUOUS
100
AcDbLine
 10
-39.68611659929837
 20
-55.11403132687343
 30
0.0
 11
-39.35278377459837
 21
-55.18211643107344
 31
0.0
  0
LINE
  5
2806
330
18
100
AcDbEntity
  8
0
  6
CONTINUOUS
100
AcDbLine
 10
-39.75278377459835
 20
-53.54807388197343
 30
0.0
 11
-39.48611659929838
 21
-53.68424407847342
 31
0.0
  0
LINE
  5
2807
330
18
100
AcDbEntity
  8
0
  6
CONTINUOUS
100
AcDbLine
 10
-40.01945018699837
 20
-54.90977601417341
 30
0.0
 11
-39.68611659929837
 21
-55.11403132687343
 31
0.0
  0
LINE
  5
2808
330
18
100
AcDbEntity
  8
0
  6
CONTINUOUS
100
AcDbLine
 10
-39.61945018699839
 20
-54.70552069557342
 30
0.0
 11
-39.81945018699838
 21
-54.50126535307342
 31
0.0
  0
LINE
  5
2809
330
18
100
AcDbEntity
  8
0
  6
CONTINUOUS
100
AcDbLine
 10
-40.21945018699841
 20
-54.56935045137342
 30
0.0
 11
-40.01945018699837
 21
-54.90977601417341
 31
0.0
  0
LINE
  5
280A
330
18
100
AcDbEntity
  8
0
  6
CONTINUOUS
100
AcDbLine
 10
-40.28611659929834
 20
-54.29701005827343
 30
0.0
 11
-40.21945018699841
 21
-54.56935045137342
 31
0.0
  0
LINE
  5
280B
330
18
100
AcDbEntity
  8
0
  6
CONTINUOUS
100
AcDbLine
 10
-39.81945018699838
 20
-54.50126535307342
 30
0.0
 11
-39.88611659929836
 21
-54.29701005827343
 31
0.0
  0
LINE
  5
280C
330
18
100
AcDbEntity
  8
0
  6
CONTINUOUS
100
AcDbLine
 10
-48.01945018699837
 20
-51.98211643107342
 30
0.0
 11
-47.41945018699834
 21
-51.98211643107342
 31
0.0
  0
LINE
  5
280D
330
18
100
AcDbEntity
  8
0
  6
CONTINUOUS
100
AcDbLine
 10
-44.2861169807984
 20
-51.98211643107342
 30
0.0
 11
-43.88611698079841
 21
-51.98211643107342
 31
0.0
  0
LINE
  5
280E
330
18
100
AcDbEntity
  8
0
  6
CONTINUOUS
100
AcDbLine
 10
-45.41945018699834
 20
-51.98211643107342
 30
0.0
 11
-44.81945018699838
 21
-51.98211643107342
 31
0.0
  0
LINE
  5
280F
330
18
100
AcDbEntity
  8
0
  6
CONTINUOUS
100
AcDbLine
 10
-43.35278339319836
 20
-51.98211643107342
 30
0.0
 11
-40.81945018699838
 21
-51.98211643107342
 31
0.0
  0
LINE
  5
2810
330
18
100
AcDbEntity
  8
0
  6
CONTINUOUS
100
AcDbLine
 10
-42.2861169807984
 20
-52.32254192247342
 30
0.0
 11
-43.35278339319836
 21
-52.32254192247342
 31
0.0
  0
LINE
  5
2811
330
18
100
AcDbEntity
  8
0
  6
CONTINUOUS
100
AcDbLine
 10
-40.81945018699838
 20
-52.32254192247342
 30
0.0
 11
-41.88611698079841
 21
-52.32254192247342
 31
0.0
  0
LINE
  5
2812
330
18
100
AcDbEntity
  8
0
  6
CONTINUOUS
100
AcDbLine
 10
-39.41945018699835
 20
-53.27573348887344
 30
0.0
 11
-39.61945018699839
 21
-53.13956329237342
 31
0.0
  0
LINE
  5
2813
330
18
100
AcDbEntity
  8
0
  6
CONTINUOUS
100
AcDbLine
 10
-39.61945018699839
 20
-53.13956329237342
 30
0.0
 11
-39.68611659929837
 21
-52.93530799757343
 31
0.0
  0
LINE
  5
2814
330
18
100
AcDbEntity
  8
0
  6
CONTINUOUS
100
AcDbLine
 10
-40.0861165992984
 20
-53.00339309587343
 30
0.0
 11
-40.01945018699837
 21
-53.27573348887344
 31
0.0
  0
LINE
  5
2815
330
18
100
AcDbEntity
  8
0
  6
CONTINUOUS
100
AcDbLine
 10
-39.48611659929838
 20
-52.05020152937342
 30
0.0
 11
-39.75278377459835
 21
-52.18637172587341
 31
0.0
  0
LINE
  5
2816
330
18
100
AcDbEntity
  8
0
  6
CONTINUOUS
100
AcDbLine
 10
-39.61945018699839
 20
-52.59488231547343
 30
0.0
 11
-39.41945018699835
 21
-52.45871211897344
 31
0.0
  0
LINE
  5
2817
330
18
100
AcDbEntity
  8
0
  6
CONTINUOUS
100
AcDbLine
 10
-39.75278377459835
 20
-52.18637172587341
 30
0.0
 11
-40.01945018699837
 21
-52.45871211897344
 31
0.0
  0
LINE
  5
2818
330
18
100
AcDbEntity
  8
0
  6
CONTINUOUS
100
AcDbLine
 10
-39.68611659929837
 20
-52.79913780107341
 30
0.0
 11
-39.61945018699839
 21
-52.59488231547343
 31
0.0
  0
LINE
  5
2819
330
18
100
AcDbEntity
  8
0
  6
CONTINUOUS
100
AcDbLine
 10
-40.01945018699837
 20
-52.45871211897344
 30
0.0
 11
-40.0861165992984
 21
-52.73105251207343
 31
0.0
  0
LINE
  5
281A
330
18
100
AcDbEntity
  8
0
  6
CONTINUOUS
100
AcDbLine
 10
-39.68611659929837
 20
-52.93530799757343
 30
0.0
 11
-39.68611659929837
 21
-52.79913780107341
 31
0.0
  0
LINE
  5
281B
330
18
100
AcDbEntity
  8
0
  6
CONTINUOUS
100
AcDbLine
 10
-40.0861165992984
 20
-52.73105251207343
 30
0.0
 11
-40.0861165992984
 21
-53.00339309587343
 31
0.0
  0
LINE
  5
281C
330
18
100
AcDbEntity
  8
0
  6
CONTINUOUS
100
AcDbLine
 10
-40.81945018699838
 20
-51.98211643107342
 30
0.0
 11
-40.81945018699838
 21
-52.32254192247342
 31
0.0
  0
LINE
  5
281D
330
18
100
AcDbEntity
  8
0
  6
CONTINUOUS
100
AcDbLine
 10
-43.35278339319836
 20
-52.32254192247342
 30
0.0
 11
-43.35278339319836
 21
-51.98211643107342
 31
0.0
  0
LINE
  5
281E
330
18
100
AcDbEntity
  8
0
  6
CONTINUOUS
100
AcDbLine
 10
-42.42458609119836
 20
-52.32254192247342
 30
0.0
 11
-42.08416059989838
 21
-51.98211643107342
 31
0.0
  0
LINE
  5
281F
330
18
100
AcDbEntity
  8
0
  6
CONTINUOUS
100
AcDbLine
 10
-28.35278301169842
 20
-53.54807388197343
 30
0.0
 11
-28.61945018699839
 21
-53.41190368547342
 31
0.0
  0
LINE
  5
2820
330
18
100
AcDbEntity
  8
0
  6
CONTINUOUS
100
AcDbLine
 10
-38.21945018699841
 20
-53.54807388197343
 30
0.0
 11
-38.48611659929838
 21
-53.41190368547342
 31
0.0
  0
LINE
  5
2821
330
18
100
AcDbEntity
  8
0
  6
CONTINUOUS
100
AcDbLine
 10
-30.15278301169837
 20
-53.27573348887344
 30
0.0
 11
-29.88611736229836
 21
-53.54807388197343
 31
0.0
  0
LINE
  5
2822
330
18
100
AcDbEntity
  8
0
  6
CONTINUOUS
100
AcDbLine
 10
-23.81945018699838
 20
-51.98211643107342
 30
0.0
 11
-23.81945018699838
 21
-55.18211643107344
 31
0.0
  0
LINE
  5
2823
330
18
100
AcDbEntity
  8
0
  6
CONTINUOUS
100
AcDbLine
 10
-24.21945018699841
 20
-55.18211643107344
 30
0.0
 11
-24.21945018699841
 21
-51.98211643107342
 31
0.0
  0
LINE
  5
2824
330
18
100
AcDbEntity
  8
0
  6
CONTINUOUS
100
AcDbLine
 10
-24.7527830116984
 20
-51.98211643107342
 30
0.0
 11
-24.7527830116984
 21
-55.18211643107344
 31
0.0
  0
LINE
  5
2825
330
18
100
AcDbEntity
  8
0
  6
CONTINUOUS
100
AcDbLine
 10
-27.41945018699834
 20
-55.18211643107344
 30
0.0
 11
-27.41945018699834
 21
-51.98211643107342
 31
0.0
  0
LINE
  5
2826
330
18
100
AcDbEntity
  8
0
  6
CONTINUOUS
100
AcDbLine
 10
-30.95278301169838
 20
-51.98211643107342
 30
0.0
 11
-30.95278301169838
 21
-55.18211643107344
 31
0.0
  0
LINE
  5
2827
330
18
100
AcDbEntity
  8
0
  6
CONTINUOUS
100
AcDbLine
 10
-31.35278301169842
 20
-55.18211643107344
 30
0.0
 11
-31.35278301169842
 21
-51.98211643107342
 31
0.0
  0
LINE
  5
2828
330
18
100
AcDbEntity
  8
0
  6
CONTINUOUS
100
AcDbLine
 10
-34.35278301169842
 20
-55.18211643107344
 30
0.0
 11
-34.35278301169842
 21
-51.98211643107342
 31
0.0
  0
LINE
  5
2829
330
18
100
AcDbEntity
  8
0
  6
CONTINUOUS
100
AcDbLine
 10
-31.95278301169838
 20
-53.20764839067343
 30
0.0
 11
-32.15278301169837
 21
-53.47998878367343
 31
0.0
  0
LINE
  5
282A
330
18
100
AcDbEntity
  8
0
  6
CONTINUOUS
100
AcDbLine
 10
-34.88611736229836
 20
-54.09275476347343
 30
0.0
 11
-34.88611736229836
 21
-51.98211643107342
 31
0.0
  0
LINE
  5
282B
330
18
100
AcDbEntity
  8
0
  6
CONTINUOUS
100
AcDbLine
 10
-35.28611659929834
 20
-51.98211643107342
 30
0.0
 11
-35.28611659929834
 21
-54.09275476347343
 31
0.0
  0
LINE
  5
282C
330
18
100
AcDbEntity
  8
0
  6
CONTINUOUS
100
AcDbLine
 10
-36.88611659929836
 20
-54.09275476347343
 30
0.0
 11
-36.88611659929836
 21
-51.98211643107342
 31
0.0
  0
LINE
  5
282D
330
18
100
AcDbEntity
  8
0
  6
CONTINUOUS
100
AcDbLine
 10
-37.28611659929834
 20
-51.98211643107342
 30
0.0
 11
-37.28611659929834
 21
-54.09275476347343
 31
0.0
  0
LINE
  5
282E
330
18
100
AcDbEntity
  8
0
  6
CONTINUOUS
100
AcDbLine
 10
-30.95278301169838
 20
-55.18211643107344
 30
0.0
 11
-31.35278301169842
 21
-55.18211643107344
 31
0.0
  0
LINE
  5
282F
330
18
100
AcDbEntity
  8
0
  6
CONTINUOUS
100
AcDbLine
 10
-35.35278377459837
 20
-54.97786111247342
 30
0.0
 11
-35.08611736229841
 21
-54.70552069557342
 31
0.0
  0
LINE
  5
2830
330
18
100
AcDbEntity
  8
0
  6
CONTINUOUS
100
AcDbLine
 10
-38.81945018699838
 20
-55.18211643107344
 30
0.0
 11
-38.48611659929838
 21
-55.11403132687343
 31
0.0
  0
LINE
  5
2831
330
18
100
AcDbEntity
  8
0
  6
CONTINUOUS
100
AcDbLine
 10
-35.9527837745984
 20
-55.18211643107344
 30
0.0
 11
-35.61945018699839
 21
-55.11403132687343
 31
0.0
  0
LINE
  5
2832
330
18
100
AcDbEntity
  8
0
  6
CONTINUOUS
100
AcDbLine
 10
-38.55278377459836
 20
-54.70552069557342
 30
0.0
 11
-38.81945018699838
 21
-54.77360579387343
 31
0.0
  0
LINE
  5
2833
330
18
100
AcDbEntity
  8
0
  6
CONTINUOUS
100
AcDbLine
 10
-35.68611659929837
 20
-54.70552069557342
 30
0.0
 11
-35.9527837745984
 21
-54.77360579387343
 31
0.0
  0
LINE
  5
2834
330
18
100
AcDbEntity
  8
0
  6
CONTINUOUS
100
AcDbLine
 10
-39.21945018699841
 20
-53.75232917677343
 30
0.0
 11
-38.81945018699838
 21
-53.75232917677343
 31
0.0
  0
LINE
  5
2835
330
18
100
AcDbEntity
  8
0
  6
CONTINUOUS
100
AcDbLine
 10
-35.9527837745984
 20
-54.77360579387343
 30
0.0
 11
-36.21945018699841
 21
-54.77360579387343
 31
0.0
  0
LINE
  5
2836
330
18
100
AcDbEntity
  8
0
  6
CONTINUOUS
100
AcDbLine
 10
-36.21945018699841
 20
-55.18211643107344
 30
0.0
 11
-35.9527837745984
 21
-55.18211643107344
 31
0.0
  0
LINE
  5
2837
330
18
100
AcDbEntity
  8
0
  6
CONTINUOUS
100
AcDbLine
 10
-38.81945018699838
 20
-53.75232917677343
 30
0.0
 11
-38.55278377459836
 21
-53.82041427507343
 31
0.0
  0
LINE
  5
2838
330
18
100
AcDbEntity
  8
0
  6
CONTINUOUS
100
AcDbLine
 10
-36.21945018699841
 20
-54.77360579387343
 30
0.0
 11
-36.48611659929838
 21
-54.70552069557342
 31
0.0
  0
LINE
  5
2839
330
18
100
AcDbEntity
  8
0
  6
CONTINUOUS
100
AcDbLine
 10
-36.55278377459836
 20
-55.11403132687343
 30
0.0
 11
-36.21945018699841
 21
-55.18211643107344
 31
0.0
  0
LINE
  5
283A
330
18
100
AcDbEntity
  8
0
  6
CONTINUOUS
100
AcDbLine
 10
-36.81945018699838
 20
-54.97786111247342
 30
0.0
 11
-36.55278377459836
 21
-55.11403132687343
 31
0.0
  0
LINE
  5
283B
330
18
100
AcDbEntity
  8
0
  6
CONTINUOUS
100
AcDbLine
 10
-36.48611659929838
 20
-54.70552069557342
 30
0.0
 11
-36.68611659929837
 21
-54.56935045137342
 31
0.0
  0
LINE
  5
283C
330
18
100
AcDbEntity
  8
0
  6
CONTINUOUS
100
AcDbLine
 10
-38.55278377459836
 20
-53.82041427507343
 30
0.0
 11
-38.35278377459838
 21
-53.95658447157342
 31
0.0
  0
LINE
  5
283D
330
18
100
AcDbEntity
  8
0
  6
CONTINUOUS
100
AcDbLine
 10
-37.9527837745984
 20
-53.82041427507343
 30
0.0
 11
-38.21945018699841
 21
-53.54807388197343
 31
0.0
  0
LINE
  5
283E
330
18
100
AcDbEntity
  8
0
  6
CONTINUOUS
100
AcDbLine
 10
-37.0861165992984
 20
-54.70552069557342
 30
0.0
 11
-36.81945018699838
 21
-54.97786111247342
 31
0.0
  0
LINE
  5
283F
330
18
100
AcDbEntity
  8
0
  6
CONTINUOUS
100
AcDbLine
 10
-37.21945018699841
 20
-54.43318025477345
 30
0.0
 11
-37.0861165992984
 21
-54.70552069557342
 31
0.0
  0
LINE
  5
2840
330
18
100
AcDbEntity
  8
0
  6
CONTINUOUS
100
AcDbLine
 10
-37.81945018699838
 20
-54.09275476347343
 30
0.0
 11
-37.9527837745984
 21
-53.82041427507343
 31
0.0
  0
LINE
  5
2841
330
18
100
AcDbEntity
  8
0
  6
CONTINUOUS
100
AcDbLine
 10
-36.68611659929837
 20
-54.56935045137342
 30
0.0
 11
-36.81945018699838
 21
-54.36509515657343
 31
0.0
  0
LINE
  5
2842
330
18
100
AcDbEntity
  8
0
  6
CONTINUOUS
100
AcDbLine
 10
-38.35278377459838
 20
-53.95658447157342
 30
0.0
 11
-38.21945018699841
 21
-54.16083986177341
 31
0.0
  0
LINE
  5
2843
330
18
100
AcDbEntity
  8
0
  6
CONTINUOUS
100
AcDbLine
 10
-37.28611659929834
 20
-54.09275476347343
 30
0.0
 11
-37.21945018699841
 21
-54.43318025477345
 31
0.0
  0
LINE
  5
2844
330
18
100
AcDbEntity
  8
0
  6
CONTINUOUS
100
AcDbLine
 10
-36.81945018699838
 20
-54.36509515657343
 30
0.0
 11
-36.88611659929836
 21
-54.09275476347343
 31
0.0
  0
LINE
  5
2845
330
18
100
AcDbEntity
  8
0
  6
CONTINUOUS
100
AcDbLine
 10
-35.61945018699839
 20
-55.11403132687343
 30
0.0
 11
-35.35278377459837
 21
-54.97786111247342
 31
0.0
  0
LINE
  5
2846
330
18
100
AcDbEntity
  8
0
  6
CONTINUOUS
100
AcDbLine
 10
-38.48611659929838
 20
-55.11403132687343
 30
0.0
 11
-38.21945018699841
 21
-54.97786111247342
 31
0.0
  0
LINE
  5
2847
330
18
100
AcDbEntity
  8
0
  6
CONTINUOUS
100
AcDbLine
 10
-35.48611659929838
 20
-54.56935045137342
 30
0.0
 11
-35.68611659929837
 21
-54.70552069557342
 31
0.0
  0
LINE
  5
2848
330
18
100
AcDbEntity
  8
0
  6
CONTINUOUS
100
AcDbLine
 10
-35.28611659929834
 20
-54.09275476347343
 30
0.0
 11
-35.35278377459837
 21
-54.36509515657343
 31
0.0
  0
LINE
  5
2849
330
18
100
AcDbEntity
  8
0
  6
CONTINUOUS
100
AcDbLine
 10
-37.81945018699838
 20
-54.43318025477345
 30
0.0
 11
-37.81945018699838
 21
-54.09275476347343
 31
0.0
  0
LINE
  5
284A
330
18
100
AcDbEntity
  8
0
  6
CONTINUOUS
100
AcDbLine
 10
-38.21945018699841
 20
-54.16083986177341
 30
0.0
 11
-38.21945018699841
 21
-54.36509515657343
 31
0.0
  0
LINE
  5
284B
330
18
100
AcDbEntity
  8
0
  6
CONTINUOUS
100
AcDbLine
 10
-38.35278377459838
 20
-54.56935045137342
 30
0.0
 11
-38.55278377459836
 21
-54.70552069557342
 31
0.0
  0
LINE
  5
284C
330
18
100
AcDbEntity
  8
0
  6
CONTINUOUS
100
AcDbLine
 10
-38.21945018699841
 20
-54.97786111247342
 30
0.0
 11
-37.9527837745984
 21
-54.70552069557342
 31
0.0
  0
LINE
  5
284D
330
18
100
AcDbEntity
  8
0
  6
CONTINUOUS
100
AcDbLine
 10
-35.35278377459837
 20
-54.36509515657343
 30
0.0
 11
-35.48611659929838
 21
-54.56935045137342
 31
0.0
  0
LINE
  5
284E
330
18
100
AcDbEntity
  8
0
  6
CONTINUOUS
100
AcDbLine
 10
-38.21945018699841
 20
-54.36509515657343
 30
0.0
 11
-38.35278377459838
 21
-54.56935045137342
 31
0.0
  0
LINE
  5
284F
330
18
100
AcDbEntity
  8
0
  6
CONTINUOUS
100
AcDbLine
 10
-37.9527837745984
 20
-54.70552069557342
 30
0.0
 11
-37.81945018699838
 21
-54.43318025477345
 31
0.0
  0
LINE
  5
2850
330
18
100
AcDbEntity
  8
0
  6
CONTINUOUS
100
AcDbLine
 10
-32.41945018699834
 20
-55.11403132687343
 30
0.0
 11
-32.75278301169839
 21
-55.18211643107344
 31
0.0
  0
LINE
  5
2851
330
18
100
AcDbEntity
  8
0
  6
CONTINUOUS
100
AcDbLine
 10
-33.95278301169838
 20
-53.75232917677343
 30
0.0
 11
-32.68611736229837
 21
-53.75232917677343
 31
0.0
  0
LINE
  5
2852
330
18
100
AcDbEntity
  8
0
  6
CONTINUOUS
100
AcDbLine
 10
-32.68611736229837
 20
-54.77360579387343
 30
0.0
 11
-33.95278301169838
 21
-54.77360579387343
 31
0.0
  0
LINE
  5
2853
330
18
100
AcDbEntity
  8
0
  6
CONTINUOUS
100
AcDbLine
 10
-32.75278301169839
 20
-55.18211643107344
 30
0.0
 11
-34.35278301169842
 21
-55.18211643107344
 31
0.0
  0
LINE
  5
2854
330
18
100
AcDbEntity
  8
0
  6
CONTINUOUS
100
AcDbLine
 10
-32.68611736229837
 20
-53.75232917677343
 30
0.0
 11
-32.48611736229838
 21
-53.82041427507343
 31
0.0
  0
LINE
  5
2855
330
18
100
AcDbEntity
  8
0
  6
CONTINUOUS
100
AcDbLine
 10
-32.28611736229834
 20
-53.54807388197343
 30
0.0
 11
-32.15278301169837
 21
-53.61615898027344
 31
0.0
  0
LINE
  5
2856
330
18
100
AcDbEntity
  8
0
  6
CONTINUOUS
100
AcDbLine
 10
-32.48611736229838
 20
-53.82041427507343
 30
0.0
 11
-32.35278301169842
 21
-53.95658447157342
 31
0.0
  0
LINE
  5
2857
330
18
100
AcDbEntity
  8
0
  6
CONTINUOUS
100
AcDbLine
 10
-32.15278301169837
 20
-53.61615898027344
 30
0.0
 11
-31.95278301169838
 21
-53.88849937327342
 31
0.0
  0
LINE
  5
2858
330
18
100
AcDbEntity
  8
0
  6
CONTINUOUS
100
AcDbLine
 10
-31.95278301169838
 20
-53.88849937327342
 30
0.0
 11
-31.88611736229836
 21
-54.09275476347343
 31
0.0
  0
LINE
  5
2859
330
18
100
AcDbEntity
  8
0
  6
CONTINUOUS
100
AcDbLine
 10
-32.35278301169842
 20
-53.95658447157342
 30
0.0
 11
-32.28611736229834
 21
-54.16083986177341
 31
0.0
  0
LINE
  5
285A
330
18
100
AcDbEntity
  8
0
  6
CONTINUOUS
100
AcDbLine
 10
-32.48611736229838
 20
-54.70552069557342
 30
0.0
 11
-32.68611736229837
 21
-54.77360579387343
 31
0.0
  0
LINE
  5
285B
330
18
100
AcDbEntity
  8
0
  6
CONTINUOUS
100
AcDbLine
 10
-31.88611736229836
 20
-54.09275476347343
 30
0.0
 11
-31.88611736229836
 21
-54.43318025477345
 31
0.0
  0
LINE
  5
285C
330
18
100
AcDbEntity
  8
0
  6
CONTINUOUS
100
AcDbLine
 10
-32.28611736229834
 20
-54.16083986177341
 30
0.0
 11
-32.28611736229834
 21
-54.36509515657343
 31
0.0
  0
LINE
  5
285D
330
18
100
AcDbEntity
  8
0
  6
CONTINUOUS
100
AcDbLine
 10
-33.95278301169838
 20
-54.77360579387343
 30
0.0
 11
-33.95278301169838
 21
-53.75232917677343
 31
0.0
  0
LINE
  5
285E
330
18
100
AcDbEntity
  8
0
  6
CONTINUOUS
100
AcDbLine
 10
-32.15278301169837
 20
-53.47998878367343
 30
0.0
 11
-32.28611736229834
 21
-53.54807388197343
 31
0.0
  0
LINE
  5
285F
330
18
100
AcDbEntity
  8
0
  6
CONTINUOUS
100
AcDbLine
 10
-32.15278301169837
 20
-54.90977601417341
 30
0.0
 11
-32.41945018699834
 21
-55.11403132687343
 31
0.0
  0
LINE
  5
2860
330
18
100
AcDbEntity
  8
0
  6
CONTINUOUS
100
AcDbLine
 10
-32.31007791269837
 20
-54.08742766787344
 30
0.0
 11
-32.01983914699837
 21
-53.79718890217344
 31
0.0
  0
LINE
  5
2861
330
18
100
AcDbEntity
  8
0
  6
CONTINUOUS
100
AcDbLine
 10
-33.40476667589837
 20
-55.18211643107344
 30
0.0
 11
-32.99625603869833
 21
-54.77360579387343
 31
0.0
  0
LINE
  5
2862
330
18
100
AcDbEntity
  8
0
  6
CONTINUOUS
100
AcDbLine
 10
-32.35278301169842
 20
-54.56935045137342
 30
0.0
 11
-32.48611736229838
 21
-54.70552069557342
 31
0.0
  0
LINE
  5
2863
330
18
100
AcDbEntity
  8
0
  6
CONTINUOUS
100
AcDbLine
 10
-31.95278301169838
 20
-54.63743559727342
 30
0.0
 11
-32.15278301169837
 21
-54.90977601417341
 31
0.0
  0
LINE
  5
2864
330
18
100
AcDbEntity
  8
0
  6
CONTINUOUS
100
AcDbLine
 10
-35.08611736229841
 20
-54.70552069557342
 30
0.0
 11
-34.95278301169838
 21
-54.43318025477345
 31
0.0
  0
LINE
  5
2865
330
18
100
AcDbEntity
  8
0
  6
CONTINUOUS
100
AcDbLine
 10
-31.88611736229836
 20
-54.43318025477345
 30
0.0
 11
-31.95278301169838
 21
-54.63743559727342
 31
0.0
  0
LINE
  5
2866
330
18
100
AcDbEntity
  8
0
  6
CONTINUOUS
100
AcDbLine
 10
-32.28611736229834
 20
-54.36509515657343
 30
0.0
 11
-32.35278301169842
 21
-54.56935045137342
 31
0.0
  0
LINE
  5
2867
330
18
100
AcDbEntity
  8
0
  6
CONTINUOUS
100
AcDbLine
 10
-34.95278301169838
 20
-54.43318025477345
 30
0.0
 11
-34.88611736229836
 21
-54.09275476347343
 31
0.0
  0
LINE
  5
2868
330
18
100
AcDbEntity
  8
0
  6
CONTINUOUS
100
AcDbLine
 10
-25.15278301169837
 20
-53.68424407847342
 30
0.0
 11
-27.01945018699837
 21
-53.68424407847342
 31
0.0
  0
LINE
  5
2869
330
18
100
AcDbEntity
  8
0
  6
CONTINUOUS
100
AcDbLine
 10
-28.68611736229837
 20
-54.70552069557342
 30
0.0
 11
-28.95278301169838
 21
-54.77360579387343
 31
0.0
  0
LINE
  5
286A
330
18
100
AcDbEntity
  8
0
  6
CONTINUOUS
100
AcDbLine
 10
-29.35278301169842
 20
-53.75232917677343
 30
0.0
 11
-28.95278301169838
 21
-53.75232917677343
 31
0.0
  0
LINE
  5
286B
330
18
100
AcDbEntity
  8
0
  6
CONTINUOUS
100
AcDbLine
 10
-30.01945018699837
 20
-54.29701005827343
 30
0.0
 11
-30.41945018699834
 21
-54.29701005827343
 31
0.0
  0
LINE
  5
286C
330
18
100
AcDbEntity
  8
0
  6
CONTINUOUS
100
AcDbLine
 10
-28.95278301169838
 20
-54.77360579387343
 30
0.0
 11
-29.48611736229839
 21
-54.77360579387343
 31
0.0
  0
LINE
  5
286D
330
18
100
AcDbEntity
  8
0
  6
CONTINUOUS
100
AcDbLine
 10
-29.48611736229839
 20
-55.18211643107344
 30
0.0
 11
-28.95278301169838
 21
-55.18211643107344
 31
0.0
  0
LINE
  5
286E
330
18
100
AcDbEntity
  8
0
  6
CONTINUOUS
100
AcDbLine
 10
-27.01945018699837
 20
-55.18211643107344
 30
0.0
 11
-27.41945018699834
 21
-55.18211643107344
 31
0.0
  0
LINE
  5
286F
330
18
100
AcDbEntity
  8
0
  6
CONTINUOUS
100
AcDbLine
 10
-28.95278301169838
 20
-55.18211643107344
 30
0.0
 11
-28.61945018699839
 21
-55.11403132687343
 31
0.0
  0
LINE
  5
2870
330
18
100
AcDbEntity
  8
0
  6
CONTINUOUS
100
AcDbLine
 10
-29.88611736229836
 20
-53.54807388197343
 30
0.0
 11
-29.61945018699839
 21
-53.68424407847342
 31
0.0
  0
LINE
  5
2871
330
18
100
AcDbEntity
  8
0
  6
CONTINUOUS
100
AcDbLine
 10
-28.95278301169838
 20
-53.75232917677343
 30
0.0
 11
-28.68611736229837
 21
-53.82041427507343
 31
0.0
  0
LINE
  5
2872
330
18
100
AcDbEntity
  8
0
  6
CONTINUOUS
100
AcDbLine
 10
-29.61945018699839
 20
-53.68424407847342
 30
0.0
 11
-29.35278301169842
 21
-53.75232917677343
 31
0.0
  0
LINE
  5
2873
330
18
100
AcDbEntity
  8
0
  6
CONTINUOUS
100
AcDbLine
 10
-29.48611736229839
 20
-54.77360579387343
 30
0.0
 11
-29.7527830116984
 21
-54.70552069557342
 31
0.0
  0
LINE
  5
2874
330
18
100
AcDbEntity
  8
0
  6
CONTINUOUS
100
AcDbLine
 10
-29.81945018699838
 20
-55.11403132687343
 30
0.0
 11
-29.48611736229839
 21
-55.18211643107344
 31
0.0
  0
LINE
  5
2875
330
18
100
AcDbEntity
  8
0
  6
CONTINUOUS
100
AcDbLine
 10
-28.0861173622984
 20
-53.82041427507343
 30
0.0
 11
-28.35278301169842
 21
-53.54807388197343
 31
0.0
  0
LINE
  5
2876
330
18
100
AcDbEntity
  8
0
  6
CONTINUOUS
100
AcDbLine
 10
-28.68611736229837
 20
-53.82041427507343
 30
0.0
 11
-28.48611736229838
 21
-53.95658447157342
 31
0.0
  0
LINE
  5
2877
330
18
100
AcDbEntity
  8
0
  6
CONTINUOUS
100
AcDbLine
 10
-30.15278301169837
 20
-54.90977601417341
 30
0.0
 11
-29.81945018699838
 21
-55.11403132687343
 31
0.0
  0
LINE
  5
2878
330
18
100
AcDbEntity
  8
0
  6
CONTINUOUS
100
AcDbLine
 10
-28.48611736229838
 20
-53.95658447157342
 30
0.0
 11
-28.35278301169842
 21
-54.16083986177341
 31
0.0
  0
LINE
  5
2879
330
18
100
AcDbEntity
  8
0
  6
CONTINUOUS
100
AcDbLine
 10
-29.7527830116984
 20
-54.70552069557342
 30
0.0
 11
-29.95278301169838
 21
-54.50126535307342
 31
0.0
  0
LINE
  5
287A
330
18
100
AcDbEntity
  8
0
  6
CONTINUOUS
100
AcDbLine
 10
-27.95278301169838
 20
-54.09275476347343
 30
0.0
 11
-28.0861173622984
 21
-53.82041427507343
 31
0.0
  0
LINE
  5
287B
330
18
100
AcDbEntity
  8
0
  6
CONTINUOUS
100
AcDbLine
 10
-30.35278301169842
 20
-54.56935045137342
 30
0.0
 11
-30.15278301169837
 21
-54.90977601417341
 31
0.0
  0
LINE
  5
287C
330
18
100
AcDbEntity
  8
0
  6
CONTINUOUS
100
AcDbLine
 10
-30.41945018699834
 20
-54.29701005827343
 30
0.0
 11
-30.35278301169842
 21
-54.56935045137342
 31
0.0
  0
LINE
  5
287D
330
18
100
AcDbEntity
  8
0
  6
CONTINUOUS
100
AcDbLine
 10
-29.95278301169838
 20
-54.50126535307342
 30
0.0
 11
-30.01945018699837
 21
-54.29701005827343
 31
0.0
  0
LINE
  5
287E
330
18
100
AcDbEntity
  8
0
  6
CONTINUOUS
100
AcDbLine
 10
-27.01945018699837
 20
-53.68424407847342
 30
0.0
 11
-27.01945018699837
 21
-55.18211643107344
 31
0.0
  0
LINE
  5
287F
330
18
100
AcDbEntity
  8
0
  6
CONTINUOUS
100
AcDbLine
 10
-27.95278301169838
 20
-54.43318025477345
 30
0.0
 11
-27.95278301169838
 21
-54.09275476347343
 31
0.0
  0
LINE
  5
2880
330
18
100
AcDbEntity
  8
0
  6
CONTINUOUS
100
AcDbLine
 10
-28.35278301169842
 20
-54.16083986177341
 30
0.0
 11
-28.35278301169842
 21
-54.36509515657343
 31
0.0
  0
LINE
  5
2881
330
18
100
AcDbEntity
  8
0
  6
CONTINUOUS
100
AcDbLine
 10
-28.61945018699839
 20
-55.11403132687343
 30
0.0
 11
-28.35278301169842
 21
-54.97786111247342
 31
0.0
  0
LINE
  5
2882
330
18
100
AcDbEntity
  8
0
  6
CONTINUOUS
100
AcDbLine
 10
-28.48611736229838
 20
-54.56935045137342
 30
0.0
 11
-28.68611736229837
 21
-54.70552069557342
 31
0.0
  0
LINE
  5
2883
330
18
100
AcDbEntity
  8
0
  6
CONTINUOUS
100
AcDbLine
 10
-28.35278301169842
 20
-54.97786111247342
 30
0.0
 11
-28.0861173622984
 21
-54.70552069557342
 31
0.0
  0
LINE
  5
2884
330
18
100
AcDbEntity
  8
0
  6
CONTINUOUS
100
AcDbLine
 10
-28.35278301169842
 20
-54.36509515657343
 30
0.0
 11
-28.48611736229838
 21
-54.56935045137342
 31
0.0
  0
LINE
  5
2885
330
18
100
AcDbEntity
  8
0
  6
CONTINUOUS
100
AcDbLine
 10
-28.0861173622984
 20
-54.70552069557342
 30
0.0
 11
-27.95278301169838
 21
-54.43318025477345
 31
0.0
  0
LINE
  5
2886
330
18
100
AcDbEntity
  8
0
  6
CONTINUOUS
100
AcDbLine
 10
-24.7527830116984
 20
-55.18211643107344
 30
0.0
 11
-25.15278301169837
 21
-55.18211643107344
 31
0.0
  0
LINE
  5
2887
330
18
100
AcDbEntity
  8
0
  6
CONTINUOUS
100
AcDbLine
 10
-23.81945018699838
 20
-55.18211643107344
 30
0.0
 11
-24.21945018699841
 21
-55.18211643107344
 31
0.0
  0
LINE
  5
2888
330
18
100
AcDbEntity
  8
0
  6
CONTINUOUS
100
AcDbLine
 10
-25.15278301169837
 20
-55.18211643107344
 30
0.0
 11
-25.15278301169837
 21
-53.68424407847342
 31
0.0
  0
LINE
  5
2889
330
18
100
AcDbEntity
  8
0
  6
CONTINUOUS
100
AcDbLine
 10
-31.35278301169842
 20
-51.98211643107342
 30
0.0
 11
-30.95278301169838
 21
-51.98211643107342
 31
0.0
  0
LINE
  5
288A
330
18
100
AcDbEntity
  8
0
  6
CONTINUOUS
100
AcDbLine
 10
-31.35278301169842
 20
-53.13013276687343
 30
0.0
 11
-30.95278301169838
 21
-52.73013276687342
 31
0.0
  0
LINE
  5
288B
330
18
100
AcDbEntity
  8
0
  6
CONTINUOUS
100
AcDbLine
 10
-34.88611736229836
 20
-51.98211643107342
 30
0.0
 11
-35.28611659929834
 21
-51.98211643107342
 31
0.0
  0
LINE
  5
288C
330
18
100
AcDbEntity
  8
0
  6
CONTINUOUS
100
AcDbLine
 10
-38.88611659929836
 20
-51.98211643107342
 30
0.0
 11
-39.21945018699841
 21
-51.98211643107342
 31
0.0
  0
LINE
  5
288D
330
18
100
AcDbEntity
  8
0
  6
CONTINUOUS
100
AcDbLine
 10
-36.88611659929836
 20
-51.98211643107342
 30
0.0
 11
-37.28611659929834
 21
-51.98211643107342
 31
0.0
  0
LINE
  5
288E
330
18
100
AcDbEntity
  8
0
  6
CONTINUOUS
100
AcDbLine
 10
-39.21945018699841
 20
-52.3906270206734
 30
0.0
 11
-38.81945018699838
 21
-52.3906270206734
 31
0.0
  0
LINE
  5
288F
330
18
100
AcDbEntity
  8
0
  6
CONTINUOUS
100
AcDbLine
 10
-38.55278377459836
 20
-52.05020152937342
 30
0.0
 11
-38.88611659929836
 21
-51.98211643107342
 31
0.0
  0
LINE
  5
2890
330
18
100
AcDbEntity
  8
0
  6
CONTINUOUS
100
AcDbLine
 10
-38.41945018699835
 20
-52.73105251207343
 30
0.0
 11
-38.01945018699837
 21
-52.73105251207343
 31
0.0
  0
LINE
  5
2891
330
18
100
AcDbEntity
  8
0
  6
CONTINUOUS
100
AcDbLine
 10
-38.81945018699838
 20
-53.34381858717344
 30
0.0
 11
-39.21945018699841
 21
-53.34381858717344
 31
0.0
  0
LINE
  5
2892
330
18
100
AcDbEntity
  8
0
  6
CONTINUOUS
100
AcDbLine
 10
-38.81945018699838
 20
-52.3906270206734
 30
0.0
 11
-38.61945018699839
 21
-52.45871211897344
 31
0.0
  0
LINE
  5
2893
330
18
100
AcDbEntity
  8
0
  6
CONTINUOUS
100
AcDbLine
 10
-38.48611659929838
 20
-53.41190368547342
 30
0.0
 11
-38.81945018699838
 21
-53.34381858717344
 31
0.0
  0
LINE
  5
2894
330
18
100
AcDbEntity
  8
0
  6
CONTINUOUS
100
AcDbLine
 10
-38.28611659929833
 20
-52.25445682417341
 30
0.0
 11
-38.55278377459836
 21
-52.05020152937342
 31
0.0
  0
LINE
  5
2895
330
18
100
AcDbEntity
  8
0
  6
CONTINUOUS
100
AcDbLine
 10
-38.08611659929841
 20
-52.52679721727344
 30
0.0
 11
-38.28611659929833
 21
-52.25445682417341
 31
0.0
  0
LINE
  5
2896
330
18
100
AcDbEntity
  8
0
  6
CONTINUOUS
100
AcDbLine
 10
-38.61945018699839
 20
-52.45871211897344
 30
0.0
 11
-38.48611659929838
 21
-52.59488231547343
 31
0.0
  0
LINE
  5
2897
330
18
100
AcDbEntity
  8
0
  6
CONTINUOUS
100
AcDbLine
 10
-38.48611659929838
 20
-52.59488231547343
 30
0.0
 11
-38.41945018699835
 21
-52.73105251207343
 31
0.0
  0
LINE
  5
2898
330
18
100
AcDbEntity
  8
0
  6
CONTINUOUS
100
AcDbLine
 10
-38.01945018699837
 20
-52.73105251207343
 30
0.0
 11
-38.08611659929841
 21
-52.52679721727344
 31
0.0
  0
LINE
  5
2899
330
18
100
AcDbEntity
  8
0
  6
CONTINUOUS
100
AcDbLine
 10
-34.35278301169842
 20
-51.98211643107342
 30
0.0
 11
-32.75278301169839
 21
-51.98211643107342
 31
0.0
  0
LINE
  5
289A
330
18
100
AcDbEntity
  8
0
  6
CONTINUOUS
100
AcDbLine
 10
-32.68611736229837
 20
-52.3906270206734
 30
0.0
 11
-33.95278301169838
 21
-52.3906270206734
 31
0.0
  0
LINE
  5
289B
330
18
100
AcDbEntity
  8
0
  6
CONTINUOUS
100
AcDbLine
 10
-32.75278301169839
 20
-51.98211643107342
 30
0.0
 11
-32.41945018699834
 21
-52.05020152937342
 31
0.0
  0
LINE
  5
289C
330
18
100
AcDbEntity
  8
0
  6
CONTINUOUS
100
AcDbLine
 10
-33.95278301169838
 20
-53.34381858717344
 30
0.0
 11
-32.68611736229837
 21
-53.34381858717344
 31
0.0
  0
LINE
  5
289D
330
18
100
AcDbEntity
  8
0
  6
CONTINUOUS
100
AcDbLine
 10
-32.48611736229838
 20
-52.45871211897344
 30
0.0
 11
-32.68611736229837
 21
-52.3906270206734
 31
0.0
  0
LINE
  5
289E
330
18
100
AcDbEntity
  8
0
  6
CONTINUOUS
100
AcDbLine
 10
-32.41945018699834
 20
-52.05020152937342
 30
0.0
 11
-32.15278301169837
 21
-52.25445682417341
 31
0.0
  0
LINE
  5
289F
330
18
100
AcDbEntity
  8
0
  6
CONTINUOUS
100
AcDbLine
 10
-32.15278301169837
 20
-52.25445682417341
 30
0.0
 11
-31.95278301169838
 21
-52.52679721727344
 31
0.0
  0
LINE
  5
28A0
330
18
100
AcDbEntity
  8
0
  6
CONTINUOUS
100
AcDbLine
 10
-32.35278301169842
 20
-52.59488231547343
 30
0.0
 11
-32.48611736229838
 21
-52.45871211897344
 31
0.0
  0
LINE
  5
28A1
330
18
100
AcDbEntity
  8
0
  6
CONTINUOUS
100
AcDbLine
 10
-31.95278301169838
 20
-52.52679721727344
 30
0.0
 11
-31.88611736229836
 21
-52.73105251207343
 31
0.0
  0
LINE
  5
28A2
330
18
100
AcDbEntity
  8
0
  6
CONTINUOUS
100
AcDbLine
 10
-32.28611736229834
 20
-52.79913780107341
 30
0.0
 11
-32.35278301169842
 21
-52.59488231547343
 31
0.0
  0
LINE
  5
28A3
330
18
100
AcDbEntity
  8
0
  6
CONTINUOUS
100
AcDbLine
 10
-31.88611736229836
 20
-52.73105251207343
 30
0.0
 11
-31.88611736229836
 21
-53.00339309587343
 31
0.0
  0
LINE
  5
28A4
330
18
100
AcDbEntity
  8
0
  6
CONTINUOUS
100
AcDbLine
 10
-32.28611736229834
 20
-52.93530799757343
 30
0.0
 11
-32.28611736229834
 21
-52.79913780107341
 31
0.0
  0
LINE
  5
28A5
330
18
100
AcDbEntity
  8
0
  6
CONTINUOUS
100
AcDbLine
 10
-33.95278301169838
 20
-52.3906270206734
 30
0.0
 11
-33.95278301169838
 21
-53.34381858717344
 31
0.0
  0
LINE
  5
28A6
330
18
100
AcDbEntity
  8
0
  6
CONTINUOUS
100
AcDbLine
 10
-32.68611736229837
 20
-53.34381858717344
 30
0.0
 11
-32.48611736229838
 21
-53.27573348887344
 31
0.0
  0
LINE
  5
28A7
330
18
100
AcDbEntity
  8
0
  6
CONTINUOUS
100
AcDbLine
 10
-32.48611736229838
 20
-53.27573348887344
 30
0.0
 11
-32.35278301169842
 21
-53.13956329237342
 31
0.0
  0
LINE
  5
28A8
330
18
100
AcDbEntity
  8
0
  6
CONTINUOUS
100
AcDbLine
 10
-31.88611736229836
 20
-53.00339309587343
 30
0.0
 11
-31.95278301169838
 21
-53.20764839067343
 31
0.0
  0
LINE
  5
28A9
330
18
100
AcDbEntity
  8
0
  6
CONTINUOUS
100
AcDbLine
 10
-32.35278301169842
 20
-53.13956329237342
 30
0.0
 11
-32.28611736229834
 21
-52.93530799757343
 31
0.0
  0
LINE
  5
28AA
330
18
100
AcDbEntity
  8
0
  6
CONTINUOUS
100
AcDbLine
 10
-27.01945018699837
 20
-53.27573348887344
 30
0.0
 11
-25.15278301169837
 21
-53.27573348887344
 31
0.0
  0
LINE
  5
28AB
330
18
100
AcDbEntity
  8
0
  6
CONTINUOUS
100
AcDbLine
 10
-27.41945018699834
 20
-51.98211643107342
 30
0.0
 11
-27.01945018699837
 21
-51.98211643107342
 31
0.0
  0
LINE
  5
28AC
330
18
100
AcDbEntity
  8
0
  6
CONTINUOUS
100
AcDbLine
 10
-29.01945018699837
 20
-51.98211643107342
 30
0.0
 11
-29.35278301169842
 21
-51.98211643107342
 31
0.0
  0
LINE
  5
28AD
330
18
100
AcDbEntity
  8
0
  6
CONTINUOUS
100
AcDbLine
 10
-29.35278301169842
 20
-52.3906270206734
 30
0.0
 11
-28.95278301169838
 21
-52.3906270206734
 31
0.0
  0
LINE
  5
28AE
330
18
100
AcDbEntity
  8
0
  6
CONTINUOUS
100
AcDbLine
 10
-29.35278301169842
 20
-51.98211643107342
 30
0.0
 11
-29.61945018699839
 21
-52.05020152937342
 31
0.0
  0
LINE
  5
28AF
330
18
100
AcDbEntity
  8
0
  6
CONTINUOUS
100
AcDbLine
 10
-28.68611736229837
 20
-52.05020152937342
 30
0.0
 11
-29.01945018699837
 21
-51.98211643107342
 31
0.0
  0
LINE
  5
28B0
330
18
100
AcDbEntity
  8
0
  6
CONTINUOUS
100
AcDbLine
 10
-28.61945018699839
 20
-53.41190368547342
 30
0.0
 11
-28.95278301169838
 21
-53.34381858717344
 31
0.0
  0
LINE
  5
28B1
330
18
100
AcDbEntity
  8
0
  6
CONTINUOUS
100
AcDbLine
 10
-28.55278301169841
 20
-52.73105251207343
 30
0.0
 11
-28.15278301169837
 21
-52.73105251207343
 31
0.0
  0
LINE
  5
28B2
330
18
100
AcDbEntity
  8
0
  6
CONTINUOUS
100
AcDbLine
 10
-28.95278301169838
 20
-53.34381858717344
 30
0.0
 11
-29.35278301169842
 21
-53.34381858717344
 31
0.0
  0
LINE
  5
28B3
330
18
100
AcDbEntity
  8
0
  6
CONTINUOUS
100
AcDbLine
 10
-28.95278301169838
 20
-52.3906270206734
 30
0.0
 11
-28.75278301169839
 21
-52.45871211897344
 31
0.0
  0
LINE
  5
28B4
330
18
100
AcDbEntity
  8
0
  6
CONTINUOUS
100
AcDbLine
 10
-29.35278301169842
 20
-53.34381858717344
 30
0.0
 11
-29.5527830116984
 21
-53.27573348887344
 31
0.0
  0
LINE
  5
28B5
330
18
100
AcDbEntity
  8
0
  6
CONTINUOUS
100
AcDbLine
 10
-28.75278301169839
 20
-52.45871211897344
 30
0.0
 11
-28.61945018699839
 21
-52.59488231547343
 31
0.0
  0
LINE
  5
28B6
330
18
100
AcDbEntity
  8
0
  6
CONTINUOUS
100
AcDbLine
 10
-28.41945018699835
 20
-52.25445682417341
 30
0.0
 11
-28.68611736229837
 21
-52.05020152937342
 31
0.0
  0
LINE
  5
28B7
330
18
100
AcDbEntity
  8
0
  6
CONTINUOUS
100
AcDbLine
 10
-29.5527830116984
 20
-53.27573348887344
 30
0.0
 11
-29.7527830116984
 21
-53.13956329237342
 31
0.0
  0
LINE
  5
28B8
330
18
100
AcDbEntity
  8
0
  6
CONTINUOUS
100
AcDbLine
 10
-28.21945018699841
 20
-52.52679721727344
 30
0.0
 11
-28.41945018699835
 21
-52.25445682417341
 31
0.0
  0
LINE
  5
28B9
330
18
100
AcDbEntity
  8
0
  6
CONTINUOUS
100
AcDbLine
 10
-28.15278301169837
 20
-52.73105251207343
 30
0.0
 11
-28.21945018699841
 21
-52.52679721727344
 31
0.0
  0
LINE
  5
28BA
330
18
100
AcDbEntity
  8
0
  6
CONTINUOUS
100
AcDbLine
 10
-29.7527830116984
 20
-53.13956329237342
 30
0.0
 11
-29.81945018699838
 21
-52.93530799757343
 31
0.0
  0
LINE
  5
28BB
330
18
100
AcDbEntity
  8
0
  6
CONTINUOUS
100
AcDbLine
 10
-28.61945018699839
 20
-52.59488231547343
 30
0.0
 11
-28.55278301169841
 21
-52.73105251207343
 31
0.0
  0
LINE
  5
28BC
330
18
100
AcDbEntity
  8
0
  6
CONTINUOUS
100
AcDbLine
 10
-30.21945018699841
 20
-53.00339309587343
 30
0.0
 11
-30.15278301169837
 21
-53.27573348887344
 31
0.0
  0
LINE
  5
28BD
330
18
100
AcDbEntity
  8
0
  6
CONTINUOUS
100
AcDbLine
 10
-27.01945018699837
 20
-51.98211643107342
 30
0.0
 11
-27.01945018699837
 21
-53.27573348887344
 31
0.0
  0
LINE
  5
28BE
330
18
100
AcDbEntity
  8
0
  6
CONTINUOUS
100
AcDbLine
 10
-29.81945018699838
 20
-52.79913780107341
 30
0.0
 11
-29.7527830116984
 21
-52.59488231547343
 31
0.0
  0
LINE
  5
28BF
330
18
100
AcDbEntity
  8
0
  6
CONTINUOUS
100
AcDbLine
 10
-30.15278301169837
 20
-52.45871211897344
 30
0.0
 11
-30.21945018699841
 21
-52.73105251207343
 31
0.0
  0
LINE
  5
28C0
330
18
100
AcDbEntity
  8
0
  6
CONTINUOUS
100
AcDbLine
 10
-29.81945018699838
 20
-52.93530799757343
 30
0.0
 11
-29.81945018699838
 21
-52.79913780107341
 31
0.0
  0
LINE
  5
28C1
330
18
100
AcDbEntity
  8
0
  6
CONTINUOUS
100
AcDbLine
 10
-30.21945018699841
 20
-52.73105251207343
 30
0.0
 11
-30.21945018699841
 21
-53.00339309587343
 31
0.0
  0
LINE
  5
28C2
330
18
100
AcDbEntity
  8
0
  6
CONTINUOUS
100
AcDbLine
 10
-29.5527830116984
 20
-52.45871211897344
 30
0.0
 11
-29.35278301169842
 21
-52.3906270206734
 31
0.0
  0
LINE
  5
28C3
330
18
100
AcDbEntity
  8
0
  6
CONTINUOUS
100
AcDbLine
 10
-29.61945018699839
 20
-52.05020152937342
 30
0.0
 11
-29.88611736229836
 21
-52.18637172587341
 31
0.0
  0
LINE
  5
28C4
330
18
100
AcDbEntity
  8
0
  6
CONTINUOUS
100
AcDbLine
 10
-29.7527830116984
 20
-52.59488231547343
 30
0.0
 11
-29.5527830116984
 21
-52.45871211897344
 31
0.0
  0
LINE
  5
28C5
330
18
100
AcDbEntity
  8
0
  6
CONTINUOUS
100
AcDbLine
 10
-29.88611736229836
 20
-52.18637172587341
 30
0.0
 11
-30.15278301169837
 21
-52.45871211897344
 31
0.0
  0
LINE
  5
28C6
330
18
100
AcDbEntity
  8
0
  6
CONTINUOUS
100
AcDbLine
 10
-24.21945018699841
 20
-51.98211643107342
 30
0.0
 11
-23.81945018699838
 21
-51.98211643107342
 31
0.0
  0
LINE
  5
28C7
330
18
100
AcDbEntity
  8
0
  6
CONTINUOUS
100
AcDbLine
 10
-25.15278301169837
 20
-51.98211643107342
 30
0.0
 11
-24.7527830116984
 21
-51.98211643107342
 31
0.0
  0
LINE
  5
28C8
330
18
100
AcDbEntity
  8
0
  6
CONTINUOUS
100
AcDbLine
 10
-25.15278301169837
 20
-53.27573348887344
 30
0.0
 11
-25.15278301169837
 21
-51.98211643107342
 31
0.0
  0
LINE
  5
28C9
330
18
100
AcDbEntity
  8
0
  6
CONTINUOUS
 62
     7
100
AcDbLine
 10
-164.7078508064983
 20
-32.18211643107343
 30
0.0
 11
-131.7078508064983
 21
-32.18211643107343
 31
0.0
  0
LINE
  5
28CA
330
18
100
AcDbEntity
  8
0
  6
CONTINUOUS
 62
     7
100
AcDbLine
 10
-165.7078508064983
 20
-33.18211643107344
 30
0.0
 11
-130.7078508064983
 21
-33.18211643107344
 31
0.0
  0
ARC
  5
28CB
330
18
100
AcDbEntity
  8
0
  6
CONTINUOUS
 62
     7
100
AcDbCircle
 10
-164.7078508064983
 20
-33.18211643107344
 30
0.0
 40
1.0
100
AcDbArc
 50
90.0
 51
180.0
  0
LINE
  5
28CC
330
18
100
AcDbEntity
  8
0
  6
CONTINUOUS
 62
     7
100
AcDbLine
 10
-53.01945018699837
 20
48.34686366202658
 30
0.0
 11
-53.01945018699837
 21
65.84686366202658
 31
0.0
  0
LINE
  5
28CD
330
18
100
AcDbEntity
  8
0
  6
CONTINUOUS
 62
     7
100
AcDbLine
 10
-55.51945018699837
 20
65.84686366202658
 30
0.0
 11
-55.51945018699837
 21
48.34686366202658
 31
0.0
  0
LINE
  5
28CE
330
18
100
AcDbEntity
  8
0
  6
CONTINUOUS
 62
     7
100
AcDbLine
 10
-56.51945018699837
 20
64.84686366202658
 30
0.0
 11
-56.51945018699837
 21
48.34686366202658
 31
0.0
  0
LINE
  5
28CF
330
18
100
AcDbEntity
  8
0
  6
CONTINUOUS
 62
     7
100
AcDbLine
 10
-56.99328220889833
 20
48.34686366202658
 30
0.0
 11
-56.99328220889833
 21
60.32614257372657
 31
0.0
  0
LINE
  5
28D0
330
18
100
AcDbEntity
  8
0
  6
CONTINUOUS
 62
     7
100
AcDbLine
 10
-76.17645805569839
 20
59.32079492802657
 30
0.0
 11
-76.17645805569839
 21
2.372932396026556
 31
0.0
  0
LINE
  5
28D1
330
18
100
AcDbEntity
  8
0
  6
CONTINUOUS
 62
     7
100
AcDbLine
 10
-79.01945018699837
 20
59.32079492802657
 30
0.0
 11
-79.01957225729836
 21
-0.3531363379734103
 31
0.0
  0
LINE
  5
28D2
330
18
100
AcDbEntity
  8
2_ALL_NOTES
  6
CONTINUOUS
100
AcDbLine
 10
-59.01945018699837
 20
17.93272393062656
 30
0.0
 11
-92.14257710679836
 21
-4.990655809673427
 31
0.0
  0
TEXT
  5
28D3
330
18
100
AcDbEntity
  8
2_ALL_NOTES
  6
CONTINUOUS
100
AcDbText
 10
-119.7425771067983
 20
2.009344190326572
 30
0.0
 40
4.0
  1
絶縁取付アダプタ
 41
0.695652173913043
 72
     5
 11
-94.14257710679837
 21
2.009344190326572
 31
0.0
100
AcDbText
  0
LINE
  5
28D4
330
18
100
AcDbEntity
  8
2_ALL_NOTES
  6
CONTINUOUS
100
AcDbLine
 10
-92.14257710679836
 20
-4.990655809673427
 30
0.0
 11
-122.9425771067983
 21
-4.990655809673427
 31
0.0
  0
TEXT
  5
28D5
330
18
100
AcDbEntity
  8
2_ALL_NOTES
  6
CONTINUOUS
100
AcDbText
 10
-122.9425771067983
 20
-3.990655809673427
 30
0.0
 40
4.0
  1
（底面に移設可能）
 41
0.7200000000000002
 72
     5
 11
-94.14257710679837
 21
-3.990655809673427
 31
0.0
100
AcDbText
  0
ARC
  5
28D6
330
18
100
AcDbEntity
  8
0
  6
CONTINUOUS
 62
     7
100
AcDbCircle
 10
-131.7078508064983
 20
-33.18211643107344
 30
0.0
 40
1.0
100
AcDbArc
 50
0.0
 51
90.0
  0
LINE
  5
28D7
330
18
100
AcDbEntity
  8
0
  6
CONTINUOUS
 62
     7
100
AcDbLine
 10
-53.01945018699837
 20
-4.153136337973421
 30
0.0
 11
-53.01945018699837
 21
13.34686366202658
 31
0.0
  0
LINE
  5
28D8
330
18
100
AcDbEntity
  8
0
  6
CONTINUOUS
 62
     7
100
AcDbLine
 10
-55.51945018699837
 20
13.34686366202658
 30
0.0
 11
-55.51945018699837
 21
-4.153136337973421
 31
0.0
  0
LINE
  5
28D9
330
18
100
AcDbEntity
  8
0
  6
CONTINUOUS
 62
     7
100
AcDbLine
 10
-56.51945018699837
 20
13.34686366202658
 30
0.0
 11
-56.51945018699837
 21
-3.153136337973421
 31
0.0
  0
LINE
  5
28DA
330
18
100
AcDbEntity
  8
0
  6
CONTINUOUS
 62
     7
100
AcDbLine
 10
-56.99328220889833
 20
1.367584750326557
 30
0.0
 11
-56.99328220889833
 21
13.34686366202658
 31
0.0
  0
DIMENSION
  5
28DB
330
18
100
AcDbEntity
  8
1_ALL_DRAFT_DIMS
  6
CONTINUOUS
100
AcDbDimension
  2
*D14
 10
-52.51945018699837
 20
-13.36367245437344
 30
0.0
 11
-66.01945018699836
 21
-9.763672454373443
 31
0.0
 70
    32
  3
STANDARD
100
AcDbAlignedDimension
 13
-79.51945018699837
 23
14.84686366202657
 33
0.0
 14
-52.51945018699837
 24
24.59686366202658
 34
0.0
100
AcDbRotatedDimension
1001
ACAD
1000
DSTYLE
1002
{
1070
   140
1040
2.799999999999999
1002
}
  0
ARC
  5
28DC
330
18
100
AcDbEntity
  8
0
  6
CONTINUOUS
 62
     7
100
AcDbCircle
 10
-55.51945018699837
 20
-3.153136337973421
 30
0.0
 40
1.0
100
AcDbArc
 50
180.0
 51
270.0
  0
ARC
  5
28DD
330
18
100
AcDbEntity
  8
0
  6
CONTINUOUS
 62
     7
100
AcDbCircle
 10
-58.01945018699837
 20
-33.18211643107344
 30
0.0
 40
1.0
100
AcDbArc
 50
90.0
 51
180.0
  0
LINE
  5
28DE
330
18
100
AcDbEntity
  8
0
  6
CONTINUOUS
 62
     7
100
AcDbLine
 10
-76.17645805569839
 20
2.372932396026556
 30
0.0
 11
-56.99328220889833
 21
1.367584750326557
 31
0.0
  0
LINE
  5
28DF
330
18
100
AcDbEntity
  8
0
  6
CONTINUOUS
 62
     7
100
AcDbLine
 10
-76.17645805569839
 20
-0.622956208173406
 30
0.0
 11
-56.99328220889833
 21
-1.628303853973449
 31
0.0
  0
ARC
  5
28E0
330
18
100
AcDbEntity
  8
0
  6
CONTINUOUS
 62
     7
100
AcDbCircle
 10
-76.01945018699836
 20
2.372932396026556
 30
0.0
 40
3.0
100
AcDbArc
 50
180.0
 51
266.9999999999992
  0
LINE
  5
28E1
330
18
100
AcDbEntity
  8
0
  6
CONTINUOUS
 62
     7
100
AcDbLine
 10
-76.17645805569839
 20
2.372932396026556
 30
0.0
 11
-79.01945018699837
 21
2.372932396026556
 31
0.0
  0
LINE
  5
28E2
330
18
100
AcDbEntity
  8
0
  6
CONTINUOUS
 62
     7
100
AcDbLine
 10
-78.71957225729841
 20
-0.6531363379734217
 30
0.0
 11
-75.60058687469837
 21
-0.6531363379734217
 31
0.0
  0
LWPOLYLINE
  5
28E3
330
18
100
AcDbEntity
  8
0
  6
CONTINUOUS
 62
     7
100
AcDbPolyline
 90
        7
 70
     0
 43
0.0
 10
-76.17645805569839
 20
2.372932396026556
 10
-76.21158310219835
 20
1.598857594726581
 10
-76.23365997169838
 20
0.8773519487265559
 10
-76.24118937439835
 20
0.2574145241265739
 10
-76.23365997169838
 20
-0.2188533384734512
 10
-76.21158310219835
 20
-0.5191072206734191
 10
-76.17645805569839
 20
-0.622956208173406
  0
LINE
  5
28E4
330
18
100
AcDbEntity
  8
0
  6
CONTINUOUS
 62
     7
100
AcDbLine
 10
-78.71957225729841
 20
1.10965812642658
 30
0.0
 11
-78.71957225729841
 21
-0.6531363379734217
 31
0.0
  0
LINE
  5
28E5
330
18
100
AcDbEntity
  8
0
  6
CONTINUOUS
 62
     7
100
AcDbLine
 10
-79.01957225729836
 20
-0.3531363379734103
 30
0.0
 11
-78.71957225729841
 21
-0.6531363379734217
 31
0.0
  0
LWPOLYLINE
  5
28E6
330
18
100
AcDbEntity
  8
0
  6
CONTINUOUS
 62
     7
100
AcDbPolyline
 90
       13
 70
     0
 43
0.0
 10
-56.99328220889833
 20
-1.628303853973449
 10
-56.9910803024984
 20
-1.616687094973428
 10
-56.98874830609838
 20
-1.572362497573436
 10
-56.98652069199841
 20
-1.482840803073429
 10
-56.98462495479839
 20
-1.339076175273419
 10
-56.9832588195984
 20
-1.137200994073424
 10
-56.9825651955984
 20
-0.8794483662734364
 10
-56.98261447889837
 20
-0.5738043189734299
 10
-56.98339869489837
 20
-0.2332670445734095
 10
-56.98483095119837
 20
0.1251373624265568
 10
-56.98675367059843
 20
0.4822663626265751
 10
-56.98895911409841
 20
0.8192438110265527
 10
-56.99328220889833
 20
1.367584750326557
  0
ARC
  5
28E7
330
18
100
AcDbEntity
  8
0
  6
CONTINUOUS
 62
     7
100
AcDbCircle
 10
-57.01945018699837
 20
-2.127618618473434
 30
0.0
 40
0.4999999996000001
100
AcDbArc
 50
359.9999996734001
 51
86.9999999829
  0
LINE
  5
28E8
330
18
100
AcDbEntity
  8
0
  6
CONTINUOUS
 62
     7
100
AcDbLine
 10
-56.51945018699837
 20
1.367584750326557
 30
0.0
 11
-56.99328220889833
 21
1.367584750326557
 31
0.0
  0
LINE
  5
28E9
330
18
100
AcDbEntity
  8
0
  6
CONTINUOUS
 62
     7
100
AcDbLine
 10
-51.7670854904984
 20
-38.01208259667342
 30
0.0
 11
-46.67181488339838
 21
-38.01208259667342
 31
0.0
  0
LINE
  5
28EA
330
18
100
AcDbEntity
  8
0
  6
CONTINUOUS
 62
     7
100
AcDbLine
 10
-44.21945018699841
 20
-39.18211643107344
 30
0.0
 11
-54.21945018699841
 21
-39.18211643107344
 31
0.0
  0
LINE
  5
28EB
330
18
100
AcDbEntity
  8
0
  6
CONTINUOUS
 62
     7
100
AcDbLine
 10
-47.71945018699841
 20
-37.79525646447342
 30
0.0
 11
-46.67181488339838
 21
-38.01208259667342
 31
0.0
  0
LINE
  5
28EC
330
18
100
AcDbEntity
  8
0
  6
CONTINUOUS
 62
     7
100
AcDbLine
 10
-53.21945018699842
 20
-39.18211643107344
 30
0.0
 11
-53.21945018699842
 21
-33.18211643107344
 31
0.0
  0
LINE
  5
28ED
330
18
100
AcDbEntity
  8
0
  6
CONTINUOUS
 62
     7
100
AcDbLine
 10
-54.21945018699841
 20
-39.18211643107344
 30
0.0
 11
-54.21945018699841
 21
-32.18211643107343
 31
0.0
  0
LINE
  5
28EE
330
18
100
AcDbEntity
  8
0
  6
CONTINUOUS
 62
     7
100
AcDbLine
 10
-50.71945018699842
 20
-37.79525646447342
 30
0.0
 11
-51.7670854904984
 21
-38.01208259667342
 31
0.0
  0
LINE
  5
28EF
330
18
100
AcDbEntity
  8
0
  6
CONTINUOUS
 62
     7
100
AcDbLine
 10
-51.7670854904984
 20
-38.01208259667342
 30
0.0
 11
-51.86945018699839
 21
-39.18211643107344
 31
0.0
  0
LWPOLYLINE
  5
28F0
330
18
100
AcDbEntity
  8
0
  6
CONTINUOUS
 62
     7
100
AcDbPolyline
 90
        3
 70
     0
 43
0.0
 10
-49.21945018699841
 20
-37.79525646447342
 10
-49.46919112229841
 20
-37.79841118127342
 10
-49.71945018699841
 20
-37.80790760207344
  0
LWPOLYLINE
  5
28F1
330
18
100
AcDbEntity
  8
0
  6
CONTINUOUS
 62
     7
100
AcDbPolyline
 90
        4
 70
     0
 43
0.0
 10
-49.71945018699841
 20
-37.70714775947343
 10
-50.05497628079843
 20
-37.72963452227344
 10
-50.38577032419841
 20
-37.76295833487341
 10
-50.71945018699842
 20
-37.80790760207344
  0
LWPOLYLINE
  5
28F2
330
18
100
AcDbEntity
  8
0
  6
CONTINUOUS
 62
     7
100
AcDbPolyline
 90
        4
 70
     0
 43
0.0
 10
-47.71945018699841
 20
-37.80790760207344
 10
-48.0691476146984
 20
-37.76108805737342
 10
-48.40156606899836
 20
-37.72816919547344
 10
-48.71945018699841
 20
-37.70714775947343
  0
LWPOLYLINE
  5
28F3
330
18
100
AcDbEntity
  8
0
  6
CONTINUOUS
 62
     7
100
AcDbPolyline
 90
        3
 70
     0
 43
0.0
 10
-48.71945018699841
 20
-37.80790760207344
 10
-48.97111955229838
 20
-37.79837564657341
 10
-49.21945018699841
 20
-37.79525646447342
  0
LINE
  5
28F4
330
18
100
AcDbEntity
  8
0
  6
CONTINUOUS
 62
     7
100
AcDbLine
 10
-47.71945018699841
 20
-37.79525646447342
 30
0.0
 11
-47.71945018699841
 21
-37.80790760207344
 31
0.0
  0
LINE
  5
28F5
330
18
100
AcDbEntity
  8
0
  6
CONTINUOUS
 62
     7
100
AcDbLine
 10
-48.71945018699841
 20
-37.70714775947343
 30
0.0
 11
-48.71945018699841
 21
-37.80790760207344
 31
0.0
  0
LINE
  5
28F6
330
18
100
AcDbEntity
  8
0
  6
CONTINUOUS
 62
     7
100
AcDbLine
 10
-49.71945018699841
 20
-37.80790760207344
 30
0.0
 11
-49.71945018699841
 21
-37.70714775947343
 31
0.0
  0
LINE
  5
28F7
330
18
100
AcDbEntity
  8
0
  6
CONTINUOUS
 62
     7
100
AcDbLine
 10
-50.71945018699842
 20
-37.80790760207344
 30
0.0
 11
-50.71945018699842
 21
-37.79525646447342
 31
0.0
  0
ARC
  5
28F8
330
18
100
AcDbEntity
  8
0
  6
CONTINUOUS
 62
     7
100
AcDbCircle
 10
-54.21945018699841
 20
-33.18211643107344
 30
0.0
 40
1.0
100
AcDbArc
 50
0.0
 51
90.0
  0
LINE
  5
28F9
330
18
100
AcDbEntity
  8
0
  6
CONTINUOUS
 62
     7
100
AcDbLine
 10
-44.21945018699841
 20
-32.18211643107343
 30
0.0
 11
-44.21945018699841
 21
-39.18211643107344
 31
0.0
  0
LINE
  5
28FA
330
18
100
AcDbEntity
  8
0
  6
CONTINUOUS
 62
     7
100
AcDbLine
 10
-45.21945018699841
 20
-33.18211643107344
 30
0.0
 11
-45.21945018699841
 21
-39.18211643107344
 31
0.0
  0
LINE
  5
28FB
330
18
100
AcDbEntity
  8
0
  6
CONTINUOUS
 62
     7
100
AcDbLine
 10
-46.67181488339838
 20
-38.01208259667342
 30
0.0
 11
-46.56945018699838
 21
-39.18211643107344
 31
0.0
  0
ARC
  5
28FC
330
18
100
AcDbEntity
  8
0
  6
CONTINUOUS
 62
     7
100
AcDbCircle
 10
-44.21945018699841
 20
-33.18211643107344
 30
0.0
 40
1.0
100
AcDbArc
 50
90.0
 51
180.0
  0
CIRCLE
  5
28FD
330
18
100
AcDbEntity
  8
0
  6
CONTINUOUS
 62
     7
100
AcDbCircle
 10
-52.51945018699837
 20
30.84686366202658
 30
0.0
 40
3.25
  0
CIRCLE
  5
28FE
330
18
100
AcDbEntity
  8
0
  6
CONTINUOUS
 62
     7
100
AcDbCircle
 10
-52.51945018699837
 20
30.84686366202658
 30
0.0
 40
4.5
  0
LINE
  5
28FF
330
18
100
AcDbEntity
  8
0
  6
CONTINUOUS
 62
     7
100
AcDbLine
 10
-59.01945018699837
 20
47.34686366202658
 30
0.0
 11
-53.21945018699842
 21
47.34686366202658
 31
0.0
  0
LINE
  5
2901
330
18
100
AcDbEntity
  8
0
  6
CONTINUOUS
 62
     7
100
AcDbLine
 10
-59.01945018699837
 20
14.34686366202657
 30
0.0
 11
-53.21945018699842
 21
14.34686366202657
 31
0.0
  0
LINE
  5
2902
330
18
100
AcDbEntity
  8
0
  6
CONTINUOUS
 62
     7
100
AcDbLine
 10
-58.01945018699837
 20
13.34686366202658
 30
0.0
 11
-58.01945018699837
 21
48.34686366202658
 31
0.0
  0
LINE
  5
2903
330
18
100
AcDbEntity
  8
0
  6
CONTINUOUS
 62
     7
100
AcDbLine
 10
-59.01945018699837
 20
47.34686366202658
 30
0.0
 11
-59.01945018699837
 21
14.34686366202657
 31
0.0
  0
LINE
  5
2904
330
18
100
AcDbEntity
  8
0
  6
CONTINUOUS
 62
     7
100
AcDbLine
 10
-79.51945018699837
 20
15.34686366202658
 30
0.0
 11
-79.51945018699837
 21
46.34686366202657
 31
0.0
  0
ARC
  5
2905
330
18
100
AcDbEntity
  8
0
  6
CONTINUOUS
 62
     7
100
AcDbCircle
 10
-79.51945018699837
 20
14.84686366202657
 30
0.0
 40
0.5
100
AcDbArc
 50
0.0000000012001632
 51
90.0
  0
ARC
  5
2906
330
18
100
AcDbEntity
  8
0
  6
CONTINUOUS
 62
     7
100
AcDbCircle
 10
-58.01945018699837
 20
14.34686366202657
 30
0.0
 40
1.0
100
AcDbArc
 50
180.0
 51
270.0
  0
LWPOLYLINE
  5
2907
330
18
100
AcDbEntity
  8
2_ALL_NOTES
  6
CONTINUOUS
100
AcDbPolyline
 90
        3
 70
     0
 43
0.0
 10
-60.30834864909838
 20
16.28064470902654
 10
-59.01945018699837
 20
17.93272393062656
 10
-61.01969296349841
 20
17.30850134612657
  0
ARC
  5
2909
330
18
100
AcDbEntity
  8
0
  6
CONTINUOUS
 62
     7
100
AcDbCircle
 10
-79.51945018699837
 20
46.84686366202657
 30
0.0
 40
0.5
100
AcDbArc
 50
270.0
 51
0.0
  0
ARC
  5
290A
330
18
100
AcDbEntity
  8
0
  6
CONTINUOUS
 62
     7
100
AcDbCircle
 10
-58.01945018699837
 20
47.34686366202658
 30
0.0
 40
1.0
100
AcDbArc
 50
90.0
 51
180.0
  0
LINE
  5
290C
330
18
100
AcDbEntity
  8
0
  6
CONTINUOUS
 62
     7
100
AcDbLine
 10
-53.01945018699837
 20
34.03103741322658
 30
0.0
 11
-53.01945018699837
 21
27.66268991082657
 31
0.0
  0
CIRCLE
  5
290D
330
18
100
AcDbEntity
  8
0
  6
CONTINUOUS
 62
     7
100
AcDbCircle
 10
-49.21945018699841
 20
17.34686366202657
 30
0.0
 40
2.547635303499999
  0
CIRCLE
  5
290E
330
18
100
AcDbEntity
  8
0
  6
CONTINUOUS
 62
     7
100
AcDbCircle
 10
-49.21945018699841
 20
17.34686366202657
 30
0.0
 40
2.649999999999999
  0
LINE
  5
290F
330
18
100
AcDbEntity
  8
0
  6
CONTINUOUS
 62
     7
100
AcDbLine
 10
-44.21945018699841
 20
17.34686366202657
 30
0.0
 11
-44.21945018699841
 21
13.34686366202658
 31
0.0
  0
LINE
  5
2910
330
18
100
AcDbEntity
  8
0
  6
CONTINUOUS
 62
     7
100
AcDbLine
 10
-45.21945018699841
 20
17.34686366202657
 30
0.0
 11
-45.21945018699841
 21
14.34686366202657
 31
0.0
  0
LINE
  5
2911
330
18
100
AcDbEntity
  8
0
  6
CONTINUOUS
 62
     7
100
AcDbLine
 10
-48.71945018699841
 20
16.84686366202657
 30
0.0
 11
-48.71945018699841
 21
15.84686366202658
 31
0.0
  0
LINE
  5
2912
330
18
100
AcDbEntity
  8
0
  6
CONTINUOUS
 62
     7
100
AcDbLine
 10
-49.71945018699841
 20
15.84686366202658
 30
0.0
 11
-49.71945018699841
 21
16.84686366202657
 31
0.0
  0
LINE
  5
2913
330
18
100
AcDbEntity
  8
0
  6
CONTINUOUS
 62
     7
100
AcDbLine
 10
-53.21945018699842
 20
14.34686366202657
 30
0.0
 11
-53.21945018699842
 21
17.34686366202657
 31
0.0
  0
LINE
  5
2914
330
18
100
AcDbEntity
  8
0
  6
CONTINUOUS
 62
     7
100
AcDbLine
 10
-54.21945018699841
 20
13.34686366202658
 30
0.0
 11
-54.21945018699841
 21
17.34686366202657
 31
0.0
  0
ARC
  5
2915
330
18
100
AcDbEntity
  8
0
  6
CONTINUOUS
 62
     7
100
AcDbCircle
 10
-54.21945018699841
 20
14.34686366202657
 30
0.0
 40
1.0
100
AcDbArc
 50
270.0
 51
0.0
  0
LINE
  5
2916
330
18
100
AcDbEntity
  8
0
  6
CONTINUOUS
 62
     7
100
AcDbLine
 10
-48.71945018699841
 20
15.84686366202658
 30
0.0
 11
-49.71945018699841
 21
15.84686366202658
 31
0.0
  0
ARC
  5
2917
330
18
100
AcDbEntity
  8
0
  6
CONTINUOUS
 62
     7
100
AcDbCircle
 10
-44.21945018699841
 20
14.34686366202657
 30
0.0
 40
1.0
100
AcDbArc
 50
180.0
 51
270.0
  0
ARC
  5
2918
330
18
100
AcDbEntity
  8
0
  6
CONTINUOUS
 62
     7
100
AcDbCircle
 10
-49.21945018699841
 20
17.34686366202657
 30
0.0
 40
4.999991719599999
100
AcDbArc
 50
0.0
 51
180.0
  0
ARC
  5
2919
330
18
100
AcDbEntity
  8
0
  6
CONTINUOUS
 62
     7
100
AcDbCircle
 10
-49.21945018699841
 20
17.34686366202657
 30
0.0
 40
4.0
100
AcDbArc
 50
0.0
 51
180.0
  0
LINE
  5
291A
330
18
100
AcDbEntity
  8
0
  6
CONTINUOUS
 62
     7
100
AcDbLine
 10
-54.21945018699841
 20
17.34686366202657
 30
0.0
 11
-53.21945018699842
 21
17.34686366202657
 31
0.0
  0
LINE
  5
291B
330
18
100
AcDbEntity
  8
0
  6
CONTINUOUS
 62
     7
100
AcDbLine
 10
-49.71945018699841
 20
18.84686366202657
 30
0.0
 11
-48.71945018699841
 21
18.84686366202657
 31
0.0
  0
LINE
  5
291C
330
18
100
AcDbEntity
  8
0
  6
CONTINUOUS
 62
     7
100
AcDbLine
 10
-48.71945018699841
 20
17.84686366202658
 30
0.0
 11
-47.71945018699841
 21
17.84686366202658
 31
0.0
  0
LINE
  5
291D
330
18
100
AcDbEntity
  8
0
  6
CONTINUOUS
 62
     7
100
AcDbLine
 10
-50.71945018699842
 20
17.84686366202658
 30
0.0
 11
-49.71945018699841
 21
17.84686366202658
 31
0.0
  0
LINE
  5
291E
330
18
100
AcDbEntity
  8
0
  6
CONTINUOUS
 62
     7
100
AcDbLine
 10
-49.71945018699841
 20
16.84686366202657
 30
0.0
 11
-50.71945018699842
 21
16.84686366202657
 31
0.0
  0
LINE
  5
291F
330
18
100
AcDbEntity
  8
0
  6
CONTINUOUS
 62
     7
100
AcDbLine
 10
-47.71945018699841
 20
16.84686366202657
 30
0.0
 11
-48.71945018699841
 21
16.84686366202657
 31
0.0
  0
LINE
  5
2920
330
18
100
AcDbEntity
  8
0
  6
CONTINUOUS
 62
     7
100
AcDbLine
 10
-47.71945018699841
 20
17.84686366202658
 30
0.0
 11
-47.71945018699841
 21
16.84686366202657
 31
0.0
  0
LINE
  5
2921
330
18
100
AcDbEntity
  8
0
  6
CONTINUOUS
 62
     7
100
AcDbLine
 10
-48.71945018699841
 20
18.84686366202657
 30
0.0
 11
-48.71945018699841
 21
17.84686366202658
 31
0.0
  0
LINE
  5
2922
330
18
100
AcDbEntity
  8
0
  6
CONTINUOUS
 62
     7
100
AcDbLine
 10
-49.71945018699841
 20
17.84686366202658
 30
0.0
 11
-49.71945018699841
 21
18.84686366202657
 31
0.0
  0
LINE
  5
2923
330
18
100
AcDbEntity
  8
0
  6
CONTINUOUS
 62
     7
100
AcDbLine
 10
-50.71945018699842
 20
16.84686366202657
 30
0.0
 11
-50.71945018699842
 21
17.84686366202658
 31
0.0
  0
LWPOLYLINE
  5
2924
330
18
100
AcDbEntity
  8
2_ALL_NOTES
  6
CONTINUOUS
100
AcDbPolyline
 90
        3
 70
     0
 43
0.0
 10
-47.89459821604539
 20
25.90588626344896
 10
-51.67828829044545
 20
27.70760472664897
 10
-49.59374219404534
 20
24.07206246004892
  0
LINE
  5
2925
330
18
100
AcDbEntity
  8
0
  6
CONTINUOUS
 62
     7
100
AcDbLine
 10
-44.21945018699841
 20
17.34686366202657
 30
0.0
 11
-45.21945018699841
 21
17.34686366202657
 31
0.0
  0
ARC
  5
2927
330
18
100
AcDbEntity
  8
0
  6
CONTINUOUS
 62
     7
100
AcDbCircle
 10
-49.21945018699841
 20
44.34686366202657
 30
0.0
 40
4.999991719599999
100
AcDbArc
 50
180.0
 51
0.0
  0
LINE
  5
2929
330
18
100
AcDbEntity
  8
DEFAULT_1
  6
CENTER
 48
0.1
100
AcDbLine
 10
-52.51945018699837
 20
24.59686366202658
 30
0.0
 11
-52.51945018699837
 21
36.59686366202658
 31
0.0
  0
LINE
  5
292A
330
18
100
AcDbEntity
  8
0
  6
CONTINUOUS
 62
     7
100
AcDbLine
 10
-54.61945018699839
 20
28.39676141902654
 30
0.0
 11
-54.61945018699839
 21
33.29696590502658
 31
0.0
  0
LINE
  5
292B
330
18
100
AcDbEntity
  8
0
  6
CONTINUOUS
 62
     7
100
AcDbLine
 10
-54.91489251289841
 20
28.67562947122655
 30
0.0
 11
-54.91489251289841
 21
33.01809785292658
 31
0.0
  0
ARC
  5
292C
330
18
100
AcDbEntity
  8
0
  6
CONTINUOUS
 62
     7
100
AcDbCircle
 10
-49.21945018699841
 20
44.34686366202657
 30
0.0
 40
4.0
100
AcDbArc
 50
180.0
 51
0.0
  0
CIRCLE
  5
292D
330
18
100
AcDbEntity
  8
0
  6
CONTINUOUS
 62
     7
100
AcDbCircle
 10
-49.21945018699841
 20
44.34686366202657
 30
0.0
 40
2.547635303499999
  0
CIRCLE
  5
292E
330
18
100
AcDbEntity
  8
0
  6
CONTINUOUS
 62
     7
100
AcDbCircle
 10
-49.21945018699841
 20
44.34686366202657
 30
0.0
 40
2.649999999999999
  0
LINE
  5
292F
330
18
100
AcDbEntity
  8
0
  6
CONTINUOUS
 62
     7
100
AcDbLine
 10
-48.71945018699841
 20
45.84686366202658
 30
0.0
 11
-48.71945018699841
 21
44.84686366202658
 31
0.0
  0
LINE
  5
2930
330
18
100
AcDbEntity
  8
0
  6
CONTINUOUS
 62
     7
100
AcDbLine
 10
-49.71945018699841
 20
44.84686366202658
 30
0.0
 11
-49.71945018699841
 21
45.84686366202658
 31
0.0
  0
LINE
  5
2931
330
18
100
AcDbEntity
  8
0
  6
CONTINUOUS
 62
     7
100
AcDbLine
 10
-53.21945018699842
 20
44.34686366202657
 30
0.0
 11
-53.21945018699842
 21
47.34686366202658
 31
0.0
  0
LINE
  5
2932
330
18
100
AcDbEntity
  8
0
  6
CONTINUOUS
 62
     7
100
AcDbLine
 10
-54.21945018699841
 20
44.34686366202657
 30
0.0
 11
-54.21945018699841
 21
48.34686366202658
 31
0.0
  0
LINE
  5
2933
330
18
100
AcDbEntity
  8
0
  6
CONTINUOUS
 62
     7
100
AcDbLine
 10
-54.21945018699841
 20
44.34686366202657
 30
0.0
 11
-53.21945018699842
 21
44.34686366202657
 31
0.0
  0
LINE
  5
2934
330
18
100
AcDbEntity
  8
0
  6
CONTINUOUS
 62
     7
100
AcDbLine
 10
-48.71945018699841
 20
44.84686366202658
 30
0.0
 11
-47.71945018699841
 21
44.84686366202658
 31
0.0
  0
LINE
  5
2935
330
18
100
AcDbEntity
  8
0
  6
CONTINUOUS
 62
     7
100
AcDbLine
 10
-50.71945018699842
 20
44.84686366202658
 30
0.0
 11
-49.71945018699841
 21
44.84686366202658
 31
0.0
  0
LINE
  5
2936
330
18
100
AcDbEntity
  8
0
  6
CONTINUOUS
 62
     7
100
AcDbLine
 10
-49.71945018699841
 20
43.84686366202657
 30
0.0
 11
-50.71945018699842
 21
43.84686366202657
 31
0.0
  0
LINE
  5
2937
330
18
100
AcDbEntity
  8
0
  6
CONTINUOUS
 62
     7
100
AcDbLine
 10
-47.71945018699841
 20
43.84686366202657
 30
0.0
 11
-48.71945018699841
 21
43.84686366202657
 31
0.0
  0
LINE
  5
2938
330
18
100
AcDbEntity
  8
0
  6
CONTINUOUS
 62
     7
100
AcDbLine
 10
-48.71945018699841
 20
42.84686366202658
 30
0.0
 11
-49.71945018699841
 21
42.84686366202658
 31
0.0
  0
LINE
  5
2939
330
18
100
AcDbEntity
  8
0
  6
CONTINUOUS
 62
     7
100
AcDbLine
 10
-47.71945018699841
 20
44.84686366202658
 30
0.0
 11
-47.71945018699841
 21
43.84686366202657
 31
0.0
  0
LINE
  5
293A
330
18
100
AcDbEntity
  8
0
  6
CONTINUOUS
 62
     7
100
AcDbLine
 10
-48.71945018699841
 20
43.84686366202657
 30
0.0
 11
-48.71945018699841
 21
42.84686366202658
 31
0.0
  0
LINE
  5
293B
330
18
100
AcDbEntity
  8
0
  6
CONTINUOUS
 62
     7
100
AcDbLine
 10
-49.71945018699841
 20
42.84686366202658
 30
0.0
 11
-49.71945018699841
 21
43.84686366202657
 31
0.0
  0
LINE
  5
293C
330
18
100
AcDbEntity
  8
0
  6
CONTINUOUS
 62
     7
100
AcDbLine
 10
-50.71945018699842
 20
43.84686366202657
 30
0.0
 11
-50.71945018699842
 21
44.84686366202658
 31
0.0
  0
ARC
  5
293D
330
18
100
AcDbEntity
  8
0
  6
CONTINUOUS
 62
     7
100
AcDbCircle
 10
-54.21945018699841
 20
47.34686366202658
 30
0.0
 40
1.0
100
AcDbArc
 50
0.0
 51
90.0
  0
LINE
  5
293E
330
18
100
AcDbEntity
  8
0
  6
CONTINUOUS
 62
     7
100
AcDbLine
 10
-49.71945018699841
 20
45.84686366202658
 30
0.0
 11
-48.71945018699841
 21
45.84686366202658
 31
0.0
  0
LINE
  5
293F
330
18
100
AcDbEntity
  8
0
  6
CONTINUOUS
 62
     7
100
AcDbLine
 10
-44.21945018699841
 20
44.34686366202657
 30
0.0
 11
-44.21945018699841
 21
48.34686366202658
 31
0.0
  0
LINE
  5
2940
330
18
100
AcDbEntity
  8
0
  6
CONTINUOUS
 62
     7
100
AcDbLine
 10
-45.21945018699841
 20
47.34686366202658
 30
0.0
 11
-45.21945018699841
 21
44.34686366202657
 31
0.0
  0
LINE
  5
2941
330
18
100
AcDbEntity
  8
0
  6
CONTINUOUS
 62
     7
100
AcDbLine
 10
-44.21945018699841
 20
44.34686366202657
 30
0.0
 11
-45.21945018699841
 21
44.34686366202657
 31
0.0
  0
ARC
  5
2942
330
18
100
AcDbEntity
  8
0
  6
CONTINUOUS
 62
     7
100
AcDbCircle
 10
-44.21945018699841
 20
47.34686366202658
 30
0.0
 40
1.0
100
AcDbArc
 50
90.0
 51
180.0
  0
ARC
  5
2943
330
18
100
AcDbEntity
  8
0
  6
CONTINUOUS
 62
     7
100
AcDbCircle
 10
-55.51945018699837
 20
64.84686366202658
 30
0.0
 40
1.0
100
AcDbArc
 50
90.0
 51
180.0
  0
LINE
  5
2944
330
18
100
AcDbEntity
  8
0
  6
CONTINUOUS
 62
     7
100
AcDbLine
 10
-76.17645805569839
 20
62.31668353232658
 30
0.0
 11
-56.99328220889833
 21
63.32203117802658
 31
0.0
  0
LINE
  5
2945
330
18
100
AcDbEntity
  8
0
  6
CONTINUOUS
 62
     7
100
AcDbLine
 10
-76.17645805569839
 20
59.32079492802657
 30
0.0
 11
-56.99328220889833
 21
60.32614257372657
 31
0.0
  0
ARC
  5
2946
330
18
100
AcDbEntity
  8
0
  6
CONTINUOUS
 62
     7
100
AcDbCircle
 10
-76.01945018699836
 20
59.32079492802657
 30
0.0
 40
3.0
100
AcDbArc
 50
93.00000000000071
 51
180.0
  0
LINE
  5
2947
330
18
100
AcDbEntity
  8
0
  6
CONTINUOUS
 62
     7
100
AcDbLine
 10
-76.17645805569839
 20
59.32079492802657
 30
0.0
 11
-79.01945018699837
 21
59.32079492802657
 31
0.0
  0
LWPOLYLINE
  5
2948
330
18
100
AcDbEntity
  8
0
  6
CONTINUOUS
 62
     7
100
AcDbPolyline
 90
        7
 70
     0
 43
0.0
 10
-76.17645805569839
 20
62.31668353232658
 10
-76.21158310219835
 20
62.2128345447266
 10
-76.23365997169838
 20
61.91258066252657
 10
-76.24118937439835
 20
61.43631279992655
 10
-76.23365997169838
 20
60.81637537542659
 10
-76.21158310219835
 20
60.09486972942656
 10
-76.17645805569839
 20
59.32079492802657
  0
LWPOLYLINE
  5
2949
330
18
100
AcDbEntity
  8
0
  6
CONTINUOUS
 62
     7
100
AcDbPolyline
 90
       12
 70
     0
 43
0.0
 10
-56.98874830609838
 20
60.90448040992654
 10
-56.98652069199841
 20
61.25067093462658
 10
-56.98462495479839
 20
61.61287152992656
 10
-56.9832588195984
 20
61.97216629172655
 10
-56.9825651955984
 20
62.30985127192656
 10
-56.98261447889837
 20
62.60982385942657
 10
-56.98339869489837
 20
62.86000149542658
 10
-56.98483095119837
 20
63.05337094502658
 10
-56.98675367059843
 20
63.18895017122656
 10
-56.98895911409841
 20
63.2718055538266
 10
-56.99121466259839
 20
63.31185918132658
 10
-56.99328220889833
 20
63.32203117802658
  0
LINE
  5
294A
330
18
100
AcDbEntity
  8
0
  6
CONTINUOUS
 62
     7
100
AcDbLine
 10
-56.51945018699837
 20
60.32614257372657
 30
0.0
 11
-56.99328220889833
 21
60.32614257372657
 31
0.0
  0
LINE
  5
294B
330
18
100
AcDbEntity
  8
0
  6
CONTINUOUS
 62
     7
100
AcDbLine
 10
-56.99328220889833
 20
60.32614257372657
 30
0.0
 11
-56.98874830609838
 21
60.90448040992654
 31
0.0
  0
ARC
  5
294C
330
18
100
AcDbEntity
  8
0
  6
CONTINUOUS
 62
     7
100
AcDbCircle
 10
-57.01945018699837
 20
63.8213459454266
 30
0.0
 40
0.5
100
AcDbArc
 50
273.0000000000007
 51
0.0
  0
ARC
  5
294D
330
18
100
AcDbEntity
  8
0
  6
CONTINUOUS
 62
     7
100
AcDbCircle
 10
83.29847042340162
 20
-47.18211643107344
 30
0.0
 40
5.0
100
AcDbArc
 50
90.0
 51
180.0
  0
LINE
  5
294E
330
18
100
AcDbEntity
  8
0
  6
CONTINUOUS
 62
     7
100
AcDbLine
 10
95.79847042340162
 20
-41.98211643107342
 30
0.0
 11
95.79847042340162
 21
-33.18211643107344
 31
0.0
  0
LINE
  5
294F
330
18
100
AcDbEntity
  8
0
  6
CONTINUOUS
 62
     7
100
AcDbLine
 10
3.028185116601662
 20
-41.01208259667342
 30
0.0
 11
3.130549813001607
 21
-42.18211643107344
 31
0.0
  0
LINE
  5
2950
330
18
100
AcDbEntity
  8
0
  6
CONTINUOUS
 62
     7
100
AcDbLine
 10
-2.067085490498357
 20
-41.01208259667342
 30
0.0
 11
-2.169450186998346
 21
-42.18211643107344
 31
0.0
  0
LINE
  5
2951
330
18
100
AcDbEntity
  8
0
  6
CONTINUOUS
 62
     7
100
AcDbLine
 10
-9.019450186998369
 20
-42.18211643107344
 30
0.0
 11
-9.019450186998369
 21
-33.18211643107344
 31
0.0
  0
LINE
  5
2952
330
18
100
AcDbEntity
  8
0
  6
CONTINUOUS
 62
     7
100
AcDbLine
 10
-10.01945018699837
 20
-42.18211643107344
 30
0.0
 11
-10.01945018699837
 21
-32.18211643107343
 31
0.0
  0
LINE
  5
2953
330
18
100
AcDbEntity
  8
0
  6
CONTINUOUS
 62
     7
100
AcDbLine
 10
88.29847042340162
 20
-42.08211643107341
 30
0.0
 11
138.2984704234016
 21
-42.08211643107341
 31
0.0
  0
LINE
  5
2954
330
18
100
AcDbEntity
  8
0
  6
CONTINUOUS
 62
     7
100
AcDbLine
 10
83.29847042340162
 20
-42.18211643107344
 30
0.0
 11
143.2984704234016
 21
-42.18211643107344
 31
0.0
  0
LINE
  5
2955
330
18
100
AcDbEntity
  8
0
  6
CONTINUOUS
 62
     7
100
AcDbLine
 10
78.29847042340162
 20
-47.18211643107344
 30
0.0
 11
148.2984704234016
 21
-47.18211643107344
 31
0.0
  0
LINE
  5
2956
330
18
100
AcDbEntity
  8
0
  6
CONTINUOUS
 62
     7
100
AcDbLine
 10
78.29847042340162
 20
-97.18211643107343
 30
0.0
 11
148.2984704234016
 21
-97.18211643107343
 31
0.0
  0
LINE
  5
2957
330
18
100
AcDbEntity
  8
0
  6
CONTINUOUS
 62
     7
100
AcDbLine
 10
83.29847042340162
 20
-102.1821164310734
 30
0.0
 11
143.2984704234016
 21
-102.1821164310734
 31
0.0
  0
LWPOLYLINE
  5
2958
330
18
100
AcDbEntity
  8
0
  6
CONTINUOUS
 62
     7
100
AcDbPolyline
 90
        8
 70
     0
 43
0.0
 10
42.4396616792016
 20
-42.18211643107344
 10
43.54905278580162
 20
-42.30747687017341
 10
44.6028143898016
 20
-42.67727209157342
 10
45.54810648450166
 20
-43.27295901877343
 10
46.33752817680163
 20
-44.06466742187342
 10
46.93149456690162
 20
-45.01269773557342
 10
47.30022169980162
 20
-46.06951176137343
 10
47.42522005720161
 20
-47.18211643107344
  0
LWPOLYLINE
  5
2959
330
18
100
AcDbEntity
  8
0
  6
CONTINUOUS
 62
     7
100
AcDbPolyline
 90
        8
 70
     0
 43
0.0
 10
42.4396616792016
 20
-102.1821164310734
 10
43.54905278580162
 20
-102.0567559920734
 10
44.6028143898016
 20
-101.6869607706734
 10
45.54810648450166
 20
-101.0912738434734
 10
46.33752817680163
 20
-100.2995654403734
 10
46.93149456690162
 20
-99.35153512667342
 10
47.30022169980162
 20
-98.29472110087342
 10
47.42522005720161
 20
-97.18211643107343
  0
LINE
  5
295A
330
18
100
AcDbEntity
  8
0
  6
CONTINUOUS
 62
     7
100
AcDbLine
 10
42.4396616792016
 20
-102.1821164310734
 30
0.0
 11
42.4396616792016
 21
-42.18211643107344
 31
0.0
  0
LINE
  5
295B
330
18
100
AcDbEntity
  8
0
  6
CONTINUOUS
 62
     7
100
AcDbLine
 10
38.58054981300159
 20
-42.18211643107344
 30
0.0
 11
38.58054981300159
 21
-102.1821164310734
 31
0.0
  0
LINE
  5
295C
330
18
100
AcDbEntity
  8
0
  6
CONTINUOUS
100
AcDbLine
 10
-6.436116813898365
 20
-93.88424409637343
 30
0.0
 11
-6.602783560098373
 21
-94.05445685697342
 31
0.0
  0
LINE
  5
295D
330
18
100
AcDbEntity
  8
0
  6
CONTINUOUS
100
AcDbLine
 10
-6.602783560098373
 20
-92.30977599037343
 30
0.0
 11
-6.436116813898365
 21
-92.47998873607341
 31
0.0
  0
LINE
  5
295E
330
18
100
AcDbEntity
  8
0
  6
CONTINUOUS
100
AcDbLine
 10
-6.394450186998369
 20
-92.69275478737341
 30
0.0
 11
-6.644450186998369
 21
-92.69275478737341
 31
0.0
  0
LINE
  5
295F
330
18
100
AcDbEntity
  8
0
  6
CONTINUOUS
100
AcDbLine
 10
-6.644450186998369
 20
-93.67147813447344
 30
0.0
 11
-6.394450186998369
 21
-93.67147813447344
 31
0.0
  0
LINE
  5
2960
330
18
100
AcDbEntity
  8
0
  6
CONTINUOUS
100
AcDbLine
 10
-7.727783530298324
 20
-94.05445685697342
 30
0.0
 11
-7.894450186998369
 21
-93.88424409637343
 31
0.0
  0
LINE
  5
2961
330
18
100
AcDbEntity
  8
0
  6
CONTINUOUS
100
AcDbLine
 10
-6.602783560098373
 20
-94.05445685697342
 30
0.0
 11
-6.769450186998369
 21
-94.13956324097343
 31
0.0
  0
LINE
  5
2962
330
18
100
AcDbEntity
  8
0
  6
CONTINUOUS
100
AcDbLine
 10
-7.561116843698357
 20
-94.13956324097343
 30
0.0
 11
-7.727783530298324
 21
-94.05445685697342
 31
0.0
  0
LINE
  5
2963
330
18
100
AcDbEntity
  8
0
  6
CONTINUOUS
100
AcDbLine
 10
-7.352783500398345
 20
-94.18211643107342
 30
0.0
 11
-7.561116843698357
 21
-94.13956324097343
 31
0.0
  0
LINE
  5
2964
330
18
100
AcDbEntity
  8
0
  6
CONTINUOUS
100
AcDbLine
 10
-6.977783560098373
 20
-94.18211643107342
 30
0.0
 11
-7.352783500398345
 21
-94.18211643107342
 31
0.0
  0
LINE
  5
2965
330
18
100
AcDbEntity
  8
0
  6
CONTINUOUS
100
AcDbLine
 10
-6.769450186998369
 20
-94.13956324097343
 30
0.0
 11
-6.977783560098373
 21
-94.18211643107342
 31
0.0
  0
LINE
  5
2966
330
18
100
AcDbEntity
  8
0
  6
CONTINUOUS
100
AcDbLine
 10
-7.727783530298324
 20
-92.30977599037343
 30
0.0
 11
-7.561116843698357
 21
-92.22466961757342
 31
0.0
  0
LINE
  5
2967
330
18
100
AcDbEntity
  8
0
  6
CONTINUOUS
100
AcDbLine
 10
-6.811116813898365
 20
-93.88424409637343
 30
0.0
 11
-6.686116813898365
 21
-93.79913769377344
 31
0.0
  0
LINE
  5
2968
330
18
100
AcDbEntity
  8
0
  6
CONTINUOUS
100
AcDbLine
 10
-7.519450186998369
 20
-92.47998873607341
 30
0.0
 11
-7.644450186998369
 21
-92.56509510887344
 31
0.0
  0
LINE
  5
2969
330
18
100
AcDbEntity
  8
0
  6
CONTINUOUS
100
AcDbLine
 10
-7.894450186998369
 20
-92.47998873607341
 30
0.0
 11
-7.727783530298324
 21
-92.30977599037343
 31
0.0
  0
LINE
  5
296A
330
18
100
AcDbEntity
  8
0
  6
CONTINUOUS
100
AcDbLine
 10
-7.644450186998369
 20
-92.56509510887344
 30
0.0
 11
-7.727783530298324
 21
-92.69275478737341
 31
0.0
  0
LINE
  5
296B
330
18
100
AcDbEntity
  8
0
  6
CONTINUOUS
100
AcDbLine
 10
-7.977783519098352
 20
-92.65020148167343
 30
0.0
 11
-7.894450186998369
 21
-92.47998873607341
 31
0.0
  0
LINE
  5
296C
330
18
100
AcDbEntity
  8
0
  6
CONTINUOUS
100
AcDbLine
 10
-6.686116813898365
 20
-93.79913769377344
 30
0.0
 11
-6.644450186998369
 21
-93.67147813447344
 31
0.0
  0
LINE
  5
296D
330
18
100
AcDbEntity
  8
0
  6
CONTINUOUS
100
AcDbLine
 10
-7.727783530298324
 20
-92.69275478737341
 30
0.0
 11
-7.769450186998369
 21
-92.86296753297342
 31
0.0
  0
LINE
  5
296E
330
18
100
AcDbEntity
  8
0
  6
CONTINUOUS
100
AcDbLine
 10
-8.019450186998369
 20
-92.86296753297342
 30
0.0
 11
-7.977783519098352
 21
-92.65020148167343
 31
0.0
  0
LINE
  5
296F
330
18
100
AcDbEntity
  8
0
  6
CONTINUOUS
100
AcDbLine
 10
-7.769450186998369
 20
-92.86296753297342
 30
0.0
 11
-7.769450186998369
 21
-93.50126538887343
 31
0.0
  0
LINE
  5
2970
330
18
100
AcDbEntity
  8
0
  6
CONTINUOUS
100
AcDbLine
 10
-8.019450186998369
 20
-93.50126538887343
 30
0.0
 11
-8.019450186998369
 21
-92.86296753297342
 31
0.0
  0
LINE
  5
2971
330
18
100
AcDbEntity
  8
0
  6
CONTINUOUS
100
AcDbLine
 10
-7.977783519098352
 20
-93.71403132097341
 30
0.0
 11
-8.019450186998369
 21
-93.50126538887343
 31
0.0
  0
LINE
  5
2972
330
18
100
AcDbEntity
  8
0
  6
CONTINUOUS
100
AcDbLine
 10
-7.769450186998369
 20
-93.50126538887343
 30
0.0
 11
-7.727783530298324
 21
-93.67147813447344
 31
0.0
  0
LINE
  5
2973
330
18
100
AcDbEntity
  8
0
  6
CONTINUOUS
100
AcDbLine
 10
-6.644450186998369
 20
-92.69275478737341
 30
0.0
 11
-6.686116813898365
 21
-92.56509510887344
 31
0.0
  0
LINE
  5
2974
330
18
100
AcDbEntity
  8
0
  6
CONTINUOUS
100
AcDbLine
 10
-7.894450186998369
 20
-93.88424409637343
 30
0.0
 11
-7.977783519098352
 21
-93.71403132097341
 31
0.0
  0
LINE
  5
2975
330
18
100
AcDbEntity
  8
0
  6
CONTINUOUS
100
AcDbLine
 10
-7.727783530298324
 20
-93.67147813447344
 30
0.0
 11
-7.644450186998369
 21
-93.79913769377344
 31
0.0
  0
LINE
  5
2976
330
18
100
AcDbEntity
  8
0
  6
CONTINUOUS
100
AcDbLine
 10
-6.686116813898365
 20
-92.56509510887344
 30
0.0
 11
-6.811116813898365
 21
-92.47998873607341
 31
0.0
  0
LINE
  5
2977
330
18
100
AcDbEntity
  8
0
  6
CONTINUOUS
100
AcDbLine
 10
-7.644450186998369
 20
-93.79913769377344
 30
0.0
 11
-7.519450186998369
 21
-93.88424409637343
 31
0.0
  0
LINE
  5
2978
330
18
100
AcDbEntity
  8
0
  6
CONTINUOUS
100
AcDbLine
 10
-6.769450186998369
 20
-92.22466961757342
 30
0.0
 11
-6.602783560098373
 21
-92.30977599037343
 31
0.0
  0
LINE
  5
2979
330
18
100
AcDbEntity
  8
0
  6
CONTINUOUS
100
AcDbLine
 10
-6.811116813898365
 20
-92.47998873607341
 30
0.0
 11
-6.977783560098373
 21
-92.43743554957344
 31
0.0
  0
LINE
  5
297A
330
18
100
AcDbEntity
  8
0
  6
CONTINUOUS
100
AcDbLine
 10
-7.519450186998369
 20
-93.88424409637343
 30
0.0
 11
-7.352783500398345
 21
-93.92679728277341
 31
0.0
  0
LINE
  5
297B
330
18
100
AcDbEntity
  8
0
  6
CONTINUOUS
100
AcDbLine
 10
-6.977783560098373
 20
-92.18211643107343
 30
0.0
 11
-6.769450186998369
 21
-92.22466961757342
 31
0.0
  0
LINE
  5
297C
330
18
100
AcDbEntity
  8
0
  6
CONTINUOUS
100
AcDbLine
 10
-7.352783500398345
 20
-92.18211643107343
 30
0.0
 11
-6.977783560098373
 21
-92.18211643107343
 31
0.0
  0
LINE
  5
297D
330
18
100
AcDbEntity
  8
0
  6
CONTINUOUS
100
AcDbLine
 10
-6.977783560098373
 20
-92.43743554957344
 30
0.0
 11
-7.352783500398345
 21
-92.43743554957344
 31
0.0
  0
LINE
  5
297E
330
18
100
AcDbEntity
  8
0
  6
CONTINUOUS
100
AcDbLine
 10
-7.352783500398345
 20
-93.92679728277341
 30
0.0
 11
-6.977783560098373
 21
-93.92679728277341
 31
0.0
  0
LINE
  5
297F
330
18
100
AcDbEntity
  8
0
  6
CONTINUOUS
100
AcDbLine
 10
-7.561116843698357
 20
-92.22466961757342
 30
0.0
 11
-7.352783500398345
 21
-92.18211643107343
 31
0.0
  0
LINE
  5
2980
330
18
100
AcDbEntity
  8
0
  6
CONTINUOUS
100
AcDbLine
 10
-7.352783500398345
 20
-92.43743554957344
 30
0.0
 11
-7.519450186998369
 21
-92.47998873607341
 31
0.0
  0
LINE
  5
2981
330
18
100
AcDbEntity
  8
0
  6
CONTINUOUS
100
AcDbLine
 10
-6.977783560098373
 20
-93.92679728277341
 30
0.0
 11
-6.811116813898365
 21
-93.88424409637343
 31
0.0
  0
LINE
  5
2982
330
18
100
AcDbEntity
  8
0
  6
CONTINUOUS
100
AcDbLine
 10
-1.102893712598415
 20
-94.15660701137344
 30
0.0
 11
-0.5887725902983903
 21
-93.64248588907342
 31
0.0
  0
LINE
  5
2983
330
18
100
AcDbEntity
  8
0
  6
CONTINUOUS
100
AcDbLine
 10
-0.6861166946983986
 20
-93.88424409637343
 30
0.0
 11
-0.8527836792983407
 21
-94.05445685697342
 31
0.0
  0
LINE
  5
2984
330
18
100
AcDbEntity
  8
0
  6
CONTINUOUS
100
AcDbLine
 10
-4.519450186998369
 20
-93.88424409637343
 30
0.0
 11
-4.686116933098389
 21
-94.05445685697342
 31
0.0
  0
LINE
  5
2985
330
18
100
AcDbEntity
  8
0
  6
CONTINUOUS
100
AcDbLine
 10
0.0222167976015726
 20
-94.18211643107342
 30
0.0
 11
0.0222167976015726
 21
-93.28849939717343
 31
0.0
  0
LINE
  5
2986
330
18
100
AcDbEntity
  8
0
  6
CONTINUOUS
100
AcDbLine
 10
-0.2277836792983408
 20
-92.18211643107343
 30
0.0
 11
-0.2277836792983408
 21
-94.18211643107342
 31
0.0
  0
LINE
  5
2987
330
18
100
AcDbEntity
  8
0
  6
CONTINUOUS
100
AcDbLine
 10
-2.561116694698398
 20
-93.92679728277341
 30
0.0
 11
-2.561116694698398
 21
-94.18211643107342
 31
0.0
  0
LINE
  5
2988
330
18
100
AcDbEntity
  8
0
  6
CONTINUOUS
100
AcDbLine
 10
-4.061116933098389
 20
-94.18211643107342
 30
0.0
 11
-4.061116933098389
 21
-92.18211643107343
 31
0.0
  0
LINE
  5
2989
330
18
100
AcDbEntity
  8
0
  6
CONTINUOUS
100
AcDbLine
 10
0.7305498130016304
 20
-93.28849939717343
 30
0.0
 11
1.063882828501618
 21
-94.18211643107342
 31
0.0
  0
LINE
  5
298A
330
18
100
AcDbEntity
  8
0
  6
CONTINUOUS
100
AcDbLine
 10
1.35554981300163
 20
-94.18211643107342
 30
0.0
 11
0.9805498130016303
 21
-93.20339302437343
 31
0.0
  0
LINE
  5
298B
330
18
100
AcDbEntity
  8
0
  6
CONTINUOUS
100
AcDbLine
 10
-1.936116694698398
 20
-94.05445685697342
 30
0.0
 11
-2.10278367929834
 21
-93.88424409637343
 31
0.0
  0
LINE
  5
298C
330
18
100
AcDbEntity
  8
0
  6
CONTINUOUS
100
AcDbLine
 10
-5.769450186998369
 20
-94.05445685697342
 30
0.0
 11
-5.936116933098389
 21
-93.88424409637343
 31
0.0
  0
LINE
  5
298D
330
18
100
AcDbEntity
  8
0
  6
CONTINUOUS
100
AcDbLine
 10
-4.686116933098389
 20
-94.05445685697342
 30
0.0
 11
-4.852783440798361
 21
-94.13956324097343
 31
0.0
  0
LINE
  5
298E
330
18
100
AcDbEntity
  8
0
  6
CONTINUOUS
100
AcDbLine
 10
-5.602783440798361
 20
-94.13956324097343
 30
0.0
 11
-5.769450186998369
 21
-94.05445685697342
 31
0.0
  0
LINE
  5
298F
330
18
100
AcDbEntity
  8
0
  6
CONTINUOUS
100
AcDbLine
 10
-5.394450186998369
 20
-94.18211643107342
 30
0.0
 11
-5.602783440798361
 21
-94.13956324097343
 31
0.0
  0
LINE
  5
2990
330
18
100
AcDbEntity
  8
0
  6
CONTINUOUS
100
AcDbLine
 10
-5.061116933098389
 20
-94.18211643107342
 30
0.0
 11
-5.394450186998369
 21
-94.18211643107342
 31
0.0
  0
LINE
  5
2991
330
18
100
AcDbEntity
  8
0
  6
CONTINUOUS
100
AcDbLine
 10
-2.561116694698398
 20
-94.18211643107342
 30
0.0
 11
-4.061116933098389
 21
-94.18211643107342
 31
0.0
  0
LINE
  5
2992
330
18
100
AcDbEntity
  8
0
  6
CONTINUOUS
100
AcDbLine
 10
-4.852783440798361
 20
-94.13956324097343
 30
0.0
 11
-5.061116933098389
 21
-94.18211643107342
 31
0.0
  0
LINE
  5
2993
330
18
100
AcDbEntity
  8
0
  6
CONTINUOUS
100
AcDbLine
 10
-0.8527836792983407
 20
-94.05445685697342
 30
0.0
 11
-1.019450186998369
 21
-94.13956324097343
 31
0.0
  0
LINE
  5
2994
330
18
100
AcDbEntity
  8
0
  6
CONTINUOUS
100
AcDbLine
 10
-1.769450186998369
 20
-94.13956324097343
 30
0.0
 11
-1.936116694698398
 21
-94.05445685697342
 31
0.0
  0
LINE
  5
2995
330
18
100
AcDbEntity
  8
0
  6
CONTINUOUS
100
AcDbLine
 10
-1.561116694698398
 20
-94.18211643107342
 30
0.0
 11
-1.769450186998369
 21
-94.13956324097343
 31
0.0
  0
LINE
  5
2996
330
18
100
AcDbEntity
  8
0
  6
CONTINUOUS
100
AcDbLine
 10
1.063882828501618
 20
-94.18211643107342
 30
0.0
 11
1.35554981300163
 21
-94.18211643107342
 31
0.0
  0
LINE
  5
2997
330
18
100
AcDbEntity
  8
0
  6
CONTINUOUS
100
AcDbLine
 10
-0.2277836792983408
 20
-94.18211643107342
 30
0.0
 11
0.0222167976015726
 21
-94.18211643107342
 31
0.0
  0
LINE
  5
2998
330
18
100
AcDbEntity
  8
0
  6
CONTINUOUS
100
AcDbLine
 10
-1.22778367929834
 20
-94.18211643107342
 30
0.0
 11
-1.561116694698398
 21
-94.18211643107342
 31
0.0
  0
LINE
  5
2999
330
18
100
AcDbEntity
  8
0
  6
CONTINUOUS
100
AcDbLine
 10
-1.019450186998369
 20
-94.13956324097343
 30
0.0
 11
-1.22778367929834
 21
-94.18211643107342
 31
0.0
  0
LINE
  5
299A
330
18
100
AcDbEntity
  8
0
  6
CONTINUOUS
100
AcDbLine
 10
-5.769450186998369
 20
-92.30977599037343
 30
0.0
 11
-5.602783440798361
 21
-92.22466961757342
 31
0.0
  0
LINE
  5
299B
330
18
100
AcDbEntity
  8
0
  6
CONTINUOUS
100
AcDbLine
 10
-4.769450186998369
 20
-93.79913769377344
 30
0.0
 11
-4.894450186998369
 21
-93.88424409637343
 31
0.0
  0
LINE
  5
299C
330
18
100
AcDbEntity
  8
0
  6
CONTINUOUS
100
AcDbLine
 10
-5.686116933098389
 20
-92.56509510887344
 30
0.0
 11
-5.561116933098389
 21
-92.47998873607341
 31
0.0
  0
LINE
  5
299D
330
18
100
AcDbEntity
  8
0
  6
CONTINUOUS
100
AcDbLine
 10
-5.936116933098389
 20
-92.47998873607341
 30
0.0
 11
-5.769450186998369
 21
-92.30977599037343
 31
0.0
  0
LINE
  5
299E
330
18
100
AcDbEntity
  8
0
  6
CONTINUOUS
100
AcDbLine
 10
-4.686116933098389
 20
-93.67147813447344
 30
0.0
 11
-4.769450186998369
 21
-93.79913769377344
 31
0.0
  0
LINE
  5
299F
330
18
100
AcDbEntity
  8
0
  6
CONTINUOUS
100
AcDbLine
 10
-5.769450186998369
 20
-92.69275478737341
 30
0.0
 11
-5.686116933098389
 21
-92.56509510887344
 31
0.0
  0
LINE
  5
29A0
330
18
100
AcDbEntity
  8
0
  6
CONTINUOUS
100
AcDbLine
 10
-4.436116933098389
 20
-93.71403132097341
 30
0.0
 11
-4.519450186998369
 21
-93.88424409637343
 31
0.0
  0
LINE
  5
29A1
330
18
100
AcDbEntity
  8
0
  6
CONTINUOUS
100
AcDbLine
 10
-6.019450186998369
 20
-92.65020148167343
 30
0.0
 11
-5.936116933098389
 21
-92.47998873607341
 31
0.0
  0
LINE
  5
29A2
330
18
100
AcDbEntity
  8
0
  6
CONTINUOUS
100
AcDbLine
 10
-4.644450186998369
 20
-93.50126538887343
 30
0.0
 11
-4.686116933098389
 21
-93.67147813447344
 31
0.0
  0
LINE
  5
29A3
330
18
100
AcDbEntity
  8
0
  6
CONTINUOUS
100
AcDbLine
 10
-4.394450186998369
 20
-93.50126538887343
 30
0.0
 11
-4.436116933098389
 21
-93.71403132097341
 31
0.0
  0
LINE
  5
29A4
330
18
100
AcDbEntity
  8
0
  6
CONTINUOUS
100
AcDbLine
 10
-5.811116933098389
 20
-92.86296753297342
 30
0.0
 11
-5.769450186998369
 21
-92.69275478737341
 31
0.0
  0
LINE
  5
29A5
330
18
100
AcDbEntity
  8
0
  6
CONTINUOUS
100
AcDbLine
 10
-6.061116813898365
 20
-92.86296753297342
 30
0.0
 11
-6.019450186998369
 21
-92.65020148167343
 31
0.0
  0
LINE
  5
29A6
330
18
100
AcDbEntity
  8
0
  6
CONTINUOUS
100
AcDbLine
 10
-6.394450186998369
 20
-93.67147813447344
 30
0.0
 11
-6.436116813898365
 21
-93.88424409637343
 31
0.0
  0
LINE
  5
29A7
330
18
100
AcDbEntity
  8
0
  6
CONTINUOUS
100
AcDbLine
 10
-3.811116694698398
 20
-92.18211643107343
 30
0.0
 11
-3.811116694698398
 21
-93.92679728277341
 31
0.0
  0
LINE
  5
29A8
330
18
100
AcDbEntity
  8
0
  6
CONTINUOUS
100
AcDbLine
 10
-4.394450186998369
 20
-92.86296753297342
 30
0.0
 11
-4.394450186998369
 21
-93.50126538887343
 31
0.0
  0
LINE
  5
29A9
330
18
100
AcDbEntity
  8
0
  6
CONTINUOUS
100
AcDbLine
 10
-4.644450186998369
 20
-92.86296753297342
 30
0.0
 11
-4.644450186998369
 21
-93.50126538887343
 31
0.0
  0
LINE
  5
29AA
330
18
100
AcDbEntity
  8
0
  6
CONTINUOUS
100
AcDbLine
 10
-4.436116933098389
 20
-92.65020148167343
 30
0.0
 11
-4.394450186998369
 21
-92.86296753297342
 31
0.0
  0
LINE
  5
29AB
330
18
100
AcDbEntity
  8
0
  6
CONTINUOUS
100
AcDbLine
 10
-5.811116933098389
 20
-93.50126538887343
 30
0.0
 11
-5.811116933098389
 21
-92.86296753297342
 31
0.0
  0
LINE
  5
29AC
330
18
100
AcDbEntity
  8
0
  6
CONTINUOUS
100
AcDbLine
 10
-6.061116813898365
 20
-93.50126538887343
 30
0.0
 11
-6.061116813898365
 21
-92.86296753297342
 31
0.0
  0
LINE
  5
29AD
330
18
100
AcDbEntity
  8
0
  6
CONTINUOUS
100
AcDbLine
 10
-6.019450186998369
 20
-93.71403132097341
 30
0.0
 11
-6.061116813898365
 21
-93.50126538887343
 31
0.0
  0
LINE
  5
29AE
330
18
100
AcDbEntity
  8
0
  6
CONTINUOUS
100
AcDbLine
 10
-6.436116813898365
 20
-92.47998873607341
 30
0.0
 11
-6.394450186998369
 21
-92.69275478737341
 31
0.0
  0
LINE
  5
29AF
330
18
100
AcDbEntity
  8
0
  6
CONTINUOUS
100
AcDbLine
 10
-4.686116933098389
 20
-92.69275478737341
 30
0.0
 11
-4.644450186998369
 21
-92.86296753297342
 31
0.0
  0
LINE
  5
29B0
330
18
100
AcDbEntity
  8
0
  6
CONTINUOUS
100
AcDbLine
 10
-5.769450186998369
 20
-93.67147813447344
 30
0.0
 11
-5.811116933098389
 21
-93.50126538887343
 31
0.0
  0
LINE
  5
29B1
330
18
100
AcDbEntity
  8
0
  6
CONTINUOUS
100
AcDbLine
 10
-4.519450186998369
 20
-92.47998873607341
 30
0.0
 11
-4.436116933098389
 21
-92.65020148167343
 31
0.0
  0
LINE
  5
29B2
330
18
100
AcDbEntity
  8
0
  6
CONTINUOUS
100
AcDbLine
 10
-5.936116933098389
 20
-93.88424409637343
 30
0.0
 11
-6.019450186998369
 21
-93.71403132097341
 31
0.0
  0
LINE
  5
29B3
330
18
100
AcDbEntity
  8
0
  6
CONTINUOUS
100
AcDbLine
 10
-4.769450186998369
 20
-92.56509510887344
 30
0.0
 11
-4.686116933098389
 21
-92.69275478737341
 31
0.0
  0
LINE
  5
29B4
330
18
100
AcDbEntity
  8
0
  6
CONTINUOUS
100
AcDbLine
 10
-5.686116933098389
 20
-93.79913769377344
 30
0.0
 11
-5.769450186998369
 21
-93.67147813447344
 31
0.0
  0
LINE
  5
29B5
330
18
100
AcDbEntity
  8
0
  6
CONTINUOUS
100
AcDbLine
 10
-4.686116933098389
 20
-92.30977599037343
 30
0.0
 11
-4.519450186998369
 21
-92.47998873607341
 31
0.0
  0
LINE
  5
29B6
330
18
100
AcDbEntity
  8
0
  6
CONTINUOUS
100
AcDbLine
 10
-4.894450186998369
 20
-92.47998873607341
 30
0.0
 11
-4.769450186998369
 21
-92.56509510887344
 31
0.0
  0
LINE
  5
29B7
330
18
100
AcDbEntity
  8
0
  6
CONTINUOUS
100
AcDbLine
 10
-5.561116933098389
 20
-93.88424409637343
 30
0.0
 11
-5.686116933098389
 21
-93.79913769377344
 31
0.0
  0
LINE
  5
29B8
330
18
100
AcDbEntity
  8
0
  6
CONTINUOUS
100
AcDbLine
 10
-4.852783440798361
 20
-92.22466961757342
 30
0.0
 11
-4.686116933098389
 21
-92.30977599037343
 31
0.0
  0
LINE
  5
29B9
330
18
100
AcDbEntity
  8
0
  6
CONTINUOUS
100
AcDbLine
 10
-5.061116933098389
 20
-92.43743554957344
 30
0.0
 11
-4.894450186998369
 21
-92.47998873607341
 31
0.0
  0
LINE
  5
29BA
330
18
100
AcDbEntity
  8
0
  6
CONTINUOUS
100
AcDbLine
 10
-5.394450186998369
 20
-93.92679728277341
 30
0.0
 11
-5.561116933098389
 21
-93.88424409637343
 31
0.0
  0
LINE
  5
29BB
330
18
100
AcDbEntity
  8
0
  6
CONTINUOUS
100
AcDbLine
 10
-5.061116933098389
 20
-92.18211643107343
 30
0.0
 11
-4.852783440798361
 21
-92.22466961757342
 31
0.0
  0
LINE
  5
29BC
330
18
100
AcDbEntity
  8
0
  6
CONTINUOUS
100
AcDbLine
 10
-4.061116933098389
 20
-92.18211643107343
 30
0.0
 11
-3.811116694698398
 21
-92.18211643107343
 31
0.0
  0
LINE
  5
29BD
330
18
100
AcDbEntity
  8
0
  6
CONTINUOUS
100
AcDbLine
 10
-5.394450186998369
 20
-92.18211643107343
 30
0.0
 11
-5.061116933098389
 21
-92.18211643107343
 31
0.0
  0
LINE
  5
29BE
330
18
100
AcDbEntity
  8
0
  6
CONTINUOUS
100
AcDbLine
 10
-5.394450186998369
 20
-92.43743554957344
 30
0.0
 11
-5.061116933098389
 21
-92.43743554957344
 31
0.0
  0
LINE
  5
29BF
330
18
100
AcDbEntity
  8
0
  6
CONTINUOUS
100
AcDbLine
 10
-3.811116694698398
 20
-93.92679728277341
 30
0.0
 11
-2.561116694698398
 21
-93.92679728277341
 31
0.0
  0
LINE
  5
29C0
330
18
100
AcDbEntity
  8
0
  6
CONTINUOUS
100
AcDbLine
 10
-5.061116933098389
 20
-93.92679728277341
 30
0.0
 11
-5.394450186998369
 21
-93.92679728277341
 31
0.0
  0
LINE
  5
29C1
330
18
100
AcDbEntity
  8
0
  6
CONTINUOUS
100
AcDbLine
 10
-5.602783440798361
 20
-92.22466961757342
 30
0.0
 11
-5.394450186998369
 21
-92.18211643107343
 31
0.0
  0
LINE
  5
29C2
330
18
100
AcDbEntity
  8
0
  6
CONTINUOUS
100
AcDbLine
 10
-5.561116933098389
 20
-92.47998873607341
 30
0.0
 11
-5.394450186998369
 21
-92.43743554957344
 31
0.0
  0
LINE
  5
29C3
330
18
100
AcDbEntity
  8
0
  6
CONTINUOUS
100
AcDbLine
 10
-4.894450186998369
 20
-93.88424409637343
 30
0.0
 11
-5.061116933098389
 21
-93.92679728277341
 31
0.0
  0
LINE
  5
29C4
330
18
100
AcDbEntity
  8
0
  6
CONTINUOUS
100
AcDbLine
 10
0.9805498130016303
 20
-93.20339302437343
 30
0.0
 11
1.147216797601572
 21
-93.11828665147343
 31
0.0
  0
LINE
  5
29C5
330
18
100
AcDbEntity
  8
0
  6
CONTINUOUS
100
AcDbLine
 10
0.8138828285016188
 20
-93.03318027867343
 30
0.0
 11
0.9388828285016188
 21
-92.99062709227342
 31
0.0
  0
LINE
  5
29C6
330
18
100
AcDbEntity
  8
0
  6
CONTINUOUS
100
AcDbLine
 10
-1.936116694698398
 20
-92.30977599037343
 30
0.0
 11
-1.769450186998369
 21
-92.22466961757342
 31
0.0
  0
LINE
  5
29C7
330
18
100
AcDbEntity
  8
0
  6
CONTINUOUS
100
AcDbLine
 10
-0.9361166946983985
 20
-93.79913769377344
 30
0.0
 11
-1.061116694698398
 21
-93.88424409637343
 31
0.0
  0
LINE
  5
29C8
330
18
100
AcDbEntity
  8
0
  6
CONTINUOUS
100
AcDbLine
 10
-1.85278367929834
 20
-92.56509510887344
 30
0.0
 11
-1.72778367929834
 21
-92.47998873607341
 31
0.0
  0
LINE
  5
29C9
330
18
100
AcDbEntity
  8
0
  6
CONTINUOUS
100
AcDbLine
 10
0.6588309356015998
 20
-92.39488236317342
 30
0.0
 11
0.8547408644016059
 21
-92.19897243447343
 31
0.0
  0
LINE
  5
29CA
330
18
100
AcDbEntity
  8
0
  6
CONTINUOUS
100
AcDbLine
 10
-0.2277836792983408
 20
-93.28149697807344
 30
0.0
 11
0.0222167976015726
 21
-93.03149650117342
 31
0.0
  0
LINE
  5
29CB
330
18
100
AcDbEntity
  8
0
  6
CONTINUOUS
100
AcDbLine
 10
0.9388828285016188
 20
-92.99062709227342
 30
0.0
 11
1.022216797601572
 21
-92.90552071937343
 31
0.0
  0
LINE
  5
29CC
330
18
100
AcDbEntity
  8
0
  6
CONTINUOUS
100
AcDbLine
 10
-2.10278367929834
 20
-92.47998873607341
 30
0.0
 11
-1.936116694698398
 21
-92.30977599037343
 31
0.0
  0
LINE
  5
29CD
330
18
100
AcDbEntity
  8
0
  6
CONTINUOUS
100
AcDbLine
 10
1.147216797601572
 20
-93.11828665147343
 30
0.0
 11
1.272216797601572
 21
-92.94807390587342
 31
0.0
  0
LINE
  5
29CE
330
18
100
AcDbEntity
  8
0
  6
CONTINUOUS
100
AcDbLine
 10
-0.8527836792983407
 20
-93.67147813447344
 30
0.0
 11
-0.9361166946983985
 21
-93.79913769377344
 31
0.0
  0
LINE
  5
29CF
330
18
100
AcDbEntity
  8
0
  6
CONTINUOUS
100
AcDbLine
 10
-1.936116694698398
 20
-92.69275478737341
 30
0.0
 11
-1.85278367929834
 21
-92.56509510887344
 31
0.0
  0
LINE
  5
29D0
330
18
100
AcDbEntity
  8
0
  6
CONTINUOUS
100
AcDbLine
 10
-0.6027836792983408
 20
-93.71403132097341
 30
0.0
 11
-0.6861166946983986
 21
-93.88424409637343
 31
0.0
  0
LINE
  5
29D1
330
18
100
AcDbEntity
  8
0
  6
CONTINUOUS
100
AcDbLine
 10
-2.186116694698398
 20
-92.65020148167343
 30
0.0
 11
-2.10278367929834
 21
-92.47998873607341
 31
0.0
  0
LINE
  5
29D2
330
18
100
AcDbEntity
  8
0
  6
CONTINUOUS
100
AcDbLine
 10
1.272216797601572
 20
-92.94807390587342
 30
0.0
 11
1.313882828501618
 21
-92.82041434657342
 31
0.0
  0
LINE
  5
29D3
330
18
100
AcDbEntity
  8
0
  6
CONTINUOUS
100
AcDbLine
 10
1.022216797601572
 20
-92.90552071937343
 30
0.0
 11
1.063882828501618
 21
-92.77786116017344
 31
0.0
  0
LINE
  5
29D4
330
18
100
AcDbEntity
  8
0
  6
CONTINUOUS
100
AcDbLine
 10
-0.8111166946983985
 20
-93.50126538887343
 30
0.0
 11
-0.8527836792983407
 21
-93.67147813447344
 31
0.0
  0
LINE
  5
29D5
330
18
100
AcDbEntity
  8
0
  6
CONTINUOUS
100
AcDbLine
 10
-1.97778367929834
 20
-92.86296753297342
 30
0.0
 11
-1.936116694698398
 21
-92.69275478737341
 31
0.0
  0
LINE
  5
29D6
330
18
100
AcDbEntity
  8
0
  6
CONTINUOUS
100
AcDbLine
 10
-0.5611166946983986
 20
-93.50126538887343
 30
0.0
 11
-0.6027836792983408
 21
-93.71403132097341
 31
0.0
  0
LINE
  5
29D7
330
18
100
AcDbEntity
  8
0
  6
CONTINUOUS
100
AcDbLine
 10
-2.22778367929834
 20
-92.86296753297342
 30
0.0
 11
-2.186116694698398
 21
-92.65020148167343
 31
0.0
  0
LINE
  5
29D8
330
18
100
AcDbEntity
  8
0
  6
CONTINUOUS
100
AcDbLine
 10
1.313882828501618
 20
-92.82041434657342
 30
0.0
 11
1.313882828501618
 21
-92.65020148167343
 31
0.0
  0
LINE
  5
29D9
330
18
100
AcDbEntity
  8
0
  6
CONTINUOUS
100
AcDbLine
 10
1.063882828501618
 20
-92.77786116017344
 30
0.0
 11
1.063882828501618
 21
-92.65020148167343
 31
0.0
  0
LINE
  5
29DA
330
18
100
AcDbEntity
  8
0
  6
CONTINUOUS
100
AcDbLine
 10
0.0222167976015726
 20
-92.39488236317342
 30
0.0
 11
0.0222167976015726
 21
-93.03318027867343
 31
0.0
  0
LINE
  5
29DB
330
18
100
AcDbEntity
  8
0
  6
CONTINUOUS
100
AcDbLine
 10
-0.5611166946983986
 20
-92.86296753297342
 30
0.0
 11
-0.5611166946983986
 21
-93.50126538887343
 31
0.0
  0
LINE
  5
29DC
330
18
100
AcDbEntity
  8
0
  6
CONTINUOUS
100
AcDbLine
 10
-0.8111166946983985
 20
-92.86296753297342
 30
0.0
 11
-0.8111166946983985
 21
-93.50126538887343
 31
0.0
  0
LINE
  5
29DD
330
18
100
AcDbEntity
  8
0
  6
CONTINUOUS
100
AcDbLine
 10
-1.97778367929834
 20
-93.50126538887343
 30
0.0
 11
-1.97778367929834
 21
-92.86296753297342
 31
0.0
  0
LINE
  5
29DE
330
18
100
AcDbEntity
  8
0
  6
CONTINUOUS
100
AcDbLine
 10
-2.22778367929834
 20
-93.50126538887343
 30
0.0
 11
-2.22778367929834
 21
-92.86296753297342
 31
0.0
  0
LINE
  5
29DF
330
18
100
AcDbEntity
  8
0
  6
CONTINUOUS
100
AcDbLine
 10
-0.6027836792983408
 20
-92.65020148167343
 30
0.0
 11
-0.5611166946983986
 21
-92.86296753297342
 31
0.0
  0
LINE
  5
29E0
330
18
100
AcDbEntity
  8
0
  6
CONTINUOUS
100
AcDbLine
 10
-2.186116694698398
 20
-93.71403132097341
 30
0.0
 11
-2.22778367929834
 21
-93.50126538887343
 31
0.0
  0
LINE
  5
29E1
330
18
100
AcDbEntity
  8
0
  6
CONTINUOUS
100
AcDbLine
 10
-0.8527836792983407
 20
-92.69275478737341
 30
0.0
 11
-0.8111166946983985
 21
-92.86296753297342
 31
0.0
  0
LINE
  5
29E2
330
18
100
AcDbEntity
  8
0
  6
CONTINUOUS
100
AcDbLine
 10
-1.936116694698398
 20
-93.67147813447344
 30
0.0
 11
-1.97778367929834
 21
-93.50126538887343
 31
0.0
  0
LINE
  5
29E3
330
18
100
AcDbEntity
  8
0
  6
CONTINUOUS
100
AcDbLine
 10
1.313882828501618
 20
-92.65020148167343
 30
0.0
 11
1.272216797601572
 21
-92.52254192247342
 31
0.0
  0
LINE
  5
29E4
330
18
100
AcDbEntity
  8
0
  6
CONTINUOUS
100
AcDbLine
 10
1.063882828501618
 20
-92.65020148167343
 30
0.0
 11
1.022216797601572
 21
-92.52254192247342
 31
0.0
  0
LINE
  5
29E5
330
18
100
AcDbEntity
  8
0
  6
CONTINUOUS
100
AcDbLine
 10
-0.6861166946983986
 20
-92.47998873607341
 30
0.0
 11
-0.6027836792983408
 21
-92.65020148167343
 31
0.0
  0
LINE
  5
29E6
330
18
100
AcDbEntity
  8
0
  6
CONTINUOUS
100
AcDbLine
 10
-2.10278367929834
 20
-93.88424409637343
 30
0.0
 11
-2.186116694698398
 21
-93.71403132097341
 31
0.0
  0
LINE
  5
29E7
330
18
100
AcDbEntity
  8
0
  6
CONTINUOUS
100
AcDbLine
 10
-0.9361166946983985
 20
-92.56509510887344
 30
0.0
 11
-0.8527836792983407
 21
-92.69275478737341
 31
0.0
  0
LINE
  5
29E8
330
18
100
AcDbEntity
  8
0
  6
CONTINUOUS
100
AcDbLine
 10
-1.85278367929834
 20
-93.79913769377344
 30
0.0
 11
-1.936116694698398
 21
-93.67147813447344
 31
0.0
  0
LINE
  5
29E9
330
18
100
AcDbEntity
  8
0
  6
CONTINUOUS
100
AcDbLine
 10
1.272216797601572
 20
-92.52254192247342
 30
0.0
 11
1.147216797601572
 21
-92.35232917677342
 31
0.0
  0
LINE
  5
29EA
330
18
100
AcDbEntity
  8
0
  6
CONTINUOUS
100
AcDbLine
 10
1.022216797601572
 20
-92.52254192247342
 30
0.0
 11
0.9388828285016188
 21
-92.43743554957344
 31
0.0
  0
LINE
  5
29EB
330
18
100
AcDbEntity
  8
0
  6
CONTINUOUS
100
AcDbLine
 10
-0.8527836792983407
 20
-92.30977599037343
 30
0.0
 11
-0.6861166946983986
 21
-92.47998873607341
 31
0.0
  0
LINE
  5
29EC
330
18
100
AcDbEntity
  8
0
  6
CONTINUOUS
100
AcDbLine
 10
1.147216797601572
 20
-92.35232917677342
 30
0.0
 11
0.9805498130016303
 21
-92.22466961757342
 31
0.0
  0
LINE
  5
29ED
330
18
100
AcDbEntity
  8
0
  6
CONTINUOUS
100
AcDbLine
 10
-1.061116694698398
 20
-92.47998873607341
 30
0.0
 11
-0.9361166946983985
 21
-92.56509510887344
 31
0.0
  0
LINE
  5
29EE
330
18
100
AcDbEntity
  8
0
  6
CONTINUOUS
100
AcDbLine
 10
-1.72778367929834
 20
-93.88424409637343
 30
0.0
 11
-1.85278367929834
 21
-93.79913769377344
 31
0.0
  0
LINE
  5
29EF
330
18
100
AcDbEntity
  8
0
  6
CONTINUOUS
100
AcDbLine
 10
-1.019450186998369
 20
-92.22466961757342
 30
0.0
 11
-0.8527836792983407
 21
-92.30977599037343
 31
0.0
  0
LINE
  5
29F0
330
18
100
AcDbEntity
  8
0
  6
CONTINUOUS
100
AcDbLine
 10
0.9388828285016188
 20
-92.43743554957344
 30
0.0
 11
0.8138828285016188
 21
-92.39488236317342
 31
0.0
  0
LINE
  5
29F1
330
18
100
AcDbEntity
  8
0
  6
CONTINUOUS
100
AcDbLine
 10
-1.22778367929834
 20
-92.43743554957344
 30
0.0
 11
-1.061116694698398
 21
-92.47998873607341
 31
0.0
  0
LINE
  5
29F2
330
18
100
AcDbEntity
  8
0
  6
CONTINUOUS
100
AcDbLine
 10
-1.561116694698398
 20
-93.92679728277341
 30
0.0
 11
-1.72778367929834
 21
-93.88424409637343
 31
0.0
  0
LINE
  5
29F3
330
18
100
AcDbEntity
  8
0
  6
CONTINUOUS
100
AcDbLine
 10
0.9805498130016303
 20
-92.22466961757342
 30
0.0
 11
0.7722167976015726
 21
-92.18211643107343
 31
0.0
  0
LINE
  5
29F4
330
18
100
AcDbEntity
  8
0
  6
CONTINUOUS
100
AcDbLine
 10
-1.22778367929834
 20
-92.18211643107343
 30
0.0
 11
-1.019450186998369
 21
-92.22466961757342
 31
0.0
  0
LINE
  5
29F5
330
18
100
AcDbEntity
  8
0
  6
CONTINUOUS
100
AcDbLine
 10
-1.561116694698398
 20
-92.18211643107343
 30
0.0
 11
-1.22778367929834
 21
-92.18211643107343
 31
0.0
  0
LINE
  5
29F6
330
18
100
AcDbEntity
  8
0
  6
CONTINUOUS
100
AcDbLine
 10
0.7722167976015726
 20
-92.18211643107343
 30
0.0
 11
-0.2277836792983408
 21
-92.18211643107343
 31
0.0
  0
LINE
  5
29F7
330
18
100
AcDbEntity
  8
0
  6
CONTINUOUS
100
AcDbLine
 10
0.8138828285016188
 20
-92.39488236317342
 30
0.0
 11
0.0222167976015726
 21
-92.39488236317342
 31
0.0
  0
LINE
  5
29F8
330
18
100
AcDbEntity
  8
0
  6
CONTINUOUS
100
AcDbLine
 10
-1.561116694698398
 20
-92.43743554957344
 30
0.0
 11
-1.22778367929834
 21
-92.43743554957344
 31
0.0
  0
LINE
  5
29F9
330
18
100
AcDbEntity
  8
0
  6
CONTINUOUS
100
AcDbLine
 10
0.0222167976015726
 20
-93.03318027867343
 30
0.0
 11
0.8138828285016188
 21
-93.03318027867343
 31
0.0
  0
LINE
  5
29FA
330
18
100
AcDbEntity
  8
0
  6
CONTINUOUS
100
AcDbLine
 10
0.0222167976015726
 20
-93.28849939717343
 30
0.0
 11
0.7305498130016304
 21
-93.28849939717343
 31
0.0
  0
LINE
  5
29FB
330
18
100
AcDbEntity
  8
0
  6
CONTINUOUS
100
AcDbLine
 10
-1.22778367929834
 20
-93.92679728277341
 30
0.0
 11
-1.561116694698398
 21
-93.92679728277341
 31
0.0
  0
LINE
  5
29FC
330
18
100
AcDbEntity
  8
0
  6
CONTINUOUS
100
AcDbLine
 10
-1.769450186998369
 20
-92.22466961757342
 30
0.0
 11
-1.561116694698398
 21
-92.18211643107343
 31
0.0
  0
LINE
  5
29FD
330
18
100
AcDbEntity
  8
0
  6
CONTINUOUS
100
AcDbLine
 10
-1.72778367929834
 20
-92.47998873607341
 30
0.0
 11
-1.561116694698398
 21
-92.43743554957344
 31
0.0
  0
LINE
  5
29FE
330
18
100
AcDbEntity
  8
0
  6
CONTINUOUS
100
AcDbLine
 10
-1.061116694698398
 20
-93.88424409637343
 30
0.0
 11
-1.22778367929834
 21
-93.92679728277341
 31
0.0
  0
LINE
  5
29FF
330
18
100
AcDbEntity
  8
0
  6
CONTINUOUS
100
AcDbLine
 10
5.272216797601572
 20
-93.88424409637343
 30
0.0
 11
5.10554981300163
 21
-94.05445685697342
 31
0.0
  0
LINE
  5
2A00
330
18
100
AcDbEntity
  8
0
  6
CONTINUOUS
100
AcDbLine
 10
9.397215843901619
 20
-92.60764829527342
 30
0.0
 11
8.813883782101584
 21
-94.18211643107342
 31
0.0
  0
LINE
  5
2A01
330
18
100
AcDbEntity
  8
0
  6
CONTINUOUS
100
AcDbLine
 10
5.647216797601572
 20
-94.18211643107342
 30
0.0
 11
6.313882828501618
 21
-92.18211643107343
 31
0.0
  0
LINE
  5
2A02
330
18
100
AcDbEntity
  8
0
  6
CONTINUOUS
100
AcDbLine
 10
6.063882828501618
 20
-93.67147813447344
 30
0.0
 11
5.897216797601572
 21
-94.18211643107342
 31
0.0
  0
LINE
  5
2A03
330
18
100
AcDbEntity
  8
0
  6
CONTINUOUS
100
AcDbLine
 10
9.647215843901619
 20
-92.18211643107343
 30
0.0
 11
9.647215843901619
 21
-94.18211643107342
 31
0.0
  0
LINE
  5
2A04
330
18
100
AcDbEntity
  8
0
  6
CONTINUOUS
100
AcDbLine
 10
9.397215843901619
 20
-94.18211643107342
 30
0.0
 11
9.397215843901619
 21
-92.60764829527342
 31
0.0
  0
LINE
  5
2A05
330
18
100
AcDbEntity
  8
0
  6
CONTINUOUS
100
AcDbLine
 10
7.897216797601572
 20
-92.60764829527342
 30
0.0
 11
7.897216797601572
 21
-94.18211643107342
 31
0.0
  0
LINE
  5
2A06
330
18
100
AcDbEntity
  8
0
  6
CONTINUOUS
100
AcDbLine
 10
7.647216797601572
 20
-94.18211643107342
 30
0.0
 11
7.647216797601572
 21
-92.18211643107343
 31
0.0
  0
LINE
  5
2A07
330
18
100
AcDbEntity
  8
0
  6
CONTINUOUS
100
AcDbLine
 10
7.063882828501618
 20
-94.18211643107342
 30
0.0
 11
6.897216797601572
 21
-93.67147813447344
 31
0.0
  0
LINE
  5
2A08
330
18
100
AcDbEntity
  8
0
  6
CONTINUOUS
100
AcDbLine
 10
6.647216797601572
 20
-92.18211643107343
 30
0.0
 11
7.313882828501618
 21
-94.18211643107342
 31
0.0
  0
LINE
  5
2A09
330
18
100
AcDbEntity
  8
0
  6
CONTINUOUS
100
AcDbLine
 10
8.48054981300163
 20
-94.18211643107342
 30
0.0
 11
7.897216797601572
 21
-92.60764829527342
 31
0.0
  0
LINE
  5
2A0A
330
18
100
AcDbEntity
  8
0
  6
CONTINUOUS
100
AcDbLine
 10
3.98054981300163
 20
-94.05445685697342
 30
0.0
 11
3.813882828501618
 21
-93.88424409637343
 31
0.0
  0
LINE
  5
2A0B
330
18
100
AcDbEntity
  8
0
  6
CONTINUOUS
100
AcDbLine
 10
5.897216797601572
 20
-94.18211643107342
 30
0.0
 11
5.647216797601572
 21
-94.18211643107342
 31
0.0
  0
LINE
  5
2A0C
330
18
100
AcDbEntity
  8
0
  6
CONTINUOUS
100
AcDbLine
 10
5.10554981300163
 20
-94.05445685697342
 30
0.0
 11
4.938882828501618
 21
-94.13956324097343
 31
0.0
  0
LINE
  5
2A0D
330
18
100
AcDbEntity
  8
0
  6
CONTINUOUS
100
AcDbLine
 10
4.147216797601572
 20
-94.13956324097343
 30
0.0
 11
3.98054981300163
 21
-94.05445685697342
 31
0.0
  0
LINE
  5
2A0E
330
18
100
AcDbEntity
  8
0
  6
CONTINUOUS
100
AcDbLine
 10
4.35554981300163
 20
-94.18211643107342
 30
0.0
 11
4.147216797601572
 21
-94.13956324097343
 31
0.0
  0
LINE
  5
2A0F
330
18
100
AcDbEntity
  8
0
  6
CONTINUOUS
100
AcDbLine
 10
4.73054981300163
 20
-94.18211643107342
 30
0.0
 11
4.35554981300163
 21
-94.18211643107342
 31
0.0
  0
LINE
  5
2A10
330
18
100
AcDbEntity
  8
0
  6
CONTINUOUS
100
AcDbLine
 10
4.938882828501618
 20
-94.13956324097343
 30
0.0
 11
4.73054981300163
 21
-94.18211643107342
 31
0.0
  0
LINE
  5
2A11
330
18
100
AcDbEntity
  8
0
  6
CONTINUOUS
100
AcDbLine
 10
7.313882828501618
 20
-94.18211643107342
 30
0.0
 11
7.063882828501618
 21
-94.18211643107342
 31
0.0
  0
LINE
  5
2A12
330
18
100
AcDbEntity
  8
0
  6
CONTINUOUS
100
AcDbLine
 10
7.897216797601572
 20
-94.18211643107342
 30
0.0
 11
7.647216797601572
 21
-94.18211643107342
 31
0.0
  0
LINE
  5
2A13
330
18
100
AcDbEntity
  8
0
  6
CONTINUOUS
100
AcDbLine
 10
8.813883782101584
 20
-94.18211643107342
 30
0.0
 11
8.48054981300163
 21
-94.18211643107342
 31
0.0
  0
LINE
  5
2A14
330
18
100
AcDbEntity
  8
0
  6
CONTINUOUS
100
AcDbLine
 10
9.647215843901619
 20
-94.18211643107342
 30
0.0
 11
9.397215843901619
 21
-94.18211643107342
 31
0.0
  0
LINE
  5
2A15
330
18
100
AcDbEntity
  8
0
  6
CONTINUOUS
100
AcDbLine
 10
3.98054981300163
 20
-92.30977599037343
 30
0.0
 11
4.147216797601572
 21
-92.22466961757342
 31
0.0
  0
LINE
  5
2A16
330
18
100
AcDbEntity
  8
0
  6
CONTINUOUS
100
AcDbLine
 10
4.897216797601572
 20
-93.88424409637343
 30
0.0
 11
5.022216797601572
 21
-93.79913769377344
 31
0.0
  0
LINE
  5
2A17
330
18
100
AcDbEntity
  8
0
  6
CONTINUOUS
100
AcDbLine
 10
4.188882828501618
 20
-92.47998873607341
 30
0.0
 11
4.063882828501618
 21
-92.56509510887344
 31
0.0
  0
LINE
  5
2A18
330
18
100
AcDbEntity
  8
0
  6
CONTINUOUS
100
AcDbLine
 10
3.813882828501618
 20
-92.47998873607341
 30
0.0
 11
3.98054981300163
 21
-92.30977599037343
 31
0.0
  0
LINE
  5
2A19
330
18
100
AcDbEntity
  8
0
  6
CONTINUOUS
100
AcDbLine
 10
4.063882828501618
 20
-92.56509510887344
 30
0.0
 11
3.98054981300163
 21
-92.69275478737341
 31
0.0
  0
LINE
  5
2A1A
330
18
100
AcDbEntity
  8
0
  6
CONTINUOUS
100
AcDbLine
 10
3.73054981300163
 20
-92.65020148167343
 30
0.0
 11
3.813882828501618
 21
-92.47998873607341
 31
0.0
  0
LINE
  5
2A1B
330
18
100
AcDbEntity
  8
0
  6
CONTINUOUS
100
AcDbLine
 10
5.022216797601572
 20
-93.79913769377344
 30
0.0
 11
5.063882828501618
 21
-93.67147813447344
 31
0.0
  0
LINE
  5
2A1C
330
18
100
AcDbEntity
  8
0
  6
CONTINUOUS
100
AcDbLine
 10
5.313882828501618
 20
-93.67147813447344
 30
0.0
 11
5.272216797601572
 21
-93.88424409637343
 31
0.0
  0
LINE
  5
2A1D
330
18
100
AcDbEntity
  8
0
  6
CONTINUOUS
100
AcDbLine
 10
3.98054981300163
 20
-92.69275478737341
 30
0.0
 11
3.938882828501618
 21
-92.86296753297342
 31
0.0
  0
LINE
  5
2A1E
330
18
100
AcDbEntity
  8
0
  6
CONTINUOUS
100
AcDbLine
 10
3.688882828501618
 20
-92.86296753297342
 30
0.0
 11
3.73054981300163
 21
-92.65020148167343
 31
0.0
  0
LINE
  5
2A1F
330
18
100
AcDbEntity
  8
0
  6
CONTINUOUS
100
AcDbLine
 10
5.272216797601572
 20
-92.47998873607341
 30
0.0
 11
5.313882828501618
 21
-92.69275478737341
 31
0.0
  0
LINE
  5
2A20
330
18
100
AcDbEntity
  8
0
  6
CONTINUOUS
100
AcDbLine
 10
3.938882828501618
 20
-92.86296753297342
 30
0.0
 11
3.938882828501618
 21
-93.50126538887343
 31
0.0
  0
LINE
  5
2A21
330
18
100
AcDbEntity
  8
0
  6
CONTINUOUS
100
AcDbLine
 10
3.688882828501618
 20
-93.50126538887343
 30
0.0
 11
3.688882828501618
 21
-92.86296753297342
 31
0.0
  0
LINE
  5
2A22
330
18
100
AcDbEntity
  8
0
  6
CONTINUOUS
100
AcDbLine
 10
3.73054981300163
 20
-93.71403132097341
 30
0.0
 11
3.688882828501618
 21
-93.50126538887343
 31
0.0
  0
LINE
  5
2A23
330
18
100
AcDbEntity
  8
0
  6
CONTINUOUS
100
AcDbLine
 10
3.938882828501618
 20
-93.50126538887343
 30
0.0
 11
3.98054981300163
 21
-93.67147813447344
 31
0.0
  0
LINE
  5
2A24
330
18
100
AcDbEntity
  8
0
  6
CONTINUOUS
100
AcDbLine
 10
5.063882828501618
 20
-92.69275478737341
 30
0.0
 11
5.022216797601572
 21
-92.56509510887344
 31
0.0
  0
LINE
  5
2A25
330
18
100
AcDbEntity
  8
0
  6
CONTINUOUS
100
AcDbLine
 10
3.813882828501618
 20
-93.88424409637343
 30
0.0
 11
3.73054981300163
 21
-93.71403132097341
 31
0.0
  0
LINE
  5
2A26
330
18
100
AcDbEntity
  8
0
  6
CONTINUOUS
100
AcDbLine
 10
3.98054981300163
 20
-93.67147813447344
 30
0.0
 11
4.063882828501618
 21
-93.79913769377344
 31
0.0
  0
LINE
  5
2A27
330
18
100
AcDbEntity
  8
0
  6
CONTINUOUS
100
AcDbLine
 10
5.10554981300163
 20
-92.30977599037343
 30
0.0
 11
5.272216797601572
 21
-92.47998873607341
 31
0.0
  0
LINE
  5
2A28
330
18
100
AcDbEntity
  8
0
  6
CONTINUOUS
100
AcDbLine
 10
5.022216797601572
 20
-92.56509510887344
 30
0.0
 11
4.897216797601572
 21
-92.47998873607341
 31
0.0
  0
LINE
  5
2A29
330
18
100
AcDbEntity
  8
0
  6
CONTINUOUS
100
AcDbLine
 10
4.063882828501618
 20
-93.79913769377344
 30
0.0
 11
4.188882828501618
 21
-93.88424409637343
 31
0.0
  0
LINE
  5
2A2A
330
18
100
AcDbEntity
  8
0
  6
CONTINUOUS
100
AcDbLine
 10
4.938882828501618
 20
-92.22466961757342
 30
0.0
 11
5.10554981300163
 21
-92.30977599037343
 31
0.0
  0
LINE
  5
2A2B
330
18
100
AcDbEntity
  8
0
  6
CONTINUOUS
100
AcDbLine
 10
4.897216797601572
 20
-92.47998873607341
 30
0.0
 11
4.73054981300163
 21
-92.43743554957344
 31
0.0
  0
LINE
  5
2A2C
330
18
100
AcDbEntity
  8
0
  6
CONTINUOUS
100
AcDbLine
 10
4.188882828501618
 20
-93.88424409637343
 30
0.0
 11
4.35554981300163
 21
-93.92679728277341
 31
0.0
  0
LINE
  5
2A2D
330
18
100
AcDbEntity
  8
0
  6
CONTINUOUS
100
AcDbLine
 10
4.73054981300163
 20
-92.18211643107343
 30
0.0
 11
4.938882828501618
 21
-92.22466961757342
 31
0.0
  0
LINE
  5
2A2E
330
18
100
AcDbEntity
  8
0
  6
CONTINUOUS
100
AcDbLine
 10
4.35554981300163
 20
-92.18211643107343
 30
0.0
 11
4.73054981300163
 21
-92.18211643107343
 31
0.0
  0
LINE
  5
2A2F
330
18
100
AcDbEntity
  8
0
  6
CONTINUOUS
100
AcDbLine
 10
4.73054981300163
 20
-92.43743554957344
 30
0.0
 11
4.35554981300163
 21
-92.43743554957344
 31
0.0
  0
LINE
  5
2A30
330
18
100
AcDbEntity
  8
0
  6
CONTINUOUS
100
AcDbLine
 10
5.313882828501618
 20
-92.69275478737341
 30
0.0
 11
5.063882828501618
 21
-92.69275478737341
 31
0.0
  0
LINE
  5
2A31
330
18
100
AcDbEntity
  8
0
  6
CONTINUOUS
100
AcDbLine
 10
5.063882828501618
 20
-93.67147813447344
 30
0.0
 11
5.313882828501618
 21
-93.67147813447344
 31
0.0
  0
LINE
  5
2A32
330
18
100
AcDbEntity
  8
0
  6
CONTINUOUS
100
AcDbLine
 10
4.35554981300163
 20
-93.92679728277341
 30
0.0
 11
4.73054981300163
 21
-93.92679728277341
 31
0.0
  0
LINE
  5
2A33
330
18
100
AcDbEntity
  8
0
  6
CONTINUOUS
100
AcDbLine
 10
4.147216797601572
 20
-92.22466961757342
 30
0.0
 11
4.35554981300163
 21
-92.18211643107343
 31
0.0
  0
LINE
  5
2A34
330
18
100
AcDbEntity
  8
0
  6
CONTINUOUS
100
AcDbLine
 10
4.35554981300163
 20
-92.43743554957344
 30
0.0
 11
4.188882828501618
 21
-92.47998873607341
 31
0.0
  0
LINE
  5
2A35
330
18
100
AcDbEntity
  8
0
  6
CONTINUOUS
100
AcDbLine
 10
4.73054981300163
 20
-93.92679728277341
 30
0.0
 11
4.897216797601572
 21
-93.88424409637343
 31
0.0
  0
LINE
  5
2A36
330
18
100
AcDbEntity
  8
0
  6
CONTINUOUS
100
AcDbLine
 10
8.647215843901619
 20
-93.96935046927342
 30
0.0
 11
9.272215843901619
 21
-92.18211643107343
 31
0.0
  0
LINE
  5
2A37
330
18
100
AcDbEntity
  8
0
  6
CONTINUOUS
100
AcDbLine
 10
6.10554981300163
 20
-93.50126538887343
 30
0.0
 11
6.48054981300163
 21
-92.35232917677342
 31
0.0
  0
LINE
  5
2A38
330
18
100
AcDbEntity
  8
0
  6
CONTINUOUS
100
AcDbLine
 10
6.48054981300163
 20
-92.35232917677342
 30
0.0
 11
6.85554981300163
 21
-93.50126538887343
 31
0.0
  0
LINE
  5
2A39
330
18
100
AcDbEntity
  8
0
  6
CONTINUOUS
100
AcDbLine
 10
8.022215843901619
 20
-92.18211643107343
 30
0.0
 11
8.647215843901619
 21
-93.96935046927342
 31
0.0
  0
LINE
  5
2A3A
330
18
100
AcDbEntity
  8
0
  6
CONTINUOUS
100
AcDbLine
 10
9.272215843901619
 20
-92.18211643107343
 30
0.0
 11
9.647215843901619
 21
-92.18211643107343
 31
0.0
  0
LINE
  5
2A3B
330
18
100
AcDbEntity
  8
0
  6
CONTINUOUS
100
AcDbLine
 10
7.647216797601572
 20
-92.18211643107343
 30
0.0
 11
8.022215843901619
 21
-92.18211643107343
 31
0.0
  0
LINE
  5
2A3C
330
18
100
AcDbEntity
  8
0
  6
CONTINUOUS
100
AcDbLine
 10
6.313882828501618
 20
-92.18211643107343
 30
0.0
 11
6.647216797601572
 21
-92.18211643107343
 31
0.0
  0
LINE
  5
2A3D
330
18
100
AcDbEntity
  8
0
  6
CONTINUOUS
100
AcDbLine
 10
6.85554981300163
 20
-93.50126538887343
 30
0.0
 11
6.10554981300163
 21
-93.50126538887343
 31
0.0
  0
LINE
  5
2A3E
330
18
100
AcDbEntity
  8
0
  6
CONTINUOUS
100
AcDbLine
 10
6.897216797601572
 20
-93.67147813447344
 30
0.0
 11
6.063882828501618
 21
-93.67147813447344
 31
0.0
  0
LINE
  5
2A3F
330
18
100
AcDbEntity
  8
0
  6
CONTINUOUS
100
AcDbLine
 10
26.54304981300163
 20
-91.56509510887344
 30
0.0
 11
26.29305005140162
 21
-91.50126532927343
 31
0.0
  0
LINE
  5
2A40
330
18
100
AcDbEntity
  8
0
  6
CONTINUOUS
100
AcDbLine
 10
26.54304981300163
 20
-92.84169088017343
 30
0.0
 11
26.29305005140162
 21
-92.77786110057343
 31
0.0
  0
LINE
  5
2A41
330
18
100
AcDbEntity
  8
0
  6
CONTINUOUS
100
AcDbLine
 10
26.60554957460163
 20
-91.24594621077342
 30
0.0
 11
26.29305005140162
 21
-91.18211643107342
 31
0.0
  0
LINE
  5
2A42
330
18
100
AcDbEntity
  8
0
  6
CONTINUOUS
100
AcDbLine
 10
25.98054981300163
 20
-94.18211643107342
 30
0.0
 11
26.35554981300163
 21
-94.18211643107342
 31
0.0
  0
LINE
  5
2A43
330
18
100
AcDbEntity
  8
0
  6
CONTINUOUS
100
AcDbLine
 10
26.29305005140162
 20
-92.52254198207344
 30
0.0
 11
26.54304981300163
 21
-92.45871220247343
 31
0.0
  0
LINE
  5
2A44
330
18
100
AcDbEntity
  8
0
  6
CONTINUOUS
100
AcDbLine
 10
26.29305005140162
 20
-93.86296748827342
 30
0.0
 11
26.54304981300163
 21
-93.79913770867343
 31
0.0
  0
LINE
  5
2A45
330
18
100
AcDbEntity
  8
0
  6
CONTINUOUS
100
AcDbLine
 10
17.98054984280162
 20
-91.18211643107342
 30
0.0
 11
18.54304975340164
 21
-91.18211643107342
 31
0.0
  0
LINE
  5
2A46
330
18
100
AcDbEntity
  8
0
  6
CONTINUOUS
100
AcDbLine
 10
18.54304975340164
 20
-91.56509510887344
 30
0.0
 11
17.98054984280162
 21
-91.56509510887344
 31
0.0
  0
LINE
  5
2A47
330
18
100
AcDbEntity
  8
0
  6
CONTINUOUS
100
AcDbLine
 10
17.98054984280162
 20
-93.79913770867343
 30
0.0
 11
18.54304975340164
 21
-93.79913770867343
 31
0.0
  0
LINE
  5
2A48
330
18
100
AcDbEntity
  8
0
  6
CONTINUOUS
100
AcDbLine
 10
18.54304975340164
 20
-94.18211643107342
 30
0.0
 11
17.98054984280162
 21
-94.18211643107342
 31
0.0
  0
LINE
  5
2A49
330
18
100
AcDbEntity
  8
0
  6
CONTINUOUS
100
AcDbLine
 10
10.75099079160162
 20
-94.18211643107342
 30
0.0
 11
11.00630993990159
 21
-93.92679728277341
 31
0.0
  0
LINE
  5
2A4A
330
18
100
AcDbEntity
  8
0
  6
CONTINUOUS
100
AcDbLine
 10
13.73054981300163
 20
-94.18211643107342
 30
0.0
 11
14.39721584390162
 21
-92.18211643107343
 31
0.0
  0
LINE
  5
2A4B
330
18
100
AcDbEntity
  8
0
  6
CONTINUOUS
100
AcDbLine
 10
14.14721584390162
 20
-93.67147813447344
 30
0.0
 11
13.98054981300163
 21
-94.18211643107342
 31
0.0
  0
LINE
  5
2A4C
330
18
100
AcDbEntity
  8
0
  6
CONTINUOUS
100
AcDbLine
 10
12.06388378210158
 20
-94.18211643107342
 30
0.0
 11
12.06388378210158
 21
-93.28849939717343
 31
0.0
  0
LINE
  5
2A4D
330
18
100
AcDbEntity
  8
0
  6
CONTINUOUS
100
AcDbLine
 10
11.81388378210158
 20
-92.18211643107343
 30
0.0
 11
11.81388378210158
 21
-94.18211643107342
 31
0.0
  0
LINE
  5
2A4E
330
18
100
AcDbEntity
  8
0
  6
CONTINUOUS
100
AcDbLine
 10
11.48054981300163
 20
-93.92679728277341
 30
0.0
 11
11.48054981300163
 21
-94.18211643107342
 31
0.0
  0
LINE
  5
2A4F
330
18
100
AcDbEntity
  8
0
  6
CONTINUOUS
100
AcDbLine
 10
9.98054981300163
 20
-94.18211643107342
 30
0.0
 11
9.98054981300163
 21
-92.18211643107343
 31
0.0
  0
LINE
  5
2A50
330
18
100
AcDbEntity
  8
0
  6
CONTINUOUS
100
AcDbLine
 10
15.14721584390161
 20
-94.18211643107342
 30
0.0
 11
14.98054981300163
 21
-93.67147813447344
 31
0.0
  0
LINE
  5
2A51
330
18
100
AcDbEntity
  8
0
  6
CONTINUOUS
100
AcDbLine
 10
14.73054981300163
 20
-92.18211643107343
 30
0.0
 11
15.39721584390162
 21
-94.18211643107342
 31
0.0
  0
LINE
  5
2A52
330
18
100
AcDbEntity
  8
0
  6
CONTINUOUS
100
AcDbLine
 10
12.77221584390161
 20
-93.28849939717343
 30
0.0
 11
13.10554981300163
 21
-94.18211643107342
 31
0.0
  0
LINE
  5
2A53
330
18
100
AcDbEntity
  8
0
  6
CONTINUOUS
100
AcDbLine
 10
13.39721584390161
 20
-94.18211643107342
 30
0.0
 11
13.02221584390162
 21
-93.20339302437343
 31
0.0
  0
LINE
  5
2A54
330
18
100
AcDbEntity
  8
0
  6
CONTINUOUS
100
AcDbLine
 10
17.66804982790165
 20
-94.11828664587343
 30
0.0
 11
17.4180497981016
 21
-93.99062706987342
 31
0.0
  0
LINE
  5
2A55
330
18
100
AcDbEntity
  8
0
  6
CONTINUOUS
100
AcDbLine
 10
13.10554981300163
 20
-94.18211643107342
 30
0.0
 11
13.39721584390161
 21
-94.18211643107342
 31
0.0
  0
LINE
  5
2A56
330
18
100
AcDbEntity
  8
0
  6
CONTINUOUS
100
AcDbLine
 10
11.81388378210158
 20
-94.18211643107342
 30
0.0
 11
12.06388378210158
 21
-94.18211643107342
 31
0.0
  0
LINE
  5
2A57
330
18
100
AcDbEntity
  8
0
  6
CONTINUOUS
100
AcDbLine
 10
11.48054981300163
 20
-94.18211643107342
 30
0.0
 11
9.98054981300163
 21
-94.18211643107342
 31
0.0
  0
LINE
  5
2A58
330
18
100
AcDbEntity
  8
0
  6
CONTINUOUS
100
AcDbLine
 10
13.98054981300163
 20
-94.18211643107342
 30
0.0
 11
13.73054981300163
 21
-94.18211643107342
 31
0.0
  0
LINE
  5
2A59
330
18
100
AcDbEntity
  8
0
  6
CONTINUOUS
100
AcDbLine
 10
17.98054984280162
 20
-94.18211643107342
 30
0.0
 11
17.66804982790165
 21
-94.11828664587343
 31
0.0
  0
LINE
  5
2A5A
330
18
100
AcDbEntity
  8
0
  6
CONTINUOUS
100
AcDbLine
 10
15.39721584390162
 20
-94.18211643107342
 30
0.0
 11
15.14721584390161
 21
-94.18211643107342
 31
0.0
  0
LINE
  5
2A5B
330
18
100
AcDbEntity
  8
0
  6
CONTINUOUS
100
AcDbLine
 10
13.02221584390162
 20
-93.20339302437343
 30
0.0
 11
13.18888378210158
 21
-93.11828665147343
 31
0.0
  0
LINE
  5
2A5C
330
18
100
AcDbEntity
  8
0
  6
CONTINUOUS
100
AcDbLine
 10
12.53822485950161
 20
-92.39488236317342
 30
0.0
 11
12.75099079160162
 21
-92.18211643107343
 31
0.0
  0
LINE
  5
2A5D
330
18
100
AcDbEntity
  8
0
  6
CONTINUOUS
100
AcDbLine
 10
11.81388378210158
 20
-93.11922344057343
 30
0.0
 11
12.06388378210158
 21
-92.86922344057343
 31
0.0
  0
LINE
  5
2A5E
330
18
100
AcDbEntity
  8
0
  6
CONTINUOUS
100
AcDbLine
 10
12.98054981300163
 20
-92.99062709227342
 30
0.0
 11
13.06388378210158
 21
-92.90552071937343
 31
0.0
  0
LINE
  5
2A5F
330
18
100
AcDbEntity
  8
0
  6
CONTINUOUS
100
AcDbLine
 10
13.18888378210158
 20
-93.11828665147343
 30
0.0
 11
13.31388378210158
 21
-92.94807390587342
 31
0.0
  0
LINE
  5
2A60
330
18
100
AcDbEntity
  8
0
  6
CONTINUOUS
100
AcDbLine
 10
13.31388378210158
 20
-92.94807390587342
 30
0.0
 11
13.35554981300163
 21
-92.82041434657342
 31
0.0
  0
LINE
  5
2A61
330
18
100
AcDbEntity
  8
0
  6
CONTINUOUS
100
AcDbLine
 10
12.85554981300163
 20
-93.03318027867343
 30
0.0
 11
12.98054981300163
 21
-92.99062709227342
 31
0.0
  0
LINE
  5
2A62
330
18
100
AcDbEntity
  8
0
  6
CONTINUOUS
100
AcDbLine
 10
13.06388378210158
 20
-92.90552071937343
 30
0.0
 11
13.10554981300163
 21
-92.77786116017344
 31
0.0
  0
LINE
  5
2A63
330
18
100
AcDbEntity
  8
0
  6
CONTINUOUS
100
AcDbLine
 10
13.35554981300163
 20
-92.82041434657342
 30
0.0
 11
13.35554981300163
 21
-92.65020148167343
 31
0.0
  0
LINE
  5
2A64
330
18
100
AcDbEntity
  8
0
  6
CONTINUOUS
100
AcDbLine
 10
13.10554981300163
 20
-92.77786116017344
 30
0.0
 11
13.10554981300163
 21
-92.65020148167343
 31
0.0
  0
LINE
  5
2A65
330
18
100
AcDbEntity
  8
0
  6
CONTINUOUS
100
AcDbLine
 10
12.06388378210158
 20
-92.39488236317342
 30
0.0
 11
12.06388378210158
 21
-93.03318027867343
 31
0.0
  0
LINE
  5
2A66
330
18
100
AcDbEntity
  8
0
  6
CONTINUOUS
100
AcDbLine
 10
11.48054981300163
 20
-92.18211643107343
 30
0.0
 11
11.48054981300163
 21
-92.43743554957344
 31
0.0
  0
LINE
  5
2A67
330
18
100
AcDbEntity
  8
0
  6
CONTINUOUS
100
AcDbLine
 10
11.31388378210158
 20
-92.99062709227342
 30
0.0
 11
11.31388378210158
 21
-93.24594621077343
 31
0.0
  0
LINE
  5
2A68
330
18
100
AcDbEntity
  8
0
  6
CONTINUOUS
100
AcDbLine
 10
10.23054981300163
 20
-93.24594621077343
 30
0.0
 11
10.23054981300163
 21
-93.92679728277341
 31
0.0
  0
LINE
  5
2A69
330
18
100
AcDbEntity
  8
0
  6
CONTINUOUS
100
AcDbLine
 10
10.23054981300163
 20
-92.43743554957344
 30
0.0
 11
10.23054981300163
 21
-92.99062709227342
 31
0.0
  0
LINE
  5
2A6A
330
18
100
AcDbEntity
  8
0
  6
CONTINUOUS
100
AcDbLine
 10
13.35554981300163
 20
-92.65020148167343
 30
0.0
 11
13.31388378210158
 21
-92.52254192247342
 31
0.0
  0
LINE
  5
2A6B
330
18
100
AcDbEntity
  8
0
  6
CONTINUOUS
100
AcDbLine
 10
13.10554981300163
 20
-92.65020148167343
 30
0.0
 11
13.06388378210158
 21
-92.52254192247342
 31
0.0
  0
LINE
  5
2A6C
330
18
100
AcDbEntity
  8
0
  6
CONTINUOUS
100
AcDbLine
 10
13.31388378210158
 20
-92.52254192247342
 30
0.0
 11
13.18888378210158
 21
-92.35232917677342
 31
0.0
  0
LINE
  5
2A6D
330
18
100
AcDbEntity
  8
0
  6
CONTINUOUS
100
AcDbLine
 10
13.06388378210158
 20
-92.52254192247342
 30
0.0
 11
12.98054981300163
 21
-92.43743554957344
 31
0.0
  0
LINE
  5
2A6E
330
18
100
AcDbEntity
  8
0
  6
CONTINUOUS
100
AcDbLine
 10
13.18888378210158
 20
-92.35232917677342
 30
0.0
 11
13.02221584390162
 21
-92.22466961757342
 31
0.0
  0
LINE
  5
2A6F
330
18
100
AcDbEntity
  8
0
  6
CONTINUOUS
100
AcDbLine
 10
12.98054981300163
 20
-92.43743554957344
 30
0.0
 11
12.85554981300163
 21
-92.39488236317342
 31
0.0
  0
LINE
  5
2A70
330
18
100
AcDbEntity
  8
0
  6
CONTINUOUS
100
AcDbLine
 10
13.02221584390162
 20
-92.22466961757342
 30
0.0
 11
12.81388378210158
 21
-92.18211643107343
 31
0.0
  0
LINE
  5
2A71
330
18
100
AcDbEntity
  8
0
  6
CONTINUOUS
100
AcDbLine
 10
9.98054981300163
 20
-92.18211643107343
 30
0.0
 11
11.48054981300163
 21
-92.18211643107343
 31
0.0
  0
LINE
  5
2A72
330
18
100
AcDbEntity
  8
0
  6
CONTINUOUS
100
AcDbLine
 10
12.81388378210158
 20
-92.18211643107343
 30
0.0
 11
11.81388378210158
 21
-92.18211643107343
 31
0.0
  0
LINE
  5
2A73
330
18
100
AcDbEntity
  8
0
  6
CONTINUOUS
100
AcDbLine
 10
12.85554981300163
 20
-92.39488236317342
 30
0.0
 11
12.06388378210158
 21
-92.39488236317342
 31
0.0
  0
LINE
  5
2A74
330
18
100
AcDbEntity
  8
0
  6
CONTINUOUS
100
AcDbLine
 10
11.48054981300163
 20
-92.43743554957344
 30
0.0
 11
10.23054981300163
 21
-92.43743554957344
 31
0.0
  0
LINE
  5
2A75
330
18
100
AcDbEntity
  8
0
  6
CONTINUOUS
100
AcDbLine
 10
10.23054981300163
 20
-92.99062709227342
 30
0.0
 11
11.31388378210158
 21
-92.99062709227342
 31
0.0
  0
LINE
  5
2A76
330
18
100
AcDbEntity
  8
0
  6
CONTINUOUS
100
AcDbLine
 10
12.06388378210158
 20
-93.03318027867343
 30
0.0
 11
12.85554981300163
 21
-93.03318027867343
 31
0.0
  0
LINE
  5
2A77
330
18
100
AcDbEntity
  8
0
  6
CONTINUOUS
100
AcDbLine
 10
11.31388378210158
 20
-93.24594621077343
 30
0.0
 11
10.23054981300163
 21
-93.24594621077343
 31
0.0
  0
LINE
  5
2A78
330
18
100
AcDbEntity
  8
0
  6
CONTINUOUS
100
AcDbLine
 10
12.06388378210158
 20
-93.28849939717343
 30
0.0
 11
12.77221584390161
 21
-93.28849939717343
 31
0.0
  0
LINE
  5
2A79
330
18
100
AcDbEntity
  8
0
  6
CONTINUOUS
100
AcDbLine
 10
10.23054981300163
 20
-93.92679728277341
 30
0.0
 11
11.48054981300163
 21
-93.92679728277341
 31
0.0
  0
LINE
  5
2A7A
330
18
100
AcDbEntity
  8
0
  6
CONTINUOUS
100
AcDbLine
 10
17.16804981300163
 20
-91.62892488847342
 30
0.0
 11
17.4180497981016
 21
-91.37360576997343
 31
0.0
  0
LINE
  5
2A7B
330
18
100
AcDbEntity
  8
0
  6
CONTINUOUS
100
AcDbLine
 10
17.54304981300163
 20
-91.75658444777342
 30
0.0
 11
17.4180497981016
 21
-91.94807396547343
 31
0.0
  0
LINE
  5
2A7C
330
18
100
AcDbEntity
  8
0
  6
CONTINUOUS
100
AcDbLine
 10
17.4180497981016
 20
-91.37360576997343
 30
0.0
 11
17.66804982790165
 21
-91.24594621077342
 31
0.0
  0
LINE
  5
2A7D
330
18
100
AcDbEntity
  8
0
  6
CONTINUOUS
100
AcDbLine
 10
17.73054981300163
 20
-91.62892488847342
 30
0.0
 11
17.54304981300163
 21
-91.75658444777342
 31
0.0
  0
LINE
  5
2A7E
330
18
100
AcDbEntity
  8
0
  6
CONTINUOUS
100
AcDbLine
 10
17.04304981490156
 20
-91.88424400697343
 30
0.0
 11
17.16804981300163
 21
-91.62892488847342
 31
0.0
  0
LINE
  5
2A7F
330
18
100
AcDbEntity
  8
0
  6
CONTINUOUS
100
AcDbLine
 10
14.18888378210158
 20
-93.50126538887343
 30
0.0
 11
14.56388378210158
 21
-92.35232917677342
 31
0.0
  0
LINE
  5
2A80
330
18
100
AcDbEntity
  8
0
  6
CONTINUOUS
100
AcDbLine
 10
17.4180497981016
 20
-91.94807396547343
 30
0.0
 11
17.35554981300163
 21
-92.20339308397344
 31
0.0
  0
LINE
  5
2A81
330
18
100
AcDbEntity
  8
0
  6
CONTINUOUS
100
AcDbLine
 10
16.98054981300163
 20
-92.20339308397344
 30
0.0
 11
17.04304981490156
 21
-91.88424400697343
 31
0.0
  0
LINE
  5
2A82
330
18
100
AcDbEntity
  8
0
  6
CONTINUOUS
100
AcDbLine
 10
17.35554981300163
 20
-92.20339308397344
 30
0.0
 11
17.35554981300163
 21
-93.16083986767344
 31
0.0
  0
LINE
  5
2A83
330
18
100
AcDbEntity
  8
0
  6
CONTINUOUS
100
AcDbLine
 10
16.98054981300163
 20
-93.16083986767344
 30
0.0
 11
16.98054981300163
 21
-92.20339308397344
 31
0.0
  0
LINE
  5
2A84
330
18
100
AcDbEntity
  8
0
  6
CONTINUOUS
100
AcDbLine
 10
17.04304981490156
 20
-93.47998876587341
 30
0.0
 11
16.98054981300163
 21
-93.16083986767344
 31
0.0
  0
LINE
  5
2A85
330
18
100
AcDbEntity
  8
0
  6
CONTINUOUS
100
AcDbLine
 10
17.35554981300163
 20
-93.16083986767344
 30
0.0
 11
17.4180497981016
 21
-93.41615898617343
 31
0.0
  0
LINE
  5
2A86
330
18
100
AcDbEntity
  8
0
  6
CONTINUOUS
100
AcDbLine
 10
14.56388378210158
 20
-92.35232917677342
 30
0.0
 11
14.93888378210158
 21
-93.50126538887343
 31
0.0
  0
LINE
  5
2A87
330
18
100
AcDbEntity
  8
0
  6
CONTINUOUS
100
AcDbLine
 10
17.16804981300163
 20
-93.73530792907342
 30
0.0
 11
17.04304981490156
 21
-93.47998876587341
 31
0.0
  0
LINE
  5
2A88
330
18
100
AcDbEntity
  8
0
  6
CONTINUOUS
100
AcDbLine
 10
17.4180497981016
 20
-93.41615898617343
 30
0.0
 11
17.54304981300163
 21
-93.60764832507342
 31
0.0
  0
LINE
  5
2A89
330
18
100
AcDbEntity
  8
0
  6
CONTINUOUS
100
AcDbLine
 10
17.4180497981016
 20
-93.99062706987342
 30
0.0
 11
17.16804981300163
 21
-93.73530792907342
 31
0.0
  0
LINE
  5
2A8A
330
18
100
AcDbEntity
  8
0
  6
CONTINUOUS
100
AcDbLine
 10
17.54304981300163
 20
-93.60764832507342
 30
0.0
 11
17.73054981300163
 21
-93.73530792907342
 31
0.0
  0
LINE
  5
2A8B
330
18
100
AcDbEntity
  8
0
  6
CONTINUOUS
100
AcDbLine
 10
17.73054981300163
 20
-93.73530792907342
 30
0.0
 11
17.98054984280162
 21
-93.79913770867343
 31
0.0
  0
LINE
  5
2A8C
330
18
100
AcDbEntity
  8
0
  6
CONTINUOUS
100
AcDbLine
 10
14.39721584390162
 20
-92.18211643107343
 30
0.0
 11
14.73054981300163
 21
-92.18211643107343
 31
0.0
  0
LINE
  5
2A8D
330
18
100
AcDbEntity
  8
0
  6
CONTINUOUS
100
AcDbLine
 10
14.93888378210158
 20
-93.50126538887343
 30
0.0
 11
14.18888378210158
 21
-93.50126538887343
 31
0.0
  0
LINE
  5
2A8E
330
18
100
AcDbEntity
  8
0
  6
CONTINUOUS
100
AcDbLine
 10
14.98054981300163
 20
-93.67147813447344
 30
0.0
 11
14.14721584390162
 21
-93.67147813447344
 31
0.0
  0
LINE
  5
2A8F
330
18
100
AcDbEntity
  8
0
  6
CONTINUOUS
100
AcDbLine
 10
17.66804982790165
 20
-91.24594621077342
 30
0.0
 11
17.98054984280162
 21
-91.18211643107342
 31
0.0
  0
LINE
  5
2A90
330
18
100
AcDbEntity
  8
0
  6
CONTINUOUS
100
AcDbLine
 10
17.98054984280162
 20
-91.56509510887344
 30
0.0
 11
17.73054981300163
 21
-91.62892488847342
 31
0.0
  0
LINE
  5
2A91
330
18
100
AcDbEntity
  8
0
  6
CONTINUOUS
100
AcDbLine
 10
19.10554975340164
 20
-93.99062706987342
 30
0.0
 11
18.85554981300163
 21
-94.11828664587343
 31
0.0
  0
LINE
  5
2A92
330
18
100
AcDbEntity
  8
0
  6
CONTINUOUS
100
AcDbLine
 10
22.16804969380166
 20
-91.50126532927343
 30
0.0
 11
22.16804969380166
 21
-94.18211643107342
 31
0.0
  0
LINE
  5
2A93
330
18
100
AcDbEntity
  8
0
  6
CONTINUOUS
100
AcDbLine
 10
21.79304969380166
 20
-94.18211643107342
 30
0.0
 11
21.79304969380166
 21
-91.50126532927343
 31
0.0
  0
LINE
  5
2A94
330
18
100
AcDbEntity
  8
0
  6
CONTINUOUS
100
AcDbLine
 10
20.29304969380166
 20
-91.18211643107342
 30
0.0
 11
20.29304969380166
 21
-94.18211643107342
 31
0.0
  0
LINE
  5
2A95
330
18
100
AcDbEntity
  8
0
  6
CONTINUOUS
100
AcDbLine
 10
19.91804987260161
 20
-94.18211643107342
 30
0.0
 11
19.91804987260161
 21
-91.18211643107342
 31
0.0
  0
LINE
  5
2A96
330
18
100
AcDbEntity
  8
0
  6
CONTINUOUS
100
AcDbLine
 10
25.35555005140162
 20
-93.92679729027342
 30
0.0
 11
25.66804957460163
 21
-94.11828664587343
 31
0.0
  0
LINE
  5
2A97
330
18
100
AcDbEntity
  8
0
  6
CONTINUOUS
100
AcDbLine
 10
20.29304969380166
 20
-94.18211643107342
 30
0.0
 11
19.91804987260161
 21
-94.18211643107342
 31
0.0
  0
LINE
  5
2A98
330
18
100
AcDbEntity
  8
0
  6
CONTINUOUS
100
AcDbLine
 10
22.16804969380166
 20
-94.18211643107342
 30
0.0
 11
21.79304969380166
 21
-94.18211643107342
 31
0.0
  0
LINE
  5
2A99
330
18
100
AcDbEntity
  8
0
  6
CONTINUOUS
100
AcDbLine
 10
18.85554981300163
 20
-94.11828664587343
 30
0.0
 11
18.54304975340164
 21
-94.18211643107342
 31
0.0
  0
LINE
  5
2A9A
330
18
100
AcDbEntity
  8
0
  6
CONTINUOUS
100
AcDbLine
 10
25.66804957460163
 20
-94.11828664587343
 30
0.0
 11
25.98054981300163
 21
-94.18211643107342
 31
0.0
  0
LINE
  5
2A9B
330
18
100
AcDbEntity
  8
0
  6
CONTINUOUS
100
AcDbLine
 10
20.79304993220159
 20
-91.18211643107342
 30
0.0
 11
23.16804981300163
 21
-91.18211643107342
 31
0.0
  0
LINE
  5
2A9C
330
18
100
AcDbEntity
  8
0
  6
CONTINUOUS
100
AcDbLine
 10
23.16804981300163
 20
-91.50126532927343
 30
0.0
 11
22.16804969380166
 21
-91.50126532927343
 31
0.0
  0
LINE
  5
2A9D
330
18
100
AcDbEntity
  8
0
  6
CONTINUOUS
100
AcDbLine
 10
18.79304987260161
 20
-93.73530792907342
 30
0.0
 11
18.98054987260161
 21
-93.60764832507342
 31
0.0
  0
LINE
  5
2A9E
330
18
100
AcDbEntity
  8
0
  6
CONTINUOUS
100
AcDbLine
 10
19.35554987260161
 20
-93.73530792907342
 30
0.0
 11
19.10554975340164
 21
-93.99062706987342
 31
0.0
  0
LINE
  5
2A9F
330
18
100
AcDbEntity
  8
0
  6
CONTINUOUS
100
AcDbLine
 10
18.98054987260161
 20
-93.60764832507342
 30
0.0
 11
19.04304981300163
 21
-93.41615898617343
 31
0.0
  0
LINE
  5
2AA0
330
18
100
AcDbEntity
  8
0
  6
CONTINUOUS
100
AcDbLine
 10
19.41804981300163
 20
-93.41615898617343
 30
0.0
 11
19.35554987260161
 21
-93.73530792907342
 31
0.0
  0
LINE
  5
2AA1
330
18
100
AcDbEntity
  8
0
  6
CONTINUOUS
100
AcDbLine
 10
20.79304993220159
 20
-91.50126532927343
 30
0.0
 11
20.79304993220159
 21
-91.18211643107342
 31
0.0
  0
LINE
  5
2AA2
330
18
100
AcDbEntity
  8
0
  6
CONTINUOUS
100
AcDbLine
 10
19.35554987260161
 20
-91.62892488847342
 30
0.0
 11
19.41804981300163
 21
-91.94807396547343
 31
0.0
  0
LINE
  5
2AA3
330
18
100
AcDbEntity
  8
0
  6
CONTINUOUS
100
AcDbLine
 10
19.04304981300163
 20
-91.94807396547343
 30
0.0
 11
18.98054987260161
 21
-91.75658444777342
 31
0.0
  0
LINE
  5
2AA4
330
18
100
AcDbEntity
  8
0
  6
CONTINUOUS
100
AcDbLine
 10
19.10554975340164
 20
-91.37360576997343
 30
0.0
 11
19.35554987260161
 21
-91.62892488847342
 31
0.0
  0
LINE
  5
2AA5
330
18
100
AcDbEntity
  8
0
  6
CONTINUOUS
100
AcDbLine
 10
18.98054987260161
 20
-91.75658444777342
 30
0.0
 11
18.79304987260161
 21
-91.62892488847342
 31
0.0
  0
LINE
  5
2AA6
330
18
100
AcDbEntity
  8
0
  6
CONTINUOUS
100
AcDbLine
 10
18.85554981300163
 20
-91.24594621077342
 30
0.0
 11
19.10554975340164
 21
-91.37360576997343
 31
0.0
  0
LINE
  5
2AA7
330
18
100
AcDbEntity
  8
0
  6
CONTINUOUS
100
AcDbLine
 10
18.79304987260161
 20
-91.62892488847342
 30
0.0
 11
18.54304975340164
 21
-91.56509510887344
 31
0.0
  0
LINE
  5
2AA8
330
18
100
AcDbEntity
  8
0
  6
CONTINUOUS
100
AcDbLine
 10
18.54304975340164
 20
-91.18211643107342
 30
0.0
 11
18.85554981300163
 21
-91.24594621077342
 31
0.0
  0
LINE
  5
2AA9
330
18
100
AcDbEntity
  8
0
  6
CONTINUOUS
100
AcDbLine
 10
19.91804987260161
 20
-91.18211643107342
 30
0.0
 11
20.29304969380166
 21
-91.18211643107342
 31
0.0
  0
LINE
  5
2AAA
330
18
100
AcDbEntity
  8
0
  6
CONTINUOUS
100
AcDbLine
 10
21.79304969380166
 20
-91.50126532927343
 30
0.0
 11
20.79304993220159
 21
-91.50126532927343
 31
0.0
  0
LINE
  5
2AAB
330
18
100
AcDbEntity
  8
0
  6
CONTINUOUS
100
AcDbLine
 10
19.41804981300163
 20
-91.94807396547343
 30
0.0
 11
19.04304981300163
 21
-91.94807396547343
 31
0.0
  0
LINE
  5
2AAC
330
18
100
AcDbEntity
  8
0
  6
CONTINUOUS
100
AcDbLine
 10
19.04304981300163
 20
-93.41615898617343
 30
0.0
 11
19.41804981300163
 21
-93.41615898617343
 31
0.0
  0
LINE
  5
2AAD
330
18
100
AcDbEntity
  8
0
  6
CONTINUOUS
100
AcDbLine
 10
18.54304975340164
 20
-93.79913770867343
 30
0.0
 11
18.79304987260161
 21
-93.73530792907342
 31
0.0
  0
LINE
  5
2AAE
330
18
100
AcDbEntity
  8
0
  6
CONTINUOUS
100
AcDbLine
 10
23.71549105860162
 20
-93.09701008807342
 30
0.0
 11
24.03464004610162
 21
-92.77786110057343
 31
0.0
  0
LINE
  5
2AAF
330
18
100
AcDbEntity
  8
0
  6
CONTINUOUS
100
AcDbLine
 10
25.41804981300163
 20
-91.43743554957344
 30
0.0
 11
25.23054981300163
 21
-91.62892488847342
 31
0.0
  0
LINE
  5
2AB0
330
18
100
AcDbEntity
  8
0
  6
CONTINUOUS
100
AcDbLine
 10
25.54305005140162
 20
-92.96935043947343
 30
0.0
 11
25.35555005140162
 21
-93.22466964737342
 31
0.0
  0
LINE
  5
2AB1
330
18
100
AcDbEntity
  8
0
  6
CONTINUOUS
100
AcDbLine
 10
25.54305005140162
 20
-91.75658444777342
 30
0.0
 11
25.41804981300163
 21
-91.94807396547343
 31
0.0
  0
LINE
  5
2AB2
330
18
100
AcDbEntity
  8
0
  6
CONTINUOUS
100
AcDbLine
 10
25.16805005140162
 20
-92.90552065977342
 30
0.0
 11
25.04304981300163
 21
-93.22466964737342
 31
0.0
  0
LINE
  5
2AB3
330
18
100
AcDbEntity
  8
0
  6
CONTINUOUS
100
AcDbLine
 10
25.23054981300163
 20
-91.62892488847342
 30
0.0
 11
25.10554957460163
 21
-91.94807396547343
 31
0.0
  0
LINE
  5
2AB4
330
18
100
AcDbEntity
  8
0
  6
CONTINUOUS
100
AcDbLine
 10
25.79304981300163
 20
-92.84169088017343
 30
0.0
 11
25.54305005140162
 21
-92.96935043947343
 31
0.0
  0
LINE
  5
2AB5
330
18
100
AcDbEntity
  8
0
  6
CONTINUOUS
100
AcDbLine
 10
25.54305005140162
 20
-92.65020154127343
 30
0.0
 11
25.41804981300163
 21
-92.71403132097342
 31
0.0
  0
LINE
  5
2AB6
330
18
100
AcDbEntity
  8
0
  6
CONTINUOUS
100
AcDbLine
 10
25.73055005140162
 20
-91.24594621077342
 30
0.0
 11
25.41804981300163
 21
-91.43743554957344
 31
0.0
  0
LINE
  5
2AB7
330
18
100
AcDbEntity
  8
0
  6
CONTINUOUS
100
AcDbLine
 10
25.41804981300163
 20
-92.71403132097342
 30
0.0
 11
25.16805005140162
 21
-92.90552065977342
 31
0.0
  0
LINE
  5
2AB8
330
18
100
AcDbEntity
  8
0
  6
CONTINUOUS
100
AcDbLine
 10
25.79304981300163
 20
-91.56509510887344
 30
0.0
 11
25.54305005140162
 21
-91.75658444777342
 31
0.0
  0
LINE
  5
2AB9
330
18
100
AcDbEntity
  8
0
  6
CONTINUOUS
100
AcDbLine
 10
25.41804981300163
 20
-91.94807396547343
 30
0.0
 11
25.41804981300163
 21
-92.07573352467344
 31
0.0
  0
LINE
  5
2ABA
330
18
100
AcDbEntity
  8
0
  6
CONTINUOUS
100
AcDbLine
 10
25.35555005140162
 20
-93.22466964737342
 30
0.0
 11
25.35555005140162
 21
-93.41615898617343
 31
0.0
  0
LINE
  5
2ABB
330
18
100
AcDbEntity
  8
0
  6
CONTINUOUS
100
AcDbLine
 10
25.10554957460163
 20
-91.94807396547343
 30
0.0
 11
25.10554957460163
 21
-92.13956330427341
 31
0.0
  0
LINE
  5
2ABC
330
18
100
AcDbEntity
  8
0
  6
CONTINUOUS
100
AcDbLine
 10
25.04304981300163
 20
-93.22466964737342
 30
0.0
 11
25.04304981300163
 21
-93.41615898617343
 31
0.0
  0
LINE
  5
2ABD
330
18
100
AcDbEntity
  8
0
  6
CONTINUOUS
100
AcDbLine
 10
24.54304957460164
 20
-92.77786110057343
 30
0.0
 11
24.54304957460164
 21
-93.09701008807342
 31
0.0
  0
LINE
  5
2ABE
330
18
100
AcDbEntity
  8
0
  6
CONTINUOUS
100
AcDbLine
 10
23.66805005140162
 20
-93.09701008807342
 30
0.0
 11
23.66805005140162
 21
-92.77786110057343
 31
0.0
  0
LINE
  5
2ABF
330
18
100
AcDbEntity
  8
0
  6
CONTINUOUS
100
AcDbLine
 10
23.16804981300163
 20
-91.18211643107342
 30
0.0
 11
23.16804981300163
 21
-91.50126532927343
 31
0.0
  0
LINE
  5
2AC0
330
18
100
AcDbEntity
  8
0
  6
CONTINUOUS
100
AcDbLine
 10
25.04304981300163
 20
-93.41615898617343
 30
0.0
 11
25.16805005140162
 21
-93.73530792907342
 31
0.0
  0
LINE
  5
2AC1
330
18
100
AcDbEntity
  8
0
  6
CONTINUOUS
100
AcDbLine
 10
25.10554957460163
 20
-92.13956330427341
 30
0.0
 11
25.23054981300163
 21
-92.39488242277342
 31
0.0
  0
LINE
  5
2AC2
330
18
100
AcDbEntity
  8
0
  6
CONTINUOUS
100
AcDbLine
 10
25.41804981300163
 20
-92.07573352467344
 30
0.0
 11
25.54305005140162
 21
-92.26722286357341
 31
0.0
  0
LINE
  5
2AC3
330
18
100
AcDbEntity
  8
0
  6
CONTINUOUS
100
AcDbLine
 10
25.35555005140162
 20
-93.41615898617343
 30
0.0
 11
25.54305005140162
 21
-93.67147814937343
 31
0.0
  0
LINE
  5
2AC4
330
18
100
AcDbEntity
  8
0
  6
CONTINUOUS
100
AcDbLine
 10
25.23054981300163
 20
-92.39488242277342
 30
0.0
 11
25.41804981300163
 21
-92.58637176167342
 31
0.0
  0
LINE
  5
2AC5
330
18
100
AcDbEntity
  8
0
  6
CONTINUOUS
100
AcDbLine
 10
25.16805005140162
 20
-93.73530792907342
 30
0.0
 11
25.35555005140162
 21
-93.92679729027342
 31
0.0
  0
LINE
  5
2AC6
330
18
100
AcDbEntity
  8
0
  6
CONTINUOUS
100
AcDbLine
 10
25.54305005140162
 20
-92.26722286357341
 30
0.0
 11
25.79304981300163
 21
-92.45871220247343
 31
0.0
  0
LINE
  5
2AC7
330
18
100
AcDbEntity
  8
0
  6
CONTINUOUS
100
AcDbLine
 10
25.41804981300163
 20
-92.58637176167342
 30
0.0
 11
25.54305005140162
 21
-92.65020154127343
 31
0.0
  0
LINE
  5
2AC8
330
18
100
AcDbEntity
  8
0
  6
CONTINUOUS
100
AcDbLine
 10
25.54305005140162
 20
-93.67147814937343
 30
0.0
 11
25.79304981300163
 21
-93.79913770867343
 31
0.0
  0
LINE
  5
2AC9
330
18
100
AcDbEntity
  8
0
  6
CONTINUOUS
100
AcDbLine
 10
25.79304981300163
 20
-92.45871220247343
 30
0.0
 11
26.04304957460163
 21
-92.52254198207344
 31
0.0
  0
LINE
  5
2ACA
330
18
100
AcDbEntity
  8
0
  6
CONTINUOUS
100
AcDbLine
 10
25.79304981300163
 20
-93.79913770867343
 30
0.0
 11
26.04304957460163
 21
-93.86296748827342
 31
0.0
  0
LINE
  5
2ACB
330
18
100
AcDbEntity
  8
0
  6
CONTINUOUS
100
AcDbLine
 10
26.29305005140162
 20
-91.18211643107342
 30
0.0
 11
26.04304957460163
 21
-91.18211643107342
 31
0.0
  0
LINE
  5
2ACC
330
18
100
AcDbEntity
  8
0
  6
CONTINUOUS
100
AcDbLine
 10
26.29305005140162
 20
-91.50126532927343
 30
0.0
 11
26.04304957460163
 21
-91.50126532927343
 31
0.0
  0
LINE
  5
2ACD
330
18
100
AcDbEntity
  8
0
  6
CONTINUOUS
100
AcDbLine
 10
26.04304957460163
 20
-92.52254198207344
 30
0.0
 11
26.29305005140162
 21
-92.52254198207344
 31
0.0
  0
LINE
  5
2ACE
330
18
100
AcDbEntity
  8
0
  6
CONTINUOUS
100
AcDbLine
 10
23.66805005140162
 20
-92.77786110057343
 30
0.0
 11
24.54304957460164
 21
-92.77786110057343
 31
0.0
  0
LINE
  5
2ACF
330
18
100
AcDbEntity
  8
0
  6
CONTINUOUS
100
AcDbLine
 10
26.29305005140162
 20
-92.77786110057343
 30
0.0
 11
26.04304957460163
 21
-92.77786110057343
 31
0.0
  0
LINE
  5
2AD0
330
18
100
AcDbEntity
  8
0
  6
CONTINUOUS
100
AcDbLine
 10
24.54304957460164
 20
-93.09701008807342
 30
0.0
 11
23.66805005140162
 21
-93.09701008807342
 31
0.0
  0
LINE
  5
2AD1
330
18
100
AcDbEntity
  8
0
  6
CONTINUOUS
100
AcDbLine
 10
26.04304957460163
 20
-93.86296748827342
 30
0.0
 11
26.29305005140162
 21
-93.86296748827342
 31
0.0
  0
LINE
  5
2AD2
330
18
100
AcDbEntity
  8
0
  6
CONTINUOUS
100
AcDbLine
 10
26.04304957460163
 20
-91.18211643107342
 30
0.0
 11
25.73055005140162
 21
-91.24594621077342
 31
0.0
  0
LINE
  5
2AD3
330
18
100
AcDbEntity
  8
0
  6
CONTINUOUS
100
AcDbLine
 10
26.04304957460163
 20
-91.50126532927343
 30
0.0
 11
25.79304981300163
 21
-91.56509510887344
 31
0.0
  0
LINE
  5
2AD4
330
18
100
AcDbEntity
  8
0
  6
CONTINUOUS
100
AcDbLine
 10
26.04304957460163
 20
-92.77786110057343
 30
0.0
 11
25.79304981300163
 21
-92.84169088017343
 31
0.0
  0
LINE
  5
2AD5
330
18
100
AcDbEntity
  8
0
  6
CONTINUOUS
100
AcDbLine
 10
34.52859480830159
 20
-94.16330026227344
 30
0.0
 11
35.49933823370162
 21
-93.19255683687343
 31
0.0
  0
LINE
  5
2AD6
330
18
100
AcDbEntity
  8
0
  6
CONTINUOUS
100
AcDbLine
 10
34.73054933620159
 20
-91.56509510887344
 30
0.0
 11
34.41804981300163
 21
-91.50126532927343
 31
0.0
  0
LINE
  5
2AD7
330
18
100
AcDbEntity
  8
0
  6
CONTINUOUS
100
AcDbLine
 10
34.79304981300163
 20
-91.24594621077342
 30
0.0
 11
34.41804981300163
 21
-91.18211643107342
 31
0.0
  0
LINE
  5
2AD8
330
18
100
AcDbEntity
  8
0
  6
CONTINUOUS
100
AcDbLine
 10
34.41804981300163
 20
-94.18211643107342
 30
0.0
 11
34.79304981300163
 21
-94.11828664587343
 31
0.0
  0
LINE
  5
2AD9
330
18
100
AcDbEntity
  8
0
  6
CONTINUOUS
100
AcDbLine
 10
34.41804981300163
 20
-93.86296748827342
 30
0.0
 11
34.73054933620159
 21
-93.79913770867343
 31
0.0
  0
LINE
  5
2ADA
330
18
100
AcDbEntity
  8
0
  6
CONTINUOUS
100
AcDbLine
 10
32.0430502899016
 20
-94.11828664587343
 30
0.0
 11
32.35554981300163
 21
-93.92679729027342
 31
0.0
  0
LINE
  5
2ADB
330
18
100
AcDbEntity
  8
0
  6
CONTINUOUS
100
AcDbLine
 10
29.29304933620159
 20
-94.11828664587343
 30
0.0
 11
29.6055502899016
 21
-93.92679729027342
 31
0.0
  0
LINE
  5
2ADC
330
18
100
AcDbEntity
  8
0
  6
CONTINUOUS
100
AcDbLine
 10
26.66805005140162
 20
-94.11828664587343
 30
0.0
 11
26.98054957460163
 21
-93.92679729027342
 31
0.0
  0
LINE
  5
2ADD
330
18
100
AcDbEntity
  8
0
  6
CONTINUOUS
100
AcDbLine
 10
33.7305502899016
 20
-93.92679729027342
 30
0.0
 11
34.04304981300163
 21
-94.11828664587343
 31
0.0
  0
LINE
  5
2ADE
330
18
100
AcDbEntity
  8
0
  6
CONTINUOUS
100
AcDbLine
 10
30.98054933620159
 20
-93.92679729027342
 30
0.0
 11
31.2930502899016
 21
-94.11828664587343
 31
0.0
  0
LINE
  5
2ADF
330
18
100
AcDbEntity
  8
0
  6
CONTINUOUS
100
AcDbLine
 10
28.23054981300163
 20
-93.92679729027342
 30
0.0
 11
28.54305005140162
 21
-94.11828664587343
 31
0.0
  0
LINE
  5
2AE0
330
18
100
AcDbEntity
  8
0
  6
CONTINUOUS
100
AcDbLine
 10
28.54305005140162
 20
-94.11828664587343
 30
0.0
 11
28.91805005140162
 21
-94.18211643107342
 31
0.0
  0
LINE
  5
2AE1
330
18
100
AcDbEntity
  8
0
  6
CONTINUOUS
100
AcDbLine
 10
28.91805005140162
 20
-94.18211643107342
 30
0.0
 11
29.29304933620159
 21
-94.11828664587343
 31
0.0
  0
LINE
  5
2AE2
330
18
100
AcDbEntity
  8
0
  6
CONTINUOUS
100
AcDbLine
 10
26.35554981300163
 20
-94.18211643107342
 30
0.0
 11
26.66805005140162
 21
-94.11828664587343
 31
0.0
  0
LINE
  5
2AE3
330
18
100
AcDbEntity
  8
0
  6
CONTINUOUS
100
AcDbLine
 10
34.04304981300163
 20
-94.11828664587343
 30
0.0
 11
34.41804981300163
 21
-94.18211643107342
 31
0.0
  0
LINE
  5
2AE4
330
18
100
AcDbEntity
  8
0
  6
CONTINUOUS
100
AcDbLine
 10
31.2930502899016
 20
-94.11828664587343
 30
0.0
 11
31.6680502899016
 21
-94.18211643107342
 31
0.0
  0
LINE
  5
2AE5
330
18
100
AcDbEntity
  8
0
  6
CONTINUOUS
100
AcDbLine
 10
31.6680502899016
 20
-94.18211643107342
 30
0.0
 11
32.0430502899016
 21
-94.11828664587343
 31
0.0
  0
LINE
  5
2AE6
330
18
100
AcDbEntity
  8
0
  6
CONTINUOUS
100
AcDbLine
 10
29.6055502899016
 20
-93.92679729027342
 30
0.0
 11
29.7930502899016
 21
-93.73530792907342
 31
0.0
  0
LINE
  5
2AE7
330
18
100
AcDbEntity
  8
0
  6
CONTINUOUS
100
AcDbLine
 10
29.4180502899016
 20
-93.67147814937343
 30
0.0
 11
29.66804933620159
 21
-93.28849942697344
 31
0.0
  0
LINE
  5
2AE8
330
18
100
AcDbEntity
  8
0
  6
CONTINUOUS
100
AcDbLine
 10
28.41804981300163
 20
-91.69275466807343
 30
0.0
 11
28.16805005140162
 21
-92.07573352467344
 31
0.0
  0
LINE
  5
2AE9
330
18
100
AcDbEntity
  8
0
  6
CONTINUOUS
100
AcDbLine
 10
29.7930502899016
 20
-93.73530792907342
 30
0.0
 11
29.91804981300163
 21
-93.47998876587341
 31
0.0
  0
LINE
  5
2AEA
330
18
100
AcDbEntity
  8
0
  6
CONTINUOUS
100
AcDbLine
 10
29.91804981300163
 20
-93.47998876587341
 30
0.0
 11
29.9805502899016
 21
-93.28849942697344
 31
0.0
  0
LINE
  5
2AEB
330
18
100
AcDbEntity
  8
0
  6
CONTINUOUS
100
AcDbLine
 10
29.2305502899016
 20
-93.79913770867343
 30
0.0
 11
29.4180502899016
 21
-93.67147814937343
 31
0.0
  0
LINE
  5
2AEC
330
18
100
AcDbEntity
  8
0
  6
CONTINUOUS
100
AcDbLine
 10
26.54304981300163
 20
-92.45871220247343
 30
0.0
 11
26.79304957460164
 21
-92.26722286357341
 31
0.0
  0
LINE
  5
2AED
330
18
100
AcDbEntity
  8
0
  6
CONTINUOUS
100
AcDbLine
 10
26.98054957460163
 20
-93.92679729027342
 30
0.0
 11
27.16804957460164
 21
-93.73530792907342
 31
0.0
  0
LINE
  5
2AEE
330
18
100
AcDbEntity
  8
0
  6
CONTINUOUS
100
AcDbLine
 10
28.23054981300163
 20
-91.43743554957344
 30
0.0
 11
28.04304981300163
 21
-91.62892488847342
 31
0.0
  0
LINE
  5
2AEF
330
18
100
AcDbEntity
  8
0
  6
CONTINUOUS
100
AcDbLine
 10
26.91804981300163
 20
-92.58637176167342
 30
0.0
 11
27.10554981300163
 21
-92.39488242277342
 31
0.0
  0
LINE
  5
2AF0
330
18
100
AcDbEntity
  8
0
  6
CONTINUOUS
100
AcDbLine
 10
26.79304957460164
 20
-93.67147814937343
 30
0.0
 11
26.98054957460163
 21
-93.41615898617343
 31
0.0
  0
LINE
  5
2AF1
330
18
100
AcDbEntity
  8
0
  6
CONTINUOUS
100
AcDbLine
 10
26.79304957460164
 20
-92.26722286357341
 30
0.0
 11
26.91804981300163
 21
-92.07573352467344
 31
0.0
  0
LINE
  5
2AF2
330
18
100
AcDbEntity
  8
0
  6
CONTINUOUS
100
AcDbLine
 10
28.04304981300163
 20
-91.62892488847342
 30
0.0
 11
27.91804957460163
 21
-91.88424400697343
 31
0.0
  0
LINE
  5
2AF3
330
18
100
AcDbEntity
  8
0
  6
CONTINUOUS
100
AcDbLine
 10
27.10554981300163
 20
-92.39488242277342
 30
0.0
 11
27.23055005140162
 21
-92.13956330427341
 31
0.0
  0
LINE
  5
2AF4
330
18
100
AcDbEntity
  8
0
  6
CONTINUOUS
100
AcDbLine
 10
27.16804957460164
 20
-93.73530792907342
 30
0.0
 11
27.29304981300163
 21
-93.41615898617343
 31
0.0
  0
LINE
  5
2AF5
330
18
100
AcDbEntity
  8
0
  6
CONTINUOUS
100
AcDbLine
 10
27.91804957460163
 20
-91.88424400697343
 30
0.0
 11
27.85554981300163
 21
-92.07573352467344
 31
0.0
  0
LINE
  5
2AF6
330
18
100
AcDbEntity
  8
0
  6
CONTINUOUS
100
AcDbLine
 10
29.9805502899016
 20
-93.28849942697344
 30
0.0
 11
30.04304933620159
 21
-92.96935043947343
 31
0.0
  0
LINE
  5
2AF7
330
18
100
AcDbEntity
  8
0
  6
CONTINUOUS
100
AcDbLine
 10
27.85554981300163
 20
-92.07573352467344
 30
0.0
 11
27.79305005140162
 21
-92.39488242277342
 31
0.0
  0
LINE
  5
2AF8
330
18
100
AcDbEntity
  8
0
  6
CONTINUOUS
100
AcDbLine
 10
29.66804933620159
 20
-93.28849942697344
 30
0.0
 11
29.73054981300163
 21
-92.90552065977342
 31
0.0
  0
LINE
  5
2AF9
330
18
100
AcDbEntity
  8
0
  6
CONTINUOUS
100
AcDbLine
 10
28.16805005140162
 20
-92.07573352467344
 30
0.0
 11
28.10554957460164
 21
-92.45871220247343
 31
0.0
  0
LINE
  5
2AFA
330
18
100
AcDbEntity
  8
0
  6
CONTINUOUS
100
AcDbLine
 10
30.04304933620159
 20
-92.96935043947343
 30
0.0
 11
30.04304933620159
 21
-92.39488242277342
 31
0.0
  0
LINE
  5
2AFB
330
18
100
AcDbEntity
  8
0
  6
CONTINUOUS
100
AcDbLine
 10
29.73054981300163
 20
-92.90552065977342
 30
0.0
 11
29.73054981300163
 21
-92.45871220247343
 31
0.0
  0
LINE
  5
2AFC
330
18
100
AcDbEntity
  8
0
  6
CONTINUOUS
100
AcDbLine
 10
29.73054981300163
 20
-92.45871220247343
 30
0.0
 11
29.66804933620159
 21
-92.07573352467344
 31
0.0
  0
LINE
  5
2AFD
330
18
100
AcDbEntity
  8
0
  6
CONTINUOUS
100
AcDbLine
 10
30.04304933620159
 20
-92.39488242277342
 30
0.0
 11
29.9805502899016
 21
-92.07573352467344
 31
0.0
  0
LINE
  5
2AFE
330
18
100
AcDbEntity
  8
0
  6
CONTINUOUS
100
AcDbLine
 10
26.54304981300163
 20
-93.79913770867343
 30
0.0
 11
26.79304957460164
 21
-93.67147814937343
 31
0.0
  0
LINE
  5
2AFF
330
18
100
AcDbEntity
  8
0
  6
CONTINUOUS
100
AcDbLine
 10
26.79304957460164
 20
-92.65020154127343
 30
0.0
 11
26.91804981300163
 21
-92.58637176167342
 31
0.0
  0
LINE
  5
2B00
330
18
100
AcDbEntity
  8
0
  6
CONTINUOUS
100
AcDbLine
 10
28.54305005140162
 20
-91.24594621077342
 30
0.0
 11
28.23054981300163
 21
-91.43743554957344
 31
0.0
  0
LINE
  5
2B01
330
18
100
AcDbEntity
  8
0
  6
CONTINUOUS
100
AcDbLine
 10
28.60554981300163
 20
-91.56509510887344
 30
0.0
 11
28.41804981300163
 21
-91.69275466807343
 31
0.0
  0
LINE
  5
2B02
330
18
100
AcDbEntity
  8
0
  6
CONTINUOUS
100
AcDbLine
 10
28.10554957460164
 20
-92.45871220247343
 30
0.0
 11
28.10554957460164
 21
-92.90552065977342
 31
0.0
  0
LINE
  5
2B03
330
18
100
AcDbEntity
  8
0
  6
CONTINUOUS
100
AcDbLine
 10
27.79305005140162
 20
-92.39488242277342
 30
0.0
 11
27.79305005140162
 21
-92.96935043947343
 31
0.0
  0
LINE
  5
2B04
330
18
100
AcDbEntity
  8
0
  6
CONTINUOUS
100
AcDbLine
 10
27.29304981300163
 20
-93.41615898617343
 30
0.0
 11
27.29304981300163
 21
-93.22466964737342
 31
0.0
  0
LINE
  5
2B05
330
18
100
AcDbEntity
  8
0
  6
CONTINUOUS
100
AcDbLine
 10
27.23055005140162
 20
-92.13956330427341
 30
0.0
 11
27.23055005140162
 21
-91.94807396547343
 31
0.0
  0
LINE
  5
2B06
330
18
100
AcDbEntity
  8
0
  6
CONTINUOUS
100
AcDbLine
 10
26.98054957460163
 20
-93.41615898617343
 30
0.0
 11
26.98054957460163
 21
-93.22466964737342
 31
0.0
  0
LINE
  5
2B07
330
18
100
AcDbEntity
  8
0
  6
CONTINUOUS
100
AcDbLine
 10
26.91804981300163
 20
-92.07573352467344
 30
0.0
 11
26.91804981300163
 21
-91.94807396547343
 31
0.0
  0
LINE
  5
2B08
330
18
100
AcDbEntity
  8
0
  6
CONTINUOUS
100
AcDbLine
 10
28.10554957460164
 20
-92.90552065977342
 30
0.0
 11
28.16805005140162
 21
-93.28849942697344
 31
0.0
  0
LINE
  5
2B09
330
18
100
AcDbEntity
  8
0
  6
CONTINUOUS
100
AcDbLine
 10
27.79305005140162
 20
-92.96935043947343
 30
0.0
 11
27.85554981300163
 21
-93.28849942697344
 31
0.0
  0
LINE
  5
2B0A
330
18
100
AcDbEntity
  8
0
  6
CONTINUOUS
100
AcDbLine
 10
29.9805502899016
 20
-92.07573352467344
 30
0.0
 11
29.91804981300163
 21
-91.88424400697343
 31
0.0
  0
LINE
  5
2B0B
330
18
100
AcDbEntity
  8
0
  6
CONTINUOUS
100
AcDbLine
 10
27.85554981300163
 20
-93.28849942697344
 30
0.0
 11
27.91804957460163
 21
-93.47998876587341
 31
0.0
  0
LINE
  5
2B0C
330
18
100
AcDbEntity
  8
0
  6
CONTINUOUS
100
AcDbLine
 10
27.23055005140162
 20
-91.94807396547343
 30
0.0
 11
27.10554981300163
 21
-91.62892488847342
 31
0.0
  0
LINE
  5
2B0D
330
18
100
AcDbEntity
  8
0
  6
CONTINUOUS
100
AcDbLine
 10
27.29304981300163
 20
-93.22466964737342
 30
0.0
 11
27.16804957460164
 21
-92.90552065977342
 31
0.0
  0
LINE
  5
2B0E
330
18
100
AcDbEntity
  8
0
  6
CONTINUOUS
100
AcDbLine
 10
29.91804981300163
 20
-91.88424400697343
 30
0.0
 11
29.7930502899016
 21
-91.62892488847342
 31
0.0
  0
LINE
  5
2B0F
330
18
100
AcDbEntity
  8
0
  6
CONTINUOUS
100
AcDbLine
 10
27.91804957460163
 20
-93.47998876587341
 30
0.0
 11
28.04304981300163
 21
-93.73530792907342
 31
0.0
  0
LINE
  5
2B10
330
18
100
AcDbEntity
  8
0
  6
CONTINUOUS
100
AcDbLine
 10
29.66804933620159
 20
-92.07573352467344
 30
0.0
 11
29.4180502899016
 21
-91.69275466807343
 31
0.0
  0
LINE
  5
2B11
330
18
100
AcDbEntity
  8
0
  6
CONTINUOUS
100
AcDbLine
 10
28.16805005140162
 20
-93.28849942697344
 30
0.0
 11
28.41804981300163
 21
-93.67147814937343
 31
0.0
  0
LINE
  5
2B12
330
18
100
AcDbEntity
  8
0
  6
CONTINUOUS
100
AcDbLine
 10
26.91804981300163
 20
-91.94807396547343
 30
0.0
 11
26.79304957460164
 21
-91.75658444777342
 31
0.0
  0
LINE
  5
2B13
330
18
100
AcDbEntity
  8
0
  6
CONTINUOUS
100
AcDbLine
 10
26.98054957460163
 20
-93.22466964737342
 30
0.0
 11
26.79304957460164
 21
-92.96935043947343
 31
0.0
  0
LINE
  5
2B14
330
18
100
AcDbEntity
  8
0
  6
CONTINUOUS
100
AcDbLine
 10
29.7930502899016
 20
-91.62892488847342
 30
0.0
 11
29.6055502899016
 21
-91.43743554957344
 31
0.0
  0
LINE
  5
2B15
330
18
100
AcDbEntity
  8
0
  6
CONTINUOUS
100
AcDbLine
 10
27.10554981300163
 20
-91.62892488847342
 30
0.0
 11
26.91804981300163
 21
-91.43743554957344
 31
0.0
  0
LINE
  5
2B16
330
18
100
AcDbEntity
  8
0
  6
CONTINUOUS
100
AcDbLine
 10
28.04304981300163
 20
-93.73530792907342
 30
0.0
 11
28.23054981300163
 21
-93.92679729027342
 31
0.0
  0
LINE
  5
2B17
330
18
100
AcDbEntity
  8
0
  6
CONTINUOUS
100
AcDbLine
 10
26.79304957460164
 20
-91.75658444777342
 30
0.0
 11
26.54304981300163
 21
-91.56509510887344
 31
0.0
  0
LINE
  5
2B18
330
18
100
AcDbEntity
  8
0
  6
CONTINUOUS
100
AcDbLine
 10
27.16804957460164
 20
-92.90552065977342
 30
0.0
 11
26.91804981300163
 21
-92.71403132097342
 31
0.0
  0
LINE
  5
2B19
330
18
100
AcDbEntity
  8
0
  6
CONTINUOUS
100
AcDbLine
 10
29.4180502899016
 20
-91.69275466807343
 30
0.0
 11
29.2305502899016
 21
-91.56509510887344
 31
0.0
  0
LINE
  5
2B1A
330
18
100
AcDbEntity
  8
0
  6
CONTINUOUS
100
AcDbLine
 10
28.41804981300163
 20
-93.67147814937343
 30
0.0
 11
28.60554981300163
 21
-93.79913770867343
 31
0.0
  0
LINE
  5
2B1B
330
18
100
AcDbEntity
  8
0
  6
CONTINUOUS
100
AcDbLine
 10
29.6055502899016
 20
-91.43743554957344
 30
0.0
 11
29.29304933620159
 21
-91.24594621077342
 31
0.0
  0
LINE
  5
2B1C
330
18
100
AcDbEntity
  8
0
  6
CONTINUOUS
100
AcDbLine
 10
26.91804981300163
 20
-91.43743554957344
 30
0.0
 11
26.60554957460163
 21
-91.24594621077342
 31
0.0
  0
LINE
  5
2B1D
330
18
100
AcDbEntity
  8
0
  6
CONTINUOUS
100
AcDbLine
 10
26.91804981300163
 20
-92.71403132097342
 30
0.0
 11
26.79304957460164
 21
-92.65020154127343
 31
0.0
  0
LINE
  5
2B1E
330
18
100
AcDbEntity
  8
0
  6
CONTINUOUS
100
AcDbLine
 10
26.79304957460164
 20
-92.96935043947343
 30
0.0
 11
26.54304981300163
 21
-92.84169088017343
 31
0.0
  0
LINE
  5
2B1F
330
18
100
AcDbEntity
  8
0
  6
CONTINUOUS
100
AcDbLine
 10
29.2305502899016
 20
-91.56509510887344
 30
0.0
 11
28.91805005140162
 21
-91.50126532927343
 31
0.0
  0
LINE
  5
2B20
330
18
100
AcDbEntity
  8
0
  6
CONTINUOUS
100
AcDbLine
 10
28.60554981300163
 20
-93.79913770867343
 30
0.0
 11
28.91805005140162
 21
-93.86296748827342
 31
0.0
  0
LINE
  5
2B21
330
18
100
AcDbEntity
  8
0
  6
CONTINUOUS
100
AcDbLine
 10
29.29304933620159
 20
-91.24594621077342
 30
0.0
 11
28.91805005140162
 21
-91.18211643107342
 31
0.0
  0
LINE
  5
2B22
330
18
100
AcDbEntity
  8
0
  6
CONTINUOUS
100
AcDbLine
 10
28.91805005140162
 20
-91.18211643107342
 30
0.0
 11
28.54305005140162
 21
-91.24594621077342
 31
0.0
  0
LINE
  5
2B23
330
18
100
AcDbEntity
  8
0
  6
CONTINUOUS
100
AcDbLine
 10
28.91805005140162
 20
-91.50126532927343
 30
0.0
 11
28.60554981300163
 21
-91.56509510887344
 31
0.0
  0
LINE
  5
2B24
330
18
100
AcDbEntity
  8
0
  6
CONTINUOUS
100
AcDbLine
 10
28.91805005140162
 20
-93.86296748827342
 30
0.0
 11
29.2305502899016
 21
-93.79913770867343
 31
0.0
  0
LINE
  5
2B25
330
18
100
AcDbEntity
  8
0
  6
CONTINUOUS
100
AcDbLine
 10
32.54304981300163
 20
-93.73530792907342
 30
0.0
 11
32.66804933620159
 21
-93.47998876587341
 31
0.0
  0
LINE
  5
2B26
330
18
100
AcDbEntity
  8
0
  6
CONTINUOUS
100
AcDbLine
 10
33.5430502899016
 20
-91.62892488847342
 30
0.0
 11
33.41804933620159
 21
-91.88424400697343
 31
0.0
  0
LINE
  5
2B27
330
18
100
AcDbEntity
  8
0
  6
CONTINUOUS
100
AcDbLine
 10
32.35554981300163
 20
-93.92679729027342
 30
0.0
 11
32.54304981300163
 21
-93.73530792907342
 31
0.0
  0
LINE
  5
2B28
330
18
100
AcDbEntity
  8
0
  6
CONTINUOUS
100
AcDbLine
 10
33.7305502899016
 20
-91.43743554957344
 30
0.0
 11
33.5430502899016
 21
-91.62892488847342
 31
0.0
  0
LINE
  5
2B29
330
18
100
AcDbEntity
  8
0
  6
CONTINUOUS
100
AcDbLine
 10
30.98054933620159
 20
-91.43743554957344
 30
0.0
 11
30.79304933620159
 21
-91.62892488847342
 31
0.0
  0
LINE
  5
2B2A
330
18
100
AcDbEntity
  8
0
  6
CONTINUOUS
100
AcDbLine
 10
33.9180502899016
 20
-91.69275466807343
 30
0.0
 11
33.66804981300163
 21
-92.07573352467344
 31
0.0
  0
LINE
  5
2B2B
330
18
100
AcDbEntity
  8
0
  6
CONTINUOUS
100
AcDbLine
 10
32.16804981300163
 20
-93.67147814937343
 30
0.0
 11
32.4180502899016
 21
-93.28849942697344
 31
0.0
  0
LINE
  5
2B2C
330
18
100
AcDbEntity
  8
0
  6
CONTINUOUS
100
AcDbLine
 10
31.16804933620159
 20
-91.69275466807343
 30
0.0
 11
30.9180502899016
 21
-92.07573352467344
 31
0.0
  0
LINE
  5
2B2D
330
18
100
AcDbEntity
  8
0
  6
CONTINUOUS
100
AcDbLine
 10
30.79304933620159
 20
-91.62892488847342
 30
0.0
 11
30.66804981300163
 21
-91.88424400697343
 31
0.0
  0
LINE
  5
2B2E
330
18
100
AcDbEntity
  8
0
  6
CONTINUOUS
100
AcDbLine
 10
33.41804933620159
 20
-91.88424400697343
 30
0.0
 11
33.3555502899016
 21
-92.07573352467344
 31
0.0
  0
LINE
  5
2B2F
330
18
100
AcDbEntity
  8
0
  6
CONTINUOUS
100
AcDbLine
 10
32.66804933620159
 20
-93.47998876587341
 30
0.0
 11
32.73054981300163
 21
-93.28849942697344
 31
0.0
  0
LINE
  5
2B30
330
18
100
AcDbEntity
  8
0
  6
CONTINUOUS
100
AcDbLine
 10
30.66804981300163
 20
-91.88424400697343
 30
0.0
 11
30.60554933620159
 21
-92.07573352467344
 31
0.0
  0
LINE
  5
2B31
330
18
100
AcDbEntity
  8
0
  6
CONTINUOUS
100
AcDbLine
 10
33.3555502899016
 20
-92.07573352467344
 30
0.0
 11
33.29304981300163
 21
-92.39488242277342
 31
0.0
  0
LINE
  5
2B32
330
18
100
AcDbEntity
  8
0
  6
CONTINUOUS
100
AcDbLine
 10
32.73054981300163
 20
-93.28849942697344
 30
0.0
 11
32.7930502899016
 21
-92.96935043947343
 31
0.0
  0
LINE
  5
2B33
330
18
100
AcDbEntity
  8
0
  6
CONTINUOUS
100
AcDbLine
 10
30.60554933620159
 20
-92.07573352467344
 30
0.0
 11
30.5430502899016
 21
-92.39488242277342
 31
0.0
  0
LINE
  5
2B34
330
18
100
AcDbEntity
  8
0
  6
CONTINUOUS
100
AcDbLine
 10
33.66804981300163
 20
-92.07573352467344
 30
0.0
 11
33.60554933620159
 21
-92.45871220247343
 31
0.0
  0
LINE
  5
2B35
330
18
100
AcDbEntity
  8
0
  6
CONTINUOUS
100
AcDbLine
 10
32.4180502899016
 20
-93.28849942697344
 30
0.0
 11
32.48054933620159
 21
-92.90552065977342
 31
0.0
  0
LINE
  5
2B36
330
18
100
AcDbEntity
  8
0
  6
CONTINUOUS
100
AcDbLine
 10
30.9180502899016
 20
-92.07573352467344
 30
0.0
 11
30.85554981300163
 21
-92.45871220247343
 31
0.0
  0
LINE
  5
2B37
330
18
100
AcDbEntity
  8
0
  6
CONTINUOUS
100
AcDbLine
 10
34.04304981300163
 20
-91.24594621077342
 30
0.0
 11
33.7305502899016
 21
-91.43743554957344
 31
0.0
  0
LINE
  5
2B38
330
18
100
AcDbEntity
  8
0
  6
CONTINUOUS
100
AcDbLine
 10
31.98054981300163
 20
-93.79913770867343
 30
0.0
 11
32.16804981300163
 21
-93.67147814937343
 31
0.0
  0
LINE
  5
2B39
330
18
100
AcDbEntity
  8
0
  6
CONTINUOUS
100
AcDbLine
 10
34.1055502899016
 20
-91.56509510887344
 30
0.0
 11
33.9180502899016
 21
-91.69275466807343
 31
0.0
  0
LINE
  5
2B3A
330
18
100
AcDbEntity
  8
0
  6
CONTINUOUS
100
AcDbLine
 10
31.35554933620159
 20
-91.56509510887344
 30
0.0
 11
31.16804933620159
 21
-91.69275466807343
 31
0.0
  0
LINE
  5
2B3B
330
18
100
AcDbEntity
  8
0
  6
CONTINUOUS
100
AcDbLine
 10
33.60554933620159
 20
-92.45871220247343
 30
0.0
 11
33.60554933620159
 21
-92.90552065977342
 31
0.0
  0
LINE
  5
2B3C
330
18
100
AcDbEntity
  8
0
  6
CONTINUOUS
100
AcDbLine
 10
33.29304981300163
 20
-92.39488242277342
 30
0.0
 11
33.29304981300163
 21
-92.96935043947343
 31
0.0
  0
LINE
  5
2B3D
330
18
100
AcDbEntity
  8
0
  6
CONTINUOUS
100
AcDbLine
 10
32.7930502899016
 20
-92.96935043947343
 30
0.0
 11
32.7930502899016
 21
-92.39488242277342
 31
0.0
  0
LINE
  5
2B3E
330
18
100
AcDbEntity
  8
0
  6
CONTINUOUS
100
AcDbLine
 10
32.48054933620159
 20
-92.90552065977342
 30
0.0
 11
32.48054933620159
 21
-92.45871220247343
 31
0.0
  0
LINE
  5
2B3F
330
18
100
AcDbEntity
  8
0
  6
CONTINUOUS
100
AcDbLine
 10
30.85554981300163
 20
-92.45871220247343
 30
0.0
 11
30.85554981300163
 21
-92.90552065977342
 31
0.0
  0
LINE
  5
2B40
330
18
100
AcDbEntity
  8
0
  6
CONTINUOUS
100
AcDbLine
 10
30.5430502899016
 20
-92.39488242277342
 30
0.0
 11
30.5430502899016
 21
-92.96935043947343
 31
0.0
  0
LINE
  5
2B41
330
18
100
AcDbEntity
  8
0
  6
CONTINUOUS
100
AcDbLine
 10
33.60554933620159
 20
-92.90552065977342
 30
0.0
 11
33.66804981300163
 21
-93.28849942697344
 31
0.0
  0
LINE
  5
2B42
330
18
100
AcDbEntity
  8
0
  6
CONTINUOUS
100
AcDbLine
 10
32.48054933620159
 20
-92.45871220247343
 30
0.0
 11
32.4180502899016
 21
-92.07573352467344
 31
0.0
  0
LINE
  5
2B43
330
18
100
AcDbEntity
  8
0
  6
CONTINUOUS
100
AcDbLine
 10
30.85554981300163
 20
-92.90552065977342
 30
0.0
 11
30.9180502899016
 21
-93.28849942697344
 31
0.0
  0
LINE
  5
2B44
330
18
100
AcDbEntity
  8
0
  6
CONTINUOUS
100
AcDbLine
 10
33.29304981300163
 20
-92.96935043947343
 30
0.0
 11
33.3555502899016
 21
-93.28849942697344
 31
0.0
  0
LINE
  5
2B45
330
18
100
AcDbEntity
  8
0
  6
CONTINUOUS
100
AcDbLine
 10
32.7930502899016
 20
-92.39488242277342
 30
0.0
 11
32.73054981300163
 21
-92.07573352467344
 31
0.0
  0
LINE
  5
2B46
330
18
100
AcDbEntity
  8
0
  6
CONTINUOUS
100
AcDbLine
 10
30.5430502899016
 20
-92.96935043947343
 30
0.0
 11
30.60554933620159
 21
-93.28849942697344
 31
0.0
  0
LINE
  5
2B47
330
18
100
AcDbEntity
  8
0
  6
CONTINUOUS
100
AcDbLine
 10
31.2930502899016
 20
-91.24594621077342
 30
0.0
 11
30.98054933620159
 21
-91.43743554957344
 31
0.0
  0
LINE
  5
2B48
330
18
100
AcDbEntity
  8
0
  6
CONTINUOUS
100
AcDbLine
 10
33.3555502899016
 20
-93.28849942697344
 30
0.0
 11
33.41804933620159
 21
-93.47998876587341
 31
0.0
  0
LINE
  5
2B49
330
18
100
AcDbEntity
  8
0
  6
CONTINUOUS
100
AcDbLine
 10
32.73054981300163
 20
-92.07573352467344
 30
0.0
 11
32.66804933620159
 21
-91.88424400697343
 31
0.0
  0
LINE
  5
2B4A
330
18
100
AcDbEntity
  8
0
  6
CONTINUOUS
100
AcDbLine
 10
30.60554933620159
 20
-93.28849942697344
 30
0.0
 11
30.66804981300163
 21
-93.47998876587341
 31
0.0
  0
LINE
  5
2B4B
330
18
100
AcDbEntity
  8
0
  6
CONTINUOUS
100
AcDbLine
 10
32.66804933620159
 20
-91.88424400697343
 30
0.0
 11
32.54304981300163
 21
-91.62892488847342
 31
0.0
  0
LINE
  5
2B4C
330
18
100
AcDbEntity
  8
0
  6
CONTINUOUS
100
AcDbLine
 10
33.41804933620159
 20
-93.47998876587341
 30
0.0
 11
33.5430502899016
 21
-93.73530792907342
 31
0.0
  0
LINE
  5
2B4D
330
18
100
AcDbEntity
  8
0
  6
CONTINUOUS
100
AcDbLine
 10
30.66804981300163
 20
-93.47998876587341
 30
0.0
 11
30.79304933620159
 21
-93.73530792907342
 31
0.0
  0
LINE
  5
2B4E
330
18
100
AcDbEntity
  8
0
  6
CONTINUOUS
100
AcDbLine
 10
33.66804981300163
 20
-93.28849942697344
 30
0.0
 11
33.9180502899016
 21
-93.67147814937343
 31
0.0
  0
LINE
  5
2B4F
330
18
100
AcDbEntity
  8
0
  6
CONTINUOUS
100
AcDbLine
 10
32.4180502899016
 20
-92.07573352467344
 30
0.0
 11
32.16804981300163
 21
-91.69275466807343
 31
0.0
  0
LINE
  5
2B50
330
18
100
AcDbEntity
  8
0
  6
CONTINUOUS
100
AcDbLine
 10
30.9180502899016
 20
-93.28849942697344
 30
0.0
 11
31.16804933620159
 21
-93.67147814937343
 31
0.0
  0
LINE
  5
2B51
330
18
100
AcDbEntity
  8
0
  6
CONTINUOUS
100
AcDbLine
 10
32.54304981300163
 20
-91.62892488847342
 30
0.0
 11
32.35554981300163
 21
-91.43743554957344
 31
0.0
  0
LINE
  5
2B52
330
18
100
AcDbEntity
  8
0
  6
CONTINUOUS
100
AcDbLine
 10
33.5430502899016
 20
-93.73530792907342
 30
0.0
 11
33.7305502899016
 21
-93.92679729027342
 31
0.0
  0
LINE
  5
2B53
330
18
100
AcDbEntity
  8
0
  6
CONTINUOUS
100
AcDbLine
 10
30.79304933620159
 20
-93.73530792907342
 30
0.0
 11
30.98054933620159
 21
-93.92679729027342
 31
0.0
  0
LINE
  5
2B54
330
18
100
AcDbEntity
  8
0
  6
CONTINUOUS
100
AcDbLine
 10
32.16804981300163
 20
-91.69275466807343
 30
0.0
 11
31.98054981300163
 21
-91.56509510887344
 31
0.0
  0
LINE
  5
2B55
330
18
100
AcDbEntity
  8
0
  6
CONTINUOUS
100
AcDbLine
 10
33.9180502899016
 20
-93.67147814937343
 30
0.0
 11
34.1055502899016
 21
-93.79913770867343
 31
0.0
  0
LINE
  5
2B56
330
18
100
AcDbEntity
  8
0
  6
CONTINUOUS
100
AcDbLine
 10
31.16804933620159
 20
-93.67147814937343
 30
0.0
 11
31.35554933620159
 21
-93.79913770867343
 31
0.0
  0
LINE
  5
2B57
330
18
100
AcDbEntity
  8
0
  6
CONTINUOUS
100
AcDbLine
 10
32.35554981300163
 20
-91.43743554957344
 30
0.0
 11
32.0430502899016
 21
-91.24594621077342
 31
0.0
  0
LINE
  5
2B58
330
18
100
AcDbEntity
  8
0
  6
CONTINUOUS
100
AcDbLine
 10
31.98054981300163
 20
-91.56509510887344
 30
0.0
 11
31.6680502899016
 21
-91.50126532927343
 31
0.0
  0
LINE
  5
2B59
330
18
100
AcDbEntity
  8
0
  6
CONTINUOUS
100
AcDbLine
 10
34.1055502899016
 20
-93.79913770867343
 30
0.0
 11
34.41804981300163
 21
-93.86296748827342
 31
0.0
  0
LINE
  5
2B5A
330
18
100
AcDbEntity
  8
0
  6
CONTINUOUS
100
AcDbLine
 10
31.35554933620159
 20
-93.79913770867343
 30
0.0
 11
31.6680502899016
 21
-93.86296748827342
 31
0.0
  0
LINE
  5
2B5B
330
18
100
AcDbEntity
  8
0
  6
CONTINUOUS
100
AcDbLine
 10
32.0430502899016
 20
-91.24594621077342
 30
0.0
 11
31.6680502899016
 21
-91.18211643107342
 31
0.0
  0
LINE
  5
2B5C
330
18
100
AcDbEntity
  8
0
  6
CONTINUOUS
100
AcDbLine
 10
31.6680502899016
 20
-91.18211643107342
 30
0.0
 11
31.2930502899016
 21
-91.24594621077342
 31
0.0
  0
LINE
  5
2B5D
330
18
100
AcDbEntity
  8
0
  6
CONTINUOUS
100
AcDbLine
 10
34.41804981300163
 20
-91.18211643107342
 30
0.0
 11
34.04304981300163
 21
-91.24594621077342
 31
0.0
  0
LINE
  5
2B5E
330
18
100
AcDbEntity
  8
0
  6
CONTINUOUS
100
AcDbLine
 10
31.6680502899016
 20
-91.50126532927343
 30
0.0
 11
31.35554933620159
 21
-91.56509510887344
 31
0.0
  0
LINE
  5
2B5F
330
18
100
AcDbEntity
  8
0
  6
CONTINUOUS
100
AcDbLine
 10
34.41804981300163
 20
-91.50126532927343
 30
0.0
 11
34.1055502899016
 21
-91.56509510887344
 31
0.0
  0
LINE
  5
2B60
330
18
100
AcDbEntity
  8
0
  6
CONTINUOUS
100
AcDbLine
 10
31.6680502899016
 20
-93.86296748827342
 30
0.0
 11
31.98054981300163
 21
-93.79913770867343
 31
0.0
  0
LINE
  5
2B61
330
18
100
AcDbEntity
  8
0
  6
CONTINUOUS
100
AcDbLine
 10
34.79304981300163
 20
-94.11828664587343
 30
0.0
 11
35.10554933620159
 21
-93.92679729027342
 31
0.0
  0
LINE
  5
2B62
330
18
100
AcDbEntity
  8
0
  6
CONTINUOUS
100
AcDbLine
 10
34.91804933620159
 20
-93.67147814937343
 30
0.0
 11
35.16804981300163
 21
-93.28849942697344
 31
0.0
  0
LINE
  5
2B63
330
18
100
AcDbEntity
  8
0
  6
CONTINUOUS
100
AcDbLine
 10
35.29304933620159
 20
-93.73530792907342
 30
0.0
 11
35.4180502899016
 21
-93.47998876587341
 31
0.0
  0
LINE
  5
2B64
330
18
100
AcDbEntity
  8
0
  6
CONTINUOUS
100
AcDbLine
 10
35.4180502899016
 20
-93.47998876587341
 30
0.0
 11
35.48054933620159
 21
-93.28849942697344
 31
0.0
  0
LINE
  5
2B65
330
18
100
AcDbEntity
  8
0
  6
CONTINUOUS
100
AcDbLine
 10
35.48054933620159
 20
-93.28849942697344
 30
0.0
 11
35.54304981300163
 21
-92.96935043947343
 31
0.0
  0
LINE
  5
2B66
330
18
100
AcDbEntity
  8
0
  6
CONTINUOUS
100
AcDbLine
 10
34.73054933620159
 20
-93.79913770867343
 30
0.0
 11
34.91804933620159
 21
-93.67147814937343
 31
0.0
  0
LINE
  5
2B67
330
18
100
AcDbEntity
  8
0
  6
CONTINUOUS
100
AcDbLine
 10
35.10554933620159
 20
-93.92679729027342
 30
0.0
 11
35.29304933620159
 21
-93.73530792907342
 31
0.0
  0
LINE
  5
2B68
330
18
100
AcDbEntity
  8
0
  6
CONTINUOUS
100
AcDbLine
 10
35.16804981300163
 20
-93.28849942697344
 30
0.0
 11
35.2305502899016
 21
-92.90552065977342
 31
0.0
  0
LINE
  5
2B69
330
18
100
AcDbEntity
  8
0
  6
CONTINUOUS
100
AcDbLine
 10
35.54304981300163
 20
-92.96935043947343
 30
0.0
 11
35.54304981300163
 21
-92.39488242277342
 31
0.0
  0
LINE
  5
2B6A
330
18
100
AcDbEntity
  8
0
  6
CONTINUOUS
100
AcDbLine
 10
35.2305502899016
 20
-92.90552065977342
 30
0.0
 11
35.2305502899016
 21
-92.45871220247343
 31
0.0
  0
LINE
  5
2B6B
330
18
100
AcDbEntity
  8
0
  6
CONTINUOUS
100
AcDbLine
 10
35.2305502899016
 20
-92.45871220247343
 30
0.0
 11
35.16804981300163
 21
-92.07573352467344
 31
0.0
  0
LINE
  5
2B6C
330
18
100
AcDbEntity
  8
0
  6
CONTINUOUS
100
AcDbLine
 10
35.54304981300163
 20
-92.39488242277342
 30
0.0
 11
35.48054933620159
 21
-92.07573352467344
 31
0.0
  0
LINE
  5
2B6D
330
18
100
AcDbEntity
  8
0
  6
CONTINUOUS
100
AcDbLine
 10
35.48054933620159
 20
-92.07573352467344
 30
0.0
 11
35.4180502899016
 21
-91.88424400697343
 31
0.0
  0
LINE
  5
2B6E
330
18
100
AcDbEntity
  8
0
  6
CONTINUOUS
100
AcDbLine
 10
35.4180502899016
 20
-91.88424400697343
 30
0.0
 11
35.29304933620159
 21
-91.62892488847342
 31
0.0
  0
LINE
  5
2B6F
330
18
100
AcDbEntity
  8
0
  6
CONTINUOUS
100
AcDbLine
 10
35.16804981300163
 20
-92.07573352467344
 30
0.0
 11
34.91804933620159
 21
-91.69275466807343
 31
0.0
  0
LINE
  5
2B70
330
18
100
AcDbEntity
  8
0
  6
CONTINUOUS
100
AcDbLine
 10
35.29304933620159
 20
-91.62892488847342
 30
0.0
 11
35.10554933620159
 21
-91.43743554957344
 31
0.0
  0
LINE
  5
2B71
330
18
100
AcDbEntity
  8
0
  6
CONTINUOUS
100
AcDbLine
 10
34.91804933620159
 20
-91.69275466807343
 30
0.0
 11
34.73054933620159
 21
-91.56509510887344
 31
0.0
  0
LINE
  5
2B72
330
18
100
AcDbEntity
  8
0
  6
CONTINUOUS
100
AcDbLine
 10
35.10554933620159
 20
-91.43743554957344
 30
0.0
 11
34.79304981300163
 21
-91.24594621077342
 31
0.0
  0
LINE
  5
2B73
330
18
100
AcDbEntity
  8
0
  6
CONTINUOUS
 62
     7
100
AcDbLine
 10
8.580549813001653
 20
-41.98211643107342
 30
0.0
 11
11.58054981300165
 21
-41.98211643107342
 31
0.0
  0
LINE
  5
2B74
330
18
100
AcDbEntity
  8
0
  6
CONTINUOUS
 62
     7
100
AcDbLine
 10
5.080549813001653
 20
-42.08211643107341
 30
0.0
 11
36.58054981300159
 21
-42.08211643107341
 31
0.0
  0
LINE
  5
2B75
330
18
100
AcDbEntity
  8
0
  6
CONTINUOUS
 62
     7
100
AcDbLine
 10
5.080549813001653
 20
-42.18211643107344
 30
0.0
 11
5.080549813001653
 21
-42.08211643107341
 31
0.0
  0
LINE
  5
2B76
330
18
100
AcDbEntity
  8
0
  6
CONTINUOUS
 62
     7
100
AcDbLine
 10
8.580549813001653
 20
-42.08211643107341
 30
0.0
 11
8.580549813001653
 21
-41.98211643107342
 31
0.0
  0
LINE
  5
2B77
330
18
100
AcDbEntity
  8
0
  6
CONTINUOUS
 62
     7
100
AcDbLine
 10
11.58054981300165
 20
-42.08211643107341
 30
0.0
 11
11.58054981300165
 21
-41.98211643107342
 31
0.0
  0
LINE
  5
2B78
330
18
100
AcDbEntity
  8
0
  6
CONTINUOUS
 62
     7
100
AcDbLine
 10
36.58054981300159
 20
-42.18211643107344
 30
0.0
 11
36.58054981300159
 21
-42.08211643107341
 31
0.0
  0
LINE
  5
2B79
330
18
100
AcDbEntity
  8
2_ALL_NOTES
  6
CONTINUOUS
100
AcDbLine
 10
95.4484704234016
 20
-66.65435961757342
 30
0.0
 11
69.66915548780161
 21
-119.7386363431734
 31
0.0
  0
LINE
  5
2B7A
330
18
100
AcDbEntity
  8
0
  6
CONTINUOUS
 62
     7
100
AcDbLine
 10
82.91872358800162
 20
-97.18211643107343
 30
0.0
 11
82.91872358800162
 21
-47.18211643107344
 31
0.0
  0
LINE
  5
2B7B
330
18
100
AcDbEntity
  8
0
  6
CONTINUOUS
 62
     7
100
AcDbLine
 10
78.29847042340162
 20
-97.18211643107343
 30
0.0
 11
78.29847042340162
 21
-47.18211643107344
 31
0.0
  0
LINE
  5
2B7C
330
18
100
AcDbEntity
  8
0
  6
CONTINUOUS
 62
     7
100
AcDbLine
 10
48.5805498130016
 20
-97.18211643107343
 30
0.0
 11
48.5805498130016
 21
-47.18211643107344
 31
0.0
  0
LINE
  5
2B7D
330
18
100
AcDbEntity
  8
0
  6
CONTINUOUS
 62
     7
100
AcDbLine
 10
47.42522005720161
 20
-97.18211643107343
 30
0.0
 11
47.42522005720161
 21
-47.18211643107344
 31
0.0
  0
LINE
  5
2B7E
330
18
100
AcDbEntity
  8
2_ALL_NOTES
  6
CONTINUOUS
100
AcDbLine
 10
69.66915548780161
 20
-119.7386363431734
 30
0.0
 11
51.66915548780162
 21
-119.7386363431734
 31
0.0
  0
TEXT
  5
2B7F
330
18
100
AcDbEntity
  8
2_ALL_NOTES
  6
CONTINUOUS
100
AcDbText
 10
51.66915548780162
 20
-118.7386363431734
 30
0.0
 40
4.0
  1
モニタ出力
 41
0.7058823529411767
 72
     5
 11
67.66915548780161
 21
-118.7386363431734
 31
0.0
100
AcDbText
  0
ARC
  5
2B80
330
18
100
AcDbEntity
  8
0
  6
CONTINUOUS
 62
     7
100
AcDbCircle
 10
43.58054981300159
 20
-97.18211643107343
 30
0.0
 40
5.0
100
AcDbArc
 50
302.6878590578003
 51
0.0
  0
LWPOLYLINE
  5
2B81
330
18
100
AcDbEntity
  8
0
  6
CONTINUOUS
 62
     7
100
AcDbPolyline
 90
        8
 70
     0
 43
0.0
 10
43.56237607670158
 20
-102.1821164310734
 10
44.22085033170162
 20
-102.1389274184734
 10
44.83400469510161
 20
-102.0193388664734
 10
45.36387715760162
 20
-101.8501453495734
 10
45.79609901490158
 20
-101.6621848370734
 10
46.10410961890164
 20
-101.4975399229734
 10
46.26135144550159
 20
-101.4025749028734
 10
46.28054978220165
 20
-101.3897782394734
  0
ARC
  5
2B82
330
18
100
AcDbEntity
  8
0
  6
CONTINUOUS
 62
     7
100
AcDbCircle
 10
83.29847042340162
 20
-97.18211643107343
 30
0.0
 40
5.0
100
AcDbArc
 50
180.0
 51
270.0
  0
LWPOLYLINE
  5
2B83
330
18
100
AcDbEntity
  8
0
  6
CONTINUOUS
 62
     7
100
AcDbPolyline
 90
        8
 70
     0
 43
0.0
 10
83.29847042340162
 20
-102.1821164310734
 10
83.21396880300159
 20
-102.0567559920734
 10
83.1337044466016
 20
-101.6869607706734
 10
83.06170214430165
 20
-101.0912738434734
 10
83.00157239210159
 20
-100.2995654403734
 10
82.95633034700164
 20
-99.35153512667342
 10
82.9282446340016
 20
-98.29472110087342
 10
82.91872358800162
 20
-97.18211643107343
  0
LWPOLYLINE
  5
2B84
330
18
100
AcDbEntity
  8
0
  6
CONTINUOUS
 62
     7
100
AcDbPolyline
 90
        9
 70
     0
 43
0.0
 10
48.21913631580162
 20
-60.18211642617342
 10
48.25942198350162
 20
-60.27810942907342
 10
48.29594235930165
 20
-60.56271904497342
 10
48.32764686820161
 20
-61.02502965317341
 10
48.35389211830158
 20
-61.64721636407342
 10
48.3743508814016
 20
-62.40526083737342
 10
48.38892173920157
 20
-63.27002354537343
 10
48.39762432760159
 20
-64.20834333627343
 10
48.40050929480162
 20
-65.18211643107342
  0
LWPOLYLINE
  5
2B85
330
18
100
AcDbEntity
  8
0
  6
CONTINUOUS
 62
     7
100
AcDbPolyline
 90
        9
 70
     0
 43
0.0
 10
47.97509158840165
 20
-65.18211643107342
 10
47.98034679160162
 20
-64.20898368247342
 10
47.99582421700165
 20
-63.27094628557343
 10
48.0205384527016
 20
-62.40646277627343
 10
48.05296964880165
 20
-61.64847377547343
 10
48.09119854640164
 20
-61.02608913267343
 10
48.13307207860162
 20
-60.56342652017344
 10
48.17639147790163
 20
-60.27844727437344
 10
48.21913631580162
 20
-60.18211642617342
  0
LWPOLYLINE
  5
2B86
330
18
100
AcDbEntity
  8
0
  6
CONTINUOUS
 62
     7
100
AcDbPolyline
 90
        9
 70
     0
 43
0.0
 10
48.40050929480162
 20
-65.18211643107342
 10
48.39762783020166
 20
-66.15530624357342
 10
48.38892943090161
 20
-67.09360902377342
 10
48.37436332140163
 20
-67.95839202077342
 10
48.35390978290161
 20
-68.71649171757342
 10
48.32767035660163
 20
-69.33876189147344
 10
48.29597231090161
 20
-69.80118502427342
 10
48.2594582958016
 20
-70.08594327077341
 10
48.21913657230163
 20
-70.18211642947342
  0
LWPOLYLINE
  5
2B87
330
18
100
AcDbEntity
  8
0
  6
CONTINUOUS
 62
     7
100
AcDbPolyline
 90
        9
 70
     0
 43
0.0
 10
48.21913657230163
 20
-70.18211642947342
 10
48.17643227120163
 20
-70.08596612207343
 10
48.13311008560162
 20
-69.80113916147343
 10
48.09123232750164
 20
-69.33860002817342
 10
48.05299822740159
 20
-68.71631548187342
 10
48.0205605680016
 20
-67.95839553307343
 10
47.99583867630161
 20
-67.09393222877342
 10
47.98035342540162
 20
-66.15585859157341
 10
47.97509158840165
 20
-65.18211643107342
  0
ARC
  5
2B88
330
18
100
AcDbEntity
  8
0
  6
CONTINUOUS
 62
     7
100
AcDbCircle
 10
43.58054981300159
 20
-47.18211643107344
 30
0.0
 40
5.0
100
AcDbArc
 50
0.0
 51
57.31213793590026
  0
LWPOLYLINE
  5
2B89
330
18
100
AcDbEntity
  8
0
  6
CONTINUOUS
 62
     7
100
AcDbPolyline
 90
        8
 70
     0
 43
0.0
 10
46.28054978220165
 20
-42.97445507197344
 10
46.26135248080157
 20
-42.96165861047342
 10
46.1041165482016
 20
-42.86669695517344
 10
45.79613397060166
 20
-42.70206519437343
 10
45.36394438660164
 20
-42.51411311357341
 10
44.83407542010161
 20
-42.3449123781734
 10
44.22090371060164
 20
-42.22531247097342
 10
43.56237607670158
 20
-42.18211643107344
  0
CIRCLE
  5
2B8A
330
18
100
AcDbEntity
  8
0
  6
CONTINUOUS
 62
     7
100
AcDbCircle
 10
96.29847042340163
 20
-65.18211643107342
 30
0.0
 40
3.0
  0
CIRCLE
  5
2B8B
330
18
100
AcDbEntity
  8
0
  6
CONTINUOUS
 62
     7
100
AcDbCircle
 10
96.29847042340163
 20
-65.18211643107342
 30
0.0
 40
5.0
  0
CIRCLE
  5
2B8C
330
18
100
AcDbEntity
  8
0
  6
CONTINUOUS
 62
     7
100
AcDbCircle
 10
96.29847042340163
 20
-65.18211643107342
 30
0.0
 40
1.399999999999999
  0
CIRCLE
  5
2B8D
330
18
100
AcDbEntity
  8
0
  6
CONTINUOUS
 62
     7
100
AcDbCircle
 10
96.29847042340163
 20
-65.18211643107342
 30
0.0
 40
1.7
  0
LWPOLYLINE
  5
2B8E
330
18
100
AcDbEntity
  8
2_ALL_NOTES
  6
CONTINUOUS
100
AcDbPolyline
 90
        3
 70
     0
 43
0.0
 10
94.82552255000161
 20
-70.79856472197346
 10
95.4484704234016
 20
-66.65435961757342
 10
92.5766776282016
 20
-69.70645826297342
  0
LINE
  5
2B8F
330
18
100
AcDbEntity
  8
0
  6
CONTINUOUS
 62
     7
100
AcDbLine
 10
90.79847042340162
 20
-41.98211643107342
 30
0.0
 11
93.79847042340163
 21
-41.98211643107342
 31
0.0
  0
LWPOLYLINE
  5
2B90
330
18
100
AcDbEntity
  8
0
  6
CONTINUOUS
 62
     7
100
AcDbPolyline
 90
        8
 70
     0
 43
0.0
 10
83.29847042340162
 20
-42.18211643107344
 10
83.21396880300159
 20
-42.30747687017341
 10
83.1337044466016
 20
-42.67727209157342
 10
83.06170214430165
 20
-43.27295901877343
 10
83.00157239210159
 20
-44.06466742187342
 10
82.95633034700164
 20
-45.01269773557342
 10
82.9282446340016
 20
-46.06951176137343
 10
82.91872358800162
 20
-47.18211643107344
  0
LINE
  5
2B91
330
18
100
AcDbEntity
  8
0
  6
CONTINUOUS
 62
     7
100
AcDbLine
 10
91.17347042340162
 20
-42.08211643107341
 30
0.0
 11
91.17347042340162
 21
-41.98211643107342
 31
0.0
  0
LINE
  5
2B92
330
18
100
AcDbEntity
  8
0
  6
CONTINUOUS
 62
     7
100
AcDbLine
 10
90.79847042340162
 20
-42.08211643107341
 30
0.0
 11
90.79847042340162
 21
-41.98211643107342
 31
0.0
  0
LINE
  5
2B93
330
18
100
AcDbEntity
  8
0
  6
CONTINUOUS
 62
     7
100
AcDbLine
 10
88.29847042340162
 20
-42.18211643107344
 30
0.0
 11
88.29847042340162
 21
-42.08211643107341
 31
0.0
  0
LINE
  5
2B94
330
18
100
AcDbEntity
  8
0
  6
CONTINUOUS
 62
     7
100
AcDbLine
 10
95.17347054270164
 20
-41.98211643107342
 30
0.0
 11
97.54847042340163
 21
-41.98211643107342
 31
0.0
  0
LINE
  5
2B95
330
18
100
AcDbEntity
  8
0
  6
CONTINUOUS
 62
     7
100
AcDbLine
 10
94.29847030420161
 20
-41.98211643107342
 30
0.0
 11
94.6734703042016
 21
-41.98211643107342
 31
0.0
  0
LINE
  5
2B96
330
18
100
AcDbEntity
  8
0
  6
CONTINUOUS
 62
     7
100
AcDbLine
 10
95.17347054270164
 20
-42.08211643107341
 30
0.0
 11
95.17347054270164
 21
-41.98211643107342
 31
0.0
  0
LINE
  5
2B97
330
18
100
AcDbEntity
  8
0
  6
CONTINUOUS
 62
     7
100
AcDbLine
 10
94.6734703042016
 20
-42.08211643107341
 30
0.0
 11
94.6734703042016
 21
-41.98211643107342
 31
0.0
  0
LINE
  5
2B98
330
18
100
AcDbEntity
  8
0
  6
CONTINUOUS
 62
     7
100
AcDbLine
 10
94.29847030420161
 20
-42.08211643107341
 30
0.0
 11
94.29847030420161
 21
-41.98211643107342
 31
0.0
  0
LINE
  5
2B99
330
18
100
AcDbEntity
  8
0
  6
CONTINUOUS
 62
     7
100
AcDbLine
 10
93.79847042340163
 20
-42.08211643107341
 30
0.0
 11
93.79847042340163
 21
-41.98211643107342
 31
0.0
  0
LINE
  5
2B9A
330
18
100
AcDbEntity
  8
0
  6
CONTINUOUS
 62
     7
100
AcDbLine
 10
93.42347042340163
 20
-42.08211643107341
 30
0.0
 11
93.42347042340163
 21
-41.98211643107342
 31
0.0
  0
LINE
  5
2B9B
330
18
100
AcDbEntity
  8
0
  6
CONTINUOUS
 62
     7
100
AcDbLine
 10
92.54847036380164
 20
-42.08211643107341
 30
0.0
 11
92.54847036380164
 21
-41.98211643107342
 31
0.0
  0
LINE
  5
2B9C
330
18
100
AcDbEntity
  8
0
  6
CONTINUOUS
 62
     7
100
AcDbLine
 10
92.04847039360164
 20
-42.08211643107341
 30
0.0
 11
92.04847039360164
 21
-41.98211643107342
 31
0.0
  0
LINE
  5
2B9D
330
18
100
AcDbEntity
  8
0
  6
CONTINUOUS
 62
     7
100
AcDbLine
 10
96.17347030420161
 20
-42.08211643107341
 30
0.0
 11
96.17347030420161
 21
-41.98211643107342
 31
0.0
  0
LINE
  5
2B9E
330
18
100
AcDbEntity
  8
0
  6
CONTINUOUS
 62
     7
100
AcDbLine
 10
95.79847042340162
 20
-33.18211643107344
 30
0.0
 11
130.7984704234016
 21
-33.18211643107344
 31
0.0
  0
ARC
  5
2B9F
330
18
100
AcDbEntity
  8
0
  6
CONTINUOUS
 62
     7
100
AcDbCircle
 10
-351.4194501869984
 20
30.84686366202658
 30
0.0
 40
395.0
100
AcDbArc
 50
0.5496204195001531
 51
4.355773050599948
  0
ARC
  5
2BA0
330
18
100
AcDbEntity
  8
0
  6
CONTINUOUS
 62
     7
100
AcDbCircle
 10
-351.4194501869984
 20
30.84686366202658
 30
0.0
 40
400.0
100
AcDbArc
 50
355.6442273730003
 51
4.355772626999653
  0
LINE
  5
2BA1
330
18
100
AcDbEntity
  8
0
  6
CONTINUOUS
 62
     7
100
AcDbLine
 10
38.58054981300159
 20
65.84686366202658
 30
0.0
 11
38.58054981300159
 21
-4.153136337973421
 31
0.0
  0
LINE
  5
2BA2
330
18
100
AcDbEntity
  8
0
  6
CONTINUOUS
 62
     7
100
AcDbLine
 10
36.58054981300159
 20
5.846863662026578
 30
0.0
 11
36.58054981300159
 21
55.84686366202658
 31
0.0
  0
LINE
  5
2BA3
330
18
100
AcDbEntity
  8
0
  6
CONTINUOUS
 62
     7
100
AcDbLine
 10
5.080549813001653
 20
55.84686366202658
 30
0.0
 11
5.080549813001653
 21
5.846863662026578
 31
0.0
  0
ARC
  5
2BA4
330
18
100
AcDbEntity
  8
0
  6
CONTINUOUS
 62
     7
100
AcDbCircle
 10
-351.4194501869984
 20
30.84686366202658
 30
0.0
 40
395.0
100
AcDbArc
 50
355.6442268320998
 51
359.4503795804998
  0
ARC
  5
2BA5
330
18
100
AcDbEntity
  8
0
  6
CONTINUOUS
 62
     7
100
AcDbCircle
 10
42.28054981300163
 20
30.84686366202658
 30
0.0
 40
4.0
100
AcDbArc
 50
270.0
 51
90.0
  0
ARC
  5
2BA6
330
18
100
AcDbEntity
  8
0
  6
CONTINUOUS
 62
     7
100
AcDbCircle
 10
42.4396616792016
 20
0.8468636620265783
 30
0.0
 40
5.0
100
AcDbArc
 50
270.0
 51
355.6442273730003
  0
ARC
  5
2BA7
330
18
100
AcDbEntity
  8
0
  6
CONTINUOUS
 62
     7
100
AcDbCircle
 10
39.58054981300159
 20
32.4468636620266
 30
0.0
 40
2.7
100
AcDbArc
 50
270.0
 51
63.19889761850006
  0
ARC
  5
2BA8
330
18
100
AcDbEntity
  8
0
  6
CONTINUOUS
 62
     7
100
AcDbCircle
 10
39.58054981300159
 20
32.4468636620266
 30
0.0
 40
3.5
100
AcDbArc
 50
270.0
 51
43.54720634879994
  0
LINE
  5
2BA9
330
18
100
AcDbEntity
  8
DEFAULT_1
  6
CENTER
100
AcDbLine
 10
58.85490658530159
 20
30.84686366202658
 30
0.0
 11
-87.77277471019838
 21
30.84686366202658
 31
0.0
  0
LINE
  5
2BAA
330
18
100
AcDbEntity
  8
0
  6
CONTINUOUS
 62
     7
100
AcDbLine
 10
42.4396616792016
 20
0.8468636620265783
 30
0.0
 11
47.42522005720161
 21
0.4671168266265795
 31
0.0
  0
LINE
  5
2BAB
330
18
100
AcDbEntity
  8
2_ALL_NOTES
  6
CONTINUOUS
100
AcDbLine
 10
0.7732575483016149
 20
-20.89179074827342
 30
0.0
 11
53.9732575483016
 21
-20.89179074827342
 31
0.0
  0
TEXT
  5
2BAC
330
18
100
AcDbEntity
  8
2_ALL_NOTES
  6
CONTINUOUS
100
AcDbText
 10
2.773257548301614
 20
-19.89179074827342
 30
0.0
 40
4.0
  1
1/4-20UNCユニファイネジ
 41
0.7695390781563124
 72
     5
 11
53.9732575483016
 21
-19.89179074827342
 31
0.0
100
AcDbText
  0
LINE
  5
2BAD
330
18
100
AcDbEntity
  8
2_ALL_NOTES
  6
CONTINUOUS
100
AcDbLine
 10
-21.34387968239838
 20
29.22882967332657
 30
0.0
 11
16.97956030340162
 21
-10.6638551804734
 31
0.0
  0
ARC
  5
2BAE
330
18
100
AcDbEntity
  8
0
  6
CONTINUOUS
 62
     7
100
AcDbCircle
 10
-10.01945018699837
 20
-33.18211643107344
 30
0.0
 40
1.0
100
AcDbArc
 50
0.0
 51
90.0
  0
LWPOLYLINE
  5
2BAF
330
18
100
AcDbEntity
  8
0
  6
CONTINUOUS
 62
     7
100
AcDbPolyline
 90
        4
 70
     0
 43
0.0
 10
1.98054981300163
 20
-40.80790760207344
 10
1.630852385301636
 20
-40.76108805737343
 10
1.298433931001568
 20
-40.72816919547344
 10
0.9805498130016303
 20
-40.70714775947343
  0
LINE
  5
2BB0
330
18
100
AcDbEntity
  8
0
  6
CONTINUOUS
 62
     7
100
AcDbLine
 10
-2.067085490498357
 20
-41.01208259667342
 30
0.0
 11
3.028185116601662
 21
-41.01208259667342
 31
0.0
  0
LWPOLYLINE
  5
2BB1
330
18
100
AcDbEntity
  8
0
  6
CONTINUOUS
 62
     7
100
AcDbPolyline
 90
        3
 70
     0
 43
0.0
 10
0.9805498130016303
 20
-40.80790760207344
 10
0.7288804477016129
 20
-40.79837564657341
 10
0.4805498130016304
 20
-40.79525646447343
  0
LWPOLYLINE
  5
2BB2
330
18
100
AcDbEntity
  8
0
  6
CONTINUOUS
 62
     7
100
AcDbPolyline
 90
        3
 70
     0
 43
0.0
 10
0.4805498130016304
 20
-40.79525646447343
 10
0.2308088777016337
 20
-40.79841118127342
 10
-0.0194501869983697
 20
-40.80790760207344
  0
LWPOLYLINE
  5
2BB3
330
18
100
AcDbEntity
  8
0
  6
CONTINUOUS
 62
     7
100
AcDbPolyline
 90
        4
 70
     0
 43
0.0
 10
-0.0194501869983697
 20
-40.70714775947343
 10
-0.3549762807983825
 20
-40.72963452227344
 10
-0.6857703241984155
 20
-40.76295833487342
 10
-1.019450186998369
 20
-40.80790760207344
  0
LINE
  5
2BB4
330
18
100
AcDbEntity
  8
0
  6
CONTINUOUS
 62
     7
100
AcDbLine
 10
-1.019450186998369
 20
-40.79525646447343
 30
0.0
 11
-2.067085490498357
 21
-41.01208259667342
 31
0.0
  0
LINE
  5
2BB5
330
18
100
AcDbEntity
  8
0
  6
CONTINUOUS
 62
     7
100
AcDbLine
 10
0.9805498130016303
 20
-40.70714775947343
 30
0.0
 11
0.9805498130016303
 21
-40.80790760207344
 31
0.0
  0
LINE
  5
2BB6
330
18
100
AcDbEntity
  8
0
  6
CONTINUOUS
 62
     7
100
AcDbLine
 10
-0.0194501869983697
 20
-40.80790760207344
 30
0.0
 11
-0.0194501869983697
 21
-40.70714775947343
 31
0.0
  0
LINE
  5
2BB7
330
18
100
AcDbEntity
  8
0
  6
CONTINUOUS
 62
     7
100
AcDbLine
 10
-1.019450186998369
 20
-40.80790760207344
 30
0.0
 11
-1.019450186998369
 21
-40.79525646447343
 31
0.0
  0
LINE
  5
2BB8
330
18
100
AcDbEntity
  8
0
  6
CONTINUOUS
 62
     7
100
AcDbLine
 10
1.98054981300163
 20
-40.79525646447343
 30
0.0
 11
3.028185116601662
 21
-41.01208259667342
 31
0.0
  0
LINE
  5
2BB9
330
18
100
AcDbEntity
  8
0
  6
CONTINUOUS
 62
     7
100
AcDbLine
 10
1.98054981300163
 20
-40.79525646447343
 30
0.0
 11
1.98054981300163
 21
-40.80790760207344
 31
0.0
  0
LINE
  5
2BBA
330
18
100
AcDbEntity
  8
2_ALL_NOTES
  6
CONTINUOUS
100
AcDbLine
 10
16.97956030340162
 20
-10.6638551804734
 30
0.0
 11
31.77956030340164
 21
-10.6638551804734
 31
0.0
  0
TEXT
  5
2BBB
330
18
100
AcDbEntity
  8
2_ALL_NOTES
  6
CONTINUOUS
100
AcDbText
 10
18.97956030340162
 20
-9.663855180473404
 30
0.0
 40
4.0
  1
M4ネジ
 41
0.7741935483870975
 72
     5
 11
31.77956030340164
 21
-9.663855180473404
 31
0.0
100
AcDbText
  0
LINE
  5
2BBC
330
18
100
AcDbEntity
  8
0
  6
CONTINUOUS
 62
     7
100
AcDbLine
 10
42.4396616792016
 20
0.8468636620265783
 30
0.0
 11
42.4396616792016
 21
-4.153136337973421
 31
0.0
  0
LINE
  5
2BBD
330
18
100
AcDbEntity
  8
0
  6
CONTINUOUS
 62
     7
100
AcDbLine
 10
9.218847609301633
 20
8.721863662026578
 30
0.0
 11
11.58054981300165
 21
9.596863632226586
 31
0.0
  0
LINE
  5
2BBE
330
18
100
AcDbEntity
  8
0
  6
CONTINUOUS
 62
     7
100
AcDbLine
 10
11.26140087020166
 20
9.846863662026578
 30
0.0
 11
8.580549813001653
 21
8.909363662026578
 31
0.0
  0
LINE
  5
2BBF
330
18
100
AcDbEntity
  8
0
  6
CONTINUOUS
 62
     7
100
AcDbLine
 10
9.793315804701649
 20
15.84686366202658
 30
0.0
 11
10.04863492320163
 21
16.09686342362658
 31
0.0
  0
LINE
  5
2BC0
330
18
100
AcDbEntity
  8
0
  6
CONTINUOUS
 62
     7
100
AcDbLine
 10
10.04863492320163
 20
17.53436366202658
 30
0.0
 11
9.920975364001606
 21
17.28436390042659
 31
0.0
  0
LINE
  5
2BC1
330
18
100
AcDbEntity
  8
0
  6
CONTINUOUS
 62
     7
100
AcDbLine
 10
9.793315804701649
 20
25.09686413882659
 30
0.0
 11
10.04863492320163
 21
25.34686318522659
 31
0.0
  0
LINE
  5
2BC2
330
18
100
AcDbEntity
  8
0
  6
CONTINUOUS
 62
     7
100
AcDbLine
 10
10.04863492320163
 20
26.78436413882659
 30
0.0
 11
9.920975364001606
 21
26.53436366202658
 31
0.0
  0
LINE
  5
2BC3
330
18
100
AcDbEntity
  8
0
  6
CONTINUOUS
 62
     7
100
AcDbLine
 10
9.984805143601647
 20
23.22186413882659
 30
0.0
 11
9.729486025101607
 21
23.40936413882658
 31
0.0
  0
LINE
  5
2BC4
330
18
100
AcDbEntity
  8
0
  6
CONTINUOUS
 62
     7
100
AcDbLine
 10
11.58054981300165
 20
31.03436366202657
 30
0.0
 11
8.580549813001653
 21
31.03436366202657
 31
0.0
  0
LINE
  5
2BC5
330
18
100
AcDbEntity
  8
0
  6
CONTINUOUS
 62
     7
100
AcDbLine
 10
8.580549813001653
 20
30.65936366202658
 30
0.0
 11
11.58054981300165
 21
30.65936366202658
 31
0.0
  0
LINE
  5
2BC6
330
18
100
AcDbEntity
  8
0
  6
CONTINUOUS
 62
     7
100
AcDbLine
 10
11.58054981300165
 20
30.15936413882659
 30
0.0
 11
8.580549813001653
 21
30.15936413882659
 31
0.0
  0
LINE
  5
2BC7
330
18
100
AcDbEntity
  8
0
  6
CONTINUOUS
 62
     7
100
AcDbLine
 10
8.580549813001653
 20
27.65936366202657
 30
0.0
 11
11.58054981300165
 21
27.65936366202657
 31
0.0
  0
LINE
  5
2BC8
330
18
100
AcDbEntity
  8
0
  6
CONTINUOUS
 62
     7
100
AcDbLine
 10
11.58054981300165
 20
10.09686360242656
 30
0.0
 11
9.218847609301633
 21
10.97186366202657
 31
0.0
  0
LINE
  5
2BC9
330
18
100
AcDbEntity
  8
0
  6
CONTINUOUS
 62
     7
100
AcDbLine
 10
8.580549813001653
 20
10.78436366202657
 30
0.0
 11
11.26140087020166
 21
9.846863662026578
 31
0.0
  0
LINE
  5
2BCA
330
18
100
AcDbEntity
  8
0
  6
CONTINUOUS
 62
     7
100
AcDbLine
 10
11.58054981300165
 20
24.34686413882658
 30
0.0
 11
8.580549813001653
 21
24.34686413882658
 31
0.0
  0
LINE
  5
2BCB
330
18
100
AcDbEntity
  8
0
  6
CONTINUOUS
 62
     7
100
AcDbLine
 10
8.580549813001653
 20
23.97186413882658
 30
0.0
 11
11.58054981300165
 21
23.97186413882658
 31
0.0
  0
LINE
  5
2BCC
330
18
100
AcDbEntity
  8
0
  6
CONTINUOUS
 62
     7
100
AcDbLine
 10
8.580549813001653
 20
21.15936413882658
 30
0.0
 11
11.58054981300165
 21
21.15936413882658
 31
0.0
  0
LINE
  5
2BCD
330
18
100
AcDbEntity
  8
0
  6
CONTINUOUS
 62
     7
100
AcDbLine
 10
10.55927324960157
 20
20.65936318522659
 30
0.0
 11
8.580549813001653
 21
20.65936318522659
 31
0.0
  0
LINE
  5
2BCE
330
18
100
AcDbEntity
  8
0
  6
CONTINUOUS
 62
     7
100
AcDbLine
 10
8.580549813001653
 20
20.2843639004266
 30
0.0
 11
10.55927324960157
 21
20.2843639004266
 31
0.0
  0
LINE
  5
2BCF
330
18
100
AcDbEntity
  8
0
  6
CONTINUOUS
 62
     7
100
AcDbLine
 10
10.55927324960157
 20
18.78436390042659
 30
0.0
 11
8.580549813001653
 21
18.78436390042659
 31
0.0
  0
LINE
  5
2BD0
330
18
100
AcDbEntity
  8
0
  6
CONTINUOUS
 62
     7
100
AcDbLine
 10
8.580549813001653
 20
18.40936390042659
 30
0.0
 11
10.55927324960157
 21
18.40936390042659
 31
0.0
  0
LINE
  5
2BD1
330
18
100
AcDbEntity
  8
0
  6
CONTINUOUS
 62
     7
100
AcDbLine
 10
11.58054981300165
 20
14.09686354282655
 30
0.0
 11
8.899698711101621
 21
14.09686354282655
 31
0.0
  0
LINE
  5
2BD2
330
18
100
AcDbEntity
  8
0
  6
CONTINUOUS
 62
     7
100
AcDbLine
 10
8.899698711101621
 20
13.72186354282655
 30
0.0
 11
11.58054981300165
 21
13.72186354282655
 31
0.0
  0
LINE
  5
2BD3
330
18
100
AcDbEntity
  8
0
  6
CONTINUOUS
 62
     7
100
AcDbLine
 10
11.58054981300165
 20
12.22186354282655
 30
0.0
 11
8.580549813001653
 21
12.22186354282655
 31
0.0
  0
LINE
  5
2BD4
330
18
100
AcDbEntity
  8
0
  6
CONTINUOUS
 62
     7
100
AcDbLine
 10
8.580549813001653
 20
11.84686354282655
 30
0.0
 11
11.58054981300165
 21
11.84686354282655
 31
0.0
  0
LINE
  5
2BD5
330
18
100
AcDbEntity
  8
0
  6
CONTINUOUS
 62
     7
100
AcDbLine
 10
11.58054981300165
 20
11.34686366202657
 30
0.0
 11
8.580549813001653
 21
11.34686366202657
 31
0.0
  0
LINE
  5
2BD6
330
18
100
AcDbEntity
  8
0
  6
CONTINUOUS
 62
     7
100
AcDbLine
 10
9.218847609301633
 20
10.97186366202657
 30
0.0
 11
11.58054981300165
 21
10.97186366202657
 31
0.0
  0
LINE
  5
2BD7
330
18
100
AcDbEntity
  8
0
  6
CONTINUOUS
 62
     7
100
AcDbLine
 10
11.58054981300165
 20
8.721863662026578
 30
0.0
 11
9.218847609301633
 21
8.721863662026578
 31
0.0
  0
LINE
  5
2BD8
330
18
100
AcDbEntity
  8
0
  6
CONTINUOUS
 62
     7
100
AcDbLine
 10
8.580549813001653
 20
8.346863662026578
 30
0.0
 11
11.58054981300165
 21
8.346863662026578
 31
0.0
  0
LINE
  5
2BD9
330
18
100
AcDbEntity
  8
0
  6
CONTINUOUS
 62
     7
100
AcDbLine
 10
5.080549813001653
 20
5.846863662026578
 30
0.0
 11
36.58054981300159
 21
5.846863662026578
 31
0.0
  0
ARC
  5
2BDA
330
18
100
AcDbEntity
  8
0
  6
CONTINUOUS
 62
     7
100
AcDbCircle
 10
-12.21945018699841
 20
30.84686366202658
 30
0.0
 40
4.999991719599999
100
AcDbArc
 50
90.0
 51
270.0
  0
ARC
  5
2BDB
330
18
100
AcDbEntity
  8
0
  6
CONTINUOUS
 62
     7
100
AcDbCircle
 10
-12.21945018699841
 20
30.84686366202658
 30
0.0
 40
4.0
100
AcDbArc
 50
90.0
 51
270.0
  0
LINE
  5
2BDC
330
18
100
AcDbEntity
  8
0
  6
CONTINUOUS
 62
     7
100
AcDbLine
 10
8.580549813001653
 20
28.03436366202658
 30
0.0
 11
8.580549813001653
 21
27.65936366202657
 31
0.0
  0
LINE
  5
2BDD
330
18
100
AcDbEntity
  8
0
  6
CONTINUOUS
 62
     7
100
AcDbLine
 10
-9.019450186998369
 20
14.34686366202657
 30
0.0
 11
-9.019450186998369
 21
47.34686366202658
 31
0.0
  0
LWPOLYLINE
  5
2BDF
330
18
100
AcDbEntity
  8
2_ALL_NOTES
  6
CONTINUOUS
100
AcDbPolyline
 90
        3
 70
     0
 43
0.0
 10
-17.67132139702892
 20
27.21021241374331
 10
-21.34387968242891
 20
29.22882967334335
 10
-19.47419212942884
 20
25.47826058914337
  0
LINE
  5
2BE0
330
18
100
AcDbEntity
  8
0
  6
CONTINUOUS
 62
     7
100
AcDbLine
 10
-10.01945018699837
 20
13.34686366202658
 30
0.0
 11
-10.01945018699837
 21
26.84686366202658
 31
0.0
  0
ARC
  5
2BE1
330
18
100
AcDbEntity
  8
0
  6
CONTINUOUS
 62
     7
100
AcDbCircle
 10
-10.01945018699837
 20
14.34686366202657
 30
0.0
 40
1.0
100
AcDbArc
 50
270.0
 51
0.0
  0
LINE
  5
2BE2
330
18
100
AcDbEntity
  8
0
  6
CONTINUOUS
 62
     7
100
AcDbLine
 10
-10.01945018699837
 20
26.84686366202658
 30
0.0
 11
-12.21945018699841
 21
26.84686366202658
 31
0.0
  0
LINE
  5
2BE3
330
18
100
AcDbEntity
  8
0
  6
CONTINUOUS
 62
     7
100
AcDbLine
 10
-12.21945018699841
 20
25.84686366202658
 30
0.0
 11
-9.019450186998369
 21
25.84686366202658
 31
0.0
  0
LINE
  5
2BE4
330
18
100
AcDbEntity
  8
0
  6
CONTINUOUS
 62
     7
100
AcDbLine
 10
-12.21945018699841
 20
25.84686366202658
 30
0.0
 11
-12.21945018699841
 21
26.84686366202658
 31
0.0
  0
ARC
  5
2BE5
330
18
100
AcDbEntity
  8
0
  6
CONTINUOUS
 62
     7
100
AcDbCircle
 10
-10.01945018699837
 20
25.84686366202658
 30
0.0
 40
1.0
100
AcDbArc
 50
0.0
 51
90.0
  0
CIRCLE
  5
2BE6
330
18
100
AcDbEntity
  8
0
  6
CONTINUOUS
 62
     7
100
AcDbCircle
 10
0.4805498130016304
 20
18.04686366202659
 30
0.0
 40
2.547635303499999
  0
CIRCLE
  5
2BE7
330
18
100
AcDbEntity
  8
0
  6
CONTINUOUS
 62
     7
100
AcDbCircle
 10
0.4805498130016304
 20
18.04686366202659
 30
0.0
 40
2.649999999999999
  0
LINE
  5
2BE8
330
18
100
AcDbEntity
  8
0
  6
CONTINUOUS
 62
     7
100
AcDbLine
 10
9.665656245501622
 20
16.22186366202657
 30
0.0
 11
9.474166906601624
 21
16.15936390042659
 31
0.0
  0
LINE
  5
2BE9
330
18
100
AcDbEntity
  8
0
  6
CONTINUOUS
 62
     7
100
AcDbLine
 10
8.64437959260158
 20
16.34686390042659
 30
0.0
 11
8.772039151901594
 21
16.09686342362658
 31
0.0
  0
LINE
  5
2BEA
330
18
100
AcDbEntity
  8
0
  6
CONTINUOUS
 62
     7
100
AcDbLine
 10
9.34650734730161
 20
16.15936390042659
 30
0.0
 11
9.155017829601604
 21
16.22186366202657
 31
0.0
  0
LINE
  5
2BEB
330
18
100
AcDbEntity
  8
0
  6
CONTINUOUS
 62
     7
100
AcDbLine
 10
8.580549813001653
 20
8.909363662026578
 30
0.0
 11
8.580549813001653
 21
8.346863662026578
 31
0.0
  0
LINE
  5
2BEC
330
18
100
AcDbEntity
  8
0
  6
CONTINUOUS
 62
     7
100
AcDbLine
 10
8.899698711101621
 20
14.09686354282655
 30
0.0
 11
8.899698711101621
 21
15.09686366202657
 31
0.0
  0
LINE
  5
2BED
330
18
100
AcDbEntity
  8
0
  6
CONTINUOUS
 62
     7
100
AcDbLine
 10
8.899698711101621
 20
12.72186378122657
 30
0.0
 11
8.899698711101621
 21
13.72186354282655
 31
0.0
  0
LINE
  5
2BEE
330
18
100
AcDbEntity
  8
0
  6
CONTINUOUS
 62
     7
100
AcDbLine
 10
8.580549813001653
 20
11.34686366202657
 30
0.0
 11
8.580549813001653
 21
10.78436366202657
 31
0.0
  0
LINE
  5
2BEF
330
18
100
AcDbEntity
  8
0
  6
CONTINUOUS
 62
     7
100
AcDbLine
 10
8.580549813001653
 20
12.22186354282655
 30
0.0
 11
8.580549813001653
 21
11.84686354282655
 31
0.0
  0
LINE
  5
2BF0
330
18
100
AcDbEntity
  8
0
  6
CONTINUOUS
 62
     7
100
AcDbLine
 10
8.580549813001653
 20
15.09686366202657
 30
0.0
 11
8.580549813001653
 21
12.72186378122657
 31
0.0
  0
LINE
  5
2BF1
330
18
100
AcDbEntity
  8
0
  6
CONTINUOUS
 62
     7
100
AcDbLine
 10
8.772039151901594
 20
16.09686342362658
 30
0.0
 11
9.027358270401634
 21
15.84686366202658
 31
0.0
  0
LINE
  5
2BF2
330
18
100
AcDbEntity
  8
0
  6
CONTINUOUS
 62
     7
100
AcDbLine
 10
9.027358270401634
 20
15.84686366202658
 30
0.0
 11
9.282677388901618
 21
15.78436390042659
 31
0.0
  0
LINE
  5
2BF3
330
18
100
AcDbEntity
  8
0
  6
CONTINUOUS
 62
     7
100
AcDbLine
 10
9.474166906601624
 20
16.15936390042659
 30
0.0
 11
9.34650734730161
 21
16.15936390042659
 31
0.0
  0
LINE
  5
2BF4
330
18
100
AcDbEntity
  8
0
  6
CONTINUOUS
 62
     7
100
AcDbLine
 10
9.282677388901618
 20
15.78436390042659
 30
0.0
 11
9.537996686201609
 21
15.78436390042659
 31
0.0
  0
LINE
  5
2BF5
330
18
100
AcDbEntity
  8
0
  6
CONTINUOUS
 62
     7
100
AcDbLine
 10
8.899698711101621
 20
15.09686366202657
 30
0.0
 11
8.580549813001653
 21
15.09686366202657
 31
0.0
  0
LINE
  5
2BF6
330
18
100
AcDbEntity
  8
0
  6
CONTINUOUS
 62
     7
100
AcDbLine
 10
8.580549813001653
 20
12.72186378122657
 30
0.0
 11
8.899698711101621
 21
12.72186378122657
 31
0.0
  0
LINE
  5
2BF7
330
18
100
AcDbEntity
  8
0
  6
CONTINUOUS
 62
     7
100
AcDbLine
 10
9.537996686201609
 20
15.78436390042659
 30
0.0
 11
9.793315804701649
 21
15.84686366202658
 31
0.0
  0
LINE
  5
2BF8
330
18
100
AcDbEntity
  8
0
  6
CONTINUOUS
 62
     7
100
AcDbLine
 10
0.9805498130016303
 20
18.54686366202659
 30
0.0
 11
1.98054981300163
 21
18.54686366202659
 31
0.0
  0
LINE
  5
2BF9
330
18
100
AcDbEntity
  8
0
  6
CONTINUOUS
 62
     7
100
AcDbLine
 10
1.98054981300163
 20
17.54686366202659
 30
0.0
 11
0.9805498130016303
 21
17.54686366202659
 31
0.0
  0
LINE
  5
2BFA
330
18
100
AcDbEntity
  8
0
  6
CONTINUOUS
 62
     7
100
AcDbLine
 10
0.9805498130016303
 20
17.54686366202659
 30
0.0
 11
0.9805498130016303
 21
16.54686366202659
 31
0.0
  0
LINE
  5
2BFB
330
18
100
AcDbEntity
  8
0
  6
CONTINUOUS
 62
     7
100
AcDbLine
 10
0.9805498130016303
 20
19.54686366202659
 30
0.0
 11
0.9805498130016303
 21
18.54686366202659
 31
0.0
  0
LINE
  5
2BFC
330
18
100
AcDbEntity
  8
0
  6
CONTINUOUS
 62
     7
100
AcDbLine
 10
-0.0194501869983697
 20
18.54686366202659
 30
0.0
 11
-0.0194501869983697
 21
19.54686366202659
 31
0.0
  0
LINE
  5
2BFD
330
18
100
AcDbEntity
  8
0
  6
CONTINUOUS
 62
     7
100
AcDbLine
 10
-0.0194501869983697
 20
16.54686366202659
 30
0.0
 11
-0.0194501869983697
 21
17.54686366202659
 31
0.0
  0
LINE
  5
2BFE
330
18
100
AcDbEntity
  8
0
  6
CONTINUOUS
 62
     7
100
AcDbLine
 10
-1.019450186998369
 20
17.54686366202659
 30
0.0
 11
-1.019450186998369
 21
18.54686366202659
 31
0.0
  0
LINE
  5
2BFF
330
18
100
AcDbEntity
  8
0
  6
CONTINUOUS
 62
     7
100
AcDbLine
 10
-0.0194501869983697
 20
19.54686366202659
 30
0.0
 11
0.9805498130016303
 21
19.54686366202659
 31
0.0
  0
LINE
  5
2C00
330
18
100
AcDbEntity
  8
0
  6
CONTINUOUS
 62
     7
100
AcDbLine
 10
-1.019450186998369
 20
18.54686366202659
 30
0.0
 11
-0.0194501869983697
 21
18.54686366202659
 31
0.0
  0
LINE
  5
2C01
330
18
100
AcDbEntity
  8
0
  6
CONTINUOUS
 62
     7
100
AcDbLine
 10
-0.0194501869983697
 20
17.54686366202659
 30
0.0
 11
-1.019450186998369
 21
17.54686366202659
 31
0.0
  0
LINE
  5
2C02
330
18
100
AcDbEntity
  8
0
  6
CONTINUOUS
 62
     7
100
AcDbLine
 10
0.9805498130016303
 20
16.54686366202659
 30
0.0
 11
-0.0194501869983697
 21
16.54686366202659
 31
0.0
  0
LINE
  5
2C03
330
18
100
AcDbEntity
  8
0
  6
CONTINUOUS
 62
     7
100
AcDbLine
 10
9.857145584301633
 20
22.72186318522659
 30
0.0
 11
9.857145584301633
 21
21.53436413882658
 31
0.0
  0
LINE
  5
2C04
330
18
100
AcDbEntity
  8
0
  6
CONTINUOUS
 62
     7
100
AcDbLine
 10
8.963528490801593
 20
21.53436413882658
 30
0.0
 11
8.963528490801593
 21
22.72186318522659
 31
0.0
  0
LINE
  5
2C05
330
18
100
AcDbEntity
  8
0
  6
CONTINUOUS
 62
     7
100
AcDbLine
 10
8.580549813001653
 20
22.65936413882659
 30
0.0
 11
8.580549813001653
 21
21.15936413882658
 31
0.0
  0
LINE
  5
2C06
330
18
100
AcDbEntity
  8
0
  6
CONTINUOUS
 62
     7
100
AcDbLine
 10
1.98054981300163
 20
18.54686366202659
 30
0.0
 11
1.98054981300163
 21
17.54686366202659
 31
0.0
  0
LINE
  5
2C07
330
18
100
AcDbEntity
  8
0
  6
CONTINUOUS
 62
     7
100
AcDbLine
 10
9.091188050001619
 20
17.65936390042659
 30
0.0
 11
8.835868931501636
 21
17.47186390042659
 31
0.0
  0
LINE
  5
2C08
330
18
100
AcDbEntity
  8
0
  6
CONTINUOUS
 62
     7
100
AcDbLine
 10
9.027358270401634
 20
17.15936366202657
 30
0.0
 11
9.155017829601604
 21
17.28436390042659
 31
0.0
  0
LINE
  5
2C09
330
18
100
AcDbEntity
  8
0
  6
CONTINUOUS
 62
     7
100
AcDbLine
 10
8.835868931501636
 20
17.47186390042659
 30
0.0
 11
8.64437959260158
 21
17.22186342362658
 31
0.0
  0
LINE
  5
2C0A
330
18
100
AcDbEntity
  8
0
  6
CONTINUOUS
 62
     7
100
AcDbLine
 10
9.793315804701649
 20
16.40936366202657
 30
0.0
 11
9.665656245501622
 21
16.22186366202657
 31
0.0
  0
LINE
  5
2C0B
330
18
100
AcDbEntity
  8
0
  6
CONTINUOUS
 62
     7
100
AcDbLine
 10
9.282677388901618
 20
17.72186366202658
 30
0.0
 11
9.091188050001619
 21
17.65936390042659
 31
0.0
  0
LINE
  5
2C0C
330
18
100
AcDbEntity
  8
0
  6
CONTINUOUS
 62
     7
100
AcDbLine
 10
9.155017829601604
 20
17.28436390042659
 30
0.0
 11
9.282677388901618
 21
17.34686366202657
 31
0.0
  0
LINE
  5
2C0D
330
18
100
AcDbEntity
  8
0
  6
CONTINUOUS
 62
     7
100
AcDbLine
 10
9.857145584301633
 20
16.59686366202658
 30
0.0
 11
9.793315804701649
 21
16.40936366202657
 31
0.0
  0
LINE
  5
2C0E
330
18
100
AcDbEntity
  8
0
  6
CONTINUOUS
 62
     7
100
AcDbLine
 10
8.963528490801593
 20
16.97186366202657
 30
0.0
 11
9.027358270401634
 21
17.15936366202657
 31
0.0
  0
LINE
  5
2C0F
330
18
100
AcDbEntity
  8
0
  6
CONTINUOUS
 62
     7
100
AcDbLine
 10
9.920975364001606
 20
17.28436390042659
 30
0.0
 11
9.857145584301633
 21
16.97186366202657
 31
0.0
  0
LINE
  5
2C10
330
18
100
AcDbEntity
  8
0
  6
CONTINUOUS
 62
     7
100
AcDbLine
 10
8.64437959260158
 20
17.22186342362658
 30
0.0
 11
8.580549813001653
 21
16.90936390042659
 31
0.0
  0
LINE
  5
2C11
330
18
100
AcDbEntity
  8
0
  6
CONTINUOUS
 62
     7
100
AcDbLine
 10
9.857145584301633
 20
16.97186366202657
 30
0.0
 11
9.857145584301633
 21
16.59686366202658
 31
0.0
  0
LINE
  5
2C12
330
18
100
AcDbEntity
  8
0
  6
CONTINUOUS
 62
     7
100
AcDbLine
 10
9.282677388901618
 20
17.34686366202657
 30
0.0
 11
9.282677388901618
 21
17.72186366202658
 31
0.0
  0
LINE
  5
2C13
330
18
100
AcDbEntity
  8
0
  6
CONTINUOUS
 62
     7
100
AcDbLine
 10
8.963528490801593
 20
16.59686366202658
 30
0.0
 11
8.963528490801593
 21
16.97186366202657
 31
0.0
  0
LINE
  5
2C14
330
18
100
AcDbEntity
  8
0
  6
CONTINUOUS
 62
     7
100
AcDbLine
 10
8.580549813001653
 20
16.90936390042659
 30
0.0
 11
8.580549813001653
 21
16.59686366202658
 31
0.0
  0
LINE
  5
2C15
330
18
100
AcDbEntity
  8
0
  6
CONTINUOUS
 62
     7
100
AcDbLine
 10
8.580549813001653
 20
18.78436390042659
 30
0.0
 11
8.580549813001653
 21
18.40936390042659
 31
0.0
  0
LINE
  5
2C16
330
18
100
AcDbEntity
  8
0
  6
CONTINUOUS
 62
     7
100
AcDbLine
 10
8.580549813001653
 20
20.65936318522659
 30
0.0
 11
8.580549813001653
 21
20.2843639004266
 31
0.0
  0
LINE
  5
2C17
330
18
100
AcDbEntity
  8
0
  6
CONTINUOUS
 62
     7
100
AcDbLine
 10
8.580549813001653
 20
16.59686366202658
 30
0.0
 11
8.64437959260158
 21
16.34686390042659
 31
0.0
  0
LINE
  5
2C18
330
18
100
AcDbEntity
  8
0
  6
CONTINUOUS
 62
     7
100
AcDbLine
 10
9.027358270401634
 20
16.40936366202657
 30
0.0
 11
8.963528490801593
 21
16.59686366202658
 31
0.0
  0
LINE
  5
2C19
330
18
100
AcDbEntity
  8
0
  6
CONTINUOUS
 62
     7
100
AcDbLine
 10
9.155017829601604
 20
16.22186366202657
 30
0.0
 11
9.027358270401634
 21
16.40936366202657
 31
0.0
  0
LINE
  5
2C1A
330
18
100
AcDbEntity
  8
0
  6
CONTINUOUS
 62
     7
100
AcDbLine
 10
9.857145584301633
 20
21.53436413882658
 30
0.0
 11
8.963528490801593
 21
21.53436413882658
 31
0.0
  0
LINE
  5
2C1B
330
18
100
AcDbEntity
  8
0
  6
CONTINUOUS
 62
     7
100
AcDbLine
 10
9.091188050001619
 20
23.40936413882658
 30
0.0
 11
8.835868931501636
 21
23.22186413882659
 31
0.0
  0
LINE
  5
2C1C
330
18
100
AcDbEntity
  8
0
  6
CONTINUOUS
 62
     7
100
AcDbLine
 10
9.027358270401634
 20
22.90936318522659
 30
0.0
 11
9.155017829601604
 21
23.03436413882658
 31
0.0
  0
LINE
  5
2C1D
330
18
100
AcDbEntity
  8
0
  6
CONTINUOUS
 62
     7
100
AcDbLine
 10
8.835868931501636
 20
23.22186413882659
 30
0.0
 11
8.64437959260158
 21
22.97186366202657
 31
0.0
  0
LINE
  5
2C1E
330
18
100
AcDbEntity
  8
0
  6
CONTINUOUS
 62
     7
100
AcDbLine
 10
8.835868931501636
 20
26.72186366202657
 30
0.0
 11
8.64437959260158
 21
26.47186318522659
 31
0.0
  0
LINE
  5
2C1F
330
18
100
AcDbEntity
  8
0
  6
CONTINUOUS
 62
     7
100
AcDbLine
 10
9.793315804701649
 20
25.65936413882659
 30
0.0
 11
9.665656245501622
 21
25.47186413882659
 31
0.0
  0
LINE
  5
2C20
330
18
100
AcDbEntity
  8
0
  6
CONTINUOUS
 62
     7
100
AcDbLine
 10
8.963528490801593
 20
22.72186318522659
 30
0.0
 11
9.027358270401634
 21
22.90936318522659
 31
0.0
  0
LINE
  5
2C21
330
18
100
AcDbEntity
  8
0
  6
CONTINUOUS
 62
     7
100
AcDbLine
 10
9.857145584301633
 20
25.84686413882659
 30
0.0
 11
9.793315804701649
 21
25.65936413882659
 31
0.0
  0
LINE
  5
2C22
330
18
100
AcDbEntity
  8
0
  6
CONTINUOUS
 62
     7
100
AcDbLine
 10
8.963528490801593
 20
26.22186413882658
 30
0.0
 11
9.027358270401634
 21
26.40936413882659
 31
0.0
  0
LINE
  5
2C23
330
18
100
AcDbEntity
  8
0
  6
CONTINUOUS
 62
     7
100
AcDbLine
 10
9.920975364001606
 20
26.53436366202658
 30
0.0
 11
9.857145584301633
 21
26.22186413882658
 31
0.0
  0
LINE
  5
2C24
330
18
100
AcDbEntity
  8
0
  6
CONTINUOUS
 62
     7
100
AcDbLine
 10
8.64437959260158
 20
22.97186366202657
 30
0.0
 11
8.580549813001653
 21
22.65936413882659
 31
0.0
  0
LINE
  5
2C25
330
18
100
AcDbEntity
  8
0
  6
CONTINUOUS
 62
     7
100
AcDbLine
 10
9.155017829601604
 20
23.03436413882658
 30
0.0
 11
9.34650734730161
 21
23.09686318522659
 31
0.0
  0
LINE
  5
2C26
330
18
100
AcDbEntity
  8
0
  6
CONTINUOUS
 62
     7
100
AcDbLine
 10
9.282677388901618
 20
23.47186318522659
 30
0.0
 11
9.091188050001619
 21
23.40936413882658
 31
0.0
  0
LINE
  5
2C27
330
18
100
AcDbEntity
  8
0
  6
CONTINUOUS
 62
     7
100
AcDbLine
 10
9.155017829601604
 20
26.53436366202658
 30
0.0
 11
9.282677388901618
 21
26.59686413882659
 31
0.0
  0
LINE
  5
2C28
330
18
100
AcDbEntity
  8
0
  6
CONTINUOUS
 62
     7
100
AcDbLine
 10
9.091188050001619
 20
26.90936366202658
 30
0.0
 11
8.835868931501636
 21
26.72186366202657
 31
0.0
  0
LINE
  5
2C29
330
18
100
AcDbEntity
  8
0
  6
CONTINUOUS
 62
     7
100
AcDbLine
 10
9.027358270401634
 20
26.40936413882659
 30
0.0
 11
9.155017829601604
 21
26.53436366202658
 31
0.0
  0
LINE
  5
2C2A
330
18
100
AcDbEntity
  8
0
  6
CONTINUOUS
 62
     7
100
AcDbLine
 10
8.64437959260158
 20
26.47186318522659
 30
0.0
 11
8.580549813001653
 21
26.15936366202658
 31
0.0
  0
LINE
  5
2C2B
330
18
100
AcDbEntity
  8
0
  6
CONTINUOUS
 62
     7
100
AcDbLine
 10
9.857145584301633
 20
26.22186413882658
 30
0.0
 11
9.857145584301633
 21
25.84686413882659
 31
0.0
  0
LINE
  5
2C2C
330
18
100
AcDbEntity
  8
0
  6
CONTINUOUS
 62
     7
100
AcDbLine
 10
9.282677388901618
 20
26.59686413882659
 30
0.0
 11
9.282677388901618
 21
26.97186413882659
 31
0.0
  0
LINE
  5
2C2D
330
18
100
AcDbEntity
  8
0
  6
CONTINUOUS
 62
     7
100
AcDbLine
 10
8.963528490801593
 20
25.84686413882659
 30
0.0
 11
8.963528490801593
 21
26.22186413882658
 31
0.0
  0
LINE
  5
2C2E
330
18
100
AcDbEntity
  8
0
  6
CONTINUOUS
 62
     7
100
AcDbLine
 10
8.580549813001653
 20
24.34686413882658
 30
0.0
 11
8.580549813001653
 21
23.97186413882658
 31
0.0
  0
LINE
  5
2C2F
330
18
100
AcDbEntity
  8
0
  6
CONTINUOUS
 62
     7
100
AcDbLine
 10
8.580549813001653
 20
26.15936366202658
 30
0.0
 11
8.580549813001653
 21
25.84686413882659
 31
0.0
  0
LINE
  5
2C30
330
18
100
AcDbEntity
  8
0
  6
CONTINUOUS
 62
     7
100
AcDbLine
 10
8.580549813001653
 20
25.84686413882659
 30
0.0
 11
8.64437959260158
 21
25.59686366202658
 31
0.0
  0
LINE
  5
2C31
330
18
100
AcDbEntity
  8
0
  6
CONTINUOUS
 62
     7
100
AcDbLine
 10
9.027358270401634
 20
25.65936413882659
 30
0.0
 11
8.963528490801593
 21
25.84686413882659
 31
0.0
  0
LINE
  5
2C32
330
18
100
AcDbEntity
  8
0
  6
CONTINUOUS
 62
     7
100
AcDbLine
 10
9.793315804701649
 20
22.90936318522659
 30
0.0
 11
9.857145584301633
 21
22.72186318522659
 31
0.0
  0
LINE
  5
2C33
330
18
100
AcDbEntity
  8
0
  6
CONTINUOUS
 62
     7
100
AcDbLine
 10
9.665656245501622
 20
25.47186413882659
 30
0.0
 11
9.474166906601624
 21
25.40936366202657
 31
0.0
  0
LINE
  5
2C34
330
18
100
AcDbEntity
  8
0
  6
CONTINUOUS
 62
     7
100
AcDbLine
 10
9.282677388901618
 20
26.97186413882659
 30
0.0
 11
9.091188050001619
 21
26.90936366202658
 31
0.0
  0
LINE
  5
2C35
330
18
100
AcDbEntity
  8
0
  6
CONTINUOUS
 62
     7
100
AcDbLine
 10
8.64437959260158
 20
25.59686366202658
 30
0.0
 11
8.772039151901594
 21
25.34686318522659
 31
0.0
  0
LINE
  5
2C36
330
18
100
AcDbEntity
  8
0
  6
CONTINUOUS
 62
     7
100
AcDbLine
 10
9.155017829601604
 20
25.47186413882659
 30
0.0
 11
9.027358270401634
 21
25.65936413882659
 31
0.0
  0
LINE
  5
2C37
330
18
100
AcDbEntity
  8
0
  6
CONTINUOUS
 62
     7
100
AcDbLine
 10
8.772039151901594
 20
25.34686318522659
 30
0.0
 11
9.027358270401634
 21
25.09686413882659
 31
0.0
  0
LINE
  5
2C38
330
18
100
AcDbEntity
  8
0
  6
CONTINUOUS
 62
     7
100
AcDbLine
 10
9.665656245501622
 20
23.03436413882658
 30
0.0
 11
9.793315804701649
 21
22.90936318522659
 31
0.0
  0
LINE
  5
2C39
330
18
100
AcDbEntity
  8
0
  6
CONTINUOUS
 62
     7
100
AcDbLine
 10
9.34650734730161
 20
25.40936366202657
 30
0.0
 11
9.155017829601604
 21
25.47186413882659
 31
0.0
  0
LINE
  5
2C3A
330
18
100
AcDbEntity
  8
0
  6
CONTINUOUS
 62
     7
100
AcDbLine
 10
9.729486025101607
 20
23.40936413882658
 30
0.0
 11
9.537996686201609
 21
23.47186318522659
 31
0.0
  0
LINE
  5
2C3B
330
18
100
AcDbEntity
  8
0
  6
CONTINUOUS
 62
     7
100
AcDbLine
 10
9.474166906601624
 20
23.09686318522659
 30
0.0
 11
9.665656245501622
 21
23.03436413882658
 31
0.0
  0
LINE
  5
2C3C
330
18
100
AcDbEntity
  8
0
  6
CONTINUOUS
 62
     7
100
AcDbLine
 10
9.027358270401634
 20
25.09686413882659
 30
0.0
 11
9.282677388901618
 21
25.03436366202658
 31
0.0
  0
LINE
  5
2C3D
330
18
100
AcDbEntity
  8
0
  6
CONTINUOUS
 62
     7
100
AcDbLine
 10
9.474166906601624
 20
25.40936366202657
 30
0.0
 11
9.34650734730161
 21
25.40936366202657
 31
0.0
  0
LINE
  5
2C3E
330
18
100
AcDbEntity
  8
0
  6
CONTINUOUS
 62
     7
100
AcDbLine
 10
9.282677388901618
 20
25.03436366202658
 30
0.0
 11
9.537996686201609
 21
25.03436366202658
 31
0.0
  0
LINE
  5
2C3F
330
18
100
AcDbEntity
  8
0
  6
CONTINUOUS
 62
     7
100
AcDbLine
 10
9.537996686201609
 20
23.47186318522659
 30
0.0
 11
9.282677388901618
 21
23.47186318522659
 31
0.0
  0
LINE
  5
2C40
330
18
100
AcDbEntity
  8
0
  6
CONTINUOUS
 62
     7
100
AcDbLine
 10
9.34650734730161
 20
23.09686318522659
 30
0.0
 11
9.474166906601624
 21
23.09686318522659
 31
0.0
  0
LINE
  5
2C41
330
18
100
AcDbEntity
  8
0
  6
CONTINUOUS
 62
     7
100
AcDbLine
 10
9.537996686201609
 20
25.03436366202658
 30
0.0
 11
9.793315804701649
 21
25.09686413882659
 31
0.0
  0
LINE
  5
2C42
330
18
100
AcDbEntity
  8
0
  6
CONTINUOUS
 62
     7
100
AcDbLine
 10
-10.01945018699837
 20
34.84686366202657
 30
0.0
 11
-10.01945018699837
 21
48.34686366202658
 31
0.0
  0
CIRCLE
  5
2C43
330
18
100
AcDbEntity
  8
0
  6
CONTINUOUS
 62
     7
100
AcDbCircle
 10
-12.21945018699841
 20
30.84686366202658
 30
0.0
 40
2.547635303499999
  0
CIRCLE
  5
2C44
330
18
100
AcDbEntity
  8
0
  6
CONTINUOUS
 62
     7
100
AcDbCircle
 10
-12.21945018699841
 20
30.84686366202658
 30
0.0
 40
2.649999999999999
  0
LINE
  5
2C47
330
18
100
AcDbEntity
  8
0
  6
CONTINUOUS
 62
     7
100
AcDbLine
 10
-10.71945018699841
 20
31.34686366202657
 30
0.0
 11
-10.71945018699841
 21
30.34686366202658
 31
0.0
  0
LINE
  5
2C48
330
18
100
AcDbEntity
  8
0
  6
CONTINUOUS
 62
     7
100
AcDbLine
 10
-11.71945018699841
 20
30.34686366202658
 30
0.0
 11
-11.71945018699841
 21
29.34686366202658
 31
0.0
  0
LINE
  5
2C49
330
18
100
AcDbEntity
  8
0
  6
CONTINUOUS
 62
     7
100
AcDbLine
 10
-11.71945018699841
 20
32.34686366202657
 30
0.0
 11
-11.71945018699841
 21
31.34686366202657
 31
0.0
  0
LINE
  5
2C4A
330
18
100
AcDbEntity
  8
0
  6
CONTINUOUS
 62
     7
100
AcDbLine
 10
-12.71945018699841
 20
31.34686366202657
 30
0.0
 11
-12.71945018699841
 21
32.34686366202657
 31
0.0
  0
LINE
  5
2C4B
330
18
100
AcDbEntity
  8
0
  6
CONTINUOUS
 62
     7
100
AcDbLine
 10
-12.71945018699841
 20
29.34686366202658
 30
0.0
 11
-12.71945018699841
 21
30.34686366202658
 31
0.0
  0
LINE
  5
2C4C
330
18
100
AcDbEntity
  8
0
  6
CONTINUOUS
 62
     7
100
AcDbLine
 10
-13.71945018699841
 20
30.34686366202658
 30
0.0
 11
-13.71945018699841
 21
31.34686366202657
 31
0.0
  0
LINE
  5
2C4D
330
18
100
AcDbEntity
  8
0
  6
CONTINUOUS
 62
     7
100
AcDbLine
 10
-12.71945018699841
 20
32.34686366202657
 30
0.0
 11
-11.71945018699841
 21
32.34686366202657
 31
0.0
  0
LINE
  5
2C4E
330
18
100
AcDbEntity
  8
0
  6
CONTINUOUS
 62
     7
100
AcDbLine
 10
-11.71945018699841
 20
31.34686366202657
 30
0.0
 11
-10.71945018699841
 21
31.34686366202657
 31
0.0
  0
LINE
  5
2C4F
330
18
100
AcDbEntity
  8
0
  6
CONTINUOUS
 62
     7
100
AcDbLine
 10
-13.71945018699841
 20
31.34686366202657
 30
0.0
 11
-12.71945018699841
 21
31.34686366202657
 31
0.0
  0
LINE
  5
2C50
330
18
100
AcDbEntity
  8
0
  6
CONTINUOUS
 62
     7
100
AcDbLine
 10
-12.71945018699841
 20
30.34686366202658
 30
0.0
 11
-13.71945018699841
 21
30.34686366202658
 31
0.0
  0
LINE
  5
2C51
330
18
100
AcDbEntity
  8
0
  6
CONTINUOUS
 62
     7
100
AcDbLine
 10
-10.71945018699841
 20
30.34686366202658
 30
0.0
 11
-11.71945018699841
 21
30.34686366202658
 31
0.0
  0
LINE
  5
2C52
330
18
100
AcDbEntity
  8
0
  6
CONTINUOUS
 62
     7
100
AcDbLine
 10
-11.71945018699841
 20
29.34686366202658
 30
0.0
 11
-12.71945018699841
 21
29.34686366202658
 31
0.0
  0
LINE
  5
2C53
330
18
100
AcDbEntity
  8
0
  6
CONTINUOUS
 62
     7
100
AcDbLine
 10
-12.21945018699841
 20
35.84686366202658
 30
0.0
 11
-9.019450186998369
 21
35.84686366202658
 31
0.0
  0
LINE
  5
2C54
330
18
100
AcDbEntity
  8
0
  6
CONTINUOUS
 62
     7
100
AcDbLine
 10
-12.21945018699841
 20
34.84686366202657
 30
0.0
 11
-10.01945018699837
 21
34.84686366202657
 31
0.0
  0
LINE
  5
2C55
330
18
100
AcDbEntity
  8
0
  6
CONTINUOUS
 62
     7
100
AcDbLine
 10
-12.21945018699841
 20
35.84686366202658
 30
0.0
 11
-12.21945018699841
 21
34.84686366202657
 31
0.0
  0
ARC
  5
2C56
330
18
100
AcDbEntity
  8
0
  6
CONTINUOUS
 62
     7
100
AcDbCircle
 10
-10.01945018699837
 20
35.84686366202658
 30
0.0
 40
1.0
100
AcDbArc
 50
270.0
 51
0.0
  0
ARC
  5
2C57
330
18
100
AcDbEntity
  8
0
  6
CONTINUOUS
 62
     7
100
AcDbCircle
 10
-10.01945018699837
 20
47.34686366202658
 30
0.0
 40
1.0
100
AcDbArc
 50
0.0
 51
90.0
  0
LINE
  5
2C58
330
18
100
AcDbEntity
  8
0
  6
CONTINUOUS
 62
     7
100
AcDbLine
 10
9.793315804701649
 20
29.78436413882659
 30
0.0
 11
9.793315804701649
 21
28.03436366202658
 31
0.0
  0
LINE
  5
2C59
330
18
100
AcDbEntity
  8
0
  6
CONTINUOUS
 62
     7
100
AcDbLine
 10
8.580549813001653
 20
30.15936413882659
 30
0.0
 11
8.580549813001653
 21
29.78436413882659
 31
0.0
  0
LINE
  5
2C5A
330
18
100
AcDbEntity
  8
0
  6
CONTINUOUS
 62
     7
100
AcDbLine
 10
8.580549813001653
 20
31.03436366202657
 30
0.0
 11
8.580549813001653
 21
30.65936366202658
 31
0.0
  0
LINE
  5
2C5B
330
18
100
AcDbEntity
  8
0
  6
CONTINUOUS
 62
     7
100
AcDbLine
 10
8.580549813001653
 20
29.78436413882659
 30
0.0
 11
9.793315804701649
 21
29.78436413882659
 31
0.0
  0
LINE
  5
2C5C
330
18
100
AcDbEntity
  8
0
  6
CONTINUOUS
 62
     7
100
AcDbLine
 10
9.793315804701649
 20
28.03436366202658
 30
0.0
 11
8.580549813001653
 21
28.03436366202658
 31
0.0
  0
LINE
  5
2C5D
330
18
100
AcDbEntity
  8
0
  6
CONTINUOUS
 62
     7
100
AcDbLine
 10
40.28054981300164
 20
27.69980901942656
 30
0.0
 11
40.28054981300164
 21
29.08610231922656
 31
0.0
  0
LINE
  5
2C5E
330
18
100
AcDbEntity
  8
0
  6
CONTINUOUS
 62
     7
100
AcDbLine
 10
38.78054981300164
 20
28.9468636620266
 30
0.0
 11
38.78054981300164
 21
26.84686366202658
 31
0.0
  0
LINE
  5
2C5F
330
18
100
AcDbEntity
  8
0
  6
CONTINUOUS
 62
     7
100
AcDbLine
 10
11.58054981300165
 20
27.65936366202657
 30
0.0
 11
11.58054981300165
 21
28.03436366202658
 31
0.0
  0
LINE
  5
2C60
330
18
100
AcDbEntity
  8
0
  6
CONTINUOUS
 62
     7
100
AcDbLine
 10
41.71212183410159
 20
27.82210998492655
 30
0.0
 11
40.28054981300164
 21
27.6968636620266
 31
0.0
  0
LINE
  5
2C61
330
18
100
AcDbEntity
  8
0
  6
CONTINUOUS
 62
     7
100
AcDbLine
 10
11.13374131090165
 20
16.22186366202657
 30
0.0
 11
10.94225192740157
 21
16.03436366202657
 31
0.0
  0
LINE
  5
2C62
330
18
100
AcDbEntity
  8
0
  6
CONTINUOUS
 62
     7
100
AcDbLine
 10
10.04863492320163
 20
16.09686342362658
 30
0.0
 11
10.17629448250158
 21
16.34686390042659
 31
0.0
  0
LINE
  5
2C63
330
18
100
AcDbEntity
  8
0
  6
CONTINUOUS
 62
     7
100
AcDbLine
 10
11.51672002780162
 20
16.15936390042659
 30
0.0
 11
11.58054981300165
 21
16.47186342362658
 31
0.0
  0
LINE
  5
2C64
330
18
100
AcDbEntity
  8
0
  6
CONTINUOUS
 62
     7
100
AcDbLine
 10
11.58054981300165
 20
9.596863632226586
 30
0.0
 11
11.58054981300165
 21
10.09686360242656
 31
0.0
  0
LINE
  5
2C65
330
18
100
AcDbEntity
  8
0
  6
CONTINUOUS
 62
     7
100
AcDbLine
 10
11.58054981300165
 20
8.346863662026578
 30
0.0
 11
11.58054981300165
 21
8.721863662026578
 31
0.0
  0
LINE
  5
2C66
330
18
100
AcDbEntity
  8
0
  6
CONTINUOUS
 62
     7
100
AcDbLine
 10
11.00608170700161
 20
15.65936366202658
 30
0.0
 11
11.32523067220165
 21
15.84686366202658
 31
0.0
  0
LINE
  5
2C67
330
18
100
AcDbEntity
  8
0
  6
CONTINUOUS
 62
     7
100
AcDbLine
 10
11.32523067220165
 20
15.84686366202658
 30
0.0
 11
11.51672002780162
 21
16.15936390042659
 31
0.0
  0
LINE
  5
2C68
330
18
100
AcDbEntity
  8
0
  6
CONTINUOUS
 62
     7
100
AcDbLine
 10
10.94225192740157
 20
16.03436366202657
 30
0.0
 11
10.75076258850163
 21
15.97186390042659
 31
0.0
  0
LINE
  5
2C69
330
18
100
AcDbEntity
  8
0
  6
CONTINUOUS
 62
     7
100
AcDbLine
 10
11.58054981300165
 20
13.72186354282655
 30
0.0
 11
11.58054981300165
 21
14.09686354282655
 31
0.0
  0
LINE
  5
2C6A
330
18
100
AcDbEntity
  8
0
  6
CONTINUOUS
 62
     7
100
AcDbLine
 10
11.58054981300165
 20
11.84686354282655
 30
0.0
 11
11.58054981300165
 21
12.22186354282655
 31
0.0
  0
LINE
  5
2C6B
330
18
100
AcDbEntity
  8
0
  6
CONTINUOUS
 62
     7
100
AcDbLine
 10
11.58054981300165
 20
10.97186366202657
 30
0.0
 11
11.58054981300165
 21
11.34686366202657
 31
0.0
  0
LINE
  5
2C6C
330
18
100
AcDbEntity
  8
0
  6
CONTINUOUS
 62
     7
100
AcDbLine
 10
10.75076258850163
 20
15.97186390042659
 30
0.0
 11
10.75076258850163
 21
15.59686390042659
 31
0.0
  0
LINE
  5
2C6D
330
18
100
AcDbEntity
  8
0
  6
CONTINUOUS
 62
     7
100
AcDbLine
 10
10.75076258850163
 20
15.59686390042659
 30
0.0
 11
11.00608170700161
 21
15.65936366202658
 31
0.0
  0
LINE
  5
2C6E
330
18
100
AcDbEntity
  8
0
  6
CONTINUOUS
 62
     7
100
AcDbLine
 10
11.58054981300165
 20
21.15936413882658
 30
0.0
 11
11.58054981300165
 21
22.65936413882659
 31
0.0
  0
LINE
  5
2C6F
330
18
100
AcDbEntity
  8
0
  6
CONTINUOUS
 62
     7
100
AcDbLine
 10
11.19757109060162
 20
22.72186318522659
 30
0.0
 11
11.19757109060162
 21
21.53436413882658
 31
0.0
  0
LINE
  5
2C70
330
18
100
AcDbEntity
  8
0
  6
CONTINUOUS
 62
     7
100
AcDbLine
 10
10.24012426210163
 20
21.53436413882658
 30
0.0
 11
10.24012426210163
 21
22.72186318522659
 31
0.0
  0
LINE
  5
2C71
330
18
100
AcDbEntity
  8
0
  6
CONTINUOUS
 62
     7
100
AcDbLine
 10
10.43161360100157
 20
17.40936342362658
 30
0.0
 11
10.62310302920161
 21
17.53436366202658
 31
0.0
  0
LINE
  5
2C72
330
18
100
AcDbEntity
  8
0
  6
CONTINUOUS
 62
     7
100
AcDbLine
 10
10.30395404170161
 20
17.78436342362658
 30
0.0
 11
10.04863492320163
 21
17.53436366202658
 31
0.0
  0
LINE
  5
2C73
330
18
100
AcDbEntity
  8
0
  6
CONTINUOUS
 62
     7
100
AcDbLine
 10
11.13374131090165
 20
18.59686390042659
 30
0.0
 11
11.38906045180164
 21
18.84686366202657
 31
0.0
  0
LINE
  5
2C74
330
18
100
AcDbEntity
  8
0
  6
CONTINUOUS
 62
     7
100
AcDbLine
 10
10.30395404170161
 20
17.22186342362658
 30
0.0
 11
10.43161360100157
 21
17.40936342362658
 31
0.0
  0
LINE
  5
2C75
330
18
100
AcDbEntity
  8
0
  6
CONTINUOUS
 62
     7
100
AcDbLine
 10
11.13374131090165
 20
19.15936390042659
 30
0.0
 11
11.00608170700161
 21
18.97186390042659
 31
0.0
  0
LINE
  5
2C76
330
18
100
AcDbEntity
  8
0
  6
CONTINUOUS
 62
     7
100
AcDbLine
 10
11.38906045180164
 20
18.84686366202657
 30
0.0
 11
11.51672002780162
 21
19.09686342362658
 31
0.0
  0
LINE
  5
2C77
330
18
100
AcDbEntity
  8
0
  6
CONTINUOUS
 62
     7
100
AcDbLine
 10
10.55927324960157
 20
17.90936366202657
 30
0.0
 11
10.30395404170161
 21
17.78436342362658
 31
0.0
  0
LINE
  5
2C78
330
18
100
AcDbEntity
  8
0
  6
CONTINUOUS
 62
     7
100
AcDbLine
 10
10.87842214770159
 20
18.47186366202658
 30
0.0
 11
11.13374131090165
 21
18.59686390042659
 31
0.0
  0
LINE
  5
2C79
330
18
100
AcDbEntity
  8
0
  6
CONTINUOUS
 62
     7
100
AcDbLine
 10
11.00608170700161
 20
18.97186390042659
 30
0.0
 11
10.81459236810167
 21
18.84686366202657
 31
0.0
  0
LINE
  5
2C7A
330
18
100
AcDbEntity
  8
0
  6
CONTINUOUS
 62
     7
100
AcDbLine
 10
11.19757109060162
 20
16.47186342362658
 30
0.0
 11
11.13374131090165
 21
16.22186366202657
 31
0.0
  0
LINE
  5
2C7B
330
18
100
AcDbEntity
  8
0
  6
CONTINUOUS
 62
     7
100
AcDbLine
 10
11.19757109060162
 20
19.40936366202658
 30
0.0
 11
11.13374131090165
 21
19.15936390042659
 31
0.0
  0
LINE
  5
2C7C
330
18
100
AcDbEntity
  8
0
  6
CONTINUOUS
 62
     7
100
AcDbLine
 10
10.17629448250158
 20
16.34686390042659
 30
0.0
 11
10.24012426210163
 21
16.59686366202658
 31
0.0
  0
LINE
  5
2C7D
330
18
100
AcDbEntity
  8
0
  6
CONTINUOUS
 62
     7
100
AcDbLine
 10
10.24012426210163
 20
16.97186366202657
 30
0.0
 11
10.30395404170161
 21
17.22186342362658
 31
0.0
  0
LINE
  5
2C7E
330
18
100
AcDbEntity
  8
0
  6
CONTINUOUS
 62
     7
100
AcDbLine
 10
11.51672002780162
 20
19.09686342362658
 30
0.0
 11
11.58054981300165
 21
19.40936366202658
 31
0.0
  0
LINE
  5
2C7F
330
18
100
AcDbEntity
  8
0
  6
CONTINUOUS
 62
     7
100
AcDbLine
 10
11.58054981300165
 20
19.40936366202658
 30
0.0
 11
11.58054981300165
 21
19.65936342362658
 31
0.0
  0
LINE
  5
2C80
330
18
100
AcDbEntity
  8
0
  6
CONTINUOUS
 62
     7
100
AcDbLine
 10
11.58054981300165
 20
16.47186342362658
 30
0.0
 11
11.58054981300165
 21
16.97186366202657
 31
0.0
  0
LINE
  5
2C81
330
18
100
AcDbEntity
  8
0
  6
CONTINUOUS
 62
     7
100
AcDbLine
 10
11.19757109060162
 20
16.97186366202657
 30
0.0
 11
11.19757109060162
 21
16.47186342362658
 31
0.0
  0
LINE
  5
2C82
330
18
100
AcDbEntity
  8
0
  6
CONTINUOUS
 62
     7
100
AcDbLine
 10
11.19757109060162
 20
19.65936342362658
 30
0.0
 11
11.19757109060162
 21
19.40936366202658
 31
0.0
  0
LINE
  5
2C83
330
18
100
AcDbEntity
  8
0
  6
CONTINUOUS
 62
     7
100
AcDbLine
 10
11.58054981300165
 20
19.65936342362658
 30
0.0
 11
11.51672002780162
 21
19.97186366202657
 31
0.0
  0
LINE
  5
2C84
330
18
100
AcDbEntity
  8
0
  6
CONTINUOUS
 62
     7
100
AcDbLine
 10
11.58054981300165
 20
16.97186366202657
 30
0.0
 11
11.51672002780162
 21
17.28436390042659
 31
0.0
  0
LINE
  5
2C85
330
18
100
AcDbEntity
  8
0
  6
CONTINUOUS
 62
     7
100
AcDbLine
 10
10.24012426210163
 20
16.59686366202658
 30
0.0
 11
10.24012426210163
 21
16.97186366202657
 31
0.0
  0
LINE
  5
2C86
330
18
100
AcDbEntity
  8
0
  6
CONTINUOUS
 62
     7
100
AcDbLine
 10
11.13374131090165
 20
19.90936390042659
 30
0.0
 11
11.19757109060162
 21
19.65936342362658
 31
0.0
  0
LINE
  5
2C87
330
18
100
AcDbEntity
  8
0
  6
CONTINUOUS
 62
     7
100
AcDbLine
 10
11.13374131090165
 20
17.22186342362658
 30
0.0
 11
11.19757109060162
 21
16.97186366202657
 31
0.0
  0
LINE
  5
2C88
330
18
100
AcDbEntity
  8
0
  6
CONTINUOUS
 62
     7
100
AcDbLine
 10
11.51672002780162
 20
19.97186366202657
 30
0.0
 11
11.38906045180164
 21
20.22186342362658
 31
0.0
  0
LINE
  5
2C89
330
18
100
AcDbEntity
  8
0
  6
CONTINUOUS
 62
     7
100
AcDbLine
 10
11.51672002780162
 20
17.28436390042659
 30
0.0
 11
11.38906045180164
 21
17.53436366202658
 31
0.0
  0
LINE
  5
2C8A
330
18
100
AcDbEntity
  8
0
  6
CONTINUOUS
 62
     7
100
AcDbLine
 10
11.00608170700161
 20
20.09686390042659
 30
0.0
 11
11.13374131090165
 21
19.90936390042659
 31
0.0
  0
LINE
  5
2C8B
330
18
100
AcDbEntity
  8
0
  6
CONTINUOUS
 62
     7
100
AcDbLine
 10
11.00608170700161
 20
17.40936342362658
 30
0.0
 11
11.13374131090165
 21
17.22186342362658
 31
0.0
  0
LINE
  5
2C8C
330
18
100
AcDbEntity
  8
0
  6
CONTINUOUS
 62
     7
100
AcDbLine
 10
11.38906045180164
 20
20.22186342362658
 30
0.0
 11
11.13374131090165
 21
20.47186318522659
 31
0.0
  0
LINE
  5
2C8D
330
18
100
AcDbEntity
  8
0
  6
CONTINUOUS
 62
     7
100
AcDbLine
 10
11.38906045180164
 20
17.53436366202658
 30
0.0
 11
11.13374131090165
 21
17.78436342362658
 31
0.0
  0
LINE
  5
2C8E
330
18
100
AcDbEntity
  8
0
  6
CONTINUOUS
 62
     7
100
AcDbLine
 10
10.81459236810167
 20
20.22186342362658
 30
0.0
 11
11.00608170700161
 21
20.09686390042659
 31
0.0
  0
LINE
  5
2C8F
330
18
100
AcDbEntity
  8
0
  6
CONTINUOUS
 62
     7
100
AcDbLine
 10
10.81459236810167
 20
17.53436366202658
 30
0.0
 11
11.00608170700161
 21
17.40936342362658
 31
0.0
  0
LINE
  5
2C90
330
18
100
AcDbEntity
  8
0
  6
CONTINUOUS
 62
     7
100
AcDbLine
 10
11.13374131090165
 20
20.47186318522659
 30
0.0
 11
10.87842214770159
 21
20.59686413882658
 31
0.0
  0
LINE
  5
2C91
330
18
100
AcDbEntity
  8
0
  6
CONTINUOUS
 62
     7
100
AcDbLine
 10
11.13374131090165
 20
17.78436342362658
 30
0.0
 11
10.87842214770159
 21
17.90936366202657
 31
0.0
  0
LINE
  5
2C92
330
18
100
AcDbEntity
  8
0
  6
CONTINUOUS
 62
     7
100
AcDbLine
 10
10.55927324960157
 20
20.2843639004266
 30
0.0
 11
10.81459236810167
 21
20.22186342362658
 31
0.0
  0
LINE
  5
2C93
330
18
100
AcDbEntity
  8
0
  6
CONTINUOUS
 62
     7
100
AcDbLine
 10
10.87842214770159
 20
20.59686413882658
 30
0.0
 11
10.55927324960157
 21
20.65936318522659
 31
0.0
  0
LINE
  5
2C94
330
18
100
AcDbEntity
  8
0
  6
CONTINUOUS
 62
     7
100
AcDbLine
 10
11.19757109060162
 20
21.53436413882658
 30
0.0
 11
10.24012426210163
 21
21.53436413882658
 31
0.0
  0
LINE
  5
2C95
330
18
100
AcDbEntity
  8
0
  6
CONTINUOUS
 62
     7
100
AcDbLine
 10
10.87842214770159
 20
17.90936366202657
 30
0.0
 11
10.55927324960157
 21
17.90936366202657
 31
0.0
  0
LINE
  5
2C96
330
18
100
AcDbEntity
  8
0
  6
CONTINUOUS
 62
     7
100
AcDbLine
 10
10.62310302920161
 20
17.53436366202658
 30
0.0
 11
10.81459236810167
 21
17.53436366202658
 31
0.0
  0
LINE
  5
2C97
330
18
100
AcDbEntity
  8
0
  6
CONTINUOUS
 62
     7
100
AcDbLine
 10
10.55927324960157
 20
18.40936390042659
 30
0.0
 11
10.87842214770159
 21
18.47186366202658
 31
0.0
  0
LINE
  5
2C98
330
18
100
AcDbEntity
  8
0
  6
CONTINUOUS
 62
     7
100
AcDbLine
 10
10.81459236810167
 20
18.84686366202657
 30
0.0
 11
10.55927324960157
 21
18.78436390042659
 31
0.0
  0
LINE
  5
2C99
330
18
100
AcDbEntity
  8
0
  6
CONTINUOUS
 62
     7
100
AcDbLine
 10
10.3677838213016
 20
23.40936413882658
 30
0.0
 11
10.11246470280161
 21
23.22186413882659
 31
0.0
  0
LINE
  5
2C9A
330
18
100
AcDbEntity
  8
0
  6
CONTINUOUS
 62
     7
100
AcDbLine
 10
10.30395404170161
 20
22.90936318522659
 30
0.0
 11
10.43161360100157
 21
23.03436413882658
 31
0.0
  0
LINE
  5
2C9B
330
18
100
AcDbEntity
  8
0
  6
CONTINUOUS
 62
     7
100
AcDbLine
 10
11.13374131090165
 20
25.47186413882659
 30
0.0
 11
10.94225192740157
 21
25.28436413882658
 31
0.0
  0
LINE
  5
2C9C
330
18
100
AcDbEntity
  8
0
  6
CONTINUOUS
 62
     7
100
AcDbLine
 10
10.30395404170161
 20
27.03436318522659
 30
0.0
 11
10.04863492320163
 21
26.78436413882659
 31
0.0
  0
LINE
  5
2C9D
330
18
100
AcDbEntity
  8
0
  6
CONTINUOUS
 62
     7
100
AcDbLine
 10
10.30395404170161
 20
26.47186318522659
 30
0.0
 11
10.43161360100157
 21
26.65936318522659
 31
0.0
  0
LINE
  5
2C9E
330
18
100
AcDbEntity
  8
0
  6
CONTINUOUS
 62
     7
100
AcDbLine
 10
11.32523067220165
 20
25.09686413882659
 30
0.0
 11
11.51672002780162
 21
25.40936366202657
 31
0.0
  0
LINE
  5
2C9F
330
18
100
AcDbEntity
  8
0
  6
CONTINUOUS
 62
     7
100
AcDbLine
 10
10.11246470280161
 20
23.22186413882659
 30
0.0
 11
10.04863492320163
 21
23.09686318522659
 31
0.0
  0
LINE
  5
2CA0
330
18
100
AcDbEntity
  8
0
  6
CONTINUOUS
 62
     7
100
AcDbLine
 10
10.04863492320163
 20
25.34686318522659
 30
0.0
 11
10.17629448250158
 21
25.59686366202658
 31
0.0
  0
LINE
  5
2CA1
330
18
100
AcDbEntity
  8
0
  6
CONTINUOUS
 62
     7
100
AcDbLine
 10
10.24012426210163
 20
22.72186318522659
 30
0.0
 11
10.30395404170161
 21
22.90936318522659
 31
0.0
  0
LINE
  5
2CA2
330
18
100
AcDbEntity
  8
0
  6
CONTINUOUS
 62
     7
100
AcDbLine
 10
11.19757109060162
 20
25.72186318522659
 30
0.0
 11
11.13374131090165
 21
25.47186413882659
 31
0.0
  0
LINE
  5
2CA3
330
18
100
AcDbEntity
  8
0
  6
CONTINUOUS
 62
     7
100
AcDbLine
 10
10.17629448250158
 20
25.59686366202658
 30
0.0
 11
10.24012426210163
 21
25.84686413882659
 31
0.0
  0
LINE
  5
2CA4
330
18
100
AcDbEntity
  8
0
  6
CONTINUOUS
 62
     7
100
AcDbLine
 10
10.24012426210163
 20
26.22186413882658
 30
0.0
 11
10.30395404170161
 21
26.47186318522659
 31
0.0
  0
LINE
  5
2CA5
330
18
100
AcDbEntity
  8
0
  6
CONTINUOUS
 62
     7
100
AcDbLine
 10
11.51672002780162
 20
25.40936366202657
 30
0.0
 11
11.58054981300165
 21
25.72186318522659
 31
0.0
  0
LINE
  5
2CA6
330
18
100
AcDbEntity
  8
0
  6
CONTINUOUS
 62
     7
100
AcDbLine
 10
11.58054981300165
 20
25.72186318522659
 30
0.0
 11
11.58054981300165
 21
26.22186413882658
 31
0.0
  0
LINE
  5
2CA7
330
18
100
AcDbEntity
  8
0
  6
CONTINUOUS
 62
     7
100
AcDbLine
 10
11.58054981300165
 20
23.97186413882658
 30
0.0
 11
11.58054981300165
 21
24.34686413882658
 31
0.0
  0
LINE
  5
2CA8
330
18
100
AcDbEntity
  8
0
  6
CONTINUOUS
 62
     7
100
AcDbLine
 10
11.19757109060162
 20
26.22186413882658
 30
0.0
 11
11.19757109060162
 21
25.72186318522659
 31
0.0
  0
LINE
  5
2CA9
330
18
100
AcDbEntity
  8
0
  6
CONTINUOUS
 62
     7
100
AcDbLine
 10
11.58054981300165
 20
26.22186413882658
 30
0.0
 11
11.51672002780162
 21
26.53436366202658
 31
0.0
  0
LINE
  5
2CAA
330
18
100
AcDbEntity
  8
0
  6
CONTINUOUS
 62
     7
100
AcDbLine
 10
11.58054981300165
 20
22.65936413882659
 30
0.0
 11
11.51672002780162
 21
22.97186366202657
 31
0.0
  0
LINE
  5
2CAB
330
18
100
AcDbEntity
  8
0
  6
CONTINUOUS
 62
     7
100
AcDbLine
 10
11.13374131090165
 20
26.47186318522659
 30
0.0
 11
11.19757109060162
 21
26.22186413882658
 31
0.0
  0
LINE
  5
2CAC
330
18
100
AcDbEntity
  8
0
  6
CONTINUOUS
 62
     7
100
AcDbLine
 10
10.43161360100157
 20
23.03436413882658
 30
0.0
 11
10.62310302920161
 21
23.09686318522659
 31
0.0
  0
LINE
  5
2CAD
330
18
100
AcDbEntity
  8
0
  6
CONTINUOUS
 62
     7
100
AcDbLine
 10
10.55927324960157
 20
23.47186318522659
 30
0.0
 11
10.3677838213016
 21
23.40936413882658
 31
0.0
  0
LINE
  5
2CAE
330
18
100
AcDbEntity
  8
0
  6
CONTINUOUS
 62
     7
100
AcDbLine
 10
10.94225192740157
 20
25.28436413882658
 30
0.0
 11
10.75076258850163
 21
25.22186366202658
 31
0.0
  0
LINE
  5
2CAF
330
18
100
AcDbEntity
  8
0
  6
CONTINUOUS
 62
     7
100
AcDbLine
 10
10.55927324960157
 20
27.15936413882658
 30
0.0
 11
10.30395404170161
 21
27.03436318522659
 31
0.0
  0
LINE
  5
2CB0
330
18
100
AcDbEntity
  8
0
  6
CONTINUOUS
 62
     7
100
AcDbLine
 10
11.00608170700161
 20
24.90936413882659
 30
0.0
 11
11.32523067220165
 21
25.09686413882659
 31
0.0
  0
LINE
  5
2CB1
330
18
100
AcDbEntity
  8
0
  6
CONTINUOUS
 62
     7
100
AcDbLine
 10
10.43161360100157
 20
26.65936318522659
 30
0.0
 11
10.62310302920161
 21
26.78436413882659
 31
0.0
  0
LINE
  5
2CB2
330
18
100
AcDbEntity
  8
0
  6
CONTINUOUS
 62
     7
100
AcDbLine
 10
10.75076258850163
 20
25.22186366202658
 30
0.0
 11
10.75076258850163
 21
24.84686366202657
 31
0.0
  0
LINE
  5
2CB3
330
18
100
AcDbEntity
  8
0
  6
CONTINUOUS
 62
     7
100
AcDbLine
 10
10.24012426210163
 20
25.84686413882659
 30
0.0
 11
10.24012426210163
 21
26.22186413882658
 31
0.0
  0
LINE
  5
2CB4
330
18
100
AcDbEntity
  8
0
  6
CONTINUOUS
 62
     7
100
AcDbLine
 10
11.13374131090165
 20
22.90936318522659
 30
0.0
 11
11.19757109060162
 21
22.72186318522659
 31
0.0
  0
LINE
  5
2CB5
330
18
100
AcDbEntity
  8
0
  6
CONTINUOUS
 62
     7
100
AcDbLine
 10
11.51672002780162
 20
26.53436366202658
 30
0.0
 11
11.38906045180164
 21
26.78436413882659
 31
0.0
  0
LINE
  5
2CB6
330
18
100
AcDbEntity
  8
0
  6
CONTINUOUS
 62
     7
100
AcDbLine
 10
10.04863492320163
 20
23.09686318522659
 30
0.0
 11
9.984805143601647
 21
23.22186413882659
 31
0.0
  0
LINE
  5
2CB7
330
18
100
AcDbEntity
  8
0
  6
CONTINUOUS
 62
     7
100
AcDbLine
 10
11.00608170700161
 20
26.65936318522659
 30
0.0
 11
11.13374131090165
 21
26.47186318522659
 31
0.0
  0
LINE
  5
2CB8
330
18
100
AcDbEntity
  8
0
  6
CONTINUOUS
 62
     7
100
AcDbLine
 10
11.51672002780162
 20
22.97186366202657
 30
0.0
 11
11.32523067220165
 21
23.22186413882659
 31
0.0
  0
LINE
  5
2CB9
330
18
100
AcDbEntity
  8
0
  6
CONTINUOUS
 62
     7
100
AcDbLine
 10
11.38906045180164
 20
26.78436413882659
 30
0.0
 11
11.13374131090165
 21
27.03436318522659
 31
0.0
  0
LINE
  5
2CBA
330
18
100
AcDbEntity
  8
0
  6
CONTINUOUS
 62
     7
100
AcDbLine
 10
11.00608170700161
 20
23.03436413882658
 30
0.0
 11
11.13374131090165
 21
22.90936318522659
 31
0.0
  0
LINE
  5
2CBB
330
18
100
AcDbEntity
  8
0
  6
CONTINUOUS
 62
     7
100
AcDbLine
 10
11.32523067220165
 20
23.22186413882659
 30
0.0
 11
11.06991153130161
 21
23.40936413882658
 31
0.0
  0
LINE
  5
2CBC
330
18
100
AcDbEntity
  8
0
  6
CONTINUOUS
 62
     7
100
AcDbLine
 10
10.81459236810167
 20
26.78436413882659
 30
0.0
 11
11.00608170700161
 21
26.65936318522659
 31
0.0
  0
LINE
  5
2CBD
330
18
100
AcDbEntity
  8
0
  6
CONTINUOUS
 62
     7
100
AcDbLine
 10
11.13374131090165
 20
27.03436318522659
 30
0.0
 11
10.87842214770159
 21
27.15936413882658
 31
0.0
  0
LINE
  5
2CBE
330
18
100
AcDbEntity
  8
0
  6
CONTINUOUS
 62
     7
100
AcDbLine
 10
11.06991153130161
 20
23.40936413882658
 30
0.0
 11
10.87842214770159
 21
23.47186318522659
 31
0.0
  0
LINE
  5
2CBF
330
18
100
AcDbEntity
  8
0
  6
CONTINUOUS
 62
     7
100
AcDbLine
 10
10.81459236810167
 20
23.09686318522659
 30
0.0
 11
11.00608170700161
 21
23.03436413882658
 31
0.0
  0
LINE
  5
2CC0
330
18
100
AcDbEntity
  8
0
  6
CONTINUOUS
 62
     7
100
AcDbLine
 10
10.87842214770159
 20
27.15936413882658
 30
0.0
 11
10.55927324960157
 21
27.15936413882658
 31
0.0
  0
LINE
  5
2CC1
330
18
100
AcDbEntity
  8
0
  6
CONTINUOUS
 62
     7
100
AcDbLine
 10
10.62310302920161
 20
26.78436413882659
 30
0.0
 11
10.81459236810167
 21
26.78436413882659
 31
0.0
  0
LINE
  5
2CC2
330
18
100
AcDbEntity
  8
0
  6
CONTINUOUS
 62
     7
100
AcDbLine
 10
10.87842214770159
 20
23.47186318522659
 30
0.0
 11
10.55927324960157
 21
23.47186318522659
 31
0.0
  0
LINE
  5
2CC3
330
18
100
AcDbEntity
  8
0
  6
CONTINUOUS
 62
     7
100
AcDbLine
 10
10.62310302920161
 20
23.09686318522659
 30
0.0
 11
10.81459236810167
 21
23.09686318522659
 31
0.0
  0
LINE
  5
2CC4
330
18
100
AcDbEntity
  8
0
  6
CONTINUOUS
 62
     7
100
AcDbLine
 10
10.75076258850163
 20
24.84686366202657
 30
0.0
 11
11.00608170700161
 21
24.90936413882659
 31
0.0
  0
LINE
  5
2CC5
330
18
100
AcDbEntity
  8
0
  6
CONTINUOUS
 62
     7
100
AcDbLine
 10
38.58054981300159
 20
26.84686366202658
 30
0.0
 11
42.28054981300163
 21
26.84686366202658
 31
0.0
  0
LINE
  5
2CC6
330
18
100
AcDbEntity
  8
0
  6
CONTINUOUS
 62
     7
100
AcDbLine
 10
11.58054981300165
 20
30.65936366202658
 30
0.0
 11
11.58054981300165
 21
31.03436366202657
 31
0.0
  0
LINE
  5
2CC7
330
18
100
AcDbEntity
  8
0
  6
CONTINUOUS
 62
     7
100
AcDbLine
 10
11.58054981300165
 20
29.78436413882659
 30
0.0
 11
11.58054981300165
 21
30.15936413882659
 31
0.0
  0
LINE
  5
2CC8
330
18
100
AcDbEntity
  8
0
  6
CONTINUOUS
 62
     7
100
AcDbLine
 10
10.17629448250158
 20
28.03436366202658
 30
0.0
 11
10.17629448250158
 21
29.78436413882659
 31
0.0
  0
LINE
  5
2CC9
330
18
100
AcDbEntity
  8
0
  6
CONTINUOUS
 62
     7
100
AcDbLine
 10
10.17629448250158
 20
29.78436413882659
 30
0.0
 11
11.58054981300165
 21
29.78436413882659
 31
0.0
  0
LINE
  5
2CCA
330
18
100
AcDbEntity
  8
0
  6
CONTINUOUS
 62
     7
100
AcDbLine
 10
11.58054981300165
 20
28.03436366202658
 30
0.0
 11
10.17629448250158
 21
28.03436366202658
 31
0.0
  0
LINE
  5
2CCB
330
18
100
AcDbEntity
  8
0
  6
CONTINUOUS
 62
     7
100
AcDbLine
 10
42.06740977970162
 20
32.34686366202657
 30
0.0
 11
41.71212183410159
 21
33.87161733912657
 31
0.0
  0
LINE
  5
2CCC
330
18
100
AcDbEntity
  8
0
  6
CONTINUOUS
 62
     7
100
AcDbLine
 10
41.71212183410159
 20
30.80627364202658
 30
0.0
 11
41.71212183410159
 21
33.87161733912657
 31
0.0
  0
LINE
  5
2CCD
330
18
100
AcDbEntity
  8
0
  6
CONTINUOUS
 62
     7
100
AcDbLine
 10
40.28054981300164
 20
29.90663409412658
 30
0.0
 11
40.28054981300164
 21
33.99391830462656
 31
0.0
  0
LINE
  5
2CCE
330
18
100
AcDbEntity
  8
0
  6
CONTINUOUS
 62
     7
100
AcDbLine
 10
38.78054981300164
 20
34.84686366202657
 30
0.0
 11
38.78054981300164
 21
29.74686366202658
 31
0.0
  0
LINE
  5
2CCF
330
18
100
AcDbEntity
  8
0
  6
CONTINUOUS
 62
     7
100
AcDbLine
 10
39.58054981300159
 20
29.74686366202658
 30
0.0
 11
38.58054981300159
 21
29.74686366202658
 31
0.0
  0
LINE
  5
2CD0
330
18
100
AcDbEntity
  8
0
  6
CONTINUOUS
 62
     7
100
AcDbLine
 10
38.58054981300159
 20
28.9468636620266
 30
0.0
 11
39.58054981300159
 21
28.9468636620266
 31
0.0
  0
LINE
  5
2CD1
330
18
100
AcDbEntity
  8
0
  6
CONTINUOUS
 62
     7
100
AcDbLine
 10
42.06740977970162
 20
29.34686366202658
 30
0.0
 11
41.71212183410159
 21
27.82210998492655
 31
0.0
  0
LWPOLYLINE
  5
2CD2
330
18
100
AcDbEntity
  8
0
  6
CONTINUOUS
 62
     7
100
AcDbPolyline
 90
        3
 70
     0
 43
0.0
 10
42.0547586421016
 20
29.34686366202658
 10
42.1179005289016
 20
29.84733339772657
 10
42.13641622550158
 20
30.09320403702659
  0
LINE
  5
2CD3
330
18
100
AcDbEntity
  8
0
  6
CONTINUOUS
 62
     7
100
AcDbLine
 10
41.71212183410159
 20
27.82210998492655
 30
0.0
 11
41.71212183410159
 21
29.74260305682659
 31
0.0
  0
LWPOLYLINE
  5
2CD4
330
18
100
AcDbEntity
  8
0
  6
CONTINUOUS
 62
     7
100
AcDbPolyline
 90
        3
 70
     0
 43
0.0
 10
42.13076311090162
 20
31.67559121092657
 10
42.1179005289016
 20
31.84639392642657
 10
42.0547586421016
 20
32.34686366202657
  0
LINE
  5
2CD5
330
18
100
AcDbEntity
  8
0
  6
CONTINUOUS
 62
     7
100
AcDbLine
 10
42.0547586421016
 20
32.34686366202657
 30
0.0
 11
42.06740977970162
 21
32.34686366202657
 31
0.0
  0
LINE
  5
2CD6
330
18
100
AcDbEntity
  8
0
  6
CONTINUOUS
 62
     7
100
AcDbLine
 10
42.06740977970162
 20
29.34686366202658
 30
0.0
 11
42.0547586421016
 21
29.34686366202658
 31
0.0
  0
LINE
  5
2CD7
330
18
100
AcDbEntity
  8
0
  6
CONTINUOUS
 62
     7
100
AcDbLine
 10
38.78054981300164
 20
27.84686366202658
 30
0.0
 11
40.28054981300164
 21
27.84686366202658
 31
0.0
  0
LINE
  5
2CD8
330
18
100
AcDbEntity
  8
0
  6
CONTINUOUS
 62
     7
100
AcDbLine
 10
38.58054981300159
 20
34.84686366202657
 30
0.0
 11
42.28054981300163
 21
34.84686366202657
 31
0.0
  0
LINE
  5
2CD9
330
18
100
AcDbEntity
  8
0
  6
CONTINUOUS
 62
     7
100
AcDbLine
 10
41.71212183410159
 20
33.87161733912657
 30
0.0
 11
40.28054981300164
 21
33.99686366202658
 31
0.0
  0
LINE
  5
2CDA
330
18
100
AcDbEntity
  8
0
  6
CONTINUOUS
 62
     7
100
AcDbLine
 10
38.78054981300164
 20
33.84686366202657
 30
0.0
 11
40.28054981300164
 21
33.84686366202657
 31
0.0
  0
ARC
  5
2CDB
330
18
100
AcDbEntity
  8
0
  6
CONTINUOUS
 62
     7
100
AcDbCircle
 10
96.79847042340163
 20
-33.18211643107344
 30
0.0
 40
1.0
100
AcDbArc
 50
90.0
 51
180.0
  0
ARC
  5
2CDC
330
18
100
AcDbEntity
  8
0
  6
CONTINUOUS
 62
     7
100
AcDbCircle
 10
42.4396616792016
 20
60.84686366202658
 30
0.0
 40
5.0
100
AcDbArc
 50
4.355772626999653
 51
90.0
  0
LINE
  5
2CDD
330
18
100
AcDbEntity
  8
0
  6
CONTINUOUS
 62
     7
100
AcDbLine
 10
42.4396616792016
 20
60.84686366202658
 30
0.0
 11
47.42522005720161
 21
61.22661049752659
 31
0.0
  0
LINE
  5
2CDE
330
18
100
AcDbEntity
  8
0
  6
CONTINUOUS
 62
     7
100
AcDbLine
 10
36.58054981300159
 20
55.84686366202658
 30
0.0
 11
5.080549813001653
 21
55.84686366202658
 31
0.0
  0
LINE
  5
2CDF
330
18
100
AcDbEntity
  8
0
  6
CONTINUOUS
 62
     7
100
AcDbLine
 10
42.4396616792016
 20
65.84686366202658
 30
0.0
 11
42.4396616792016
 21
60.84686366202658
 31
0.0
  0
ARC
  5
2CE0
330
18
100
AcDbEntity
  8
0
  6
CONTINUOUS
 62
     7
100
AcDbCircle
 10
143.2984704234016
 20
-47.18211643107344
 30
0.0
 40
5.0
100
AcDbArc
 50
0.0
 51
90.0
  0
LINE
  5
2CE1
330
18
100
AcDbEntity
  8
0
  6
CONTINUOUS
 62
     7
100
AcDbLine
 10
130.7984704234016
 20
-42.08211643107341
 30
0.0
 11
130.7984704234016
 21
-33.18211643107344
 31
0.0
  0
LINE
  5
2CE2
330
18
100
AcDbEntity
  8
0
  6
CONTINUOUS
 62
     7
100
AcDbLine
 10
129.7984704234016
 20
-42.08211643107341
 30
0.0
 11
129.7984704234016
 21
-32.18211643107343
 31
0.0
  0
LINE
  5
2CE3
330
18
100
AcDbEntity
  8
0
  6
CONTINUOUS
 62
     7
100
AcDbLine
 10
103.0461057270016
 20
-41.01208259667342
 30
0.0
 11
103.1397215571016
 21
-42.08211643107341
 31
0.0
  0
LINE
  5
2CE4
330
18
100
AcDbEntity
  8
0
  6
CONTINUOUS
 62
     7
100
AcDbLine
 10
96.79847042340163
 20
-41.98211643107342
 30
0.0
 11
96.79847042340163
 21
-32.18211643107343
 31
0.0
  0
LINE
  5
2CE5
330
18
100
AcDbEntity
  8
0
  6
CONTINUOUS
 62
     7
100
AcDbLine
 10
97.95083511990164
 20
-41.01208259667342
 30
0.0
 11
97.8572192898016
 21
-42.08211643107341
 31
0.0
  0
LINE
  5
2CE6
330
18
100
AcDbEntity
  8
0
  6
CONTINUOUS
 62
     7
100
AcDbLine
 10
107.2984704234016
 20
-41.98211643107342
 30
0.0
 11
109.6109709003016
 21
-41.98211643107342
 31
0.0
  0
LWPOLYLINE
  5
2CE7
330
18
100
AcDbEntity
  8
0
  6
CONTINUOUS
 62
     7
100
AcDbPolyline
 90
        3
 70
     0
 43
0.0
 10
99.29847042340163
 20
-103.5563252601734
 10
99.79847042340162
 20
-103.5689763977734
 10
100.2984704234016
 20
-103.5563252601734
  0
LINE
  5
2CE8
330
18
100
AcDbEntity
  8
0
  6
CONTINUOUS
 62
     7
100
AcDbLine
 10
97.25083511990158
 20
-103.3521502655734
 30
0.0
 11
102.3461057270016
 21
-103.3521502655734
 31
0.0
  0
LINE
  5
2CE9
330
18
100
AcDbEntity
  8
0
  6
CONTINUOUS
 62
     7
100
AcDbLine
 10
99.29847042340163
 20
-103.6570851027734
 30
0.0
 11
99.29847042340163
 21
-103.5563252601734
 31
0.0
  0
LINE
  5
2CEA
330
18
100
AcDbEntity
  8
0
  6
CONTINUOUS
 62
     7
100
AcDbLine
 10
98.29847042340162
 20
-103.5689763977734
 30
0.0
 11
98.29847042340162
 21
-103.5563252601734
 31
0.0
  0
LINE
  5
2CEB
330
18
100
AcDbEntity
  8
0
  6
CONTINUOUS
 62
     7
100
AcDbLine
 10
97.25083511990158
 20
-103.3521502655734
 30
0.0
 11
97.14847042340165
 21
-102.1821164310734
 31
0.0
  0
LINE
  5
2CEC
330
18
100
AcDbEntity
  8
0
  6
CONTINUOUS
 62
     7
100
AcDbLine
 10
98.29847042340162
 20
-103.5689763977734
 30
0.0
 11
97.25083511990158
 21
-103.3521502655734
 31
0.0
  0
LWPOLYLINE
  5
2CED
330
18
100
AcDbEntity
  8
0
  6
CONTINUOUS
 62
     7
100
AcDbPolyline
 90
        4
 70
     0
 43
0.0
 10
98.29847042340162
 20
-103.5563252601734
 10
98.65700189250162
 20
-103.6041650901734
 10
98.99047300220161
 20
-103.6368710823734
 10
99.29847042340163
 20
-103.6570851027734
  0
LINE
  5
2CEE
330
18
100
AcDbEntity
  8
0
  6
CONTINUOUS
 62
     7
100
AcDbLine
 10
102.3461057270016
 20
-103.3521502655734
 30
0.0
 11
102.4484704234015
 21
-102.1821164310734
 31
0.0
  0
LINE
  5
2CEF
330
18
100
AcDbEntity
  8
0
  6
CONTINUOUS
 62
     7
100
AcDbLine
 10
101.2984704234016
 20
-103.5563252601734
 30
0.0
 11
101.2984704234016
 21
-103.5689763977734
 31
0.0
  0
LINE
  5
2CF0
330
18
100
AcDbEntity
  8
0
  6
CONTINUOUS
 62
     7
100
AcDbLine
 10
100.2984704234016
 20
-103.5563252601734
 30
0.0
 11
100.2984704234016
 21
-103.6570851027734
 31
0.0
  0
LINE
  5
2CF1
330
18
100
AcDbEntity
  8
0
  6
CONTINUOUS
 62
     7
100
AcDbLine
 10
101.2984704234016
 20
-103.5689763977734
 30
0.0
 11
102.3461057270016
 21
-103.3521502655734
 31
0.0
  0
LWPOLYLINE
  5
2CF2
330
18
100
AcDbEntity
  8
0
  6
CONTINUOUS
 62
     7
100
AcDbPolyline
 90
        4
 70
     0
 43
0.0
 10
100.2984704234016
 20
-103.6570851027734
 10
100.6064678447016
 20
-103.6368710823734
 10
100.9399389544016
 20
-103.6041650901734
 10
101.2984704234016
 20
-103.5563252601734
  0
LINE
  5
2CF3
330
18
100
AcDbEntity
  8
0
  6
CONTINUOUS
 62
     7
100
AcDbLine
 10
98.04847066190161
 20
-41.98211643107342
 30
0.0
 11
100.3609704234016
 21
-41.98211643107342
 31
0.0
  0
LINE
  5
2CF4
330
18
100
AcDbEntity
  8
0
  6
CONTINUOUS
 62
     7
100
AcDbLine
 10
99.98597042340163
 20
-42.08211643107341
 30
0.0
 11
99.98597042340163
 21
-41.98211643107342
 31
0.0
  0
LINE
  5
2CF5
330
18
100
AcDbEntity
  8
0
  6
CONTINUOUS
 62
     7
100
AcDbLine
 10
99.7359706619016
 20
-42.08211643107341
 30
0.0
 11
99.7359706619016
 21
-41.98211643107342
 31
0.0
  0
LINE
  5
2CF6
330
18
100
AcDbEntity
  8
0
  6
CONTINUOUS
 62
     7
100
AcDbLine
 10
99.42347042340163
 20
-42.08211643107341
 30
0.0
 11
99.42347042340163
 21
-41.98211643107342
 31
0.0
  0
LINE
  5
2CF7
330
18
100
AcDbEntity
  8
0
  6
CONTINUOUS
 62
     7
100
AcDbLine
 10
98.92347018500164
 20
-42.08211643107341
 30
0.0
 11
98.92347018500164
 21
-41.98211643107342
 31
0.0
  0
LINE
  5
2CF8
330
18
100
AcDbEntity
  8
0
  6
CONTINUOUS
 62
     7
100
AcDbLine
 10
98.61097066190161
 20
-42.08211643107341
 30
0.0
 11
98.61097066190161
 21
-41.98211643107342
 31
0.0
  0
LINE
  5
2CF9
330
18
100
AcDbEntity
  8
0
  6
CONTINUOUS
 62
     7
100
AcDbLine
 10
98.29847042340162
 20
-42.08211643107341
 30
0.0
 11
98.29847042340162
 21
-41.98211643107342
 31
0.0
  0
LINE
  5
2CFA
330
18
100
AcDbEntity
  8
0
  6
CONTINUOUS
 62
     7
100
AcDbLine
 10
98.11097042340163
 20
-42.08211643107341
 30
0.0
 11
98.11097042340163
 21
-41.98211643107342
 31
0.0
  0
LINE
  5
2CFB
330
18
100
AcDbEntity
  8
0
  6
CONTINUOUS
 62
     7
100
AcDbLine
 10
98.04847066190161
 20
-42.08211643107341
 30
0.0
 11
98.04847066190161
 21
-41.98211643107342
 31
0.0
  0
LINE
  5
2CFC
330
18
100
AcDbEntity
  8
0
  6
CONTINUOUS
 62
     7
100
AcDbLine
 10
97.54847042340163
 20
-42.08211643107341
 30
0.0
 11
97.54847042340163
 21
-41.98211643107342
 31
0.0
  0
LINE
  5
2CFD
330
18
100
AcDbEntity
  8
0
  6
CONTINUOUS
 62
     7
100
AcDbLine
 10
96.5484703042016
 20
-42.08211643107341
 30
0.0
 11
96.5484703042016
 21
-41.98211643107342
 31
0.0
  0
LINE
  5
2CFE
330
18
100
AcDbEntity
  8
0
  6
CONTINUOUS
 62
     7
100
AcDbLine
 10
103.6109709003016
 20
-41.98211643107342
 30
0.0
 11
105.9234699466016
 21
-41.98211643107342
 31
0.0
  0
LINE
  5
2CFF
330
18
100
AcDbEntity
  8
0
  6
CONTINUOUS
 62
     7
100
AcDbLine
 10
100.8609706619016
 20
-41.98211643107342
 30
0.0
 11
103.1109699466016
 21
-41.98211643107342
 31
0.0
  0
LINE
  5
2D00
330
18
100
AcDbEntity
  8
0
  6
CONTINUOUS
 62
     7
100
AcDbLine
 10
103.6109709003016
 20
-42.08211643107341
 30
0.0
 11
103.6109709003016
 21
-41.98211643107342
 31
0.0
  0
LINE
  5
2D01
330
18
100
AcDbEntity
  8
0
  6
CONTINUOUS
 62
     7
100
AcDbLine
 10
103.1109699466016
 20
-42.08211643107341
 30
0.0
 11
103.1109699466016
 21
-41.98211643107342
 31
0.0
  0
LINE
  5
2D02
330
18
100
AcDbEntity
  8
0
  6
CONTINUOUS
 62
     7
100
AcDbLine
 10
103.0484709003016
 20
-42.08211643107341
 30
0.0
 11
103.0484709003016
 21
-41.98211643107342
 31
0.0
  0
LINE
  5
2D03
330
18
100
AcDbEntity
  8
0
  6
CONTINUOUS
 62
     7
100
AcDbLine
 10
102.9234699466016
 20
-42.08211643107341
 30
0.0
 11
102.9234699466016
 21
-41.98211643107342
 31
0.0
  0
LINE
  5
2D04
330
18
100
AcDbEntity
  8
0
  6
CONTINUOUS
 62
     7
100
AcDbLine
 10
102.6734701850016
 20
-42.08211643107341
 30
0.0
 11
102.6734701850016
 21
-41.98211643107342
 31
0.0
  0
LINE
  5
2D05
330
18
100
AcDbEntity
  8
0
  6
CONTINUOUS
 62
     7
100
AcDbLine
 10
102.4234704234016
 20
-42.08211643107341
 30
0.0
 11
102.4234704234016
 21
-41.98211643107342
 31
0.0
  0
LINE
  5
2D06
330
18
100
AcDbEntity
  8
0
  6
CONTINUOUS
 62
     7
100
AcDbLine
 10
102.1109701850016
 20
-42.08211643107341
 30
0.0
 11
102.1109701850016
 21
-41.98211643107342
 31
0.0
  0
LINE
  5
2D07
330
18
100
AcDbEntity
  8
0
  6
CONTINUOUS
 62
     7
100
AcDbLine
 10
101.8609704234016
 20
-42.08211643107341
 30
0.0
 11
101.8609704234016
 21
-41.98211643107342
 31
0.0
  0
LINE
  5
2D08
330
18
100
AcDbEntity
  8
0
  6
CONTINUOUS
 62
     7
100
AcDbLine
 10
101.5484701850016
 20
-42.08211643107341
 30
0.0
 11
101.5484701850016
 21
-41.98211643107342
 31
0.0
  0
LINE
  5
2D09
330
18
100
AcDbEntity
  8
0
  6
CONTINUOUS
 62
     7
100
AcDbLine
 10
101.2984704234016
 20
-42.08211643107341
 30
0.0
 11
101.2984704234016
 21
-41.98211643107342
 31
0.0
  0
LINE
  5
2D0A
330
18
100
AcDbEntity
  8
0
  6
CONTINUOUS
 62
     7
100
AcDbLine
 10
101.0484706619016
 20
-42.08211643107341
 30
0.0
 11
101.0484706619016
 21
-41.98211643107342
 31
0.0
  0
LINE
  5
2D0B
330
18
100
AcDbEntity
  8
0
  6
CONTINUOUS
 62
     7
100
AcDbLine
 10
100.9234704234016
 20
-42.08211643107341
 30
0.0
 11
100.9234704234016
 21
-41.98211643107342
 31
0.0
  0
LINE
  5
2D0C
330
18
100
AcDbEntity
  8
0
  6
CONTINUOUS
 62
     7
100
AcDbLine
 10
100.8609706619016
 20
-42.08211643107341
 30
0.0
 11
100.8609706619016
 21
-41.98211643107342
 31
0.0
  0
LINE
  5
2D0D
330
18
100
AcDbEntity
  8
0
  6
CONTINUOUS
 62
     7
100
AcDbLine
 10
100.3609704234016
 20
-42.08211643107341
 30
0.0
 11
100.3609704234016
 21
-41.98211643107342
 31
0.0
  0
LINE
  5
2D0E
330
18
100
AcDbEntity
  8
0
  6
CONTINUOUS
 62
     7
100
AcDbLine
 10
100.2359701850016
 20
-42.08211643107341
 30
0.0
 11
100.2359701850016
 21
-41.98211643107342
 31
0.0
  0
LINE
  5
2D0F
330
18
100
AcDbEntity
  8
0
  6
CONTINUOUS
 62
     7
100
AcDbLine
 10
106.4234709003015
 20
-41.98211643107342
 30
0.0
 11
106.7984709003015
 21
-41.98211643107342
 31
0.0
  0
LINE
  5
2D10
330
18
100
AcDbEntity
  8
0
  6
CONTINUOUS
 62
     7
100
AcDbLine
 10
108.1734699466016
 20
-42.08211643107341
 30
0.0
 11
108.1734699466016
 21
-41.98211643107342
 31
0.0
  0
LINE
  5
2D11
330
18
100
AcDbEntity
  8
0
  6
CONTINUOUS
 62
     7
100
AcDbLine
 10
107.8609704234016
 20
-42.08211643107341
 30
0.0
 11
107.8609704234016
 21
-41.98211643107342
 31
0.0
  0
LINE
  5
2D12
330
18
100
AcDbEntity
  8
0
  6
CONTINUOUS
 62
     7
100
AcDbLine
 10
107.5484709003015
 20
-42.08211643107341
 30
0.0
 11
107.5484709003015
 21
-41.98211643107342
 31
0.0
  0
LINE
  5
2D13
330
18
100
AcDbEntity
  8
0
  6
CONTINUOUS
 62
     7
100
AcDbLine
 10
107.3609709003015
 20
-42.08211643107341
 30
0.0
 11
107.3609709003015
 21
-41.98211643107342
 31
0.0
  0
LINE
  5
2D14
330
18
100
AcDbEntity
  8
0
  6
CONTINUOUS
 62
     7
100
AcDbLine
 10
107.2984704234016
 20
-42.08211643107341
 30
0.0
 11
107.2984704234016
 21
-41.98211643107342
 31
0.0
  0
LINE
  5
2D15
330
18
100
AcDbEntity
  8
0
  6
CONTINUOUS
 62
     7
100
AcDbLine
 10
106.7984709003015
 20
-42.08211643107341
 30
0.0
 11
106.7984709003015
 21
-41.98211643107342
 31
0.0
  0
LINE
  5
2D16
330
18
100
AcDbEntity
  8
0
  6
CONTINUOUS
 62
     7
100
AcDbLine
 10
106.4234709003015
 20
-42.08211643107341
 30
0.0
 11
106.4234709003015
 21
-41.98211643107342
 31
0.0
  0
LINE
  5
2D17
330
18
100
AcDbEntity
  8
0
  6
CONTINUOUS
 62
     7
100
AcDbLine
 10
105.9234699466016
 20
-42.08211643107341
 30
0.0
 11
105.9234699466016
 21
-41.98211643107342
 31
0.0
  0
LINE
  5
2D18
330
18
100
AcDbEntity
  8
0
  6
CONTINUOUS
 62
     7
100
AcDbLine
 10
105.8609709003015
 20
-42.08211643107341
 30
0.0
 11
105.8609709003015
 21
-41.98211643107342
 31
0.0
  0
LINE
  5
2D19
330
18
100
AcDbEntity
  8
0
  6
CONTINUOUS
 62
     7
100
AcDbLine
 10
105.6734709003015
 20
-42.08211643107341
 30
0.0
 11
105.6734709003015
 21
-41.98211643107342
 31
0.0
  0
LINE
  5
2D1A
330
18
100
AcDbEntity
  8
0
  6
CONTINUOUS
 62
     7
100
AcDbLine
 10
105.4234704234016
 20
-42.08211643107341
 30
0.0
 11
105.4234704234016
 21
-41.98211643107342
 31
0.0
  0
LINE
  5
2D1B
330
18
100
AcDbEntity
  8
0
  6
CONTINUOUS
 62
     7
100
AcDbLine
 10
105.1109709003015
 20
-42.08211643107341
 30
0.0
 11
105.1109709003015
 21
-41.98211643107342
 31
0.0
  0
LINE
  5
2D1C
330
18
100
AcDbEntity
  8
0
  6
CONTINUOUS
 62
     7
100
AcDbLine
 10
148.2984704234016
 20
-47.18211643107344
 30
0.0
 11
148.2984704234016
 21
-97.18211643107343
 31
0.0
  0
LINE
  5
2D1D
330
18
100
AcDbEntity
  8
0
  6
CONTINUOUS
 62
     7
100
AcDbLine
 10
143.6782172589016
 20
-47.18211643107344
 30
0.0
 11
143.6782172589016
 21
-97.18211643107343
 31
0.0
  0
LINE
  5
2D1E
330
18
100
AcDbEntity
  8
0
  6
CONTINUOUS
 62
     7
100
AcDbLine
 10
125.2984704234016
 20
-103.5689763977734
 30
0.0
 11
124.2508351199016
 21
-103.3521502655734
 31
0.0
  0
LINE
  5
2D1F
330
18
100
AcDbEntity
  8
0
  6
CONTINUOUS
 62
     7
100
AcDbLine
 10
124.2508351199016
 20
-103.3521502655734
 30
0.0
 11
129.3461057270016
 21
-103.3521502655734
 31
0.0
  0
LWPOLYLINE
  5
2D20
330
18
100
AcDbEntity
  8
0
  6
CONTINUOUS
 62
     7
100
AcDbPolyline
 90
       14
 70
     0
 43
0.0
 10
109.5094175827016
 20
-102.1821164310734
 10
109.8005805027016
 20
-102.1389274184734
 10
110.2195309689016
 20
-102.0193388664734
 10
110.7503157017016
 20
-101.8501453495734
 10
111.3903525525016
 20
-101.6621848370734
 10
112.1235702528016
 20
-101.4975399229734
 10
112.9070392504015
 20
-101.4025749028734
 10
113.6506176389016
 20
-101.4002664604734
 10
114.4366763481016
 20
-101.4910979739734
 10
115.1810185931016
 20
-101.6554013887734
 10
115.8318793201016
 20
-101.8455096282734
 10
116.3705689155016
 20
-102.0171934222734
 10
116.7942171934016
 20
-102.1384179617734
 10
117.0875232642016
 20
-102.1821164310734
  0
LINE
  5
2D21
330
18
100
AcDbEntity
  8
0
  6
CONTINUOUS
 62
     7
100
AcDbLine
 10
124.2508351199016
 20
-103.3521502655734
 30
0.0
 11
124.1484704234016
 21
-102.1821164310734
 31
0.0
  0
LINE
  5
2D22
330
18
100
AcDbEntity
  8
0
  6
CONTINUOUS
 62
     7
100
AcDbLine
 10
128.2984704234016
 20
-103.5689763977734
 30
0.0
 11
129.3461057270016
 21
-103.3521502655734
 31
0.0
  0
LINE
  5
2D23
330
18
100
AcDbEntity
  8
0
  6
CONTINUOUS
 62
     7
100
AcDbLine
 10
128.2984704234016
 20
-103.5563252601734
 30
0.0
 11
128.2984704234016
 21
-103.5689763977734
 31
0.0
  0
LINE
  5
2D24
330
18
100
AcDbEntity
  8
0
  6
CONTINUOUS
 62
     7
100
AcDbLine
 10
127.2984704234016
 20
-103.5563252601734
 30
0.0
 11
127.2984704234016
 21
-103.6570851027734
 31
0.0
  0
LINE
  5
2D25
330
18
100
AcDbEntity
  8
0
  6
CONTINUOUS
 62
     7
100
AcDbLine
 10
126.2984704234016
 20
-103.6570851027734
 30
0.0
 11
126.2984704234016
 21
-103.5563252601734
 31
0.0
  0
LINE
  5
2D26
330
18
100
AcDbEntity
  8
0
  6
CONTINUOUS
 62
     7
100
AcDbLine
 10
125.2984704234016
 20
-103.5689763977734
 30
0.0
 11
125.2984704234016
 21
-103.5563252601734
 31
0.0
  0
LWPOLYLINE
  5
2D27
330
18
100
AcDbEntity
  8
0
  6
CONTINUOUS
 62
     7
100
AcDbPolyline
 90
        4
 70
     0
 43
0.0
 10
125.2984704234016
 20
-103.5563252601734
 10
125.6570018925015
 20
-103.6041650901734
 10
125.9904730022016
 20
-103.6368710823734
 10
126.2984704234016
 20
-103.6570851027734
  0
LWPOLYLINE
  5
2D28
330
18
100
AcDbEntity
  8
0
  6
CONTINUOUS
 62
     7
100
AcDbPolyline
 90
        3
 70
     0
 43
0.0
 10
126.2984704234016
 20
-103.5563252601734
 10
126.7984704234016
 20
-103.5689763977734
 10
127.2984704234016
 20
-103.5563252601734
  0
LWPOLYLINE
  5
2D29
330
18
100
AcDbEntity
  8
0
  6
CONTINUOUS
 62
     7
100
AcDbPolyline
 90
        4
 70
     0
 43
0.0
 10
127.2984704234016
 20
-103.6570851027734
 10
127.6064678447016
 20
-103.6368710823734
 10
127.9399389544016
 20
-103.6041650901734
 10
128.2984704234016
 20
-103.5563252601734
  0
LINE
  5
2D2A
330
18
100
AcDbEntity
  8
0
  6
CONTINUOUS
 62
     7
100
AcDbLine
 10
129.3461057270016
 20
-103.3521502655734
 30
0.0
 11
129.4484704234015
 21
-102.1821164310734
 31
0.0
  0
ARC
  5
2D2B
330
18
100
AcDbEntity
  8
0
  6
CONTINUOUS
 62
     7
100
AcDbCircle
 10
143.2984704234016
 20
-97.18211643107343
 30
0.0
 40
5.0
100
AcDbArc
 50
270.0
 51
0.0
  0
LWPOLYLINE
  5
2D2C
330
18
100
AcDbEntity
  8
0
  6
CONTINUOUS
 62
     7
100
AcDbPolyline
 90
        8
 70
     0
 43
0.0
 10
143.2984704234016
 20
-102.1821164310734
 10
143.3830366686016
 20
-102.0565617033734
 10
143.4633554153016
 20
-101.6862057923734
 10
143.5353912868015
 20
-101.0896708546734
 10
143.5955297505016
 20
-100.2969005081734
 10
143.6407390882016
 20
-99.34801589547344
 10
143.6687705352016
 20
-98.29042495127344
 10
143.6782172589016
 20
-97.18211643107343
  0
CIRCLE
  5
2D2D
330
18
100
AcDbEntity
  8
0
  6
CONTINUOUS
 62
     7
100
AcDbCircle
 10
123.2984704234016
 20
-72.18211643107342
 30
0.0
 40
3.0
  0
CIRCLE
  5
2D2E
330
18
100
AcDbEntity
  8
0
  6
CONTINUOUS
 62
     7
100
AcDbCircle
 10
123.2984704234016
 20
-72.18211643107342
 30
0.0
 40
2.75
  0
LINE
  5
2D2F
330
18
100
AcDbEntity
  8
0
  6
CONTINUOUS
 62
     7
100
AcDbLine
 10
123.6984704234016
 20
-71.78211643107343
 30
0.0
 11
125.0484704234016
 21
-71.78211643107343
 31
0.0
  0
LINE
  5
2D30
330
18
100
AcDbEntity
  8
0
  6
CONTINUOUS
 62
     7
100
AcDbLine
 10
125.0484704234016
 20
-72.58211643107343
 30
0.0
 11
123.6984704234016
 21
-72.58211643107343
 31
0.0
  0
LINE
  5
2D31
330
18
100
AcDbEntity
  8
0
  6
CONTINUOUS
 62
     7
100
AcDbLine
 10
123.6984704234016
 20
-70.43211643107342
 30
0.0
 11
123.6984704234016
 21
-71.78211643107343
 31
0.0
  0
LINE
  5
2D32
330
18
100
AcDbEntity
  8
0
  6
CONTINUOUS
 62
     7
100
AcDbLine
 10
122.8984704234016
 20
-71.78211643107343
 30
0.0
 11
122.8984704234016
 21
-70.43211643107342
 31
0.0
  0
LINE
  5
2D33
330
18
100
AcDbEntity
  8
0
  6
CONTINUOUS
 62
     7
100
AcDbLine
 10
123.6984704234016
 20
-72.58211643107343
 30
0.0
 11
123.6984704234016
 21
-73.93211643107342
 31
0.0
  0
LINE
  5
2D34
330
18
100
AcDbEntity
  8
0
  6
CONTINUOUS
 62
     7
100
AcDbLine
 10
122.8984704234016
 20
-73.93211643107342
 30
0.0
 11
122.8984704234016
 21
-72.58211643107343
 31
0.0
  0
LINE
  5
2D35
330
18
100
AcDbEntity
  8
0
  6
CONTINUOUS
 62
     7
100
AcDbLine
 10
121.5484704234016
 20
-72.58211643107343
 30
0.0
 11
121.5484704234016
 21
-71.78211643107343
 31
0.0
  0
LINE
  5
2D36
330
18
100
AcDbEntity
  8
0
  6
CONTINUOUS
 62
     7
100
AcDbLine
 10
121.5484704234016
 20
-71.78211643107343
 30
0.0
 11
122.8984704234016
 21
-71.78211643107343
 31
0.0
  0
LINE
  5
2D37
330
18
100
AcDbEntity
  8
0
  6
CONTINUOUS
 62
     7
100
AcDbLine
 10
122.8984704234016
 20
-72.58211643107343
 30
0.0
 11
121.5484704234016
 21
-72.58211643107343
 31
0.0
  0
LINE
  5
2D38
330
18
100
AcDbEntity
  8
0
  6
CONTINUOUS
 62
     7
100
AcDbLine
 10
123.6984704234016
 20
-73.93211643107342
 30
0.0
 11
122.8984704234016
 21
-73.93211643107342
 31
0.0
  0
LINE
  5
2D39
330
18
100
AcDbEntity
  8
0
  6
CONTINUOUS
 62
     7
100
AcDbLine
 10
122.8984704234016
 20
-70.43211643107342
 30
0.0
 11
123.6984704234016
 21
-70.43211643107342
 31
0.0
  0
LINE
  5
2D3A
330
18
100
AcDbEntity
  8
0
  6
CONTINUOUS
 62
     7
100
AcDbLine
 10
125.0484704234016
 20
-71.78211643107343
 30
0.0
 11
125.0484704234016
 21
-72.58211643107343
 31
0.0
  0
LWPOLYLINE
  5
2D3B
330
18
100
AcDbEntity
  8
0
  6
CONTINUOUS
 62
     7
100
AcDbPolyline
 90
       14
 70
     0
 43
0.0
 10
117.0875232642016
 20
-42.18211643107344
 10
116.7941846194016
 20
-42.22582265677343
 10
116.3705021025015
 20
-42.34706040857341
 10
115.8317969084015
 20
-42.51874911497341
 10
115.1809472997015
 20
-42.70885029397343
 10
114.4366541543016
 20
-42.87313872827342
 10
113.6505997515016
 20
-42.96396739787343
 10
112.9070497800016
 20
-42.96165861047342
 10
112.1235928037016
 20
-42.86669695517344
 10
111.3904169569016
 20
-42.70206519437343
 10
110.7503970525015
 20
-42.51411311357341
 10
110.2195896245016
 20
-42.3449123781734
 10
109.8006101129016
 20
-42.22531247097342
 10
109.5094175827016
 20
-42.18211643107344
  0
LINE
  5
2D3C
330
18
100
AcDbEntity
  8
0
  6
CONTINUOUS
 62
     7
100
AcDbLine
 10
110.1109704234016
 20
-41.98211643107342
 30
0.0
 11
112.6109709003016
 21
-41.98211643107342
 31
0.0
  0
LINE
  5
2D3D
330
18
100
AcDbEntity
  8
0
  6
CONTINUOUS
 62
     7
100
AcDbLine
 10
112.2359709003016
 20
-42.08211643107341
 30
0.0
 11
112.2359709003016
 21
-41.98211643107342
 31
0.0
  0
LINE
  5
2D3E
330
18
100
AcDbEntity
  8
0
  6
CONTINUOUS
 62
     7
100
AcDbLine
 10
110.4859704234016
 20
-42.08211643107341
 30
0.0
 11
110.4859704234016
 21
-41.98211643107342
 31
0.0
  0
LINE
  5
2D3F
330
18
100
AcDbEntity
  8
0
  6
CONTINUOUS
 62
     7
100
AcDbLine
 10
110.1109704234016
 20
-42.08211643107341
 30
0.0
 11
110.1109704234016
 21
-41.98211643107342
 31
0.0
  0
LINE
  5
2D40
330
18
100
AcDbEntity
  8
0
  6
CONTINUOUS
 62
     7
100
AcDbLine
 10
109.6109709003016
 20
-42.08211643107341
 30
0.0
 11
109.6109709003016
 21
-41.98211643107342
 31
0.0
  0
LINE
  5
2D41
330
18
100
AcDbEntity
  8
0
  6
CONTINUOUS
 62
     7
100
AcDbLine
 10
109.4859699466016
 20
-42.08211643107341
 30
0.0
 11
109.4859699466016
 21
-41.98211643107342
 31
0.0
  0
LINE
  5
2D42
330
18
100
AcDbEntity
  8
0
  6
CONTINUOUS
 62
     7
100
AcDbLine
 10
109.2359709003015
 20
-42.08211643107341
 30
0.0
 11
109.2359709003015
 21
-41.98211643107342
 31
0.0
  0
LINE
  5
2D43
330
18
100
AcDbEntity
  8
0
  6
CONTINUOUS
 62
     7
100
AcDbLine
 10
108.9859704234016
 20
-42.08211643107341
 30
0.0
 11
108.9859704234016
 21
-41.98211643107342
 31
0.0
  0
LINE
  5
2D44
330
18
100
AcDbEntity
  8
0
  6
CONTINUOUS
 62
     7
100
AcDbLine
 10
108.6734709003015
 20
-42.08211643107341
 30
0.0
 11
108.6734709003015
 21
-41.98211643107342
 31
0.0
  0
LINE
  5
2D45
330
18
100
AcDbEntity
  8
0
  6
CONTINUOUS
 62
     7
100
AcDbLine
 10
113.1109704234016
 20
-41.98211643107342
 30
0.0
 11
113.4859704234016
 21
-41.98211643107342
 31
0.0
  0
LINE
  5
2D46
330
18
100
AcDbEntity
  8
0
  6
CONTINUOUS
 62
     7
100
AcDbLine
 10
113.4859704234016
 20
-42.08211643107341
 30
0.0
 11
113.4859704234016
 21
-41.98211643107342
 31
0.0
  0
LINE
  5
2D47
330
18
100
AcDbEntity
  8
0
  6
CONTINUOUS
 62
     7
100
AcDbLine
 10
113.1109704234016
 20
-42.08211643107341
 30
0.0
 11
113.1109704234016
 21
-41.98211643107342
 31
0.0
  0
LINE
  5
2D48
330
18
100
AcDbEntity
  8
0
  6
CONTINUOUS
 62
     7
100
AcDbLine
 10
112.6109709003016
 20
-42.08211643107341
 30
0.0
 11
112.6109709003016
 21
-41.98211643107342
 31
0.0
  0
LINE
  5
2D49
330
18
100
AcDbEntity
  8
0
  6
CONTINUOUS
 62
     7
100
AcDbLine
 10
138.2984704234016
 20
-42.18211643107344
 30
0.0
 11
138.2984704234016
 21
-42.08211643107341
 31
0.0
  0
LWPOLYLINE
  5
2D4A
330
18
100
AcDbEntity
  8
0
  6
CONTINUOUS
 62
     7
100
AcDbPolyline
 90
        8
 70
     0
 43
0.0
 10
143.2984704234016
 20
-42.18211643107344
 10
143.3829720439016
 20
-42.30747687017341
 10
143.4632364003016
 20
-42.67727209157342
 10
143.5352387026015
 20
-43.27295901877343
 10
143.5953684548016
 20
-44.06466742187342
 10
143.6406104999016
 20
-45.01269773557342
 10
143.6686962129015
 20
-46.06951176137343
 10
143.6782172589016
 20
-47.18211643107344
  0
ARC
  5
2D4B
330
18
100
AcDbEntity
  8
0
  6
CONTINUOUS
 62
     7
100
AcDbCircle
 10
108.2984704234016
 20
-33.18211643107344
 30
0.0
 40
1.0
100
AcDbArc
 50
0.0
 51
90.0
  0
LINE
  5
2D4C
330
18
100
AcDbEntity
  8
0
  6
CONTINUOUS
 62
     7
100
AcDbLine
 10
96.79847042340163
 20
-32.18211643107343
 30
0.0
 11
129.7984704234016
 21
-32.18211643107343
 31
0.0
  0
LINE
  5
2D4D
330
18
100
AcDbEntity
  8
0
  6
CONTINUOUS
 62
     7
100
AcDbLine
 10
118.2984704234016
 20
-39.18211643107344
 30
0.0
 11
108.2984704234016
 21
-39.18211643107344
 31
0.0
  0
LINE
  5
2D4E
330
18
100
AcDbEntity
  8
0
  6
CONTINUOUS
 62
     7
100
AcDbLine
 10
97.95083511990164
 20
-41.01208259667342
 30
0.0
 11
103.0461057270016
 21
-41.01208259667342
 31
0.0
  0
LWPOLYLINE
  5
2D4F
330
18
100
AcDbEntity
  8
0
  6
CONTINUOUS
 62
     7
100
AcDbPolyline
 90
        3
 70
     0
 43
0.0
 10
100.9984704234016
 20
-40.80790760207344
 10
100.4984704234016
 20
-40.79525646447343
 10
99.99847042340162
 20
-40.80790760207344
  0
LINE
  5
2D50
330
18
100
AcDbEntity
  8
0
  6
CONTINUOUS
 62
     7
100
AcDbLine
 10
98.99847042340162
 20
-40.79525646447343
 30
0.0
 11
97.95083511990164
 21
-41.01208259667342
 31
0.0
  0
LWPOLYLINE
  5
2D51
330
18
100
AcDbEntity
  8
0
  6
CONTINUOUS
 62
     7
100
AcDbPolyline
 90
        4
 70
     0
 43
0.0
 10
99.99847042340162
 20
-40.70714775947343
 10
99.69047300220166
 20
-40.7273617798734
 10
99.35700189250162
 20
-40.76006777207342
 10
98.99847042340162
 20
-40.80790760207344
  0
LINE
  5
2D52
330
18
100
AcDbEntity
  8
0
  6
CONTINUOUS
 62
     7
100
AcDbLine
 10
99.99847042340162
 20
-40.80790760207344
 30
0.0
 11
99.99847042340162
 21
-40.70714775947343
 31
0.0
  0
LINE
  5
2D53
330
18
100
AcDbEntity
  8
0
  6
CONTINUOUS
 62
     7
100
AcDbLine
 10
98.99847042340162
 20
-40.80790760207344
 30
0.0
 11
98.99847042340162
 21
-40.79525646447343
 31
0.0
  0
LINE
  5
2D54
330
18
100
AcDbEntity
  8
0
  6
CONTINUOUS
 62
     7
100
AcDbLine
 10
108.2984704234016
 20
-39.18211643107344
 30
0.0
 11
108.2984704234016
 21
-32.18211643107343
 31
0.0
  0
LWPOLYLINE
  5
2D55
330
18
100
AcDbEntity
  8
0
  6
CONTINUOUS
 62
     7
100
AcDbPolyline
 90
        4
 70
     0
 43
0.0
 10
101.9984704234016
 20
-40.80790760207344
 10
101.6399389544015
 20
-40.76006777207342
 10
101.3064678447016
 20
-40.7273617798734
 10
100.9984704234016
 20
-40.70714775947343
  0
LINE
  5
2D56
330
18
100
AcDbEntity
  8
0
  6
CONTINUOUS
 62
     7
100
AcDbLine
 10
101.9984704234016
 20
-40.79525646447343
 30
0.0
 11
103.0461057270016
 21
-41.01208259667342
 31
0.0
  0
LINE
  5
2D57
330
18
100
AcDbEntity
  8
0
  6
CONTINUOUS
 62
     7
100
AcDbLine
 10
101.9984704234016
 20
-40.79525646447343
 30
0.0
 11
101.9984704234016
 21
-40.80790760207344
 31
0.0
  0
LINE
  5
2D58
330
18
100
AcDbEntity
  8
0
  6
CONTINUOUS
 62
     7
100
AcDbLine
 10
100.9984704234016
 20
-40.70714775947343
 30
0.0
 11
100.9984704234016
 21
-40.80790760207344
 31
0.0
  0
LINE
  5
2D59
330
18
100
AcDbEntity
  8
0
  6
CONTINUOUS
 62
     7
100
AcDbLine
 10
109.2984704234016
 20
-39.18211643107344
 30
0.0
 11
109.2984704234016
 21
-33.18211643107344
 31
0.0
  0
LWPOLYLINE
  5
2D5A
330
18
100
AcDbEntity
  8
0
  6
CONTINUOUS
 62
     7
100
AcDbPolyline
 90
        4
 70
     0
 43
0.0
 10
112.7984704234016
 20
-37.70714775947343
 10
112.4904730022016
 20
-37.7273617798734
 10
112.1570018925015
 20
-37.76006777207342
 10
111.7984704234016
 20
-37.80790760207344
  0
LINE
  5
2D5B
330
18
100
AcDbEntity
  8
0
  6
CONTINUOUS
 62
     7
100
AcDbLine
 10
110.7508351199016
 20
-38.01208259667342
 30
0.0
 11
115.8461057270016
 21
-38.01208259667342
 31
0.0
  0
LINE
  5
2D5C
330
18
100
AcDbEntity
  8
0
  6
CONTINUOUS
 62
     7
100
AcDbLine
 10
111.7984704234016
 20
-37.79525646447342
 30
0.0
 11
110.7508351199016
 21
-38.01208259667342
 31
0.0
  0
LINE
  5
2D5D
330
18
100
AcDbEntity
  8
0
  6
CONTINUOUS
 62
     7
100
AcDbLine
 10
111.7984704234016
 20
-37.80790760207344
 30
0.0
 11
111.7984704234016
 21
-37.79525646447342
 31
0.0
  0
LINE
  5
2D5E
330
18
100
AcDbEntity
  8
0
  6
CONTINUOUS
 62
     7
100
AcDbLine
 10
110.7508351199016
 20
-38.01208259667342
 30
0.0
 11
110.6484704234016
 21
-39.18211643107344
 31
0.0
  0
LINE
  5
2D5F
330
18
100
AcDbEntity
  8
0
  6
CONTINUOUS
 62
     7
100
AcDbLine
 10
114.7984704234016
 20
-37.79525646447342
 30
0.0
 11
115.8461057270016
 21
-38.01208259667342
 31
0.0
  0
LWPOLYLINE
  5
2D60
330
18
100
AcDbEntity
  8
0
  6
CONTINUOUS
 62
     7
100
AcDbPolyline
 90
        4
 70
     0
 43
0.0
 10
114.7984704234016
 20
-37.80790760207344
 10
114.4399389544016
 20
-37.76006777207342
 10
114.1064678447016
 20
-37.7273617798734
 10
113.7984704234016
 20
-37.70714775947343
  0
LWPOLYLINE
  5
2D61
330
18
100
AcDbEntity
  8
0
  6
CONTINUOUS
 62
     7
100
AcDbPolyline
 90
        3
 70
     0
 43
0.0
 10
113.7984704234016
 20
-37.80790760207344
 10
113.2984704234016
 20
-37.79525646447342
 10
112.7984704234016
 20
-37.80790760207344
  0
LINE
  5
2D62
330
18
100
AcDbEntity
  8
0
  6
CONTINUOUS
 62
     7
100
AcDbLine
 10
114.7984704234016
 20
-37.79525646447342
 30
0.0
 11
114.7984704234016
 21
-37.80790760207344
 31
0.0
  0
LINE
  5
2D63
330
18
100
AcDbEntity
  8
0
  6
CONTINUOUS
 62
     7
100
AcDbLine
 10
115.8461057270016
 20
-38.01208259667342
 30
0.0
 11
115.9484704234015
 21
-39.18211643107344
 31
0.0
  0
LINE
  5
2D64
330
18
100
AcDbEntity
  8
0
  6
CONTINUOUS
 62
     7
100
AcDbLine
 10
113.7984704234016
 20
-37.70714775947343
 30
0.0
 11
113.7984704234016
 21
-37.80790760207344
 31
0.0
  0
LINE
  5
2D65
330
18
100
AcDbEntity
  8
0
  6
CONTINUOUS
 62
     7
100
AcDbLine
 10
112.7984704234016
 20
-37.80790760207344
 30
0.0
 11
112.7984704234016
 21
-37.70714775947343
 31
0.0
  0
LINE
  5
2D66
330
18
100
AcDbEntity
  8
0
  6
CONTINUOUS
 62
     7
100
AcDbLine
 10
118.2984704234016
 20
-32.18211643107343
 30
0.0
 11
118.2984704234016
 21
-39.18211643107344
 31
0.0
  0
LINE
  5
2D67
330
18
100
AcDbEntity
  8
0
  6
CONTINUOUS
 62
     7
100
AcDbLine
 10
117.2984704234016
 20
-33.18211643107344
 30
0.0
 11
117.2984704234016
 21
-39.18211643107344
 31
0.0
  0
ARC
  5
2D68
330
18
100
AcDbEntity
  8
0
  6
CONTINUOUS
 62
     7
100
AcDbCircle
 10
118.2984704234016
 20
-33.18211643107344
 30
0.0
 40
1.0
100
AcDbArc
 50
90.0
 51
180.0
  0
ARC
  5
2D69
330
18
100
AcDbEntity
  8
0
  6
CONTINUOUS
 62
     7
100
AcDbCircle
 10
129.7984704234016
 20
-33.18211643107344
 30
0.0
 40
1.0
100
AcDbArc
 50
0.0
 51
90.0
  0
LINE
  5
3175
330
18
100
AcDbEntity
  8
DEFAULT_1
  6
CENTER
 48
0.1
100
AcDbLine
 10
-22.51945018699836
 20
24.59686366202658
 30
0.0
 11
-22.51945018699836
 21
36.59686366202658
 31
0.0
  0
ENDSEC
  0
SECTION
  2
OBJECTS
  0
DICTIONARY
  5
C
330
0
100
AcDbDictionary
  3
ACAD_GROUP
350
D
  3
ACAD_LAYOUT
350
68F
  3
ACAD_MLINESTYLE
350
1B
  3
ACAD_PLOTSETTINGS
350
690
  3
ACAD_PLOTSTYLENAME
350
68D
  3
ACDBHEADERROUNDTRIPXREC
350
31D9
  3
ACDBVARIABLEDICTIONARY
350
1F70
  3
DWGPROPS
350
1F7A
  0
DICTIONARY
  5
1F6C
330
18
100
AcDbDictionary
280
     1
  3
ACAD_LAYOUTSELFREF
360
31FB
  0
DICTIONARY
  5
1F6A
330
15
100
AcDbDictionary
280
     1
  3
ACAD_LAYOUTSELFREF
360
31FA
  0
DICTIONARY
  5
D
102
{ACAD_REACTORS
330
C
102
}
330
C
100
AcDbDictionary
  0
DICTIONARY
  5
68F
102
{ACAD_REACTORS
330
C
102
}
330
C
100
AcDbDictionary
  0
DICTIONARY
  5
1B
102
{ACAD_REACTORS
330
C
102
}
330
C
100
AcDbDictionary
  3
STANDARD
350
1C
  0
DICTIONARY
  5
690
102
{ACAD_REACTORS
330
C
102
}
330
C
100
AcDbDictionary
  0
ACDBDICTIONARYWDFLT
  5
68D
102
{ACAD_REACTORS
330
C
102
}
330
C
100
AcDbDictionary
281
     1
  3
Normal
350
68E
100
AcDbDictionaryWithDefault
340
68E
  0
DICTIONARY
  5
31D9
102
{ACAD_REACTORS
330
C
102
}
330
C
100
AcDbDictionary
  3
CEPSNTYPE
350
31E3
  3
DIMSTYLEDATA
350
31E7
  3
FINGERPRINTGUID
350
31E4
  3
HYPERLINKBASE
350
31DC
  3
INSUNITS
350
31E2
  3
LAYOUTDICT
350
31DE
  3
LWETCUNION
350
31E1
  3
PLOTSETDICT
350
31DF
  3
PLOTSTYLNAMDICT
350
31E0
  3
PSVPSCALE
350
31E6
  3
PUCSBASE
350
31EA
  3
PUCSORGBACK
350
31F0
  3
PUCSORGBOTTOM
350
31EC
  3
PUCSORGFRONT
350
31EF
  3
PUCSORGLEFT
350
31ED
  3
PUCSORGRIGHT
350
31EE
  3
PUCSORGTOP
350
31EB
  3
PUCSORTHOREF
350
31E8
  3
PUCSORTHOVIEW
350
31E9
  3
STYLESHEET
350
31DD
  3
TSTACKALIGN
350
31DA
  3
TSTACKSIZE
350
31DB
  3
UCSBASE
350
31F3
  3
UCSORGBACK
350
31F9
  3
UCSORGBOTTOM
350
31F5
  3
UCSORGFRONT
350
31F8
  3
UCSORGLEFT
350
31F6
  3
UCSORGRIGHT
350
31F7
  3
UCSORGTOP
350
31F4
  3
UCSORTHOREF
350
31F1
  3
UCSORTHOVIEW
350
31F2
  3
VERSIONGUID
350
31E5
  0
DICTIONARY
  5
1F70
102
{ACAD_REACTORS
330
C
102
}
330
C
100
AcDbDictionary
  3
DIMASSOC
350
1F71
  0
XRECORD
  5
1F7A
102
{ACAD_REACTORS
330
C
102
}
330
C
100
AcDbXrecord
  1
DWGPROPS COOKIE
  2

  3

  4

  6

  7

  8

  9

300
=
301
=
302
=
303
=
304
=
305
=
306
=
307
=
308
=
309
=
 40
0.0601702430555556
 41
2452304.377240856
 42
2453383.772046979
  1

 90
        0
  0
XRECORD
  5
31FB
102
{ACAD_REACTORS
330
1F6C
102
}
330
1F6C
100
AcDbXrecord
340
18
  0
XRECORD
  5
31FA
102
{ACAD_REACTORS
330
1F6A
102
}
330
1F6A
100
AcDbXrecord
340
15
  0
MLINESTYLE
  5
1C
102
{ACAD_REACTORS
330
1B
102
}
330
1B
100
AcDbMlineStyle
  2
STANDARD
 70
     0
  3

 62
   256
 51
90.0
 52
90.0
 71
     2
 49
0.5
 62
   256
  6
BYLAYER
 49
-0.5
 62
   256
  6
BYLAYER
  0
ACDBPLACEHOLDER
  5
68E
102
{ACAD_REACTORS
330
68D
102
}
330
68D
100
AcDbPlaceHolder
280
     0
  0
XRECORD
  5
31E3
102
{ACAD_REACTORS
330
31D9
102
}
330
31D9
100
AcDbXrecord
 90
        0
  0
XRECORD
  5
31E7
102
{ACAD_REACTORS
330
31D9
102
}
330
31D9
100
AcDbXrecord
1000
DSTYLE
1002
{
1070
   341
340
2EC3
1070
   342
340
2EC3
1002
}
  0
XRECORD
  5
31E4
102
{ACAD_REACTORS
330
31D9
102
}
330
31D9
100
AcDbXrecord
  1
{12BDE8C0-0A3F-4C9A-9C1D-70AE4A775AF0}
  0
XRECORD
  5
31DC
102
{ACAD_REACTORS
330
31D9
102
}
330
31D9
100
AcDbXrecord
  1

  0
XRECORD
  5
31E2
102
{ACAD_REACTORS
330
31D9
102
}
330
31D9
100
AcDbXrecord
 90
        0
  0
XRECORD
  5
31DE
102
{ACAD_REACTORS
330
31D9
102
}
330
31D9
100
AcDbXrecord
340
68F
  0
XRECORD
  5
31E1
102
{ACAD_REACTORS
330
31D9
102
}
330
31D9
100
AcDbXrecord
 90
    10781
  0
XRECORD
  5
31DF
102
{ACAD_REACTORS
330
31D9
102
}
330
31D9
100
AcDbXrecord
340
690
  0
XRECORD
  5
31E0
102
{ACAD_REACTORS
330
31D9
102
}
330
31D9
100
AcDbXrecord
340
68D
  0
XRECORD
  5
31E6
102
{ACAD_REACTORS
330
31D9
102
}
330
31D9
100
AcDbXrecord
 40
0.0
  0
XRECORD
  5
31EA
102
{ACAD_REACTORS
330
31D9
102
}
330
31D9
100
AcDbXrecord
340
0
  0
XRECORD
  5
31F0
102
{ACAD_REACTORS
330
31D9
102
}
330
31D9
100
AcDbXrecord
 10
0.0
 20
0.0
 30
0.0
  0
XRECORD
  5
31EC
102
{ACAD_REACTORS
330
31D9
102
}
330
31D9
100
AcDbXrecord
 10
0.0
 20
0.0
 30
0.0
  0
XRECORD
  5
31EF
102
{ACAD_REACTORS
330
31D9
102
}
330
31D9
100
AcDbXrecord
 10
0.0
 20
0.0
 30
0.0
  0
XRECORD
  5
31ED
102
{ACAD_REACTORS
330
31D9
102
}
330
31D9
100
AcDbXrecord
 10
0.0
 20
0.0
 30
0.0
  0
XRECORD
  5
31EE
102
{ACAD_REACTORS
330
31D9
102
}
330
31D9
100
AcDbXrecord
 10
0.0
 20
0.0
 30
0.0
  0
XRECORD
  5
31EB
102
{ACAD_REACTORS
330
31D9
102
}
330
31D9
100
AcDbXrecord
 10
0.0
 20
0.0
 30
0.0
  0
XRECORD
  5
31E8
102
{ACAD_REACTORS
330
31D9
102
}
330
31D9
100
AcDbXrecord
340
0
  0
XRECORD
  5
31E9
102
{ACAD_REACTORS
330
31D9
102
}
330
31D9
100
AcDbXrecord
 70
     0
  0
XRECORD
  5
31DD
102
{ACAD_REACTORS
330
31D9
102
}
330
31D9
100
AcDbXrecord
  1
A3.ctb
  0
XRECORD
  5
31DA
102
{ACAD_REACTORS
330
31D9
102
}
330
31D9
100
AcDbXrecord
 90
        1
  0
XRECORD
  5
31DB
102
{ACAD_REACTORS
330
31D9
102
}
330
31D9
100
AcDbXrecord
 90
       70
  0
XRECORD
  5
31F3
102
{ACAD_REACTORS
330
31D9
102
}
330
31D9
100
AcDbXrecord
340
0
  0
XRECORD
  5
31F9
102
{ACAD_REACTORS
330
31D9
102
}
330
31D9
100
AcDbXrecord
 10
0.0
 20
0.0
 30
0.0
  0
XRECORD
  5
31F5
102
{ACAD_REACTORS
330
31D9
102
}
330
31D9
100
AcDbXrecord
 10
0.0
 20
0.0
 30
0.0
  0
XRECORD
  5
31F8
102
{ACAD_REACTORS
330
31D9
102
}
330
31D9
100
AcDbXrecord
 10
0.0
 20
0.0
 30
0.0
  0
XRECORD
  5
31F6
102
{ACAD_REACTORS
330
31D9
102
}
330
31D9
100
AcDbXrecord
 10
0.0
 20
0.0
 30
0.0
  0
XRECORD
  5
31F7
102
{ACAD_REACTORS
330
31D9
102
}
330
31D9
100
AcDbXrecord
 10
0.0
 20
0.0
 30
0.0
  0
XRECORD
  5
31F4
102
{ACAD_REACTORS
330
31D9
102
}
330
31D9
100
AcDbXrecord
 10
0.0
 20
0.0
 30
0.0
  0
XRECORD
  5
31F1
102
{ACAD_REACTORS
330
31D9
102
}
330
31D9
100
AcDbXrecord
340
0
  0
XRECORD
  5
31F2
102
{ACAD_REACTORS
330
31D9
102
}
330
31D9
100
AcDbXrecord
 70
     0
  0
XRECORD
  5
31E5
102
{ACAD_REACTORS
330
31D9
102
}
330
31D9
100
AcDbXrecord
  1
{F44D163C-F3F4-45F6-9FF2-B882D5973F09}
  0
DICTIONARYVAR
  5
1F71
102
{ACAD_REACTORS
330
1F70
102
}
330
1F70
100
DictionaryVariables
280
     0
  1
0
  0
ENDSEC
  0
EOF
