  0
SECTION
  2
HEADER
  9
$ACADVER
  1
AC1015
  9
$ACADMAINTVER
 70
    13
  9
$DWGCODEPAGE
  3
ANSI_932
  9
$INSBASE
 10
0.0
 20
0.0
 30
0.0
  9
$EXTMIN
 10
-0.0311267422874835
 20
-0.0065172528172752
 30
-0.0015258207003583
  9
$EXTMAX
 10
420.0091564748543
 20
297.0415665783363
 30
0.0000000349246037
  9
$LIMMIN
 10
-204.0
 20
-142.5
  9
$LIMMAX
 10
204.0
 20
142.5
  9
$ORTHOMODE
 70
     0
  9
$REGENMODE
 70
     1
  9
$FILLMODE
 70
     1
  9
$QTEXTMODE
 70
     0
  9
$MIRRTEXT
 70
     1
  9
$LTSCALE
 40
1.0
  9
$ATTMODE
 70
     1
  9
$TEXTSIZE
 40
2.5
  9
$TRACEWID
 40
0.05
  9
$TEXTSTYLE
  7
STANDARD1
  9
$CLAYER
  8
寸法
  9
$CELTYPE
  6
ByLayer
  9
$CECOLOR
 62
   256
  9
$CELTSCALE
 40
1.0
  9
$DISPSILH
 70
     0
  9
$DIMSCALE
 40
1.0
  9
$DIMASZ
 40
2.0
  9
$DIMEXO
 40
0.0
  9
$DIMDLI
 40
0.38
  9
$DIMRND
 40
0.0
  9
$DIMDLE
 40
0.0
  9
$DIMEXE
 40
1.0
  9
$DIMTP
 40
0.0
  9
$DIMTM
 40
0.0
  9
$DIMTXT
 40
3.5
  9
$DIMCEN
 40
0.09
  9
$DIMTSZ
 40
0.0
  9
$DIMTOL
 70
     0
  9
$DIMLIM
 70
     0
  9
$DIMTIH
 70
     0
  9
$DIMTOH
 70
     1
  9
$DIMSE1
 70
     0
  9
$DIMSE2
 70
     0
  9
$DIMTAD
 70
     3
  9
$DIMZIN
 70
     9
  9
$DIMBLK
  1

  9
$DIMASO
 70
     1
  9
$DIMSHO
 70
     1
  9
$DIMPOST
  1

  9
$DIMAPOST
  1

  9
$DIMALT
 70
     0
  9
$DIMALTD
 70
     2
  9
$DIMALTF
 40
25.4
  9
$DIMLFAC
 40
1.0
  9
$DIMTOFL
 70
     1
  9
$DIMTVP
 40
0.0
  9
$DIMTIX
 70
     1
  9
$DIMSOXD
 70
     0
  9
$DIMSAH
 70
     1
  9
$DIMBLK1
  1
OPEN30
  9
$DIMBLK2
  1
OPEN30
  9
$DIMSTYLE
  2
STANDARD-2
  9
$DIMCLRD
 70
     0
  9
$DIMCLRE
 70
     0
  9
$DIMCLRT
 70
     0
  9
$DIMTFAC
 40
1.0
  9
$DIMGAP
 40
1.0
  9
$DIMJUST
 70
     0
  9
$DIMSD1
 70
     0
  9
$DIMSD2
 70
     0
  9
$DIMTOLJ
 70
     1
  9
$DIMTZIN
 70
     0
  9
$DIMALTZ
 70
     0
  9
$DIMALTTZ
 70
     0
  9
$DIMUPT
 70
     0
  9
$DIMDEC
 70
     0
  9
$DIMTDEC
 70
     0
  9
$DIMALTU
 70
     2
  9
$DIMALTTD
 70
     2
  9
$DIMTXSTY
  7
STANDARD
  9
$DIMAUNIT
 70
     0
  9
$DIMADEC
 70
     0
  9
$DIMALTRND
 40
0.0
  9
$DIMAZIN
 70
     0
  9
$DIMDSEP
 70
    46
  9
$DIMATFIT
 70
     3
  9
$DIMFRAC
 70
     0
  9
$DIMLDRBLK
  1
OPEN30
  9
$DIMLUNIT
 70
     2
  9
$DIMLWD
 70
    -2
  9
$DIMLWE
 70
    -2
  9
$DIMTMOVE
 70
     0
  9
$LUNITS
 70
     2
  9
$LUPREC
 70
     3
  9
$SKETCHINC
 40
0.1
  9
$FILLETRAD
 40
0.0
  9
$AUNITS
 70
     0
  9
$AUPREC
 70
     0
  9
$MENU
  1
acad
  9
$ELEVATION
 40
0.0
  9
$PELEVATION
 40
0.0
  9
$THICKNESS
 40
0.0
  9
$LIMCHECK
 70
     0
  9
$CHAMFERA
 40
0.0
  9
$CHAMFERB
 40
0.0
  9
$CHAMFERC
 40
0.0
  9
$CHAMFERD
 40
0.0
  9
$SKPOLY
 70
     0
  9
$TDCREATE
 40
2452450.386799386
  9
$TDUCREATE
 40
2452450.011799386
  9
$TDUPDATE
 40
2455503.564072963
  9
$TDUUPDATE
 40
2455503.189072962
  9
$TDINDWG
 40
2.0241958333
  9
$TDUSRTIMER
 40
2.0241934954
  9
$USRTIMER
 70
     1
  9
$ANGBASE
 50
0.0
  9
$ANGDIR
 70
     0
  9
$PDMODE
 70
     0
  9
$PDSIZE
 40
0.0
  9
$PLINEWID
 40
0.0
  9
$SPLFRAME
 70
     0
  9
$SPLINETYPE
 70
     6
  9
$SPLINESEGS
 70
     8
  9
$HANDSEED
  5
23849
  9
$SURFTAB1
 70
     6
  9
$SURFTAB2
 70
     6
  9
$SURFTYPE
 70
     6
  9
$SURFU
 70
     6
  9
$SURFV
 70
     6
  9
$UCSBASE
  2

  9
$UCSNAME
  2

  9
$UCSORG
 10
0.0
 20
0.0
 30
0.0
  9
$UCSXDIR
 10
1.0
 20
0.0
 30
0.0
  9
$UCSYDIR
 10
0.0
 20
1.0
 30
0.0
  9
$UCSORTHOREF
  2

  9
$UCSORTHOVIEW
 70
     0
  9
$UCSORGTOP
 10
0.0
 20
0.0
 30
0.0
  9
$UCSORGBOTTOM
 10
0.0
 20
0.0
 30
0.0
  9
$UCSORGLEFT
 10
0.0
 20
0.0
 30
0.0
  9
$UCSORGRIGHT
 10
0.0
 20
0.0
 30
0.0
  9
$UCSORGFRONT
 10
0.0
 20
0.0
 30
0.0
  9
$UCSORGBACK
 10
0.0
 20
0.0
 30
0.0
  9
$PUCSBASE
  2

  9
$PUCSNAME
  2

  9
$PUCSORG
 10
0.0
 20
0.0
 30
0.0
  9
$PUCSXDIR
 10
1.0
 20
0.0
 30
0.0
  9
$PUCSYDIR
 10
0.0
 20
1.0
 30
0.0
  9
$PUCSORTHOREF
  2

  9
$PUCSORTHOVIEW
 70
     0
  9
$PUCSORGTOP
 10
0.0
 20
0.0
 30
0.0
  9
$PUCSORGBOTTOM
 10
0.0
 20
0.0
 30
0.0
  9
$PUCSORGLEFT
 10
0.0
 20
0.0
 30
0.0
  9
$PUCSORGRIGHT
 10
0.0
 20
0.0
 30
0.0
  9
$PUCSORGFRONT
 10
0.0
 20
0.0
 30
0.0
  9
$PUCSORGBACK
 10
0.0
 20
0.0
 30
0.0
  9
$USERI1
 70
     0
  9
$USERI2
 70
     0
  9
$USERI3
 70
     0
  9
$USERI4
 70
     0
  9
$USERI5
 70
     0
  9
$USERR1
 40
0.0
  9
$USERR2
 40
0.0
  9
$USERR3
 40
0.0
  9
$USERR4
 40
0.0
  9
$USERR5
 40
0.0
  9
$WORLDVIEW
 70
     1
  9
$SHADEDGE
 70
     3
  9
$SHADEDIF
 70
    70
  9
$TILEMODE
 70
     1
  9
$MAXACTVP
 70
    48
  9
$PINSBASE
 10
0.0
 20
0.0
 30
0.0
  9
$PLIMCHECK
 70
     0
  9
$PEXTMIN
 10
1.000000000000000E+20
 20
1.000000000000000E+20
 30
1.000000000000000E+20
  9
$PEXTMAX
 10
-1.000000000000000E+20
 20
-1.000000000000000E+20
 30
-1.000000000000000E+20
  9
$PLIMMIN
 10
0.0
 20
0.0
  9
$PLIMMAX
 10
12.0
 20
9.0
  9
$UNITMODE
 70
     0
  9
$VISRETAIN
 70
     1
  9
$PLINEGEN
 70
     0
  9
$PSLTSCALE
 70
     1
  9
$TREEDEPTH
 70
  3020
  9
$CMLSTYLE
  2
Standard
  9
$CMLJUST
 70
     0
  9
$CMLSCALE
 40
1.0
  9
$PROXYGRAPHICS
 70
     1
  9
$MEASUREMENT
 70
     0
  9
$CELWEIGHT
370
    -1
  9
$ENDCAPS
280
     0
  9
$JOINSTYLE
280
     0
  9
$LWDISPLAY
290
     0
  9
$INSUNITS
 70
     0
  9
$HYPERLINKBASE
  1

  9
$STYLESHEET
  1
A3.ctb
  9
$XEDIT
290
     1
  9
$CEPSNTYPE
380
     0
  9
$PSTYLEMODE
290
     1
  9
$FINGERPRINTGUID
  2
{6D99C554-3F79-4438-8D6F-5A3149AEF031}
  9
$VERSIONGUID
  2
{276CC462-958B-4BA3-9EE9-F1AAB2C23053}
  9
$EXTNAMES
290
     1
  9
$PSVPSCALE
 40
0.0
  9
$OLESTARTUP
290
     0
  0
ENDSEC
  0
SECTION
  2
CLASSES
  0
CLASS
  1
ACDBDICTIONARYWDFLT
  2
AcDbDictionaryWithDefault
  3
AutoCAD 2000
 90
        0
280
     0
281
     0
  0
CLASS
  1
ACDBPLACEHOLDER
  2
AcDbPlaceHolder
  3
AutoCAD 2000
 90
        0
280
     0
281
     0
  0
CLASS
  1
LAYOUT
  2
AcDbLayout
  3
AutoCAD 2000
 90
        0
280
     0
281
     0
  0
CLASS
  1
DICTIONARYVAR
  2
AcDbDictionaryVar
  3
AutoCAD 2000
 90
        0
280
     0
281
     0
  0
ENDSEC
  0
SECTION
  2
TABLES
  0
TABLE
  2
VPORT
  5
22F7D
330
0
100
AcDbSymbolTable
 70
     3
  0
VPORT
  5
23848
330
22F7D
100
AcDbSymbolTableRecord
100
AcDbViewportTableRecord
  2
*Active
 70
     0
 10
0.0
 20
0.0
 11
1.0
 21
1.0
 12
256.7194158908419
 22
136.1370741363512
 13
0.0
 23
0.0
 14
1.0
 24
1.0
 15
0.0
 25
0.0
 16
0.0
 26
0.0
 36
1.0
 17
0.0
 27
0.0
 37
0.0
 40
496.3357793373426
 41
1.264669163545568
 42
50.0
 43
0.0
 44
0.0
 50
0.0
 51
0.0
 71
     0
 72
  1000
 73
     1
 74
     1
 75
     1
 76
     0
 77
     0
 78
     0
281
     0
 65
     1
110
0.0
120
0.0
130
0.0
111
1.0
121
0.0
131
0.0
112
0.0
122
1.0
132
0.0
 79
     0
146
0.0
  0
ENDTAB
  0
TABLE
  2
LTYPE
  5
22F7A
330
0
100
AcDbSymbolTable
 70
     2
  0
LTYPE
  5
22F88
330
22F7A
100
AcDbSymbolTableRecord
100
AcDbLinetypeTableRecord
  2
ByBlock
 70
     0
  3

 72
    65
 73
     0
 40
0.0
  0
LTYPE
  5
22F89
330
22F7A
100
AcDbSymbolTableRecord
100
AcDbLinetypeTableRecord
  2
ByLayer
 70
     0
  3

 72
    65
 73
     0
 40
0.0
  0
LTYPE
  5
22F8A
330
22F7A
100
AcDbSymbolTableRecord
100
AcDbLinetypeTableRecord
  2
CONTINUOUS
 70
     0
  3
Solid line
 72
    65
 73
     0
 40
0.0
  0
LTYPE
  5
22F9A
330
22F7A
100
AcDbSymbolTableRecord
100
AcDbLinetypeTableRecord
  2
CENTER
 70
     0
  3
Center ____ _ ____ _ ____ _ ____ _ ____ _ ____
 72
    65
 73
     4
 40
50.8
 49
31.75
 74
     0
 49
-6.349999999999997
 74
     0
 49
6.349999999999997
 74
     0
 49
-6.349999999999997
 74
     0
  0
ENDTAB
  0
TABLE
  2
LAYER
  5
22F77
102
{ACAD_XDICTIONARY
360
23697
102
}
330
0
100
AcDbSymbolTable
 70
    10
  0
LAYER
  5
22F85
330
22F77
100
AcDbSymbolTableRecord
100
AcDbLayerTableRecord
  2
0
 70
     0
 62
     1
  6
CONTINUOUS
370
    -3
390
22F84
  0
LAYER
  5
22F97
330
22F77
100
AcDbSymbolTableRecord
100
AcDbLayerTableRecord
  2
寸法
 70
     0
 62
    40
  6
CONTINUOUS
370
    -3
390
22F84
  0
LAYER
  5
22F9B
330
22F77
100
AcDbSymbolTableRecord
100
AcDbLayerTableRecord
  2
DEFPOINTS
 70
     0
 62
     7
  6
CONTINUOUS
290
     0
370
    -3
390
22F84
  0
LAYER
  5
22F9C
330
22F77
100
AcDbSymbolTableRecord
100
AcDbLayerTableRecord
  2
文字
 70
     0
 62
     7
  6
CONTINUOUS
370
    -3
390
22F84
  0
LAYER
  5
22F9D
330
22F77
100
AcDbSymbolTableRecord
100
AcDbLayerTableRecord
  2
実線-細
 70
     0
 62
     4
  6
CONTINUOUS
370
    -3
390
22F84
  0
LAYER
  5
22F9E
330
22F77
100
AcDbSymbolTableRecord
100
AcDbLayerTableRecord
  2
実線
 70
     0
 62
     3
  6
CONTINUOUS
370
    -3
390
22F84
  0
LAYER
  5
22F9F
330
22F77
100
AcDbSymbolTableRecord
100
AcDbLayerTableRecord
  2
一点鎖線
 70
     0
 62
   120
  6
CENTER
370
    -3
390
22F84
  0
LAYER
  5
22FA0
330
22F77
100
AcDbSymbolTableRecord
100
AcDbLayerTableRecord
  2
実線_細
 70
     0
 62
     4
  6
CONTINUOUS
370
    -3
390
22F84
  0
LAYER
  5
22FA1
330
22F77
100
AcDbSymbolTableRecord
100
AcDbLayerTableRecord
  2
5_ALL_CURVES
 70
     0
 62
     7
  6
CONTINUOUS
370
    -3
390
22F84
  0
LAYER
  5
236F9
330
22F77
100
AcDbSymbolTableRecord
100
AcDbLayerTableRecord
  2
非表示
 70
     0
 62
     5
  6
CONTINUOUS
290
     0
370
    -3
390
22F84
  0
ENDTAB
  0
TABLE
  2
STYLE
  5
22F78
330
0
100
AcDbSymbolTable
 70
     2
  0
STYLE
  5
22F86
330
22F78
100
AcDbSymbolTableRecord
100
AcDbTextStyleTableRecord
  2
STANDARD
 70
     0
 40
0.0
 41
1.0
 50
0.0
 71
     0
 42
3.0
  3
txt.shx
  4
extfont.shx
  0
STYLE
  5
22F98
330
22F78
100
AcDbSymbolTableRecord
100
AcDbTextStyleTableRecord
  2
STANDARD1
 70
     0
 40
0.0
 41
0.8
 50
0.0
 71
     0
 42
2.5
  3
MONOTXT.shx
  4
BIGFONT.shx
  0
ENDTAB
  0
TABLE
  2
VIEW
  5
22F7B
330
0
100
AcDbSymbolTable
 70
     0
  0
ENDTAB
  0
TABLE
  2
UCS
  5
22F7C
330
0
100
AcDbSymbolTable
 70
     0
  0
ENDTAB
  0
TABLE
  2
APPID
  5
22F7E
330
0
100
AcDbSymbolTable
 70
     6
  0
APPID
  5
22F87
330
22F7E
100
AcDbSymbolTableRecord
100
AcDbRegAppTableRecord
  2
ACAD
 70
     0
  0
APPID
  5
22FA2
330
22F7E
100
AcDbSymbolTableRecord
100
AcDbRegAppTableRecord
  2
CONTENTBLOCKDESCRIPTION
 70
     0
  0
APPID
  5
22FA3
330
22F7E
100
AcDbSymbolTableRecord
100
AcDbRegAppTableRecord
  2
CONTENTTABDATA
 70
     0
  0
APPID
  5
22FA4
330
22F7E
100
AcDbSymbolTableRecord
100
AcDbRegAppTableRecord
  2
CONTENTCURRENTTAB
 70
     0
  0
APPID
  5
22FA5
330
22F7E
100
AcDbSymbolTableRecord
100
AcDbRegAppTableRecord
  2
CONTENTBLOCKICON
 70
     0
  0
APPID
  5
22FA6
330
22F7E
100
AcDbSymbolTableRecord
100
AcDbRegAppTableRecord
  2
CONTENTLONGBLOCKNAME
 70
     0
  0
ENDTAB
  0
TABLE
  2
DIMSTYLE
  5
22F7F
330
0
100
AcDbSymbolTable
 70
     2
100
AcDbDimStyleTable
 71
     1
340
22FA8
  0
DIMSTYLE
105
22FA7
330
22F7F
100
AcDbSymbolTableRecord
100
AcDbDimStyleTableRecord
  2
STANDARD
 70
     0
271
     3
272
     3
279
     2
284
     9
285
     9
286
     9
340
22F98
  0
DIMSTYLE
105
22FA8
102
{ACAD_REACTORS
330
23778
330
23784
330
237F6
330
23802
102
}
330
22F7F
100
AcDbSymbolTableRecord
100
AcDbDimStyleTableRecord
  2
STANDARD-2
 70
     0
 41
2.0
 42
1.0
 44
1.0
 73
     0
 74
     0
 77
     3
 78
     9
140
2.5
144
2.0
147
1.0
172
     1
173
     1
271
     3
272
     3
279
     2
284
     9
285
     9
286
     9
340
22F98
  0
ENDTAB
  0
TABLE
  2
BLOCK_RECORD
  5
22F76
330
0
100
AcDbSymbolTable
 70
    32
  0
BLOCK_RECORD
  5
22F93
330
22F76
100
AcDbSymbolTableRecord
100
AcDbBlockTableRecord
  2
*Model_Space
340
22F96
  0
BLOCK_RECORD
  5
22F8F
330
22F76
100
AcDbSymbolTableRecord
100
AcDbBlockTableRecord
  2
*Paper_Space
340
22F92
  0
BLOCK_RECORD
  5
22FAD
330
22F76
100
AcDbSymbolTableRecord
100
AcDbBlockTableRecord
  2
$MODEL_SPACE
340
0
  0
BLOCK_RECORD
  5
22FB0
330
22F76
100
AcDbSymbolTableRecord
100
AcDbBlockTableRecord
  2
$PAPER_SPACE
340
0
  0
BLOCK_RECORD
  5
22FB3
330
22F76
100
AcDbSymbolTableRecord
100
AcDbBlockTableRecord
  2
_OPEN30
340
0
102
{BLKREFS
331
22FDF
331
22FE0
331
22FED
331
22FEE
331
22FFB
331
22FFC
331
23007
331
23008
331
23013
331
23014
331
2301E
331
2301F
331
23029
331
2302A
331
23037
331
23038
331
2377E
331
2377F
331
2378A
331
2378B
331
237A5
331
237A6
331
237B2
331
237B3
331
237BA
331
237BB
331
237C5
331
237C6
331
237CF
331
237D0
331
237DC
331
237DD
331
237E6
331
237E7
331
237F3
331
237F4
331
237FC
331
237FD
331
23807
331
23808
331
23814
331
23815
331
2381F
331
23820
102
}
  0
BLOCK_RECORD
  5
22FB9
330
22F76
100
AcDbSymbolTableRecord
100
AcDbBlockTableRecord
  2
KOSA_JIS_B_0405
340
0
102
{BLKREFS
331
23057
102
}
  0
BLOCK_RECORD
  5
22FD8
330
22F76
100
AcDbSymbolTableRecord
100
AcDbBlockTableRecord
  2
*D4
340
0
  0
BLOCK_RECORD
  5
22FE6
330
22F76
100
AcDbSymbolTableRecord
100
AcDbBlockTableRecord
  2
*D5
340
0
  0
BLOCK_RECORD
  5
22FF4
330
22F76
100
AcDbSymbolTableRecord
100
AcDbBlockTableRecord
  2
*D6
340
0
  0
BLOCK_RECORD
  5
23002
330
22F76
100
AcDbSymbolTableRecord
100
AcDbBlockTableRecord
  2
*D7
340
0
  0
BLOCK_RECORD
  5
2300E
330
22F76
100
AcDbSymbolTableRecord
100
AcDbBlockTableRecord
  2
*D8
340
0
  0
BLOCK_RECORD
  5
23019
330
22F76
100
AcDbSymbolTableRecord
100
AcDbBlockTableRecord
  2
*D9
340
0
  0
BLOCK_RECORD
  5
23024
330
22F76
100
AcDbSymbolTableRecord
100
AcDbBlockTableRecord
  2
*D10
340
0
  0
BLOCK_RECORD
  5
23032
330
22F76
100
AcDbSymbolTableRecord
100
AcDbBlockTableRecord
  2
*D11
340
0
  0
BLOCK_RECORD
  5
2303D
330
22F76
100
AcDbSymbolTableRecord
100
AcDbBlockTableRecord
  2
*U12
340
0
102
{BLKREFS
331
23065
102
}
  0
BLOCK_RECORD
  5
23042
330
22F76
100
AcDbSymbolTableRecord
100
AcDbBlockTableRecord
  2
*D13
340
0
  0
BLOCK_RECORD
  5
236F3
330
22F76
100
AcDbSymbolTableRecord
100
AcDbBlockTableRecord
  2
_OPEN
340
0
  0
BLOCK_RECORD
  5
2371A
330
22F76
100
AcDbSymbolTableRecord
100
AcDbBlockTableRecord
  2
*D16
340
0
  0
BLOCK_RECORD
  5
23723
330
22F76
100
AcDbSymbolTableRecord
100
AcDbBlockTableRecord
  2
*D17
340
0
  0
BLOCK_RECORD
  5
23730
330
22F76
100
AcDbSymbolTableRecord
100
AcDbBlockTableRecord
  2
*D18
340
0
  0
BLOCK_RECORD
  5
23739
330
22F76
100
AcDbSymbolTableRecord
100
AcDbBlockTableRecord
  2
*D19
340
0
  0
BLOCK_RECORD
  5
23746
330
22F76
100
AcDbSymbolTableRecord
100
AcDbBlockTableRecord
  2
*D20
340
0
  0
BLOCK_RECORD
  5
23753
330
22F76
100
AcDbSymbolTableRecord
100
AcDbBlockTableRecord
  2
*D21
340
0
  0
BLOCK_RECORD
  5
23760
330
22F76
100
AcDbSymbolTableRecord
100
AcDbBlockTableRecord
  2
*D22
340
0
  0
BLOCK_RECORD
  5
2376F
330
22F76
100
AcDbSymbolTableRecord
100
AcDbBlockTableRecord
  2
*D23
340
0
  0
BLOCK_RECORD
  5
23779
330
22F76
100
AcDbSymbolTableRecord
100
AcDbBlockTableRecord
  2
*D24
340
0
  0
BLOCK_RECORD
  5
23785
330
22F76
100
AcDbSymbolTableRecord
100
AcDbBlockTableRecord
  2
*D25
340
0
  0
BLOCK_RECORD
  5
2379F
330
22F76
100
AcDbSymbolTableRecord
100
AcDbBlockTableRecord
  2
*D26
340
0
  0
BLOCK_RECORD
  5
237B6
330
22F76
100
AcDbSymbolTableRecord
100
AcDbBlockTableRecord
  2
*D27
340
0
  0
BLOCK_RECORD
  5
237C9
330
22F76
100
AcDbSymbolTableRecord
100
AcDbBlockTableRecord
  2
*D28
340
0
  0
BLOCK_RECORD
  5
237E0
330
22F76
100
AcDbSymbolTableRecord
100
AcDbBlockTableRecord
  2
*D29
340
0
  0
BLOCK_RECORD
  5
237F7
330
22F76
100
AcDbSymbolTableRecord
100
AcDbBlockTableRecord
  2
*D30
340
0
  0
BLOCK_RECORD
  5
23803
330
22F76
100
AcDbSymbolTableRecord
100
AcDbBlockTableRecord
  2
*D31
340
0
  0
ENDTAB
  0
ENDSEC
  0
SECTION
  2
BLOCKS
  0
BLOCK
  5
22F94
330
22F93
100
AcDbEntity
  8
0
100
AcDbBlockBegin
  2
*Model_Space
 70
     0
 10
0.0
 20
0.0
 30
0.0
  3
*Model_Space
  1

  0
ENDBLK
  5
22F95
330
22F93
100
AcDbEntity
  8
0
100
AcDbBlockEnd
  0
BLOCK
  5
22F90
330
22F8F
100
AcDbEntity
 67
     1
  8
0
100
AcDbBlockBegin
  2
*Paper_Space
 70
     0
 10
0.0
 20
0.0
 30
0.0
  3
*Paper_Space
  1

  0
ENDBLK
  5
22F91
330
22F8F
100
AcDbEntity
 67
     1
  8
0
100
AcDbBlockEnd
  0
BLOCK
  5
22FAE
330
22FAD
100
AcDbEntity
  8
0
100
AcDbBlockBegin
  2
$MODEL_SPACE
 70
     0
 10
0.0
 20
0.0
 30
0.0
  3
$MODEL_SPACE
  1

  0
ENDBLK
  5
22FAF
330
22FAD
100
AcDbEntity
  8
0
100
AcDbBlockEnd
  0
BLOCK
  5
22FB1
330
22FB0
100
AcDbEntity
  8
0
100
AcDbBlockBegin
  2
$PAPER_SPACE
 70
     0
 10
0.0
 20
0.0
 30
0.0
  3
$PAPER_SPACE
  1

  0
ENDBLK
  5
22FB2
330
22FB0
100
AcDbEntity
  8
0
100
AcDbBlockEnd
  0
BLOCK
  5
22FB4
330
22FB3
100
AcDbEntity
  8
0
100
AcDbBlockBegin
  2
_OPEN30
 70
     0
 10
0.0
 20
0.0
 30
0.0
  3
_OPEN30
  1

  0
LINE
  5
22FB5
330
22FB3
100
AcDbEntity
  8
0
  6
ByBlock
 62
     0
100
AcDbLine
 10
-1.0
 20
0.26794919
 30
0.0
 11
0.0
 21
0.0
 31
0.0
  0
LINE
  5
22FB6
330
22FB3
100
AcDbEntity
  8
0
  6
ByBlock
 62
     0
100
AcDbLine
 10
0.0
 20
0.0
 30
0.0
 11
-1.0
 21
-0.26794919
 31
0.0
  0
LINE
  5
22FB7
330
22FB3
100
AcDbEntity
  8
0
  6
ByBlock
 62
     0
100
AcDbLine
 10
0.0
 20
0.0
 30
0.0
 11
-1.0
 21
0.0
 31
0.0
  0
ENDBLK
  5
22FB8
330
22FB3
100
AcDbEntity
  8
0
100
AcDbBlockEnd
  0
BLOCK
  5
22FBA
330
22FB9
100
AcDbEntity
  8
0
100
AcDbBlockBegin
  2
KOSA_JIS_B_0405
 70
     0
 10
0.0
 20
0.0
 30
0.0
  3
KOSA_JIS_B_0405
  1

  0
TEXT
  5
22FBB
330
22FB9
100
AcDbEntity
  8
文字
100
AcDbText
 10
2.04182042537372
 20
0.5
 30
0.0
 40
2.0
  1
１０００をこえるもの
 41
0.6
 11
2.04182042537372
 21
1.5
 31
0.0
100
AcDbText
 73
     2
  0
TEXT
  5
22FBC
330
22FB9
100
AcDbEntity
  8
文字
100
AcDbText
 10
2.03999999999996
 20
3.5
 30
0.0
 40
2.0
  1
４００をこえ１０００以下
 41
0.6
 72
     2
 11
18.99999999999996
 21
4.5
 31
0.0
100
AcDbText
 73
     2
  0
LINE
  5
22FBD
330
22FB9
100
AcDbEntity
  8
実線
100
AcDbLine
 10
0.0
 20
0.0
 30
0.0
 11
30.0
 21
0.0
 31
0.0
  0
LINE
  5
22FBE
330
22FB9
100
AcDbEntity
  8
実線
100
AcDbLine
 10
0.0
 20
3.0
 30
0.0
 11
30.0
 21
3.0
 31
0.0
  0
LINE
  5
22FBF
330
22FB9
100
AcDbEntity
  8
実線
100
AcDbLine
 10
0.0
 20
6.0
 30
0.0
 11
30.0
 21
6.0
 31
0.0
  0
LINE
  5
22FC0
330
22FB9
100
AcDbEntity
  8
実線
100
AcDbLine
 10
0.0
 20
9.0
 30
0.0
 11
30.0
 21
9.0
 31
0.0
  0
LINE
  5
22FC1
330
22FB9
100
AcDbEntity
  8
実線
100
AcDbLine
 10
0.0
 20
12.0
 30
0.0
 11
30.0
 21
12.0
 31
0.0
  0
LINE
  5
22FC2
330
22FB9
100
AcDbEntity
  8
実線
100
AcDbLine
 10
0.0
 20
15.0
 30
0.0
 11
30.0
 21
15.0
 31
0.0
  0
TEXT
  5
22FC3
330
22FB9
100
AcDbEntity
  8
文字
100
AcDbText
 10
15.0
 20
15.5
 30
0.0
 40
2.0
  1
６以下
 41
0.6
 72
     2
 11
19.0
 21
16.5
 31
0.0
100
AcDbText
 73
     2
  0
TEXT
  5
22FC4
330
22FB9
100
AcDbEntity
  8
文字
100
AcDbText
 10
4.920000000000007
 20
12.5
 30
0.0
 40
2.0
  1
６をこえ　　３０以下
 41
0.6
 72
     2
 11
19.0
 21
13.5
 31
0.0
100
AcDbText
 73
     2
  0
TEXT
  5
22FC5
330
22FB9
100
AcDbEntity
  8
文字
100
AcDbText
 10
3.480000000000005
 20
9.5
 30
0.0
 40
2.0
  1
３０をこえ　１２０以下
 41
0.6
 72
     2
 11
19.0
 21
10.5
 31
0.0
100
AcDbText
 73
     2
  0
TEXT
  5
22FC6
330
22FB9
100
AcDbEntity
  8
文字
100
AcDbText
 10
2.039999999999999
 20
6.5
 30
0.0
 40
2.0
  1
１２０をこえ　４００以下
 41
0.6
 72
     2
 11
19.0
 21
7.5
 31
0.0
100
AcDbText
 73
     2
  0
LINE
  5
22FC7
330
22FB9
100
AcDbEntity
  8
実線
100
AcDbLine
 10
0.0
 20
18.0
 30
0.0
 11
30.0
 21
18.0
 31
0.0
  0
LINE
  5
22FC8
330
22FB9
100
AcDbEntity
  8
実線
100
AcDbLine
 10
0.0
 20
21.0
 30
0.0
 11
30.0
 21
21.0
 31
0.0
  0
TEXT
  5
22FC9
330
22FB9
100
AcDbEntity
  8
文字
100
AcDbText
 10
2.039999999999999
 20
21.49999999999999
 30
0.0
 40
2.0
  1
（JIS B 0405 V級準拠）
 41
0.8
 72
     1
 11
15.0
 21
22.5
 31
0.0
100
AcDbText
 73
     2
  0
LINE
  5
22FCA
330
22FB9
100
AcDbEntity
  8
実線
100
AcDbLine
 10
0.0
 20
27.0
 30
0.0
 11
0.0
 21
0.0
 31
0.0
  0
TEXT
  5
22FCB
330
22FB9
100
AcDbEntity
  8
文字
100
AcDbText
 10
5.966666666666665
 20
18.5
 30
0.0
 40
2.0
  1
呼び寸法
 72
     1
 11
10.5
 21
19.5
 31
0.0
100
AcDbText
 73
     2
  0
LINE
  5
22FCC
330
22FB9
100
AcDbEntity
  8
実線
100
AcDbLine
 10
30.0
 20
0.0
 30
0.0
 11
30.0
 21
27.0
 31
0.0
  0
LINE
  5
22FCD
330
22FB9
100
AcDbEntity
  8
実線
100
AcDbLine
 10
21.0
 20
0.0
 30
0.0
 11
21.0
 21
21.0
 31
0.0
  0
TEXT
  5
22FCE
330
22FB9
100
AcDbEntity
  8
文字
100
AcDbText
 10
22.5
 20
9.5
 30
0.0
 40
2.0
  1
±１．５
 41
0.6
 11
22.5
 21
10.5
 31
0.0
100
AcDbText
 73
     2
  0
TEXT
  5
22FCF
330
22FB9
100
AcDbEntity
  8
文字
100
AcDbText
 10
22.5
 20
6.5
 30
0.0
 40
2.0
  1
±２．５
 41
0.6
 11
22.5
 21
7.5
 31
0.0
100
AcDbText
 73
     2
  0
TEXT
  5
22FD0
330
22FB9
100
AcDbEntity
  8
文字
100
AcDbText
 10
22.5
 20
3.5
 30
0.0
 40
2.0
  1
±４
 41
0.6
 11
22.5
 21
4.5
 31
0.0
100
AcDbText
 73
     2
  0
TEXT
  5
22FD1
330
22FB9
100
AcDbEntity
  8
文字
100
AcDbText
 10
22.5
 20
0.5
 30
0.0
 40
2.0
  1
±６
 41
0.6
 11
22.5
 21
1.5
 31
0.0
100
AcDbText
 73
     2
  0
TEXT
  5
22FD2
330
22FB9
100
AcDbEntity
  8
文字
100
AcDbText
 10
23.36666666666666
 20
18.5
 30
0.0
 40
2.0
  1
公差
 72
     1
 11
25.5
 21
19.5
 31
0.0
100
AcDbText
 73
     2
  0
TEXT
  5
22FD3
330
22FB9
100
AcDbEntity
  8
文字
100
AcDbText
 10
22.5
 20
15.5
 30
0.0
 40
2.0
  1
±０．５
 41
0.6
 11
22.5
 21
16.5
 31
0.0
100
AcDbText
 73
     2
  0
TEXT
  5
22FD4
330
22FB9
100
AcDbEntity
  8
文字
100
AcDbText
 10
22.5
 20
12.5
 30
0.0
 40
2.0
  1
±１
 41
0.6
 11
22.5
 21
13.5
 31
0.0
100
AcDbText
 73
     2
  0
LINE
  5
22FD5
330
22FB9
100
AcDbEntity
  8
実線
100
AcDbLine
 10
30.0
 20
27.0
 30
0.0
 11
0.0
 21
27.0
 31
0.0
  0
TEXT
  5
22FD6
330
22FB9
100
AcDbEntity
  8
文字
100
AcDbText
 10
1.75428571428571
 20
24.5
 30
0.0
 40
2.0
  1
指定以外の寸法に対する寸法差
 41
0.8
 72
     1
 11
15.0
 21
25.5
 31
0.0
100
AcDbText
 73
     2
  0
ENDBLK
  5
22FD7
330
22FB9
100
AcDbEntity
  8
0
100
AcDbBlockEnd
  0
BLOCK
  5
22FD9
330
22FD8
100
AcDbEntity
  8
0
100
AcDbBlockBegin
  2
*D4
 70
     1
 10
0.0
 20
0.0
 30
0.0
  3
*D4
  1

  0
LINE
  5
22FDA
330
22FD8
100
AcDbEntity
  8
寸法
 62
     0
100
AcDbLine
 10
-148.3201506386913
 20
-268.353026318327
 30
0.0
 11
-159.0501088122898
 21
-268.353026318327
 31
0.0
  0
LINE
  5
22FDB
330
22FD8
100
AcDbEntity
  8
寸法
 62
     0
100
AcDbLine
 10
-148.5269383859914
 20
-265.853026318327
 30
0.0
 11
-159.0501088122898
 21
-265.853026318327
 31
0.0
  0
LINE
  5
22FDC
330
22FD8
100
AcDbEntity
  8
寸法
 62
     0
100
AcDbLine
 10
-158.0501088122898
 20
-270.353026318327
 30
0.0
 11
-158.0501088122898
 21
-272.353026318327
 31
0.0
  0
LINE
  5
22FDD
330
22FD8
100
AcDbEntity
  8
寸法
 62
     0
100
AcDbLine
 10
-158.0501088122898
 20
-263.853026318327
 30
0.0
 11
-158.0501088122898
 21
-251.0196929849937
 31
0.0
  0
LINE
  5
22FDE
330
22FD8
100
AcDbEntity
  8
寸法
 62
     0
100
AcDbLine
 10
-158.0501088122898
 20
-268.353026318327
 30
0.0
 11
-158.0501088122898
 21
-265.853026318327
 31
0.0
  0
INSERT
  5
22FDF
330
22FD8
100
AcDbEntity
  8
寸法
 62
     0
100
AcDbBlockReference
  2
_OPEN30
 10
-158.0501088122898
 20
-268.353026318327
 30
0.0
 41
2.0
 42
2.0
 43
2.0
 50
90.0
  0
INSERT
  5
22FE0
330
22FD8
100
AcDbEntity
  8
寸法
 62
     0
100
AcDbBlockReference
  2
_OPEN30
 10
-158.0501088122898
 20
-265.853026318327
 30
0.0
 41
2.0
 42
2.0
 43
2.0
 50
270.0
  0
TEXT
  5
22FE1
330
22FD8
100
AcDbEntity
  8
寸法
 62
     0
100
AcDbText
 10
-159.0501088122896
 20
-260.8530263183271
 30
0.0
 40
2.5
  1
0～30
 50
90.0
100
AcDbText
  0
POINT
  5
22FE2
330
22FD8
100
AcDbEntity
  8
DEFPOINTS
 62
     0
100
AcDbPoint
 10
-147.3201506386913
 20
-268.353026318327
 30
0.0
  0
POINT
  5
22FE3
330
22FD8
100
AcDbEntity
  8
DEFPOINTS
 62
     0
100
AcDbPoint
 10
-147.5269383859914
 20
-265.853026318327
 30
0.0
  0
POINT
  5
22FE4
330
22FD8
100
AcDbEntity
  8
DEFPOINTS
 62
     0
100
AcDbPoint
 10
-158.0501088122898
 20
-265.853026318327
 30
0.0
  0
ENDBLK
  5
22FE5
330
22FD8
100
AcDbEntity
  8
0
100
AcDbBlockEnd
  0
BLOCK
  5
22FE7
330
22FE6
100
AcDbEntity
  8
0
100
AcDbBlockBegin
  2
*D5
 70
     1
 10
0.0
 20
0.0
 30
0.0
  3
*D5
  1

  0
LINE
  5
22FE8
330
22FE6
100
AcDbEntity
  8
寸法
 62
     0
100
AcDbLine
 10
-35.83372613329141
 20
-268.353026318327
 30
0.0
 11
-21.53695602961414
 21
-268.353026318327
 31
0.0
  0
LINE
  5
22FE9
330
22FE6
100
AcDbEntity
  8
寸法
 62
     0
100
AcDbLine
 10
-91.07693838599137
 20
-273.853060036427
 30
0.0
 11
-21.53695602961414
 21
-273.853060036427
 31
0.0
  0
LINE
  5
22FEA
330
22FE6
100
AcDbEntity
  8
寸法
 62
     0
100
AcDbLine
 10
-22.53695602961415
 20
-266.353026318327
 30
0.0
 11
-22.53695602961415
 21
-264.353026318327
 31
0.0
  0
LINE
  5
22FEB
330
22FE6
100
AcDbEntity
  8
寸法
 62
     0
100
AcDbLine
 10
-22.53695602961415
 20
-275.853060036427
 30
0.0
 11
-22.53695602961415
 21
-282.353060036427
 31
0.0
  0
LINE
  5
22FEC
330
22FE6
100
AcDbEntity
  8
寸法
 62
     0
100
AcDbLine
 10
-22.53695602961415
 20
-268.353026318327
 30
0.0
 11
-22.53695602961415
 21
-273.853060036427
 31
0.0
  0
INSERT
  5
22FED
330
22FE6
100
AcDbEntity
  8
寸法
 62
     0
100
AcDbBlockReference
  2
_OPEN30
 10
-22.53695602961415
 20
-268.353026318327
 30
0.0
 41
2.0
 42
2.0
 43
2.0
 50
270.0
  0
INSERT
  5
22FEE
330
22FE6
100
AcDbEntity
  8
寸法
 62
     0
100
AcDbBlockReference
  2
_OPEN30
 10
-22.53695602961415
 20
-273.853060036427
 30
0.0
 41
2.0
 42
2.0
 43
2.0
 50
90.0
  0
TEXT
  5
22FEF
330
22FE6
100
AcDbEntity
  8
寸法
 62
     0
100
AcDbText
 10
-23.53695602961411
 20
-281.353060036427
 30
0.0
 40
2.5
  1
11
 50
90.0
100
AcDbText
  0
POINT
  5
22FF0
330
22FE6
100
AcDbEntity
  8
DEFPOINTS
 62
     0
100
AcDbPoint
 10
-36.8337261332914
 20
-268.353026318327
 30
0.0
  0
POINT
  5
22FF1
330
22FE6
100
AcDbEntity
  8
DEFPOINTS
 62
     0
100
AcDbPoint
 10
-92.07693838599139
 20
-273.853060036427
 30
0.0
  0
POINT
  5
22FF2
330
22FE6
100
AcDbEntity
  8
DEFPOINTS
 62
     0
100
AcDbPoint
 10
-22.53695602961415
 20
-273.853060036427
 30
0.0
  0
ENDBLK
  5
22FF3
330
22FE6
100
AcDbEntity
  8
0
100
AcDbBlockEnd
  0
BLOCK
  5
22FF5
330
22FF4
100
AcDbEntity
  8
0
100
AcDbBlockBegin
  2
*D6
 70
     1
 10
0.0
 20
0.0
 30
0.0
  3
*D6
  1

  0
LINE
  5
22FF6
330
22FF4
100
AcDbEntity
  8
寸法
 62
     0
100
AcDbLine
 10
-35.83372613329141
 20
-268.353026318327
 30
0.0
 11
-28.40121282144325
 21
-268.353026318327
 31
0.0
  0
LINE
  5
22FF7
330
22FF4
100
AcDbEntity
  8
寸法
 62
     0
100
AcDbLine
 10
-35.62693838599139
 20
-265.853026318327
 30
0.0
 11
-28.40121282144325
 21
-265.853026318327
 31
0.0
  0
LINE
  5
22FF8
330
22FF4
100
AcDbEntity
  8
寸法
 62
     0
100
AcDbLine
 10
-29.40121282144325
 20
-270.353026318327
 30
0.0
 11
-29.40121282144325
 21
-272.353026318327
 31
0.0
  0
LINE
  5
22FF9
330
22FF4
100
AcDbEntity
  8
寸法
 62
     0
100
AcDbLine
 10
-29.40121282144325
 20
-263.853026318327
 30
0.0
 11
-29.40121282144325
 21
-251.0196929849937
 31
0.0
  0
LINE
  5
22FFA
330
22FF4
100
AcDbEntity
  8
寸法
 62
     0
100
AcDbLine
 10
-29.40121282144325
 20
-268.353026318327
 30
0.0
 11
-29.40121282144325
 21
-265.853026318327
 31
0.0
  0
INSERT
  5
22FFB
330
22FF4
100
AcDbEntity
  8
寸法
 62
     0
100
AcDbBlockReference
  2
_OPEN30
 10
-29.40121282144325
 20
-268.353026318327
 30
0.0
 41
2.0
 42
2.0
 43
2.0
 50
90.0
  0
INSERT
  5
22FFC
330
22FF4
100
AcDbEntity
  8
寸法
 62
     0
100
AcDbBlockReference
  2
_OPEN30
 10
-29.40121282144325
 20
-265.853026318327
 30
0.0
 41
2.0
 42
2.0
 43
2.0
 50
270.0
  0
TEXT
  5
22FFD
330
22FF4
100
AcDbEntity
  8
寸法
 62
     0
100
AcDbText
 10
-30.40121282144322
 20
-260.853026318327
 30
0.0
 40
2.5
  1
0～30
 50
90.0
100
AcDbText
  0
POINT
  5
22FFE
330
22FF4
100
AcDbEntity
  8
DEFPOINTS
 62
     0
100
AcDbPoint
 10
-36.8337261332914
 20
-268.353026318327
 30
0.0
  0
POINT
  5
22FFF
330
22FF4
100
AcDbEntity
  8
DEFPOINTS
 62
     0
100
AcDbPoint
 10
-36.62693838599138
 20
-265.853026318327
 30
0.0
  0
POINT
  5
23000
330
22FF4
100
AcDbEntity
  8
DEFPOINTS
 62
     0
100
AcDbPoint
 10
-29.40121282144325
 20
-265.853026318327
 30
0.0
  0
ENDBLK
  5
23001
330
22FF4
100
AcDbEntity
  8
0
100
AcDbBlockEnd
  0
BLOCK
  5
23003
330
23002
100
AcDbEntity
  8
0
100
AcDbBlockBegin
  2
*D7
 70
     1
 10
0.0
 20
0.0
 30
0.0
  3
*D7
  1

  0
LINE
  5
23004
330
23002
100
AcDbEntity
  8
寸法
 62
     0
100
AcDbLine
 10
-35.83372613329141
 20
-268.353026318327
 30
0.0
 11
-21.53695602961414
 21
-268.353026318327
 31
0.0
  0
LINE
  5
23005
330
23002
100
AcDbEntity
  8
寸法
 62
     0
100
AcDbLine
 10
-45.62693838599142
 20
-235.7030263183268
 30
0.0
 11
-21.53695602961414
 21
-235.7030263183268
 31
0.0
  0
LINE
  5
23006
330
23002
100
AcDbEntity
  8
寸法
 62
     0
100
AcDbLine
 10
-22.53695602961415
 20
-266.353026318327
 30
0.0
 11
-22.53695602961415
 21
-237.7030263183268
 31
0.0
  0
INSERT
  5
23007
330
23002
100
AcDbEntity
  8
寸法
 62
     0
100
AcDbBlockReference
  2
_OPEN30
 10
-22.53695602961415
 20
-268.353026318327
 30
0.0
 41
2.0
 42
2.0
 43
2.0
 50
270.0
  0
INSERT
  5
23008
330
23002
100
AcDbEntity
  8
寸法
 62
     0
100
AcDbBlockReference
  2
_OPEN30
 10
-22.53695602961415
 20
-235.7030263183268
 30
0.0
 41
2.0
 42
2.0
 43
2.0
 50
90.0
  0
TEXT
  5
23009
330
23002
100
AcDbEntity
  8
寸法
 62
     0
100
AcDbText
 10
-23.53695602961411
 20
-257.4863596516602
 30
0.0
 40
2.5
  1
60～91
 50
90.0
100
AcDbText
  0
POINT
  5
2300A
330
23002
100
AcDbEntity
  8
DEFPOINTS
 62
     0
100
AcDbPoint
 10
-36.8337261332914
 20
-268.353026318327
 30
0.0
  0
POINT
  5
2300B
330
23002
100
AcDbEntity
  8
DEFPOINTS
 62
     0
100
AcDbPoint
 10
-46.62693838599142
 20
-235.7030263183268
 30
0.0
  0
POINT
  5
2300C
330
23002
100
AcDbEntity
  8
DEFPOINTS
 62
     0
100
AcDbPoint
 10
-22.53695602961415
 20
-235.7030263183268
 30
0.0
  0
ENDBLK
  5
2300D
330
23002
100
AcDbEntity
  8
0
100
AcDbBlockEnd
  0
BLOCK
  5
2300F
330
2300E
100
AcDbEntity
  8
0
100
AcDbBlockBegin
  2
*D8
 70
     1
 10
0.0
 20
0.0
 30
0.0
  3
*D8
  1

  0
LINE
  5
23010
330
2300E
100
AcDbEntity
  8
寸法
 62
     0
100
AcDbLine
 10
-135.6220766495806
 20
-397.8022772453254
 30
0.0
 11
-137.0857787760878
 21
-399.1652064749107
 31
0.0
  0
LINE
  5
23011
330
2300E
100
AcDbEntity
  8
寸法
 62
     0
100
AcDbLine
 10
-48.5318001224023
 20
-316.707988084993
 30
0.0
 11
-35.38449528882468
 21
-304.465848292034
 31
0.0
  0
LINE
  5
23012
330
2300E
100
AcDbEntity
  8
寸法
 62
     0
100
AcDbLine
 10
-134.1583745230732
 20
-396.4393480157399
 30
0.0
 11
-49.9955022489095
 21
-318.0709173145783
 31
0.0
  0
INSERT
  5
23013
330
2300E
100
AcDbEntity
  8
寸法
 62
     0
100
AcDbBlockReference
  2
_OPEN30
 10
-134.1583745230732
 20
-396.4393480157399
 30
0.0
 41
2.0
 42
2.0
 43
2.0
 50
42.95819949378001
  0
INSERT
  5
23014
330
2300E
100
AcDbEntity
  8
寸法
 62
     0
100
AcDbBlockReference
  2
_OPEN30
 10
-49.9955022489095
 20
-318.0709173145783
 30
0.0
 41
2.0
 42
2.0
 43
2.0
 50
222.9581994937801
  0
TEXT
  5
23015
330
2300E
100
AcDbEntity
  8
寸法
 62
     0
100
AcDbText
 10
-43.20150777034001
 20
-310.3782772230092
 30
0.0
 40
2.5
  1
\U+2205230
 50
42.95819949378007
100
AcDbText
  0
POINT
  5
23016
330
2300E
100
AcDbEntity
  8
DEFPOINTS
 62
     0
100
AcDbPoint
 10
-49.9955022489095
 20
-318.0709173145783
 30
0.0
  0
POINT
  5
23017
330
2300E
100
AcDbEntity
  8
DEFPOINTS
 62
     0
100
AcDbPoint
 10
-134.1583745230732
 20
-396.4393480157399
 30
0.0
  0
ENDBLK
  5
23018
330
2300E
100
AcDbEntity
  8
0
100
AcDbBlockEnd
  0
BLOCK
  5
2301A
330
23019
100
AcDbEntity
  8
0
100
AcDbBlockBegin
  2
*D9
 70
     1
 10
0.0
 20
0.0
 30
0.0
  3
*D9
  1

  0
LINE
  5
2301B
330
23019
100
AcDbEntity
  8
寸法
 62
     0
100
AcDbLine
 10
-114.4691004372154
 20
-372.3412547206027
 30
0.0
 11
-116.1277791076764
 21
-373.4587452432279
 31
0.0
  0
LINE
  5
2301C
330
23019
100
AcDbEntity
  8
寸法
 62
     0
100
AcDbLine
 10
-69.68477633476763
 20
-342.1690106097162
 30
0.0
 11
-29.05031710012314
 21
-314.7926272900328
 31
0.0
  0
LINE
  5
2301D
330
23019
100
AcDbEntity
  8
寸法
 62
     0
100
AcDbLine
 10
-112.8104217667543
 20
-371.2237641979772
 30
0.0
 11
-71.34345500522865
 21
-343.2865011323416
 31
0.0
  0
INSERT
  5
2301E
330
23019
100
AcDbEntity
  8
寸法
 62
     0
100
AcDbBlockReference
  2
_OPEN30
 10
-112.8104217667543
 20
-371.2237641979772
 30
0.0
 41
2.0
 42
2.0
 43
2.0
 50
33.96906854449757
  0
INSERT
  5
2301F
330
23019
100
AcDbEntity
  8
寸法
 62
     0
100
AcDbBlockReference
  2
_OPEN30
 10
-71.34345500522865
 20
-343.2865011323416
 30
0.0
 41
2.0
 42
2.0
 43
2.0
 50
213.9690685444973
  0
TEXT
  5
23020
330
23019
100
AcDbEntity
  8
寸法
 62
     0
100
AcDbText
 10
-36.65844671089517
 20
-318.7126226759601
 30
0.0
 40
2.5
  1
\U+2205100
 50
33.96906854449757
100
AcDbText
  0
POINT
  5
23021
330
23019
100
AcDbEntity
  8
DEFPOINTS
 62
     0
100
AcDbPoint
 10
-71.34345500522865
 20
-343.2865011323416
 30
0.0
  0
POINT
  5
23022
330
23019
100
AcDbEntity
  8
DEFPOINTS
 62
     0
100
AcDbPoint
 10
-112.8104217667543
 20
-371.2237641979772
 30
0.0
  0
ENDBLK
  5
23023
330
23019
100
AcDbEntity
  8
0
100
AcDbBlockEnd
  0
BLOCK
  5
23025
330
23024
100
AcDbEntity
  8
0
100
AcDbBlockBegin
  2
*D10
 70
     1
 10
0.0
 20
0.0
 30
0.0
  3
*D10
  1

  0
LINE
  5
23026
330
23024
100
AcDbEntity
  8
寸法
 62
     0
100
AcDbLine
 10
66.76382357299207
 20
-371.381149582206
 30
0.0
 11
34.64139366393421
 21
-389.9270431372274
 31
0.0
  0
LINE
  5
23027
330
23024
100
AcDbEntity
  8
寸法
 62
     0
100
AcDbLine
 10
118.2923350981608
 20
-371.381149582206
 30
0.0
 11
150.4147650072185
 21
-389.9270431372274
 31
0.0
  0
ARC
  5
23028
330
23024
100
AcDbEntity
  8
寸法
 62
     0
100
AcDbCircle
 10
92.52807933557646
 20
-356.5061495822059
 30
0.0
 40
65.8417871100376
100
AcDbArc
 50
211.7404747052526
 51
328.2595252947472
  0
INSERT
  5
23029
330
23024
100
AcDbEntity
  8
寸法
 62
     0
100
AcDbBlockReference
  2
_OPEN30
 10
35.50741906771863
 20
-389.4270431372274
 30
0.0
 41
2.0
 42
2.0
 43
2.0
 50
120.8702373526276
  0
INSERT
  5
2302A
330
23024
100
AcDbEntity
  8
寸法
 62
     0
100
AcDbBlockReference
  2
_OPEN30
 10
149.5487396034343
 20
-389.4270431372274
 30
0.0
 41
2.0
 42
2.0
 43
2.0
 50
59.12976264737237
  0
TEXT
  5
2302B
330
23024
100
AcDbEntity
  8
0
 62
     0
100
AcDbText
 10
87.52809999999998
 20
-424.523
 30
0.0
 40
2.5
  1
120°
100
AcDbText
  0
POINT
  5
2302C
330
23024
100
AcDbEntity
  8
DEFPOINTS
 62
     0
100
AcDbPoint
 10
70.00886187138418
 20
-418.3771910688652
 30
0.0
  0
POINT
  5
2302D
330
23024
100
AcDbEntity
  8
DEFPOINTS
 62
     0
100
AcDbPoint
 10
92.52807933557646
 20
-356.5061495822059
 30
0.0
  0
POINT
  5
2302E
330
23024
100
AcDbEntity
  8
DEFPOINTS
 62
     0
100
AcDbPoint
 10
92.52807933557646
 20
-356.5061495822059
 30
0.0
  0
POINT
  5
2302F
330
23024
100
AcDbEntity
  8
DEFPOINTS
 62
     0
100
AcDbPoint
 10
117.4263096943764
 20
-370.8811495822059
 30
0.0
  0
POINT
  5
23030
330
23024
100
AcDbEntity
  8
DEFPOINTS
 62
     0
100
AcDbPoint
 10
67.6298489767765
 20
-370.8811495822059
 30
0.0
  0
ENDBLK
  5
23031
330
23024
100
AcDbEntity
  8
0
100
AcDbBlockEnd
  0
BLOCK
  5
23033
330
23032
100
AcDbEntity
  8
0
100
AcDbBlockBegin
  2
*D11
 70
     1
 10
0.0
 20
0.0
 30
0.0
  3
*D11
  1

  0
LINE
  5
23034
330
23032
100
AcDbEntity
  8
寸法
 62
     0
100
AcDbLine
 10
71.73730815149226
 20
-379.1624143575623
 30
0.0
 11
70.38506287122661
 21
-380.6359925543334
 31
0.0
  0
LINE
  5
23035
330
23032
100
AcDbEntity
  8
寸法
 62
     0
100
AcDbLine
 10
113.3188505196607
 20
-333.8498848068496
 30
0.0
 11
136.9311085520934
 21
-308.1189696238496
 31
0.0
  0
LINE
  5
23036
330
23032
100
AcDbEntity
  8
寸法
 62
     0
100
AcDbLine
 10
73.0895534317579
 20
-377.688836160791
 30
0.0
 11
111.966605239395
 21
-335.3234630036208
 31
0.0
  0
INSERT
  5
23037
330
23032
100
AcDbEntity
  8
寸法
 62
     0
100
AcDbBlockReference
  2
_OPEN30
 10
73.0895534317579
 20
-377.688836160791
 30
0.0
 41
2.0
 42
2.0
 43
2.0
 50
47.45860955238676
  0
INSERT
  5
23038
330
23032
100
AcDbEntity
  8
寸法
 62
     0
100
AcDbBlockReference
  2
_OPEN30
 10
111.966605239395
 20
-335.3234630036208
 30
0.0
 41
2.0
 42
2.0
 43
2.0
 50
227.4586095523865
  0
TEXT
  5
23039
330
23032
100
AcDbEntity
  8
寸法
 62
     0
100
AcDbText
 10
130.447277012579
 20
-313.7055543199942
 30
0.0
 40
2.5
  1
\U+2205115
 50
47.45860955238677
100
AcDbText
  0
POINT
  5
2303A
330
23032
100
AcDbEntity
  8
DEFPOINTS
 62
     0
100
AcDbPoint
 10
111.966605239395
 20
-335.3234630036208
 30
0.0
  0
POINT
  5
2303B
330
23032
100
AcDbEntity
  8
DEFPOINTS
 62
     0
100
AcDbPoint
 10
73.0895534317579
 20
-377.688836160791
 30
0.0
  0
ENDBLK
  5
2303C
330
23032
100
AcDbEntity
  8
0
100
AcDbBlockEnd
  0
BLOCK
  5
2303E
330
2303D
100
AcDbEntity
  8
0
100
AcDbBlockBegin
  2
*U12
 70
     1
 10
0.0
 20
0.0
 30
0.0
  3
*U12
  1

  0
TEXT
  5
2303F
330
2303D
100
AcDbEntity
  8
寸法
100
AcDbText
 10
-64.78481742920685
 20
-287.2934895874539
 30
0.0
 40
2.5
  1
化粧カバー
100
AcDbText
  0
TEXT
  5
23040
330
2303D
100
AcDbEntity
  8
寸法
100
AcDbText
 10
-64.78481742920685
 20
-291.4601562541204
 30
0.0
 40
2.5
  1
（意匠部）
100
AcDbText
  0
ENDBLK
  5
23041
330
2303D
100
AcDbEntity
  8
0
100
AcDbBlockEnd
  0
BLOCK
  5
23043
330
23042
100
AcDbEntity
  8
0
100
AcDbBlockBegin
  2
*D13
 70
     1
 10
0.0
 20
0.0
 30
0.0
  3
*D13
  1

  0
LINE
  5
23044
330
23042
100
AcDbEntity
  8
寸法
 62
     0
100
AcDbLine
 10
67.57572238903996
 20
-370.9123995822059
 30
0.0
 11
35.35153449503749
 21
-389.5170431372274
 31
0.0
  0
LINE
  5
23045
330
23042
100
AcDbEntity
  8
寸法
 62
     0
100
AcDbLine
 10
117.4804362821129
 20
-370.9123995822059
 30
0.0
 11
149.7046241761154
 21
-389.5170431372274
 31
0.0
  0
ARC
  5
23046
330
23042
100
AcDbEntity
  8
寸法
 62
     0
100
AcDbCircle
 10
92.52807933557646
 20
-356.5061495822059
 30
0.0
 40
65.84178711003753
100
AcDbArc
 50
210.1566367496515
 51
269.6585299706633
  0
ARC
  5
23047
330
23042
100
AcDbEntity
  8
寸法
 62
     0
100
AcDbCircle
 10
92.52807933557646
 20
-356.5061495822059
 30
0.0
 40
65.84178711003753
100
AcDbArc
 50
270.3414700293366
 51
329.8433632503483
  0
SOLID
  5
23048
330
23042
100
AcDbEntity
  8
寸法
 62
     0
100
AcDbTrace
 10
35.57167183015426
 20
-389.59784004153
 30
0.0
 11
35.62359229844512
 21
-389.5677690426697
 31
0.0
 12
35.50741906771868
 22
-389.4270431372272
 32
0.0
 13
35.50741906771868
 23
-389.4270431372272
 33
0.0
  0
SOLID
  5
23049
330
23042
100
AcDbEntity
  8
寸法
 62
     0
100
AcDbTrace
 10
149.4325663727078
 20
-389.5677690426697
 30
0.0
 11
149.4844868409986
 21
-389.59784004153
 31
0.0
 12
149.5487396034341
 22
-389.4270431372274
 32
0.0
 13
149.5487396034341
 23
-389.4270431372274
 33
0.0
  0
TEXT
  5
2304A
330
23042
100
AcDbEntity
  8
0
 62
     0
100
AcDbText
 10
92.1681
 20
-422.6669999999999
 30
0.0
 40
0.18
  1
120°
  7
STANDARD1
100
AcDbText
  0
POINT
  5
2304B
330
23042
100
AcDbEntity
  8
DEFPOINTS
 62
     0
100
AcDbPoint
 10
70.00886187138421
 20
-418.3771910688652
 30
0.0
  0
POINT
  5
2304C
330
23042
100
AcDbEntity
  8
DEFPOINTS
 62
     0
100
AcDbPoint
 10
92.52807933557646
 20
-356.5061495822059
 30
0.0
  0
POINT
  5
2304D
330
23042
100
AcDbEntity
  8
DEFPOINTS
 62
     0
100
AcDbPoint
 10
92.52807933557646
 20
-356.5061495822059
 30
0.0
  0
POINT
  5
2304E
330
23042
100
AcDbEntity
  8
DEFPOINTS
 62
     0
100
AcDbPoint
 10
117.4263096943764
 20
-370.8811495822059
 30
0.0
  0
POINT
  5
2304F
330
23042
100
AcDbEntity
  8
DEFPOINTS
 62
     0
100
AcDbPoint
 10
67.6298489767765
 20
-370.8811495822059
 30
0.0
  0
ENDBLK
  5
23050
330
23042
100
AcDbEntity
  8
0
100
AcDbBlockEnd
  0
BLOCK
  5
236F7
330
236F3
100
AcDbEntity
  8
0
100
AcDbBlockBegin
  2
_OPEN
 70
     0
 10
0.0
 20
0.0
 30
0.0
  3
_OPEN
  1

  0
LINE
  5
236F4
330
236F3
100
AcDbEntity
  8
0
  6
ByBlock
 62
     0
100
AcDbLine
 10
0.0
 20
0.0
 30
0.0
 11
-1.0
 21
0.3125
 31
0.0
  0
LINE
  5
236F5
330
236F3
100
AcDbEntity
  8
0
  6
ByBlock
 62
     0
100
AcDbLine
 10
-1.0
 20
-0.3125
 30
0.0
 11
0.0
 21
0.0
 31
0.0
  0
LINE
  5
236F6
330
236F3
100
AcDbEntity
  8
0
  6
ByBlock
 62
     0
100
AcDbLine
 10
-1.0
 20
0.0
 30
0.0
 11
0.0
 21
0.0
 31
0.0
  0
ENDBLK
  5
236F8
330
236F3
100
AcDbEntity
  8
0
  6
ByBlock
 62
     0
100
AcDbBlockEnd
  0
BLOCK
  5
23721
330
2371A
100
AcDbEntity
  8
0
100
AcDbBlockBegin
  2
*D16
 70
     1
 10
0.0
 20
0.0
 30
0.0
  3
*D16
  1

  0
LINE
  5
2371B
330
2371A
100
AcDbEntity
  8
寸法
 62
     0
370
    -2
100
AcDbLine
 10
59.97335866831239
 20
83.07529254338957
 30
0.0
 11
143.8727645597048
 21
161.1983959832259
 31
0.0
  0
MTEXT
  5
2371C
330
2371A
100
AcDbEntity
  8
寸法
 62
     0
100
AcDbMText
 10
154.6818052461872
 20
171.263256331922
 30
0.0
 40
0.18
 41
0.0
 71
     5
 72
     1
  1
\A1;\U+2205115.000
  7
STANDARD1
 73
     1
 44
1.0
  0
SOLID
  5
2371D
330
2371A
100
AcDbEntity
  8
寸法
 62
     0
100
AcDbTrace
 10
59.9529147298686
 20
83.09724807528718
 30
0.0
 11
59.99380260675616
 21
83.05333701149198
 31
0.0
 12
59.84162547692673
 22
82.95262891272688
 32
0.0
 13
59.84162547692673
 23
82.95262891272688
 33
0.0
  0
SOLID
  5
2371E
330
2371A
100
AcDbEntity
  8
寸法
 62
     0
100
AcDbTrace
 10
143.852320621261
 20
161.2203515151235
 30
0.0
 11
143.8932084981486
 21
161.1764404513282
 31
0.0
 12
144.0044977510904
 22
161.3210596138885
 32
0.0
 13
144.0044977510904
 23
161.3210596138885
 33
0.0
  0
POINT
  5
2371F
330
2371A
100
AcDbEntity
  8
DEFPOINTS
 62
     0
100
AcDbPoint
 10
144.0044977510904
 20
161.3210596138885
 30
0.0
  0
POINT
  5
23720
330
2371A
100
AcDbEntity
  8
DEFPOINTS
 62
     0
100
AcDbPoint
 10
59.84162547692673
 20
82.95262891272688
 30
0.0
  0
ENDBLK
  5
23722
330
2371A
100
AcDbEntity
  8
0
100
AcDbBlockEnd
  0
BLOCK
  5
2372E
330
23723
100
AcDbEntity
  8
0
100
AcDbBlockBegin
  2
*D17
 70
     1
 10
0.0
 20
0.0
 30
0.0
  3
*D17
  1

  0
LINE
  5
23724
330
23723
100
AcDbEntity
  8
寸法
 62
     0
370
    -2
100
AcDbLine
 10
46.61734936130869
 20
211.0389506101398
 30
0.0
 11
35.76989118771019
 21
211.0389506101398
 31
0.0
  0
LINE
  5
23725
330
23723
100
AcDbEntity
  8
寸法
 62
     0
370
    -2
100
AcDbLine
 10
46.4105616140086
 20
213.5389506101398
 30
0.0
 11
35.76989118771019
 21
213.5389506101398
 31
0.0
  0
LINE
  5
23726
330
23723
100
AcDbEntity
  8
寸法
 62
     0
370
    -2
100
AcDbLine
 10
35.94989118771019
 20
211.2189506101398
 30
0.0
 11
35.94989118771019
 21
212.1089506101398
 31
0.0
  0
LINE
  5
23727
330
23723
100
AcDbEntity
  8
寸法
 62
     0
370
    -2
100
AcDbLine
 10
35.94989118771019
 20
213.3589506101398
 30
0.0
 11
35.94989118771019
 21
212.4689506101398
 31
0.0
  0
SOLID
  5
23728
330
23723
100
AcDbEntity
  8
寸法
 62
     0
100
AcDbTrace
 10
35.91989118771019
 20
211.2189506101398
 30
0.0
 11
35.97989118771019
 21
211.2189506101398
 31
0.0
 12
35.94989118771019
 22
211.0389506101398
 32
0.0
 13
35.94989118771019
 23
211.0389506101398
 33
0.0
  0
SOLID
  5
23729
330
23723
100
AcDbEntity
  8
寸法
 62
     0
100
AcDbTrace
 10
35.91989118771019
 20
213.3589506101398
 30
0.0
 11
35.97989118771019
 21
213.3589506101398
 31
0.0
 12
35.94989118771019
 22
213.5389506101398
 32
0.0
 13
35.94989118771019
 23
213.5389506101398
 33
0.0
  0
MTEXT
  5
2372A
330
23723
100
AcDbEntity
  8
寸法
 62
     0
100
AcDbMText
 10
35.94989118771016
 20
212.2889506101398
 30
0.0
 40
0.18
 41
0.0
 71
     5
 72
     1
  1
\A1;0～30
  7
STANDARD1
 73
     1
 44
1.0
  0
POINT
  5
2372B
330
23723
100
AcDbEntity
  8
DEFPOINTS
 62
     0
100
AcDbPoint
 10
46.6798493613087
 20
211.0389506101398
 30
0.0
  0
POINT
  5
2372C
330
23723
100
AcDbEntity
  8
DEFPOINTS
 62
     0
100
AcDbPoint
 10
46.4730616140086
 20
213.5389506101398
 30
0.0
  0
POINT
  5
2372D
330
23723
100
AcDbEntity
  8
DEFPOINTS
 62
     0
100
AcDbPoint
 10
35.94989118771019
 20
213.5389506101398
 30
0.0
  0
ENDBLK
  5
2372F
330
23723
100
AcDbEntity
  8
0
100
AcDbBlockEnd
  0
BLOCK
  5
23737
330
23730
100
AcDbEntity
  8
0
100
AcDbBlockBegin
  2
*D18
 70
     1
 10
0.0
 20
0.0
 30
0.0
  3
*D18
  1

  0
LINE
  5
23731
330
23730
100
AcDbEntity
  8
寸法
 62
     0
370
    -2
100
AcDbLine
 10
81.33885931358717
 20
108.2687868775259
 30
0.0
 11
122.5072639144298
 21
136.0049016490889
 31
0.0
  0
MTEXT
  5
23732
330
23730
100
AcDbEntity
  8
寸法
 62
     0
100
AcDbMText
 10
161.0103210575319
 20
161.9453096471986
 30
0.0
 40
0.18
 41
0.0
 71
     5
 72
     1
  1
\A1;\U+220550.000
  7
STANDARD1
 73
     1
 44
1.0
  0
SOLID
  5
23733
330
23730
100
AcDbEntity
  8
寸法
 62
     0
100
AcDbTrace
 10
81.32209695574779
 20
108.2936670575828
 30
0.0
 11
81.35562167142657
 21
108.2439066974689
 31
0.0
 12
81.18957823324569
 22
108.1682127304896
 32
0.0
 13
81.18957823324569
 23
108.1682127304896
 33
0.0
  0
SOLID
  5
23734
330
23730
100
AcDbEntity
  8
寸法
 62
     0
100
AcDbTrace
 10
122.4905015565904
 20
136.0297818291458
 30
0.0
 11
122.5240262722692
 21
135.980021469032
 31
0.0
 12
122.6565449947713
 22
136.1054757961252
 32
0.0
 13
122.6565449947713
 23
136.1054757961252
 33
0.0
  0
POINT
  5
23735
330
23730
100
AcDbEntity
  8
DEFPOINTS
 62
     0
100
AcDbPoint
 10
122.6565449947713
 20
136.1054757961252
 30
0.0
  0
POINT
  5
23736
330
23730
100
AcDbEntity
  8
DEFPOINTS
 62
     0
100
AcDbPoint
 10
81.18957823324569
 20
108.1682127304896
 30
0.0
  0
ENDBLK
  5
23738
330
23730
100
AcDbEntity
  8
0
100
AcDbBlockEnd
  0
BLOCK
  5
23744
330
23739
100
AcDbEntity
  8
0
100
AcDbBlockBegin
  2
*D19
 70
     1
 10
0.0
 20
0.0
 30
0.0
  3
*D19
  1

  0
LINE
  5
2373A
330
23739
100
AcDbEntity
  8
寸法
 62
     0
370
    -2
100
AcDbLine
 10
157.2287738667085
 20
211.0389506101398
 30
0.0
 11
171.6430439703858
 21
211.0389506101398
 31
0.0
  0
LINE
  5
2373B
330
23739
100
AcDbEntity
  8
寸法
 62
     0
370
    -2
100
AcDbLine
 10
101.9855616140086
 20
205.5389168920398
 30
0.0
 11
171.6430439703858
 21
205.5389168920398
 31
0.0
  0
LINE
  5
2373C
330
23739
100
AcDbEntity
  8
寸法
 62
     0
370
    -2
100
AcDbLine
 10
171.4630439703858
 20
210.8589506101398
 30
0.0
 11
171.4630439703858
 21
208.4689337510898
 31
0.0
  0
LINE
  5
2373D
330
23739
100
AcDbEntity
  8
寸法
 62
     0
370
    -2
100
AcDbLine
 10
171.4630439703858
 20
205.7189168920398
 30
0.0
 11
171.4630439703858
 21
208.1089337510898
 31
0.0
  0
SOLID
  5
2373E
330
23739
100
AcDbEntity
  8
寸法
 62
     0
100
AcDbTrace
 10
171.4330439703858
 20
210.8589506101398
 30
0.0
 11
171.4930439703858
 21
210.8589506101398
 31
0.0
 12
171.4630439703858
 22
211.0389506101398
 32
0.0
 13
171.4630439703858
 23
211.0389506101398
 33
0.0
  0
SOLID
  5
2373F
330
23739
100
AcDbEntity
  8
寸法
 62
     0
100
AcDbTrace
 10
171.4330439703858
 20
205.7189168920398
 30
0.0
 11
171.4930439703858
 21
205.7189168920398
 31
0.0
 12
171.4630439703858
 22
205.5389168920398
 32
0.0
 13
171.4630439703858
 23
205.5389168920398
 33
0.0
  0
MTEXT
  5
23740
330
23739
100
AcDbEntity
  8
寸法
 62
     0
100
AcDbMText
 10
171.4630439703858
 20
208.2889337510898
 30
0.0
 40
0.18
 41
0.0
 71
     5
 72
     1
  1
\A1;5.5
  7
STANDARD1
 73
     1
 44
1.0
  0
POINT
  5
23741
330
23739
100
AcDbEntity
  8
DEFPOINTS
 62
     0
100
AcDbPoint
 10
157.1662738667086
 20
211.0389506101398
 30
0.0
  0
POINT
  5
23742
330
23739
100
AcDbEntity
  8
DEFPOINTS
 62
     0
100
AcDbPoint
 10
101.9230616140086
 20
205.5389168920398
 30
0.0
  0
POINT
  5
23743
330
23739
100
AcDbEntity
  8
DEFPOINTS
 62
     0
100
AcDbPoint
 10
171.4630439703858
 20
205.5389168920398
 30
0.0
  0
ENDBLK
  5
23745
330
23739
100
AcDbEntity
  8
0
100
AcDbBlockEnd
  0
BLOCK
  5
23751
330
23746
100
AcDbEntity
  8
0
100
AcDbBlockBegin
  2
*D20
 70
     1
 10
0.0
 20
0.0
 30
0.0
  3
*D20
  1

  0
LINE
  5
23747
330
23746
100
AcDbEntity
  8
寸法
 62
     0
370
    -2
100
AcDbLine
 10
157.2287738667085
 20
211.0389506101398
 30
0.0
 11
164.7787871785567
 21
211.0389506101398
 31
0.0
  0
LINE
  5
23748
330
23746
100
AcDbEntity
  8
寸法
 62
     0
370
    -2
100
AcDbLine
 10
157.4355616140086
 20
213.5389506101398
 30
0.0
 11
164.7787871785567
 21
213.5389506101398
 31
0.0
  0
LINE
  5
23749
330
23746
100
AcDbEntity
  8
寸法
 62
     0
370
    -2
100
AcDbLine
 10
164.5987871785567
 20
211.2189506101398
 30
0.0
 11
164.5987871785567
 21
212.1089506101398
 31
0.0
  0
LINE
  5
2374A
330
23746
100
AcDbEntity
  8
寸法
 62
     0
370
    -2
100
AcDbLine
 10
164.5987871785567
 20
213.3589506101398
 30
0.0
 11
164.5987871785567
 21
212.4689506101398
 31
0.0
  0
SOLID
  5
2374B
330
23746
100
AcDbEntity
  8
寸法
 62
     0
100
AcDbTrace
 10
164.5687871785567
 20
211.2189506101398
 30
0.0
 11
164.6287871785567
 21
211.2189506101398
 31
0.0
 12
164.5987871785567
 22
211.0389506101398
 32
0.0
 13
164.5987871785567
 23
211.0389506101398
 33
0.0
  0
SOLID
  5
2374C
330
23746
100
AcDbEntity
  8
寸法
 62
     0
100
AcDbTrace
 10
164.5687871785567
 20
213.3589506101398
 30
0.0
 11
164.6287871785567
 21
213.3589506101398
 31
0.0
 12
164.5987871785567
 22
213.5389506101398
 32
0.0
 13
164.5987871785567
 23
213.5389506101398
 33
0.0
  0
MTEXT
  5
2374D
330
23746
100
AcDbEntity
  8
寸法
 62
     0
100
AcDbMText
 10
164.5987871785567
 20
212.2889506101398
 30
0.0
 40
0.18
 41
0.0
 71
     5
 72
     1
  1
\A1;0～30
  7
STANDARD1
 73
     1
 44
1.0
  0
POINT
  5
2374E
330
23746
100
AcDbEntity
  8
DEFPOINTS
 62
     0
100
AcDbPoint
 10
157.1662738667086
 20
211.0389506101398
 30
0.0
  0
POINT
  5
2374F
330
23746
100
AcDbEntity
  8
DEFPOINTS
 62
     0
100
AcDbPoint
 10
157.3730616140086
 20
213.5389506101398
 30
0.0
  0
POINT
  5
23750
330
23746
100
AcDbEntity
  8
DEFPOINTS
 62
     0
100
AcDbPoint
 10
164.5987871785567
 20
213.5389506101398
 30
0.0
  0
ENDBLK
  5
23752
330
23746
100
AcDbEntity
  8
0
100
AcDbBlockEnd
  0
BLOCK
  5
2375E
330
23753
100
AcDbEntity
  8
0
100
AcDbBlockBegin
  2
*D21
 70
     1
 10
0.0
 20
0.0
 30
0.0
  3
*D21
  1

  0
LINE
  5
23754
330
23753
100
AcDbEntity
  8
寸法
 62
     0
370
    -2
100
AcDbLine
 10
157.2287738667085
 20
211.0389506101398
 30
0.0
 11
171.6430439703858
 21
211.0389506101398
 31
0.0
  0
LINE
  5
23755
330
23753
100
AcDbEntity
  8
寸法
 62
     0
370
    -2
100
AcDbLine
 10
147.4355616140085
 20
243.68895061014
 30
0.0
 11
171.6430439703858
 21
243.68895061014
 31
0.0
  0
LINE
  5
23756
330
23753
100
AcDbEntity
  8
寸法
 62
     0
370
    -2
100
AcDbLine
 10
171.4630439703858
 20
211.2189506101398
 30
0.0
 11
171.4630439703858
 21
227.1839506101399
 31
0.0
  0
LINE
  5
23757
330
23753
100
AcDbEntity
  8
寸法
 62
     0
370
    -2
100
AcDbLine
 10
171.4630439703858
 20
243.5089506101399
 30
0.0
 11
171.4630439703858
 21
227.5439506101399
 31
0.0
  0
SOLID
  5
23758
330
23753
100
AcDbEntity
  8
寸法
 62
     0
100
AcDbTrace
 10
171.4330439703858
 20
211.2189506101398
 30
0.0
 11
171.4930439703858
 21
211.2189506101398
 31
0.0
 12
171.4630439703858
 22
211.0389506101398
 32
0.0
 13
171.4630439703858
 23
211.0389506101398
 33
0.0
  0
SOLID
  5
23759
330
23753
100
AcDbEntity
  8
寸法
 62
     0
100
AcDbTrace
 10
171.4330439703858
 20
243.5089506101399
 30
0.0
 11
171.4930439703858
 21
243.5089506101399
 31
0.0
 12
171.4630439703858
 22
243.68895061014
 32
0.0
 13
171.4630439703858
 23
243.68895061014
 33
0.0
  0
MTEXT
  5
2375A
330
23753
100
AcDbEntity
  8
寸法
 62
     0
100
AcDbMText
 10
171.4630439703858
 20
227.3639506101399
 30
0.0
 40
0.18
 41
0.0
 71
     5
 72
     1
  1
\A1;60～91
  7
STANDARD1
 73
     1
 44
1.0
  0
POINT
  5
2375B
330
23753
100
AcDbEntity
  8
DEFPOINTS
 62
     0
100
AcDbPoint
 10
157.1662738667086
 20
211.0389506101398
 30
0.0
  0
POINT
  5
2375C
330
23753
100
AcDbEntity
  8
DEFPOINTS
 62
     0
100
AcDbPoint
 10
147.3730616140085
 20
243.68895061014
 30
0.0
  0
POINT
  5
2375D
330
23753
100
AcDbEntity
  8
DEFPOINTS
 62
     0
100
AcDbPoint
 10
171.4630439703858
 20
243.68895061014
 30
0.0
  0
ENDBLK
  5
2375F
330
23753
100
AcDbEntity
  8
0
100
AcDbBlockEnd
  0
BLOCK
  5
2376D
330
23760
100
AcDbEntity
  8
0
100
AcDbBlockBegin
  2
*D22
 70
     1
 10
0.0
 20
0.0
 30
0.0
  3
*D22
  1

  0
LINE
  5
23761
330
23760
100
AcDbEntity
  8
寸法
 62
     0
370
    -2
100
AcDbLine
 10
261.5757223890399
 20
108.4795773462609
 30
0.0
 11
229.3515344950375
 21
89.87493379123955
 31
0.0
  0
LINE
  5
23762
330
23760
100
AcDbEntity
  8
寸法
 62
     0
370
    -2
100
AcDbLine
 10
311.4804362821129
 20
108.4795773462609
 30
0.0
 11
343.7046241761153
 21
89.8749337912395
 31
0.0
  0
ARC
  5
23763
330
23760
100
AcDbEntity
  8
寸法
 62
     0
370
    -2
100
AcDbCircle
 10
286.5280793355764
 20
122.8858273462609
 30
0.0
 40
65.84178711003747
100
AcDbArc
 50
210.1566367496515
 51
269.6585299706633
  0
ARC
  5
23764
330
23760
100
AcDbEntity
  8
寸法
 62
     0
370
    -2
100
AcDbCircle
 10
286.5280793355764
 20
122.8858273462609
 30
0.0
 40
65.84178711003747
100
AcDbArc
 50
270.3414700293366
 51
329.8433632503484
  0
SOLID
  5
23765
330
23760
100
AcDbEntity
  8
寸法
 62
     0
100
AcDbTrace
 10
229.5716718301542
 20
89.79413688693682
 30
0.0
 11
229.6235922984451
 21
89.82420788579714
 31
0.0
 12
229.5074190677187
 22
89.96493379123956
 32
0.0
 13
229.5074190677187
 23
89.96493379123956
 33
0.0
  0
SOLID
  5
23766
330
23760
100
AcDbEntity
  8
寸法
 62
     0
100
AcDbTrace
 10
343.4325663727077
 20
89.82420788579709
 30
0.0
 11
343.4844868409986
 21
89.79413688693677
 31
0.0
 12
343.5487396034341
 22
89.9649337912395
 32
0.0
 13
343.5487396034341
 23
89.9649337912395
 33
0.0
  0
MTEXT
  5
23767
330
23760
100
AcDbEntity
  8
寸法
 62
     0
100
AcDbMText
 10
286.5280793355764
 20
57.04404023622342
 30
0.0
 40
0.18
 41
0.0
 71
     5
 72
     1
  1
\A1;120°
  7
STANDARD1
 73
     1
 44
1.0
  0
POINT
  5
23768
330
23760
100
AcDbEntity
  8
DEFPOINTS
 62
     0
100
AcDbPoint
 10
264.0088618713841
 20
61.01478585960162
 30
0.0
  0
POINT
  5
23769
330
23760
100
AcDbEntity
  8
DEFPOINTS
 62
     0
100
AcDbPoint
 10
286.5280793355764
 20
122.8858273462609
 30
0.0
  0
POINT
  5
2376A
330
23760
100
AcDbEntity
  8
DEFPOINTS
 62
     0
100
AcDbPoint
 10
286.5280793355764
 20
122.8858273462609
 30
0.0
  0
POINT
  5
2376B
330
23760
100
AcDbEntity
  8
DEFPOINTS
 62
     0
100
AcDbPoint
 10
311.4263096943764
 20
108.5108273462608
 30
0.0
  0
POINT
  5
2376C
330
23760
100
AcDbEntity
  8
DEFPOINTS
 62
     0
100
AcDbPoint
 10
261.6298489767765
 20
108.5108273462608
 30
0.0
  0
ENDBLK
  5
2376E
330
23760
100
AcDbEntity
  8
0
100
AcDbBlockEnd
  0
BLOCK
  5
23776
330
2376F
100
AcDbEntity
  8
0
100
AcDbBlockBegin
  2
*D23
 70
     1
 10
0.0
 20
0.0
 30
0.0
  3
*D23
  1

  0
LINE
  5
23770
330
2376F
100
AcDbEntity
  8
寸法
 62
     0
370
    -2
100
AcDbLine
 10
267.2112555069818
 20
101.8357628053851
 30
0.0
 11
305.8449031641711
 21
143.9358918871366
 31
0.0
  0
MTEXT
  5
23771
330
2376F
100
AcDbEntity
  8
寸法
 62
     0
100
AcDbMText
 10
327.7195260114625
 20
167.7732590872856
 30
0.0
 40
0.18
 41
0.0
 71
     5
 72
     1
  1
\A1;\U+220557.500
  7
STANDARD1
 73
     1
 44
1.0
  0
SOLID
  5
23772
330
2376F
100
AcDbEntity
  8
寸法
 62
     0
100
AcDbTrace
 10
267.1891518340302
 20
101.8560464845891
 30
0.0
 11
267.2333591799334
 21
101.8154791261811
 31
0.0
 12
267.0895534317579
 22
101.7031407676757
 32
0.0
 13
267.0895534317579
 23
101.7031407676757
 33
0.0
  0
SOLID
  5
23773
330
2376F
100
AcDbEntity
  8
寸法
 62
     0
100
AcDbTrace
 10
305.8227994912194
 20
143.9561755663406
 30
0.0
 11
305.8670068371226
 21
143.9156082079326
 31
0.0
 12
305.966605239395
 22
144.068513924846
 32
0.0
 13
305.966605239395
 23
144.068513924846
 33
0.0
  0
POINT
  5
23774
330
2376F
100
AcDbEntity
  8
DEFPOINTS
 62
     0
100
AcDbPoint
 10
305.966605239395
 20
144.068513924846
 30
0.0
  0
POINT
  5
23775
330
2376F
100
AcDbEntity
  8
DEFPOINTS
 62
     0
100
AcDbPoint
 10
267.0895534317579
 20
101.7031407676757
 30
0.0
  0
ENDBLK
  5
23777
330
2376F
100
AcDbEntity
  8
0
100
AcDbBlockEnd
  0
BLOCK
  5
23782
330
23779
100
AcDbEntity
  8
0
100
AcDbBlockBegin
  2
*D24
 70
     1
 10
0.0
 20
0.0
 30
0.0
  3
*D24
  1

  0
LINE
  5
2377A
330
23779
100
AcDbEntity
  8
寸法
 62
     0
370
    -2
100
AcDbLine
 10
156.8388372776434
 20
171.7378279557842
 30
0.0
 11
146.0783136678771
 21
162.0187162863125
 31
0.0
  0
LINE
  5
2377B
330
23779
100
AcDbEntity
  8
寸法
 62
     0
370
    -2
100
AcDbLine
 10
57.76780956014007
 20
82.25497224030277
 30
0.0
 11
56.28359940706888
 21
80.9144051134791
 31
0.0
  0
MTEXT
  5
2377C
330
23779
100
AcDbEntity
  8
寸法
 62
     0
100
AcDbMText
 10
150.3574007499133
 20
169.5893446449331
 30
0.0
 40
3.5
 41
0.0
 71
     5
 72
     1
  1
\A1;\U+2205115
 11
0.7421050765356056
 21
0.6702835634118469
 31
0.0
 73
     1
 44
1.0
  0
LINE
  5
2377D
330
23779
100
AcDbEntity
  8
寸法
 62
     0
370
    -2
100
AcDbLine
 10
59.25201971321129
 20
83.59553936712648
 30
0.0
 11
144.5941035148059
 21
160.6781491594888
 31
0.0
  0
INSERT
  5
2377E
330
23779
100
AcDbEntity
  8
寸法
 62
     0
370
    -2
100
AcDbBlockReference
  2
_OPEN30
 10
59.25201971321129
 20
83.59553936712648
 30
0.0
 41
2.0
 42
2.0
 43
2.0
 50
42.08895413457018
  0
INSERT
  5
2377F
330
23779
100
AcDbEntity
  8
寸法
 62
     0
370
    -2
100
AcDbBlockReference
  2
_OPEN30
 10
144.5941035148059
 20
160.6781491594888
 30
0.0
 41
2.0
 42
2.0
 43
2.0
 50
222.0889541345701
  0
POINT
  5
23780
330
23779
100
AcDbEntity
  8
DEFPOINTS
 62
     0
100
AcDbPoint
 10
144.5941035148059
 20
160.6781491594888
 30
0.0
  0
POINT
  5
23781
330
23779
100
AcDbEntity
  8
DEFPOINTS
 62
     0
100
AcDbPoint
 10
59.25201971321129
 20
83.59553936712648
 30
0.0
  0
ENDBLK
  5
23783
330
23779
100
AcDbEntity
  8
0
100
AcDbBlockEnd
  0
BLOCK
  5
2378E
330
23785
100
AcDbEntity
  8
0
100
AcDbBlockBegin
  2
*D25
 70
     1
 10
0.0
 20
0.0
 30
0.0
  3
*D25
  1

  0
LINE
  5
23786
330
23785
100
AcDbEntity
  8
寸法
 62
     0
370
    -2
100
AcDbLine
 10
136.3147146183739
 20
142.0686455774722
 30
0.0
 11
125.2834296924454
 21
135.6754262880232
 31
0.0
  0
LINE
  5
23787
330
23785
100
AcDbEntity
  8
寸法
 62
     0
370
    -2
100
AcDbLine
 10
78.56269353557185
 20
108.598262238592
 30
0.0
 11
76.83229590013208
 21
107.5954043108353
 31
0.0
  0
MTEXT
  5
23788
330
23785
100
AcDbEntity
  8
寸法
 62
     0
100
AcDbMText
 10
130.285341322464
 20
141.7527616453557
 30
0.0
 40
3.5
 41
0.0
 71
     5
 72
     1
  1
\A1;\U+220550
 11
0.8651988177198809
 21
0.5014289638783547
 31
0.0
 73
     1
 44
1.0
  0
LINE
  5
23789
330
23785
100
AcDbEntity
  8
寸法
 62
     0
370
    -2
100
AcDbLine
 10
80.29309117101162
 20
109.6011201663487
 30
0.0
 11
123.5530320570056
 21
134.6725683602665
 31
0.0
  0
INSERT
  5
2378A
330
23785
100
AcDbEntity
  8
寸法
 62
     0
370
    -2
100
AcDbBlockReference
  2
_OPEN30
 10
80.29309117101162
 20
109.6011201663487
 30
0.0
 41
2.0
 42
2.0
 43
2.0
 50
30.09458460631035
  0
INSERT
  5
2378B
330
23785
100
AcDbEntity
  8
寸法
 62
     0
370
    -2
100
AcDbBlockReference
  2
_OPEN30
 10
123.5530320570056
 20
134.6725683602665
 30
0.0
 41
2.0
 42
2.0
 43
2.0
 50
210.0945846063103
  0
POINT
  5
2378C
330
23785
100
AcDbEntity
  8
DEFPOINTS
 62
     0
100
AcDbPoint
 10
123.5530320570056
 20
134.6725683602665
 30
0.0
  0
POINT
  5
2378D
330
23785
100
AcDbEntity
  8
DEFPOINTS
 62
     0
100
AcDbPoint
 10
80.29309117101162
 20
109.6011201663487
 30
0.0
  0
ENDBLK
  5
2378F
330
23785
100
AcDbEntity
  8
0
100
AcDbBlockEnd
  0
BLOCK
  5
237AB
330
2379F
100
AcDbEntity
  8
0
100
AcDbBlockBegin
  2
*D26
 70
     1
 10
0.0
 20
0.0
 30
0.0
  3
*D26
  1

  0
LINE
  5
237A0
330
2379F
100
AcDbEntity
  8
寸法
 62
     0
370
    -2
100
AcDbLine
 10
46.4730616140086
 20
213.5389506101397
 30
0.0
 11
34.94989118771019
 21
213.5389506101397
 31
0.0
  0
LINE
  5
237A1
330
2379F
100
AcDbEntity
  8
寸法
 62
     0
370
    -2
100
AcDbLine
 10
46.1730941141086
 20
211.0389506101397
 30
0.0
 11
34.94989118771019
 21
211.0389506101397
 31
0.0
  0
LINE
  5
237A2
330
2379F
100
AcDbEntity
  8
寸法
 62
     0
370
    -2
100
AcDbLine
 10
35.94989118771019
 20
215.5389506101397
 30
0.0
 11
35.94989118771019
 21
217.5389506101397
 31
0.0
  0
LINE
  5
237A3
330
2379F
100
AcDbEntity
  8
寸法
 62
     0
370
    -2
100
AcDbLine
 10
35.94989118771019
 20
209.0389506101397
 30
0.0
 11
35.94989118771018
 21
207.0389506101397
 31
0.0
  0
LINE
  5
237A4
330
2379F
100
AcDbEntity
  8
寸法
 62
     0
370
    -2
100
AcDbLine
 10
35.94989118771019
 20
213.5389506101397
 30
0.0
 11
35.94989118771019
 21
211.0389506101397
 31
0.0
  0
INSERT
  5
237A5
330
2379F
100
AcDbEntity
  8
寸法
 62
     0
370
    -2
100
AcDbBlockReference
  2
_OPEN30
 10
35.94989118771019
 20
213.5389506101397
 30
0.0
 41
2.0
 42
2.0
 43
2.0
 50
270.0
  0
INSERT
  5
237A6
330
2379F
100
AcDbEntity
  8
寸法
 62
     0
370
    -2
100
AcDbBlockReference
  2
_OPEN30
 10
35.94989118771019
 20
211.0389506101397
 30
0.0
 41
2.0
 42
2.0
 43
2.0
 50
90.0
  0
MTEXT
  5
237A7
330
2379F
100
AcDbEntity
  8
寸法
 62
     0
100
AcDbMText
 10
33.19989118771015
 20
212.2889506101397
 30
0.0
 40
3.5
 41
0.0
 71
     5
 72
     1
  1
\A1;3
 11
0.0000000000000001
 21
1.0
 31
0.0
 73
     1
 44
1.0
  0
POINT
  5
237A8
330
2379F
100
AcDbEntity
  8
DEFPOINTS
 62
     0
100
AcDbPoint
 10
46.4730616140086
 20
213.5389506101397
 30
0.0
  0
POINT
  5
237A9
330
2379F
100
AcDbEntity
  8
DEFPOINTS
 62
     0
100
AcDbPoint
 10
46.1730941141086
 20
211.0389506101397
 30
0.0
  0
POINT
  5
237AA
330
2379F
100
AcDbEntity
  8
DEFPOINTS
 62
     0
100
AcDbPoint
 10
35.94989118771019
 20
211.0389506101397
 30
0.0
  0
ENDBLK
  5
237AC
330
2379F
100
AcDbEntity
  8
0
100
AcDbBlockEnd
  0
BLOCK
  5
237C0
330
237B6
100
AcDbEntity
  8
0
100
AcDbBlockBegin
  2
*D27
 70
     1
 10
0.0
 20
0.0
 30
0.0
  3
*D27
  1

  0
LINE
  5
237B7
330
237B6
100
AcDbEntity
  8
寸法
 62
     0
370
    -2
100
AcDbLine
 10
147.3730616140085
 20
243.68895061014
 30
0.0
 11
172.4630439703858
 21
243.68895061014
 31
0.0
  0
LINE
  5
237B8
330
237B6
100
AcDbEntity
  8
寸法
 62
     0
370
    -2
100
AcDbLine
 10
157.6730291139086
 20
211.0389506101397
 30
0.0
 11
172.4630439703858
 21
211.0389506101397
 31
0.0
  0
LINE
  5
237B9
330
237B6
100
AcDbEntity
  8
寸法
 62
     0
370
    -2
100
AcDbLine
 10
171.4630439703858
 20
241.68895061014
 30
0.0
 11
171.4630439703858
 21
213.0389506101397
 31
0.0
  0
INSERT
  5
237BA
330
237B6
100
AcDbEntity
  8
寸法
 62
     0
370
    -2
100
AcDbBlockReference
  2
_OPEN30
 10
171.4630439703858
 20
243.68895061014
 30
0.0
 41
2.0
 42
2.0
 43
2.0
 50
90.0
  0
INSERT
  5
237BB
330
237B6
100
AcDbEntity
  8
寸法
 62
     0
370
    -2
100
AcDbBlockReference
  2
_OPEN30
 10
171.4630439703858
 20
211.0389506101397
 30
0.0
 41
2.0
 42
2.0
 43
2.0
 50
270.0
  0
MTEXT
  5
237BC
330
237B6
100
AcDbEntity
  8
寸法
 62
     0
100
AcDbMText
 10
168.7130439703858
 20
227.3639506101399
 30
0.0
 40
3.5
 41
0.0
 71
     5
 72
     1
  1
\A1;33
 11
0.0000000000000001
 21
1.0
 31
0.0
 73
     1
 44
1.0
  0
POINT
  5
237BD
330
237B6
100
AcDbEntity
  8
DEFPOINTS
 62
     0
100
AcDbPoint
 10
147.3730616140085
 20
243.68895061014
 30
0.0
  0
POINT
  5
237BE
330
237B6
100
AcDbEntity
  8
DEFPOINTS
 62
     0
100
AcDbPoint
 10
157.6730291139086
 20
211.0389506101397
 30
0.0
  0
POINT
  5
237BF
330
237B6
100
AcDbEntity
  8
DEFPOINTS
 62
     0
100
AcDbPoint
 10
171.4630439703858
 20
211.0389506101397
 30
0.0
  0
ENDBLK
  5
237C1
330
237B6
100
AcDbEntity
  8
0
100
AcDbBlockEnd
  0
BLOCK
  5
237D5
330
237C9
100
AcDbEntity
  8
0
100
AcDbBlockBegin
  2
*D28
 70
     1
 10
0.0
 20
0.0
 30
0.0
  3
*D28
  1

  0
LINE
  5
237CA
330
237C9
100
AcDbEntity
  8
寸法
 62
     0
370
    -2
100
AcDbLine
 10
157.3730616140085
 20
213.5389506101397
 30
0.0
 11
165.5987871785567
 21
213.5389506101397
 31
0.0
  0
LINE
  5
237CB
330
237C9
100
AcDbEntity
  8
寸法
 62
     0
370
    -2
100
AcDbLine
 10
157.6730616140086
 20
211.0389506101398
 30
0.0
 11
165.5987871785567
 21
211.0389506101398
 31
0.0
  0
LINE
  5
237CC
330
237C9
100
AcDbEntity
  8
寸法
 62
     0
370
    -2
100
AcDbLine
 10
164.5987871785567
 20
215.5389506101397
 30
0.0
 11
164.5987871785567
 21
217.5389506101397
 31
0.0
  0
LINE
  5
237CD
330
237C9
100
AcDbEntity
  8
寸法
 62
     0
370
    -2
100
AcDbLine
 10
164.5987871785567
 20
209.0389506101398
 30
0.0
 11
164.5987871785567
 21
207.0389506101398
 31
0.0
  0
LINE
  5
237CE
330
237C9
100
AcDbEntity
  8
寸法
 62
     0
370
    -2
100
AcDbLine
 10
164.5987871785567
 20
213.5389506101397
 30
0.0
 11
164.5987871785567
 21
211.0389506101398
 31
0.0
  0
INSERT
  5
237CF
330
237C9
100
AcDbEntity
  8
寸法
 62
     0
370
    -2
100
AcDbBlockReference
  2
_OPEN30
 10
164.5987871785567
 20
213.5389506101397
 30
0.0
 41
2.0
 42
2.0
 43
2.0
 50
270.0
  0
INSERT
  5
237D0
330
237C9
100
AcDbEntity
  8
寸法
 62
     0
370
    -2
100
AcDbBlockReference
  2
_OPEN30
 10
164.5987871785567
 20
211.0389506101398
 30
0.0
 41
2.0
 42
2.0
 43
2.0
 50
90.0
  0
MTEXT
  5
237D1
330
237C9
100
AcDbEntity
  8
寸法
 62
     0
100
AcDbMText
 10
161.8487871785566
 20
212.2889506101398
 30
0.0
 40
3.5
 41
0.0
 71
     5
 72
     1
  1
\A1;2
 11
0.0000000000000001
 21
1.0
 31
0.0
 73
     1
 44
1.0
  0
POINT
  5
237D2
330
237C9
100
AcDbEntity
  8
DEFPOINTS
 62
     0
100
AcDbPoint
 10
157.3730616140085
 20
213.5389506101397
 30
0.0
  0
POINT
  5
237D3
330
237C9
100
AcDbEntity
  8
DEFPOINTS
 62
     0
100
AcDbPoint
 10
157.6730616140086
 20
211.0389506101398
 30
0.0
  0
POINT
  5
237D4
330
237C9
100
AcDbEntity
  8
DEFPOINTS
 62
     0
100
AcDbPoint
 10
164.5987871785567
 20
211.0389506101398
 30
0.0
  0
ENDBLK
  5
237D6
330
237C9
100
AcDbEntity
  8
0
100
AcDbBlockEnd
  0
BLOCK
  5
237EC
330
237E0
100
AcDbEntity
  8
0
100
AcDbBlockBegin
  2
*D29
 70
     1
 10
0.0
 20
0.0
 30
0.0
  3
*D29
  1

  0
LINE
  5
237E1
330
237E0
100
AcDbEntity
  8
寸法
 62
     0
370
    -2
100
AcDbLine
 10
157.6730291139086
 20
211.0389506101397
 30
0.0
 11
172.4630439703858
 21
211.0389506101397
 31
0.0
  0
LINE
  5
237E2
330
237E0
100
AcDbEntity
  8
寸法
 62
     0
370
    -2
100
AcDbLine
 10
135.8155069666085
 20
205.5389168920397
 30
0.0
 11
172.4630439703858
 21
205.5389168920397
 31
0.0
  0
LINE
  5
237E3
330
237E0
100
AcDbEntity
  8
寸法
 62
     0
370
    -2
100
AcDbLine
 10
171.4630439703858
 20
213.0389506101397
 30
0.0
 11
171.4630439703858
 21
215.0389506101397
 31
0.0
  0
LINE
  5
237E4
330
237E0
100
AcDbEntity
  8
寸法
 62
     0
370
    -2
100
AcDbLine
 10
171.4630439703858
 20
203.5389168920397
 30
0.0
 11
171.4630439703858
 21
201.5389168920397
 31
0.0
  0
LINE
  5
237E5
330
237E0
100
AcDbEntity
  8
寸法
 62
     0
370
    -2
100
AcDbLine
 10
171.4630439703858
 20
211.0389506101397
 30
0.0
 11
171.4630439703858
 21
205.5389168920397
 31
0.0
  0
INSERT
  5
237E6
330
237E0
100
AcDbEntity
  8
寸法
 62
     0
370
    -2
100
AcDbBlockReference
  2
_OPEN30
 10
171.4630439703858
 20
211.0389506101397
 30
0.0
 41
2.0
 42
2.0
 43
2.0
 50
270.0
  0
INSERT
  5
237E7
330
237E0
100
AcDbEntity
  8
寸法
 62
     0
370
    -2
100
AcDbBlockReference
  2
_OPEN30
 10
171.4630439703858
 20
205.5389168920397
 30
0.0
 41
2.0
 42
2.0
 43
2.0
 50
90.0
  0
MTEXT
  5
237E8
330
237E0
100
AcDbEntity
  8
寸法
 62
     0
100
AcDbMText
 10
168.7130439703858
 20
208.2889337510898
 30
0.0
 40
3.5
 41
0.0
 71
     5
 72
     1
  1
\A1;6
 11
0.0000000000000001
 21
1.0
 31
0.0
 73
     1
 44
1.0
  0
POINT
  5
237E9
330
237E0
100
AcDbEntity
  8
DEFPOINTS
 62
     0
100
AcDbPoint
 10
157.6730291139086
 20
211.0389506101397
 30
0.0
  0
POINT
  5
237EA
330
237E0
100
AcDbEntity
  8
DEFPOINTS
 62
     0
100
AcDbPoint
 10
135.8155069666085
 20
205.5389168920397
 30
0.0
  0
POINT
  5
237EB
330
237E0
100
AcDbEntity
  8
DEFPOINTS
 62
     0
100
AcDbPoint
 10
171.4630439703858
 20
205.5389168920397
 30
0.0
  0
ENDBLK
  5
237ED
330
237E0
100
AcDbEntity
  8
0
100
AcDbBlockEnd
  0
BLOCK
  5
23800
330
237F7
100
AcDbEntity
  8
0
100
AcDbBlockBegin
  2
*D30
 70
     1
 10
0.0
 20
0.0
 30
0.0
  3
*D30
  1

  0
LINE
  5
237F8
330
237F7
100
AcDbEntity
  8
寸法
 62
     0
370
    -2
100
AcDbLine
 10
314.8512957386209
 20
156.6665273147945
 30
0.0
 11
306.2847274503655
 21
146.4493023715707
 31
0.0
  0
LINE
  5
237F9
330
237F7
100
AcDbEntity
  8
寸法
 62
     0
370
    -2
100
AcDbLine
 10
266.7714312207873
 20
99.32235232095104
 30
0.0
 11
265.4864459775491
 21
97.78976857946748
 31
0.0
  0
MTEXT
  5
237FA
330
237F7
100
AcDbEntity
  8
寸法
 62
     0
100
AcDbMText
 10
309.1032015715724
 20
154.0910614233771
 30
0.0
 40
3.5
 41
0.0
 71
     5
 72
     1
  1
\A1;\U+220557
 11
0.6424926216191565
 21
0.7662918707417843
 31
0.0
 73
     1
 44
1.0
  0
LINE
  5
237FB
330
237F7
100
AcDbEntity
  8
寸法
 62
     0
370
    -2
100
AcDbLine
 10
268.0564164640257
 20
100.8549360624346
 30
0.0
 11
304.9997422071272
 21
144.9167186300871
 31
0.0
  0
INSERT
  5
237FC
330
237F7
100
AcDbEntity
  8
寸法
 62
     0
370
    -2
100
AcDbBlockReference
  2
_OPEN30
 10
268.0564164640257
 20
100.8549360624346
 30
0.0
 41
2.0
 42
2.0
 43
2.0
 50
50.02205987146047
  0
INSERT
  5
237FD
330
237F7
100
AcDbEntity
  8
寸法
 62
     0
370
    -2
100
AcDbBlockReference
  2
_OPEN30
 10
304.9997422071272
 20
144.9167186300871
 30
0.0
 41
2.0
 42
2.0
 43
2.0
 50
230.0220598714604
  0
POINT
  5
237FE
330
237F7
100
AcDbEntity
  8
DEFPOINTS
 62
     0
100
AcDbPoint
 10
304.9997422071272
 20
144.9167186300871
 30
0.0
  0
POINT
  5
237FF
330
237F7
100
AcDbEntity
  8
DEFPOINTS
 62
     0
100
AcDbPoint
 10
268.0564164640257
 20
100.8549360624346
 30
0.0
  0
ENDBLK
  5
23801
330
237F7
100
AcDbEntity
  8
0
100
AcDbBlockEnd
  0
BLOCK
  5
2380F
330
23803
100
AcDbEntity
  8
0
100
AcDbBlockBegin
  2
*D31
 70
     1
 10
0.0
 20
0.0
 30
0.0
  3
*D31
  1

  0
LINE
  5
2381C
330
23803
100
AcDbEntity
  8
寸法
 62
     0
370
    -2
100
AcDbLine
 10
261.6298489767765
 20
108.5108273462608
 30
0.0
 11
228.6413936639343
 21
89.46493379123957
 31
0.0
  0
LINE
  5
2381D
330
23803
100
AcDbEntity
  8
寸法
 62
     0
370
    -2
100
AcDbLine
 10
311.4263096943764
 20
108.5108273462609
 30
0.0
 11
344.4147650072185
 21
89.46493379123948
 31
0.0
  0
ARC
  5
2381E
330
23803
100
AcDbEntity
  8
寸法
 62
     0
370
    -2
100
AcDbCircle
 10
286.5280793355764
 20
122.8858273462609
 30
0.0
 40
65.84178711003747
100
AcDbArc
 50
211.7404747052526
 51
328.2595252947473
  0
INSERT
  5
2381F
330
23803
100
AcDbEntity
  8
寸法
 62
     0
370
    -2
100
AcDbBlockReference
  2
_OPEN30
 10
229.5074190677186
 20
89.96493379123959
 30
0.0
 41
2.0
 42
2.0
 43
2.0
 50
120.8702373526276
  0
INSERT
  5
23820
330
23803
100
AcDbEntity
  8
寸法
 62
     0
370
    -2
100
AcDbBlockReference
  2
_OPEN30
 10
343.5487396034341
 20
89.9649337912395
 30
0.0
 41
2.0
 42
2.0
 43
2.0
 50
59.12976264737229
  0
MTEXT
  5
23821
330
23803
100
AcDbEntity
  8
寸法
 62
     0
100
AcDbMText
 10
277.5115788952951
 20
60.99137700858658
 30
0.0
 40
3.5
 41
0.0
 71
     5
 72
     1
  1
\A1;120°
 11
0.9895552822777288
 21
-0.144153887620988
 31
0.0
 73
     1
 44
1.0
  0
POINT
  5
23822
330
23803
100
AcDbEntity
  8
DEFPOINTS
 62
     0
100
AcDbPoint
 10
309.0472967997687
 20
61.0147858596016
 30
0.0
  0
POINT
  5
23823
330
23803
100
AcDbEntity
  8
DEFPOINTS
 62
     0
100
AcDbPoint
 10
286.5280793355764
 20
122.8858273462609
 30
0.0
  0
POINT
  5
23824
330
23803
100
AcDbEntity
  8
DEFPOINTS
 62
     0
100
AcDbPoint
 10
286.5280793355764
 20
122.8858273462609
 30
0.0
  0
POINT
  5
23825
330
23803
100
AcDbEntity
  8
DEFPOINTS
 62
     0
100
AcDbPoint
 10
261.6298489767765
 20
108.5108273462608
 30
0.0
  0
POINT
  5
23826
330
23803
100
AcDbEntity
  8
DEFPOINTS
 62
     0
100
AcDbPoint
 10
311.4263096943764
 20
108.5108273462609
 30
0.0
  0
ENDBLK
  5
23810
330
23803
100
AcDbEntity
  8
0
100
AcDbBlockEnd
  0
ENDSEC
  0
SECTION
  2
ENTITIES
  0
LWPOLYLINE
  5
23058
330
22F93
100
AcDbEntity
  8
実線
100
AcDbPolyline
 90
        7
 70
     0
 43
0.0
 10
135.8157618875085
 20
205.5389168920397
 10
136.1878437516085
 20
205.5401214526397
 10
136.6191189024086
 20
205.5470262827397
 10
137.0502502558086
 20
205.5601330933397
 10
137.4811481141086
 20
205.5794454547397
 10
137.9118911044086
 20
205.60202127394
 10
138.3426351534085
 20
205.6245768977397
  0
LINE
  5
23061
330
22F93
100
AcDbEntity
  8
実線
100
AcDbLine
 10
159.4230612135085
 20
210.5389506101397
 30
0.0
 11
44.42306201460868
 21
210.5389506101397
 31
0.0
  0
LINE
  5
23062
330
22F93
100
AcDbEntity
  8
実線
100
AcDbLine
 10
57.5730616140088
 20
226.7889506101397
 30
0.0
 11
146.2730616140085
 21
226.7889506101397
 31
0.0
  0
LINE
  5
23063
330
22F93
100
AcDbEntity
  8
実線
100
AcDbLine
 10
56.42306161400878
 20
227.9389506101399
 30
0.0
 11
147.4230616140085
 21
227.9389506101399
 31
0.0
  0
CIRCLE
  5
23064
330
22F93
100
AcDbEntity
  8
実線
100
AcDbCircle
 10
101.9230616140086
 20
122.1368442633076
 30
0.0
 40
57.5
  0
POLYLINE
  5
23066
330
22F93
100
AcDbEntity
  8
0
100
AcDb3dPolyline
 66
     1
 10
0.0
 20
0.0
 30
0.0
 70
     8
  0
VERTEX
  5
23067
330
23066
100
AcDbEntity
  8
0
100
AcDbVertex
100
AcDb3dPolylineVertex
 10
112.2767
 20
205.5389769284668
 30
0.0
 70
    32
  0
VERTEX
  5
23068
330
23066
100
AcDbEntity
  8
0
100
AcDbVertex
100
AcDb3dPolylineVertex
 10
126.7151999999999
 20
186.1819769284669
 30
0.0
 70
    32
  0
VERTEX
  5
23069
330
23066
100
AcDbEntity
  8
0
100
AcDbVertex
100
AcDb3dPolylineVertex
 10
128.7151999999999
 20
186.1819769284669
 30
0.0
 70
    32
  0
SEQEND
  5
2306A
330
23066
100
AcDbEntity
  8
0
  0
TEXT
  5
2306B
330
22F93
100
AcDbEntity
  8
寸法
100
AcDbText
 10
135.4923578366211
 20
249.7042956126633
 30
0.0
 40
3.0
  1
カメラ固定面
100
AcDbText
  0
POLYLINE
  5
2306C
330
22F93
100
AcDbEntity
  8
0
100
AcDb3dPolyline
 66
     1
 10
0.0
 20
0.0
 30
0.0
 70
     8
  0
VERTEX
  5
2306D
330
2306C
100
AcDbEntity
  8
0
100
AcDbVertex
100
AcDb3dPolylineVertex
 10
101.9230999999999
 20
226.788976928467
 30
0.0
 70
    32
  0
VERTEX
  5
2306E
330
2306C
100
AcDbEntity
  8
0
100
AcDbVertex
100
AcDb3dPolylineVertex
 10
108.9668
 20
222.0839769284669
 30
0.0
 70
    32
  0
VERTEX
  5
2306F
330
2306C
100
AcDbEntity
  8
0
100
AcDbVertex
100
AcDb3dPolylineVertex
 10
130.9924
 20
250.9539769284669
 30
0.0
 70
    32
  0
VERTEX
  5
23070
330
2306C
100
AcDbEntity
  8
0
100
AcDbVertex
100
AcDb3dPolylineVertex
 10
132.9924
 20
250.9539769284669
 30
0.0
 70
    32
  0
SEQEND
  5
23071
330
2306C
100
AcDbEntity
  8
0
  0
LINE
  5
23072
330
22F93
100
AcDbEntity
  8
一点鎖線
100
AcDbLine
 10
169.8202654476931
 20
122.1368442633076
 30
0.0
 11
34.6182048154715
 21
122.1368442633076
 31
0.0
  0
LINE
  5
23076
330
22F93
100
AcDbEntity
  8
実線
100
AcDbLine
 10
56.4730616140088
 20
227.9389506101399
 30
0.0
 11
56.4730616140088
 21
234.8889506101397
 31
0.0
  0
LINE
  5
23077
330
22F93
100
AcDbEntity
  8
実線
100
AcDbLine
 10
57.62306161400869
 20
227.9389506101399
 30
0.0
 11
57.62306161400869
 21
234.8889506101397
 31
0.0
  0
LINE
  5
23078
330
22F93
100
AcDbEntity
  8
実線
100
AcDbLine
 10
55.27306161400869
 20
211.0389506101397
 30
0.0
 11
55.27306161400869
 21
236.0389506101399
 31
0.0
  0
LINE
  5
23079
330
22F93
100
AcDbEntity
  8
実線
100
AcDbLine
 10
56.42306161400878
 20
234.8889506101397
 30
0.0
 11
56.42306161400878
 21
210.5389506101397
 31
0.0
  0
POLYLINE
  5
2307A
330
22F93
100
AcDbEntity
  8
0
100
AcDb3dPolyline
 66
     1
 10
0.0
 20
0.0
 30
0.0
 70
     8
  0
VERTEX
  5
2307B
330
2307A
100
AcDbEntity
  8
0
100
AcDbVertex
100
AcDb3dPolylineVertex
 10
50.87299999999999
 20
214.6889769284669
 30
0.0
 70
    32
  0
VERTEX
  5
2307C
330
2307A
100
AcDbEntity
  8
0
100
AcDbVertex
100
AcDb3dPolylineVertex
 10
39.91900000000001
 20
249.3229769284668
 30
0.0
 70
    32
  0
VERTEX
  5
2307D
330
2307A
100
AcDbEntity
  8
0
100
AcDbVertex
100
AcDb3dPolylineVertex
 10
43.12000000000009
 20
249.3269769284669
 30
0.0
 70
    32
  0
SEQEND
  5
2307E
330
2307A
100
AcDbEntity
  8
0
  0
CIRCLE
  5
2307F
330
22F93
100
AcDbEntity
  8
実線
100
AcDbCircle
 10
101.9230616140086
 20
122.1368442633076
 30
0.0
 40
25.0
  0
CIRCLE
  5
23080
330
22F93
100
AcDbEntity
  8
実線
100
AcDbCircle
 10
101.9230616140086
 20
122.1368442633076
 30
0.0
 40
25.0732410855
  0
CIRCLE
  5
23081
330
22F93
100
AcDbEntity
  8
実線
100
AcDbCircle
 10
101.9230616140086
 20
122.1368442633076
 30
0.0
 40
26.0694357866
  0
LINE
  5
23082
330
22F93
100
AcDbEntity
  8
一点鎖線
100
AcDbLine
 10
101.9230616140085
 20
54.0443856934532
 30
0.0
 11
101.9230616140085
 21
184.4259015167654
 31
0.0
  0
CIRCLE
  5
23083
330
22F93
100
AcDbEntity
  8
実線
100
AcDbCircle
 10
77.0248312552087
 20
107.7618442633076
 30
0.0
 40
1.0
  0
CIRCLE
  5
23084
330
22F93
100
AcDbEntity
  8
実線
100
AcDbCircle
 10
126.8212919728086
 20
107.7618442633076
 30
0.0
 40
1.0
  0
LINE
  5
23085
330
22F93
100
AcDbEntity
  8
実線
100
AcDbLine
 10
135.8155069666085
 20
205.5389168920397
 30
0.0
 11
68.0306162615087
 21
205.5389168920397
 31
0.0
  0
POLYLINE
  5
23086
330
22F93
100
AcDbEntity
  8
0
100
AcDb3dPolyline
 66
     1
 10
0.0
 20
0.0
 30
0.0
 70
     8
  0
VERTEX
  5
23087
330
23086
100
AcDbEntity
  8
0
100
AcDbVertex
100
AcDb3dPolylineVertex
 10
49.7060000000001
 20
211.9819769284668
 30
0.0
 70
    32
  0
VERTEX
  5
23088
330
23086
100
AcDbEntity
  8
0
100
AcDbVertex
100
AcDb3dPolylineVertex
 10
43.88999999999998
 20
190.7729769284667
 30
0.0
 70
    32
  0
VERTEX
  5
23089
330
23086
100
AcDbEntity
  8
0
100
AcDbVertex
100
AcDb3dPolylineVertex
 10
41.88999999999999
 20
190.7729769284667
 30
0.0
 70
    32
  0
SEQEND
  5
2308A
330
23086
100
AcDbEntity
  8
0
  0
TEXT
  5
2308C
330
22F93
100
AcDbEntity
  8
寸法
100
AcDbText
 10
22.43739501360468
 20
189.2725601431384
 30
0.0
 40
3.0
  1
挟み込み部
100
AcDbText
  0
LINE
  5
2308D
330
22F93
100
AcDbEntity
  8
実線
100
AcDbLine
 10
57.5730616140088
 20
212.7889506101397
 30
0.0
 11
56.42306161400878
 21
212.7889506101397
 31
0.0
  0
LINE
  5
2308E
330
22F93
100
AcDbEntity
  8
実線
100
AcDbLine
 10
57.5730616140088
 20
214.0389506101397
 30
0.0
 11
56.42306161400878
 21
214.0389506101397
 31
0.0
  0
LINE
  5
2308F
330
22F93
100
AcDbEntity
  8
実線
100
AcDbLine
 10
56.42306161400878
 20
211.0389506101397
 30
0.0
 11
65.34096905550859
 21
211.0389506101397
 31
0.0
  0
LINE
  5
23090
330
22F93
100
AcDbEntity
  8
実線
100
AcDbLine
 10
64.6420026169088
 20
205.66973852384
 30
0.0
 11
46.55079337090882
 21
206.6178534596397
 31
0.0
  0
LINE
  5
23091
330
22F93
100
AcDbEntity
  8
実線
100
AcDbLine
 10
52.7230616140086
 20
214.6889506101397
 30
0.0
 11
52.7230616140086
 21
229.8889506101397
 31
0.0
  0
LINE
  5
23092
330
22F93
100
AcDbEntity
  8
実線
100
AcDbLine
 10
54.7230616140086
 20
214.6889506101397
 30
0.0
 11
54.7230616140086
 21
229.8889506101397
 31
0.0
  0
LINE
  5
23093
330
22F93
100
AcDbEntity
  8
実線
100
AcDbLine
 10
50.4207090045087
 20
211.0389506101397
 30
0.0
 11
46.1730941141086
 21
211.0389506101397
 31
0.0
  0
LINE
  5
23094
330
22F93
100
AcDbEntity
  8
実線
100
AcDbLine
 10
46.4730616140086
 20
213.5389506101397
 30
0.0
 11
55.27306161400869
 21
213.5389506101397
 31
0.0
  0
LINE
  5
23095
330
22F93
100
AcDbEntity
  8
実線
100
AcDbLine
 10
46.4730616140086
 20
214.6889506101397
 30
0.0
 11
55.27306161400869
 21
214.6889506101397
 31
0.0
  0
LINE
  5
23096
330
22F93
100
AcDbEntity
  8
実線
100
AcDbLine
 10
47.7230616140086
 20
213.5389506101397
 30
0.0
 11
47.7230616140086
 21
214.6889506101397
 31
0.0
  0
LINE
  5
23097
330
22F93
100
AcDbEntity
  8
実線
100
AcDbLine
 10
46.4730616140086
 20
213.5389506101397
 30
0.0
 11
46.4730616140086
 21
214.6889506101397
 31
0.0
  0
LINE
  5
23098
330
22F93
100
AcDbEntity
  8
実線
100
AcDbLine
 10
46.17306161400882
 20
210.5389506101397
 30
0.0
 11
46.17306161400882
 21
211.0389506101397
 31
0.0
  0
LWPOLYLINE
  5
23099
330
22F93
100
AcDbEntity
  8
実線
100
AcDbPolyline
 90
        9
 70
     0
 43
0.0
 10
46.55079337090882
 20
206.6178534596397
 10
46.12005062780858
 20
206.6404340020398
 10
45.69547235200857
 20
206.7084466522397
 10
45.30723216450858
 20
206.8929467274397
 10
44.9872633388087
 20
207.1799830108397
 10
44.76183015780859
 20
207.5459750182398
 10
44.64945097970868
 20
207.9608755527397
 10
44.61102810720859
 20
208.3904864176397
 10
44.4230616140087
 20
210.5389506101397
  0
LINE
  5
230A4
330
22F93
100
AcDbEntity
  8
実線
100
AcDbLine
 10
55.0230616140087
 20
210.5389506101397
 30
0.0
 11
55.0230616140087
 21
211.0389506101397
 31
0.0
  0
LINE
  5
230A5
330
22F93
100
AcDbEntity
  8
実線
100
AcDbLine
 10
52.14978261320879
 20
210.5389506101397
 30
0.0
 11
52.14978261320879
 21
211.0389506101397
 31
0.0
  0
LINE
  5
230A6
330
22F93
100
AcDbEntity
  8
実線
100
AcDbLine
 10
53.7730616140087
 20
210.5389506101397
 30
0.0
 11
53.7730616140087
 21
211.0389506101397
 31
0.0
  0
LINE
  5
230A7
330
22F93
100
AcDbEntity
  8
実線
100
AcDbLine
 10
52.7230616140086
 20
211.0389506101397
 30
0.0
 11
52.7230616140086
 21
213.5389506101397
 31
0.0
  0
LINE
  5
230A8
330
22F93
100
AcDbEntity
  8
実線
100
AcDbLine
 10
54.7230616140086
 20
211.0389506101397
 30
0.0
 11
54.7230616140086
 21
213.5389506101397
 31
0.0
  0
LINE
  5
230A9
330
22F93
100
AcDbEntity
  8
実線
100
AcDbLine
 10
50.42118957490882
 20
210.5389506101397
 30
0.0
 11
50.42118957490882
 21
211.0389506101397
 31
0.0
  0
LINE
  5
230AA
330
22F93
100
AcDbEntity
  8
実線
100
AcDbLine
 10
50.42118957490882
 20
211.0389506101397
 30
0.0
 11
55.27306161400869
 21
211.0389506101397
 31
0.0
  0
LINE
  5
230AB
330
22F93
100
AcDbEntity
  8
実線
100
AcDbLine
 10
52.7230616140086
 20
229.8889506101397
 30
0.0
 11
54.7230616140086
 21
229.8889506101397
 31
0.0
  0
LINE
  5
230AC
330
22F93
100
AcDbEntity
  8
実線
100
AcDbLine
 10
57.5730616140088
 20
212.7889506101397
 30
0.0
 11
57.5730616140088
 21
226.7889506101397
 31
0.0
  0
LINE
  5
230AD
330
22F93
100
AcDbEntity
  8
実線
100
AcDbLine
 10
57.62306161400869
 20
213.5389506101397
 30
0.0
 11
57.62306161400869
 21
226.7889506101397
 31
0.0
  0
LINE
  5
230AE
330
22F93
100
AcDbEntity
  8
実線
100
AcDbLine
 10
66.0069707977088
 20
210.5389506101397
 30
0.0
 11
65.34096905550859
 21
211.0389506101397
 31
0.0
  0
LINE
  5
230AF
330
22F93
100
AcDbEntity
  8
実線
100
AcDbLine
 10
65.50348807460858
 20
205.6245768977397
 30
0.0
 11
64.6420026169088
 21
205.66973852384
 31
0.0
  0
LWPOLYLINE
  5
230B0
330
22F93
100
AcDbEntity
  8
実線
100
AcDbPolyline
 90
        5
 70
     0
 43
0.0
 10
63.75819916400868
 20
213.1889506101399
 10
64.01195928820868
 20
213.1316991923398
 10
64.22645283670869
 20
212.9692806960398
 10
64.36985985710859
 20
212.7263517268397
 10
64.42040985860879
 20
212.4389506101397
  0
LINE
  5
230B7
330
22F93
100
AcDbEntity
  8
実線
100
AcDbLine
 10
63.36409884240879
 20
212.4389506101397
 30
0.0
 11
64.42040985860879
 21
212.4389506101397
 31
0.0
  0
LINE
  5
230B8
330
22F93
100
AcDbEntity
  8
実線
100
AcDbLine
 10
62.00665422710859
 20
213.1316991923398
 30
0.0
 11
61.79216067850859
 21
212.9692806960398
 31
0.0
  0
LINE
  5
230B9
330
22F93
100
AcDbEntity
  8
実線
100
AcDbLine
 10
61.79216067850859
 20
212.9692806960398
 30
0.0
 11
61.76167278860879
 21
212.91763474684
 31
0.0
  0
LINE
  5
230BA
330
22F93
100
AcDbEntity
  8
実線
100
AcDbLine
 10
62.05827157850859
 20
212.8776060941397
 30
0.0
 11
62.2604143513087
 21
212.9389506101399
 31
0.0
  0
LINE
  5
230BB
330
22F93
100
AcDbEntity
  8
実線
100
AcDbLine
 10
60.96936755360869
 20
212.9264349459397
 30
0.0
 11
60.96936755360869
 21
212.8823805934398
 31
0.0
  0
LINE
  5
230BC
330
22F93
100
AcDbEntity
  8
実線
100
AcDbLine
 10
61.2041033350086
 20
212.9264349459397
 30
0.0
 11
61.2041033350086
 21
212.8840149710398
 31
0.0
  0
LINE
  5
230BD
330
22F93
100
AcDbEntity
  8
実線
100
AcDbLine
 10
61.64557713140869
 20
212.9264349459397
 30
0.0
 11
61.64557713140869
 21
212.9054008990397
 31
0.0
  0
LINE
  5
230BE
330
22F93
100
AcDbEntity
  8
実線
100
AcDbLine
 10
61.64557713140869
 20
212.9264349459397
 30
0.0
 11
61.79290823120879
 21
212.9152670604397
 31
0.0
  0
LINE
  5
230BF
330
22F93
100
AcDbEntity
  8
実線
100
AcDbLine
 10
61.79290823120879
 20
212.9152670604397
 30
0.0
 11
61.8488249658086
 21
212.9095628765397
 31
0.0
  0
LWPOLYLINE
  5
230C0
330
22F93
100
AcDbEntity
  8
実線
100
AcDbPolyline
 90
        3
 70
     0
 43
0.0
 10
61.8488249658086
 20
212.9095628765397
 10
61.93931958560859
 20
212.8985856234399
 10
62.08705092790859
 20
212.8760550246397
  0
LWPOLYLINE
  5
230C5
330
22F93
100
AcDbEntity
  8
実線
100
AcDbPolyline
 90
        3
 70
     0
 43
0.0
 10
61.2041033350086
 20
212.9264349459397
 10
61.2765960950087
 20
212.9162942489397
 10
61.30747234250859
 20
212.9098384360397
  0
LWPOLYLINE
  5
230CA
330
22F93
100
AcDbEntity
  8
実線
100
AcDbPolyline
 90
        3
 70
     0
 43
0.0
 10
61.85231514650869
 20
212.8760550246397
 10
61.62417224000859
 20
212.9084392626399
 10
61.4108413500087
 20
212.9264349459397
  0
LWPOLYLINE
  5
230CF
330
22F93
100
AcDbEntity
  8
実線
100
AcDbPolyline
 90
        4
 70
     0
 43
0.0
 10
61.4108413500087
 20
212.9264349459397
 10
61.33834859010858
 20
212.9162942489397
 10
61.26007770840857
 20
212.8999288479397
 10
61.17610556870857
 20
212.8760550246397
  0
LINE
  5
230D5
330
22F93
100
AcDbEntity
  8
実線
100
AcDbLine
 10
60.89687479370869
 20
212.9162942489397
 30
0.0
 11
60.96936755360869
 21
212.9264349459397
 31
0.0
  0
LINE
  5
230D6
330
22F93
100
AcDbEntity
  8
実線
100
AcDbLine
 10
60.82203645390859
 20
212.9152670604397
 30
0.0
 11
60.76611971920868
 21
212.9095628765397
 31
0.0
  0
LINE
  5
230D7
330
22F93
100
AcDbEntity
  8
実線
100
AcDbLine
 10
60.99077244510858
 20
212.9084392626399
 30
0.0
 11
61.2041033350086
 21
212.9264349459397
 31
0.0
  0
LINE
  5
230D8
330
22F93
100
AcDbEntity
  8
実線
100
AcDbLine
 10
60.9521283479088
 20
212.9251281921397
 30
0.0
 11
60.82203645390859
 21
212.9152670604397
 31
0.0
  0
LWPOLYLINE
  5
230D9
330
22F93
100
AcDbEntity
  8
実線
100
AcDbPolyline
 90
        3
 70
     0
 43
0.0
 10
60.95536867040869
 20
212.8823805934398
 10
60.84516880090859
 20
212.8808047860399
 10
60.73463177220881
 20
212.8760550246397
  0
LINE
  5
230DE
330
22F93
100
AcDbEntity
  8
実線
100
AcDbLine
 10
62.87525157110869
 20
212.4389506101397
 30
0.0
 11
62.63872801080879
 21
212.4389506101397
 31
0.0
  0
LINE
  5
230DF
330
22F93
100
AcDbEntity
  8
実線
100
AcDbLine
 10
60.00485500120859
 20
212.7662881850398
 30
0.0
 11
62.6100896838087
 21
212.7662881850398
 31
0.0
  0
LINE
  5
230E0
330
22F93
100
AcDbEntity
  8
実線
100
AcDbLine
 10
62.2604143513087
 20
212.9389506101399
 30
0.0
 11
62.70188814770858
 21
212.9389506101399
 31
0.0
  0
LWPOLYLINE
  5
230E1
330
22F93
100
AcDbEntity
  8
実線
100
AcDbPolyline
 90
        3
 70
     0
 43
0.0
 10
61.17610556870857
 20
212.8760550246397
 10
61.06504557770858
 20
212.8808197091397
 10
60.95536867040869
 20
212.8823805934398
  0
LWPOLYLINE
  5
230E6
330
22F93
100
AcDbEntity
  8
実線
100
AcDbPolyline
 90
        3
 70
     0
 43
0.0
 10
62.08705092790859
 20
212.8760550246397
 10
61.9696830372086
 20
212.8823805934398
 10
61.85231514650869
 20
212.8760550246397
  0
LWPOLYLINE
  5
230EB
330
22F93
100
AcDbEntity
  8
実線
100
AcDbPolyline
 90
        3
 70
     0
 43
0.0
 10
60.73463177220881
 20
212.8760550246397
 10
60.81860391190881
 20
212.8999288479397
 10
60.89687479370869
 20
212.9162942489397
  0
LINE
  5
230F0
330
22F93
100
AcDbEntity
  8
実線
100
AcDbLine
 10
62.2604143513087
 20
213.1889506101399
 30
0.0
 11
62.00665422710859
 21
213.1316991923398
 31
0.0
  0
LINE
  5
230F1
330
22F93
100
AcDbEntity
  8
実線
100
AcDbLine
 10
60.9722943057086
 20
212.9058163432398
 30
0.0
 11
60.99077244510858
 21
212.9084392626399
 31
0.0
  0
ARC
  5
230F2
330
22F93
100
AcDbEntity
  8
実線
100
AcDbCircle
 10
61.30747234250859
 20
207.9389506101398
 30
0.0
 40
5.0
100
AcDbArc
 50
83.67387263550254
 51
83.76949489919837
  0
ARC
  5
230F3
330
22F93
100
AcDbEntity
  8
実線
100
AcDbCircle
 10
61.30747234250859
 20
207.9389506101398
 30
0.0
 40
5.0
100
AcDbArc
 50
74.89887484250245
 51
81.02782869079762
  0
ARC
  5
230F4
330
22F93
100
AcDbEntity
  8
実線
100
AcDbCircle
 10
61.30747234250859
 20
207.9389506101398
 30
0.0
 40
5.0
100
AcDbArc
 50
96.23050510080167
 51
105.1011251574975
  0
LWPOLYLINE
  5
230F5
330
22F93
100
AcDbEntity
  8
実線
100
AcDbPolyline
 90
        3
 70
     0
 43
0.0
 10
62.87525157110869
 20
212.4389506101397
 10
62.9343978447088
 20
212.6889506101398
 10
63.00930675760878
 20
212.7737902014398
  0
LWPOLYLINE
  5
230FA
330
22F93
100
AcDbEntity
  8
実線
100
AcDbPolyline
 90
        5
 70
     0
 43
0.0
 10
63.36409884240879
 20
212.4389506101397
 10
63.31354884080869
 20
212.7263517268397
 10
63.17014182050868
 20
212.9692806960398
 10
62.9556482719087
 20
213.1316991923398
 10
62.70188814770858
 20
213.1889506101399
  0
LWPOLYLINE
  5
23101
330
22F93
100
AcDbEntity
  8
実線
100
AcDbPolyline
 90
        4
 70
     0
 43
0.0
 10
62.70188814770858
 20
212.9389506101399
 10
62.92262504590869
 20
212.8719633120399
 10
63.0842156705088
 20
212.6889506101398
 10
63.14336194410879
 20
212.4389506101397
  0
LINE
  5
23107
330
22F93
100
AcDbEntity
  8
実線
100
AcDbLine
 10
62.2604143513087
 20
213.1889506101399
 30
0.0
 11
63.75819916400868
 21
213.1889506101399
 31
0.0
  0
LWPOLYLINE
  5
23108
330
22F93
100
AcDbEntity
  8
実線
100
AcDbPolyline
 90
        4
 70
     0
 43
0.0
 10
63.28882478210869
 20
211.9389506101398
 10
63.29882668040858
 20
211.9630313889397
 10
63.30824366830859
 20
211.9871608962398
 10
63.31629707040869
 20
212.0092372076399
  0
LWPOLYLINE
  5
2310E
330
22F93
100
AcDbEntity
  8
実線
100
AcDbPolyline
 90
        3
 70
     0
 43
0.0
 10
63.14336194410879
 20
212.2889506101397
 10
63.10962255430857
 20
212.0972423722397
 10
63.0171634997086
 20
211.9389506101398
  0
LWPOLYLINE
  5
23113
330
22F93
100
AcDbEntity
  8
実線
100
AcDbPolyline
 90
        5
 70
     0
 43
0.0
 10
64.42040985860879
 20
212.2889506101397
 10
64.36985985710859
 20
212.0015494934397
 10
64.22645283670869
 20
211.7586205242397
 10
64.01195928820868
 20
211.5962020279398
 10
63.75819916400868
 20
211.5389506101397
  0
LWPOLYLINE
  5
2311A
330
22F93
100
AcDbEntity
  8
実線
100
AcDbPolyline
 90
        4
 70
     0
 43
0.0
 10
63.31629707040869
 20
212.0092372076399
 10
63.34263029440859
 20
212.0995284621398
 10
63.3586988999086
 20
212.1933665294398
 10
63.36409884240879
 20
212.2889506101397
  0
LINE
  5
23120
330
22F93
100
AcDbEntity
  8
実線
100
AcDbLine
 10
63.17750975740858
 20
210.5389506101397
 30
0.0
 11
63.17750975740858
 21
211.0389506101397
 31
0.0
  0
LINE
  5
23121
330
22F93
100
AcDbEntity
  8
実線
100
AcDbLine
 10
63.43247234250859
 20
211.5389506101397
 30
0.0
 11
63.43247234250859
 21
211.9389506101398
 31
0.0
  0
LINE
  5
23122
330
22F93
100
AcDbEntity
  8
実線
100
AcDbLine
 10
63.3119325090087
 20
211.9374406303399
 30
0.0
 11
63.3166926574087
 21
212.0102867746398
 31
0.0
  0
LINE
  5
23123
330
22F93
100
AcDbEntity
  8
実線
100
AcDbLine
 10
63.7574723425086
 20
211.1395902883399
 30
0.0
 11
63.73485966050859
 21
211.5389506101397
 31
0.0
  0
LINE
  5
23124
330
22F93
100
AcDbEntity
  8
実線
100
AcDbLine
 10
64.42040985860879
 20
212.2889506101397
 30
0.0
 11
63.36409884240879
 21
212.2889506101397
 31
0.0
  0
LINE
  5
23125
330
22F93
100
AcDbEntity
  8
実線
100
AcDbLine
 10
58.85747234250868
 20
211.1395902883399
 30
0.0
 11
58.88008502460869
 21
211.5389506101397
 31
0.0
  0
LINE
  5
23126
330
22F93
100
AcDbEntity
  8
実線
100
AcDbLine
 10
59.18247234250859
 20
211.5389506101397
 30
0.0
 11
59.18247234250859
 21
211.9389506101398
 31
0.0
  0
LINE
  5
23127
330
22F93
100
AcDbEntity
  8
実線
100
AcDbLine
 10
60.55747234250858
 20
211.0433324546398
 30
0.0
 11
58.85747234250868
 21
211.1395902883399
 31
0.0
  0
LINE
  5
23128
330
22F93
100
AcDbEntity
  8
実線
100
AcDbLine
 10
62.87525157110869
 20
212.2889506101397
 30
0.0
 11
62.65185131030858
 21
212.2889506101397
 31
0.0
  0
LWPOLYLINE
  5
23129
330
22F93
100
AcDbEntity
  8
実線
100
AcDbPolyline
 90
        3
 70
     0
 43
0.0
 10
63.01936490580868
 20
211.9427194615397
 10
62.9343978447088
 20
212.0389506101397
 10
62.87525157110869
 20
212.2889506101397
  0
LINE
  5
2312E
330
22F93
100
AcDbEntity
  8
実線
100
AcDbLine
 10
62.05747234250859
 20
211.0433324546398
 30
0.0
 11
63.7574723425086
 21
211.1395902883399
 31
0.0
  0
LINE
  5
2312F
330
22F93
100
AcDbEntity
  8
実線
100
AcDbLine
 10
58.85747234250868
 20
211.1395902883399
 30
0.0
 11
63.7574723425086
 21
211.1395902883399
 31
0.0
  0
LINE
  5
23130
330
22F93
100
AcDbEntity
  8
実線
100
AcDbLine
 10
58.88008502460869
 20
211.5389506101397
 30
0.0
 11
63.75819916400868
 21
211.5389506101397
 31
0.0
  0
LINE
  5
23131
330
22F93
100
AcDbEntity
  8
実線
100
AcDbLine
 10
59.18253019720859
 20
211.9389506101398
 30
0.0
 11
63.43219887140882
 21
211.9389506101398
 31
0.0
  0
LINE
  5
23132
330
22F93
100
AcDbEntity
  8
実線
100
AcDbLine
 10
60.00485500120859
 20
212.7662881850398
 30
0.0
 11
59.93247234250858
 21
211.9389506101398
 31
0.0
  0
LINE
  5
23133
330
22F93
100
AcDbEntity
  8
実線
100
AcDbLine
 10
62.87525157110869
 20
212.2889506101397
 30
0.0
 11
62.87525157110869
 21
212.4389506101397
 31
0.0
  0
LINE
  5
23134
330
22F93
100
AcDbEntity
  8
実線
100
AcDbLine
 10
63.14336194410879
 20
212.4389506101397
 30
0.0
 11
63.14336194410879
 21
212.2889506101397
 31
0.0
  0
LINE
  5
23135
330
22F93
100
AcDbEntity
  8
実線
100
AcDbLine
 10
63.36409884240879
 20
212.2889506101397
 30
0.0
 11
63.36409884240879
 21
212.4389506101397
 31
0.0
  0
LINE
  5
23136
330
22F93
100
AcDbEntity
  8
実線
100
AcDbLine
 10
62.6100896838087
 20
212.7662881850398
 30
0.0
 11
62.68247234250859
 21
211.9389506101398
 31
0.0
  0
LINE
  5
23137
330
22F93
100
AcDbEntity
  8
実線
100
AcDbLine
 10
64.42040985860879
 20
212.4389506101397
 30
0.0
 11
64.42040985860879
 21
212.2889506101397
 31
0.0
  0
LINE
  5
23138
330
22F93
100
AcDbEntity
  8
実線
100
AcDbLine
 10
57.62306161400869
 20
213.5389506101397
 30
0.0
 11
57.5730616140088
 21
213.5389506101397
 31
0.0
  0
LWPOLYLINE
  5
23139
330
22F93
100
AcDbEntity
  8
実線
100
AcDbPolyline
 90
        7
 70
     0
 43
0.0
 10
68.03036134060859
 20
205.5389168920397
 10
67.65827947650869
 20
205.5401214526397
 10
67.22700432570879
 20
205.5470262827397
 10
66.79587297230871
 20
205.5601330933397
 10
66.36497511390881
 20
205.5794454547397
 10
65.9342321237086
 20
205.60202127394
 10
65.50348807460858
 20
205.6245768977397
  0
LINE
  5
23142
330
22F93
100
AcDbEntity
  8
実線
100
AcDbLine
 10
60.22773813530858
 20
226.7889506101397
 30
0.0
 11
60.22773813530858
 21
227.9389506101399
 31
0.0
  0
CIRCLE
  5
23143
330
22F93
100
AcDbEntity
  8
実線
100
AcDbCircle
 10
101.9230616140086
 20
150.8868442633076
 30
0.0
 40
1.0
  0
LINE
  5
23144
330
22F93
100
AcDbEntity
  8
実線
100
AcDbLine
 10
112.4230616140085
 20
226.7389506101397
 30
0.0
 11
104.4230616140086
 21
226.7389506101397
 31
0.0
  0
LINE
  5
23145
330
22F93
100
AcDbEntity
  8
実線
100
AcDbLine
 10
114.5745631581086
 20
226.6889506101398
 30
0.0
 11
89.4230616140086
 21
226.6889506101398
 31
0.0
  0
LINE
  5
23146
330
22F93
100
AcDbEntity
  8
一点鎖線
100
AcDbLine
 10
101.9230616140085
 20
197.3842116706739
 30
0.0
 11
101.9230616140085
 21
221.7764501245468
 31
0.0
  0
LINE
  5
23147
330
22F93
100
AcDbEntity
  8
実線
100
AcDbLine
 10
89.4230616140086
 20
226.7889506101397
 30
0.0
 11
89.4230616140086
 21
226.6889506101398
 31
0.0
  0
LINE
  5
23148
330
22F93
100
AcDbEntity
  8
実線
100
AcDbLine
 10
89.67306161400861
 20
226.7889506101397
 30
0.0
 11
89.67306161400861
 21
226.6889506101398
 31
0.0
  0
LINE
  5
23149
330
22F93
100
AcDbEntity
  8
実線
100
AcDbLine
 10
104.4230616140086
 20
226.7389506101397
 30
0.0
 11
104.4230616140086
 21
226.7889506101397
 31
0.0
  0
LINE
  5
2314A
330
22F93
100
AcDbEntity
  8
実線
100
AcDbLine
 10
104.9230616140085
 20
226.7389506101397
 30
0.0
 11
104.9230616140085
 21
226.7889506101397
 31
0.0
  0
LINE
  5
2314B
330
22F93
100
AcDbEntity
  8
実線
100
AcDbLine
 10
112.4230616140085
 20
226.7389506101397
 30
0.0
 11
112.4230616140085
 21
226.7889506101397
 31
0.0
  0
LINE
  5
2314C
330
22F93
100
AcDbEntity
  8
実線
100
AcDbLine
 10
111.9230616140086
 20
226.7389506101397
 30
0.0
 11
111.9230616140086
 21
226.7889506101397
 31
0.0
  0
LINE
  5
2314D
330
22F93
100
AcDbEntity
  8
実線
100
AcDbLine
 10
114.3245631581086
 20
226.7889506101397
 30
0.0
 11
114.3245631581086
 21
226.6889506101398
 31
0.0
  0
LINE
  5
2314E
330
22F93
100
AcDbEntity
  8
実線
100
AcDbLine
 10
114.5745631581086
 20
226.7889506101397
 30
0.0
 11
114.5745631581086
 21
226.6889506101398
 31
0.0
  0
LINE
  5
2314F
330
22F93
100
AcDbEntity
  8
実線
100
AcDbLine
 10
56.4730616140088
 20
242.4389506101399
 30
0.0
 11
57.62306161400869
 21
242.4389506101399
 31
0.0
  0
LINE
  5
23150
330
22F93
100
AcDbEntity
  8
実線
100
AcDbLine
 10
56.4730616140088
 20
243.6889506101397
 30
0.0
 11
57.62306161400869
 21
243.6889506101397
 31
0.0
  0
LINE
  5
23151
330
22F93
100
AcDbEntity
  8
実線
100
AcDbLine
 10
57.62306161400869
 20
239.6889506101397
 30
0.0
 11
56.4730616140088
 21
239.6889506101397
 31
0.0
  0
LINE
  5
23152
330
22F93
100
AcDbEntity
  8
実線
100
AcDbLine
 10
57.62306161400869
 20
240.9389506101399
 30
0.0
 11
56.4730616140088
 21
240.9389506101399
 31
0.0
  0
LINE
  5
23153
330
22F93
100
AcDbEntity
  8
実線
100
AcDbLine
 10
56.42306161400878
 20
234.8889506101397
 30
0.0
 11
60.42306161400858
 21
234.8889506101397
 31
0.0
  0
LINE
  5
23154
330
22F93
100
AcDbEntity
  8
実線
100
AcDbLine
 10
55.27306161400869
 20
236.0389506101399
 30
0.0
 11
60.42306161400858
 21
236.0389506101399
 31
0.0
  0
TEXT
  5
23155
330
22F93
100
AcDbEntity
  8
寸法
100
AcDbText
 10
45.6204736030015
 20
248.0769546607292
 30
0.0
 40
3.0
  1
板金が上下へ可動
100
AcDbText
  0
LINE
  5
23156
330
22F93
100
AcDbEntity
  8
実線
100
AcDbLine
 10
56.4730616140088
 20
236.0389506101399
 30
0.0
 11
56.4730616140088
 21
243.6889506101397
 31
0.0
  0
LINE
  5
23157
330
22F93
100
AcDbEntity
  8
実線
100
AcDbLine
 10
59.17306161400858
 20
236.0389506101399
 30
0.0
 11
59.17306161400858
 21
234.8889506101397
 31
0.0
  0
LINE
  5
23158
330
22F93
100
AcDbEntity
  8
実線
100
AcDbLine
 10
60.42306161400858
 20
236.0389506101399
 30
0.0
 11
60.42306161400858
 21
234.8889506101397
 31
0.0
  0
LINE
  5
23159
330
22F93
100
AcDbEntity
  8
実線
100
AcDbLine
 10
57.62306161400869
 20
236.0389506101399
 30
0.0
 11
57.62306161400869
 21
243.6889506101397
 31
0.0
  0
LINE
  5
2315A
330
22F93
100
AcDbEntity
  8
実線
100
AcDbLine
 10
146.2230616140085
 20
227.9389506101399
 30
0.0
 11
146.2230616140085
 21
234.8889506101397
 31
0.0
  0
LINE
  5
2315B
330
22F93
100
AcDbEntity
  8
実線
100
AcDbLine
 10
147.3730616140085
 20
227.9389506101399
 30
0.0
 11
147.3730616140085
 21
234.8889506101397
 31
0.0
  0
LINE
  5
2315C
330
22F93
100
AcDbEntity
  8
実線
100
AcDbLine
 10
147.4230616140085
 20
234.8889506101397
 30
0.0
 11
147.4230616140085
 21
211.0389506101397
 31
0.0
  0
LINE
  5
2315D
330
22F93
100
AcDbEntity
  8
実線
100
AcDbLine
 10
148.5730616140086
 20
211.0389506101397
 30
0.0
 11
148.5730616140086
 21
236.0389506101399
 31
0.0
  0
CIRCLE
  5
2315F
330
22F93
100
AcDbEntity
  8
実線
100
AcDbCircle
 10
286.5280793355765
 20
122.8858273462609
 30
0.0
 40
25.0
  0
ARC
  5
23160
330
22F93
100
AcDbEntity
  8
実線
100
AcDbCircle
 10
286.5280793355765
 20
122.8858273462609
 30
0.0
 40
44.75
100
AcDbArc
 50
207.017418234199
 51
338.7075478199994
  0
ARC
  5
23161
330
22F93
100
AcDbEntity
  8
実線
100
AcDbCircle
 10
286.5280793355765
 20
122.8858273462609
 30
0.0
 40
44.75
100
AcDbArc
 50
27.01741823419899
 51
158.7075478199994
  0
LINE
  5
23164
330
22F93
100
AcDbEntity
  8
一点鎖線
100
AcDbLine
 10
286.5280793355764
 20
122.8858273462609
 30
0.0
 11
261.6298489767765
 21
108.5108273462608
 31
0.0
  0
CIRCLE
  5
23165
330
22F93
100
AcDbEntity
  8
一点鎖線
100
AcDbCircle
 10
286.5280793355764
 20
122.8858273462609
 30
0.0
 40
28.75
  0
LINE
  5
23166
330
22F93
100
AcDbEntity
  8
一点鎖線
100
AcDbLine
 10
353.4792598679467
 20
122.8858273462609
 30
0.0
 11
209.4545823888854
 21
122.8858273462609
 31
0.0
  0
LINE
  5
23167
330
22F93
100
AcDbEntity
  8
実線
100
AcDbLine
 10
239.6280793355765
 20
132.8858273462609
 30
0.0
 11
239.6280793355765
 21
124.1358273462608
 31
0.0
  0
LINE
  5
23168
330
22F93
100
AcDbEntity
  8
実線
100
AcDbLine
 10
242.2280793355765
 20
112.8858273462608
 30
0.0
 11
242.2280793355765
 21
132.8858273462609
 31
0.0
  0
LINE
  5
23169
330
22F93
100
AcDbEntity
  8
実線
100
AcDbLine
 10
242.2780793355765
 20
132.8858273462609
 30
0.0
 11
242.2780793355765
 21
112.8858273462608
 31
0.0
  0
LINE
  5
2316A
330
22F93
100
AcDbEntity
  8
実線
100
AcDbLine
 10
245.0280793355765
 20
132.8858273462609
 30
0.0
 11
245.0280793355765
 21
112.8858273462608
 31
0.0
  0
LINE
  5
2316B
330
22F93
100
AcDbEntity
  8
実線
100
AcDbLine
 10
253.5280793355765
 20
112.8858273462608
 30
0.0
 11
253.5280793355765
 21
132.8858273462609
 31
0.0
  0
ARC
  5
2316C
330
22F93
100
AcDbEntity
  8
実線
100
AcDbCircle
 10
286.5280793355765
 20
122.8858273462609
 30
0.0
 40
55.75
100
AcDbArc
 50
157.489588566401
 51
207.7140311824992
  0
LINE
  5
2316D
330
22F93
100
AcDbEntity
  8
5_ALL_CURVES
  6
Continuous
100
AcDbLine
 10
156.0314850717086
 20
126.1183216340077
 30
0.0
 11
155.2194779619086
 21
126.7996765003076
 31
0.0
  0
LINE
  5
2316E
330
22F93
100
AcDbEntity
  8
5_ALL_CURVES
  6
Continuous
100
AcDbLine
 10
156.7128399379086
 20
126.9303287437076
 30
0.0
 11
156.0314850717086
 21
126.1183216340077
 31
0.0
  0
LINE
  5
2316F
330
22F93
100
AcDbEntity
  8
5_ALL_CURVES
  6
Continuous
100
AcDbLine
 10
155.4549765039086
 20
122.6055941441078
 30
0.0
 11
155.4230616140086
 21
122.7618442633076
 31
0.0
  0
LINE
  5
23170
330
22F93
100
AcDbEntity
  8
5_ALL_CURVES
  6
Continuous
100
AcDbLine
 10
156.9230616140086
 20
122.7618442633076
 30
0.0
 11
156.8911467214086
 21
122.6055941441078
 31
0.0
  0
LINE
  5
23171
330
22F93
100
AcDbEntity
  8
5_ALL_CURVES
  6
Continuous
100
AcDbLine
 10
155.6464658427086
 20
122.6368443825075
 30
0.0
 11
155.7102956224086
 21
122.5430943825075
 31
0.0
  0
LINE
  5
23172
330
22F93
100
AcDbEntity
  8
5_ALL_CURVES
  6
Continuous
100
AcDbLine
 10
156.6358275610086
 20
122.5430943825075
 30
0.0
 11
156.6996573630086
 21
122.6368443825075
 31
0.0
  0
LINE
  5
23173
330
22F93
100
AcDbEntity
  8
5_ALL_CURVES
  6
Continuous
100
AcDbLine
 10
156.8911467214086
 20
121.6680943229077
 30
0.0
 11
156.9230616140086
 21
121.5118442037076
 31
0.0
  0
LINE
  5
23174
330
22F93
100
AcDbEntity
  8
5_ALL_CURVES
  6
Continuous
100
AcDbLine
 10
155.4549765039086
 20
121.1055943229077
 30
0.0
 11
155.4230616140086
 21
121.2618442633076
 31
0.0
  0
LINE
  5
23175
330
22F93
100
AcDbEntity
  8
5_ALL_CURVES
  6
Continuous
100
AcDbLine
 10
156.7315722528086
 20
121.5118442037076
 30
0.0
 11
156.6996573630086
 21
121.6368442633076
 31
0.0
  0
LINE
  5
23176
330
22F93
100
AcDbEntity
  8
5_ALL_CURVES
  6
Continuous
100
AcDbLine
 10
155.6145509529086
 20
121.2618442633076
 30
0.0
 11
155.6464658427086
 21
121.1368442037076
 31
0.0
  0
LINE
  5
23177
330
22F93
100
AcDbEntity
  8
5_ALL_CURVES
  6
Continuous
100
AcDbLine
 10
156.6996573630086
 20
121.1368442037076
 30
0.0
 11
156.7315722528086
 21
121.2618442633076
 31
0.0
  0
LINE
  5
23178
330
22F93
100
AcDbEntity
  8
5_ALL_CURVES
  6
Continuous
100
AcDbLine
 10
155.6464658427086
 20
121.6368442633076
 30
0.0
 11
155.6145509529086
 21
121.5118442037076
 31
0.0
  0
LINE
  5
23179
330
22F93
100
AcDbEntity
  8
5_ALL_CURVES
  6
Continuous
100
AcDbLine
 10
156.9230616140086
 20
121.2618442633076
 30
0.0
 11
156.8911467214086
 21
121.1055943229077
 31
0.0
  0
LINE
  5
2317A
330
22F93
100
AcDbEntity
  8
5_ALL_CURVES
  6
Continuous
100
AcDbLine
 10
155.4230616140086
 20
121.5118442037076
 30
0.0
 11
155.4549765039086
 21
121.6680943229077
 31
0.0
  0
LINE
  5
2317B
330
22F93
100
AcDbEntity
  8
5_ALL_CURVES
  6
Continuous
100
AcDbLine
 10
156.9230616140086
 20
120.5118442633076
 30
0.0
 11
156.9230616140086
 21
119.3868442633076
 31
0.0
  0
LINE
  5
2317C
330
22F93
100
AcDbEntity
  8
5_ALL_CURVES
  6
Continuous
100
AcDbLine
 10
156.9230616140086
 20
121.5118442037076
 30
0.0
 11
156.9230616140086
 21
121.2618442633076
 31
0.0
  0
LINE
  5
2317D
330
22F93
100
AcDbEntity
  8
5_ALL_CURVES
  6
Continuous
100
AcDbLine
 10
156.7315722528086
 20
121.2618442633076
 30
0.0
 11
156.7315722528086
 21
121.5118442037076
 31
0.0
  0
LINE
  5
2317E
330
22F93
100
AcDbEntity
  8
5_ALL_CURVES
  6
Continuous
100
AcDbLine
 10
156.7315722528086
 20
119.5743442633076
 30
0.0
 11
156.7315722528086
 21
120.5118442633076
 31
0.0
  0
LINE
  5
2317F
330
22F93
100
AcDbEntity
  8
5_ALL_CURVES
  6
Continuous
100
AcDbLine
 10
155.6145509529086
 20
121.5118442037076
 30
0.0
 11
155.6145509529086
 21
121.2618442633076
 31
0.0
  0
LINE
  5
23180
330
22F93
100
AcDbEntity
  8
5_ALL_CURVES
  6
Continuous
100
AcDbLine
 10
155.4230616140086
 20
121.2618442633076
 30
0.0
 11
155.4230616140086
 21
121.5118442037076
 31
0.0
  0
LINE
  5
23181
330
22F93
100
AcDbEntity
  8
5_ALL_CURVES
  6
Continuous
100
AcDbLine
 10
155.4230616140086
 20
119.3868442633076
 30
0.0
 11
155.4230616140086
 21
119.5743442633076
 31
0.0
  0
LINE
  5
23182
330
22F93
100
AcDbEntity
  8
5_ALL_CURVES
  6
Continuous
100
AcDbLine
 10
156.8273169334086
 20
121.7930942037076
 30
0.0
 11
156.8911467214086
 21
121.6680943229077
 31
0.0
  0
LINE
  5
23183
330
22F93
100
AcDbEntity
  8
5_ALL_CURVES
  6
Continuous
100
AcDbLine
 10
155.5188062835086
 20
122.4805942633076
 30
0.0
 11
155.4549765039086
 21
122.6055941441078
 31
0.0
  0
LINE
  5
23184
330
22F93
100
AcDbEntity
  8
5_ALL_CURVES
  6
Continuous
100
AcDbLine
 10
155.5188062835086
 20
120.9805942633076
 30
0.0
 11
155.4549765039086
 21
121.1055943229077
 31
0.0
  0
LINE
  5
23185
330
22F93
100
AcDbEntity
  8
5_ALL_CURVES
  6
Continuous
100
AcDbLine
 10
156.6996573630086
 20
121.6368442633076
 30
0.0
 11
156.6358275610086
 21
121.7305942633076
 31
0.0
  0
LINE
  5
23186
330
22F93
100
AcDbEntity
  8
5_ALL_CURVES
  6
Continuous
100
AcDbLine
 10
155.6464658427086
 20
121.1368442037076
 30
0.0
 11
155.7102956224086
 21
121.0430942037076
 31
0.0
  0
LINE
  5
23187
330
22F93
100
AcDbEntity
  8
5_ALL_CURVES
  6
Continuous
100
AcDbLine
 10
156.6358275610086
 20
121.0430942037076
 30
0.0
 11
156.6996573630086
 21
121.1368442037076
 31
0.0
  0
LINE
  5
23188
330
22F93
100
AcDbEntity
  8
5_ALL_CURVES
  6
Continuous
100
AcDbLine
 10
155.7102956224086
 20
121.7305942633076
 30
0.0
 11
155.6464658427086
 21
121.6368442633076
 31
0.0
  0
LINE
  5
23189
330
22F93
100
AcDbEntity
  8
5_ALL_CURVES
  6
Continuous
100
AcDbLine
 10
156.8911467214086
 20
121.1055943229077
 30
0.0
 11
156.8273169334086
 21
120.9805942633076
 31
0.0
  0
LINE
  5
2318A
330
22F93
100
AcDbEntity
  8
5_ALL_CURVES
  6
Continuous
100
AcDbLine
 10
156.8911467214086
 20
122.6055941441078
 30
0.0
 11
156.8273169334086
 21
122.4805942633076
 31
0.0
  0
LINE
  5
2318B
330
22F93
100
AcDbEntity
  8
5_ALL_CURVES
  6
Continuous
100
AcDbLine
 10
155.4549765039086
 20
121.6680943229077
 30
0.0
 11
155.5188062835086
 21
121.7930942037076
 31
0.0
  0
LINE
  5
2318C
330
22F93
100
AcDbEntity
  8
5_ALL_CURVES
  6
Continuous
100
AcDbLine
 10
156.6996573630086
 20
121.9180942633076
 30
0.0
 11
156.8273169334086
 21
121.7930942037076
 31
0.0
  0
LINE
  5
2318D
330
22F93
100
AcDbEntity
  8
5_ALL_CURVES
  6
Continuous
100
AcDbLine
 10
155.6464658427086
 20
122.3555942037076
 30
0.0
 11
155.5188062835086
 21
122.4805942633076
 31
0.0
  0
LINE
  5
2318E
330
22F93
100
AcDbEntity
  8
5_ALL_CURVES
  6
Continuous
100
AcDbLine
 10
155.6464658427086
 20
120.8555942931075
 30
0.0
 11
155.5188062835086
 21
120.9805942633076
 31
0.0
  0
LINE
  5
2318F
330
22F93
100
AcDbEntity
  8
5_ALL_CURVES
  6
Continuous
100
AcDbLine
 10
156.8273169334086
 20
120.9805942633076
 30
0.0
 11
156.6996573630086
 21
120.8555942931075
 31
0.0
  0
LINE
  5
23190
330
22F93
100
AcDbEntity
  8
5_ALL_CURVES
  6
Continuous
100
AcDbLine
 10
156.8273169334086
 20
122.4805942633076
 30
0.0
 11
156.6996573630086
 21
122.3555942037076
 31
0.0
  0
LINE
  5
23191
330
22F93
100
AcDbEntity
  8
5_ALL_CURVES
  6
Continuous
100
AcDbLine
 10
155.5188062835086
 20
121.7930942037076
 30
0.0
 11
155.6464658427086
 21
121.9180942633076
 31
0.0
  0
LINE
  5
23192
330
22F93
100
AcDbEntity
  8
5_ALL_CURVES
  6
Continuous
100
AcDbLine
 10
155.7102956224086
 20
122.5430943825075
 30
0.0
 11
155.8060403812086
 21
122.4805942633076
 31
0.0
  0
LINE
  5
23193
330
22F93
100
AcDbEntity
  8
5_ALL_CURVES
  6
Continuous
100
AcDbLine
 10
156.6358275610086
 20
121.7305942633076
 30
0.0
 11
156.5400828916087
 21
121.7930942037076
 31
0.0
  0
LINE
  5
23194
330
22F93
100
AcDbEntity
  8
5_ALL_CURVES
  6
Continuous
100
AcDbLine
 10
156.5400828916087
 20
120.9805942633076
 30
0.0
 11
156.6358275610086
 21
121.0430942037076
 31
0.0
  0
LINE
  5
23195
330
22F93
100
AcDbEntity
  8
5_ALL_CURVES
  6
Continuous
100
AcDbLine
 10
155.8060403812086
 20
121.7930942037076
 30
0.0
 11
155.7102956224086
 21
121.7305942633076
 31
0.0
  0
LINE
  5
23196
330
22F93
100
AcDbEntity
  8
5_ALL_CURVES
  6
Continuous
100
AcDbLine
 10
156.5400828916087
 20
122.4805942633076
 30
0.0
 11
156.6358275610086
 21
122.5430943825075
 31
0.0
  0
LINE
  5
23197
330
22F93
100
AcDbEntity
  8
5_ALL_CURVES
  6
Continuous
100
AcDbLine
 10
155.7102956224086
 20
121.0430942037076
 30
0.0
 11
155.8060403812086
 21
120.9805942633076
 31
0.0
  0
LINE
  5
23198
330
22F93
100
AcDbEntity
  8
5_ALL_CURVES
  6
Continuous
100
AcDbLine
 10
156.5719977814086
 20
121.9805942037076
 30
0.0
 11
156.6996573630086
 21
121.9180942633076
 31
0.0
  0
LINE
  5
23199
330
22F93
100
AcDbEntity
  8
5_ALL_CURVES
  6
Continuous
100
AcDbLine
 10
155.7741254020086
 20
122.2930942633076
 30
0.0
 11
155.6464658427086
 21
122.3555942037076
 31
0.0
  0
LINE
  5
2319A
330
22F93
100
AcDbEntity
  8
5_ALL_CURVES
  6
Continuous
100
AcDbLine
 10
155.7741254020086
 20
120.7930942633076
 30
0.0
 11
155.6464658427086
 21
120.8555942931075
 31
0.0
  0
LINE
  5
2319B
330
22F93
100
AcDbEntity
  8
5_ALL_CURVES
  6
Continuous
100
AcDbLine
 10
156.6996573630086
 20
120.8555942931075
 30
0.0
 11
156.5719977814086
 21
120.7930942633076
 31
0.0
  0
LINE
  5
2319C
330
22F93
100
AcDbEntity
  8
5_ALL_CURVES
  6
Continuous
100
AcDbLine
 10
156.6996573630086
 20
122.3555942037076
 30
0.0
 11
156.5719977814086
 21
122.2930942633076
 31
0.0
  0
LINE
  5
2319D
330
22F93
100
AcDbEntity
  8
5_ALL_CURVES
  6
Continuous
100
AcDbLine
 10
155.6464658427086
 20
121.9180942633076
 30
0.0
 11
155.7741254020086
 21
121.9805942037076
 31
0.0
  0
LINE
  5
2319E
330
22F93
100
AcDbEntity
  8
5_ALL_CURVES
  6
Continuous
100
AcDbLine
 10
155.8060403812086
 20
122.4805942633076
 30
0.0
 11
155.9336999404087
 21
122.4493443825075
 31
0.0
  0
LINE
  5
2319F
330
22F93
100
AcDbEntity
  8
5_ALL_CURVES
  6
Continuous
100
AcDbLine
 10
156.5400828916087
 20
121.7930942037076
 30
0.0
 11
156.4124233323086
 21
121.8243442633076
 31
0.0
  0
LINE
  5
231A0
330
22F93
100
AcDbEntity
  8
5_ALL_CURVES
  6
Continuous
100
AcDbLine
 10
155.8060403812086
 20
120.9805942633076
 30
0.0
 11
155.9336999404087
 21
120.9493442037076
 31
0.0
  0
LINE
  5
231A1
330
22F93
100
AcDbEntity
  8
5_ALL_CURVES
  6
Continuous
100
AcDbLine
 10
155.9336999404087
 20
122.2618442037076
 30
0.0
 11
155.7741254020086
 21
122.2930942633076
 31
0.0
  0
LINE
  5
231A2
330
22F93
100
AcDbEntity
  8
5_ALL_CURVES
  6
Continuous
100
AcDbLine
 10
156.4124233323086
 20
122.0118442633076
 30
0.0
 11
156.5719977814086
 21
121.9805942037076
 31
0.0
  0
LINE
  5
231A3
330
22F93
100
AcDbEntity
  8
5_ALL_CURVES
  6
Continuous
100
AcDbLine
 10
155.9336999404087
 20
120.7618442931075
 30
0.0
 11
155.7741254020086
 21
120.7930942633076
 31
0.0
  0
LINE
  5
231A4
330
22F93
100
AcDbEntity
  8
5_ALL_CURVES
  6
Continuous
100
AcDbLine
 10
155.9336999404087
 20
122.4493443825075
 30
0.0
 11
156.4124233323086
 21
122.4493443825075
 31
0.0
  0
LINE
  5
231A5
330
22F93
100
AcDbEntity
  8
5_ALL_CURVES
  6
Continuous
100
AcDbLine
 10
156.4124233323086
 20
122.2618442037076
 30
0.0
 11
155.9336999404087
 21
122.2618442037076
 31
0.0
  0
LINE
  5
231A6
330
22F93
100
AcDbEntity
  8
5_ALL_CURVES
  6
Continuous
100
AcDbLine
 10
155.9336999404087
 20
122.0118442633076
 30
0.0
 11
156.4124233323086
 21
122.0118442633076
 31
0.0
  0
LINE
  5
231A7
330
22F93
100
AcDbEntity
  8
5_ALL_CURVES
  6
Continuous
100
AcDbLine
 10
156.4124233323086
 20
121.8243442633076
 30
0.0
 11
155.9336999404087
 21
121.8243442633076
 31
0.0
  0
LINE
  5
231A8
330
22F93
100
AcDbEntity
  8
5_ALL_CURVES
  6
Continuous
100
AcDbLine
 10
155.9336999404087
 20
120.9493442037076
 30
0.0
 11
156.4124233323086
 21
120.9493442037076
 31
0.0
  0
LINE
  5
231A9
330
22F93
100
AcDbEntity
  8
5_ALL_CURVES
  6
Continuous
100
AcDbLine
 10
156.4124233323086
 20
120.7618442931075
 30
0.0
 11
155.9336999404087
 21
120.7618442931075
 31
0.0
  0
LINE
  5
231AA
330
22F93
100
AcDbEntity
  8
5_ALL_CURVES
  6
Continuous
100
AcDbLine
 10
156.7315722528086
 20
120.5118442633076
 30
0.0
 11
156.9230616140086
 21
120.5118442633076
 31
0.0
  0
LINE
  5
231AB
330
22F93
100
AcDbEntity
  8
5_ALL_CURVES
  6
Continuous
100
AcDbLine
 10
155.4230616140086
 20
119.5743442633076
 30
0.0
 11
156.7315722528086
 21
119.5743442633076
 31
0.0
  0
LINE
  5
231AC
330
22F93
100
AcDbEntity
  8
5_ALL_CURVES
  6
Continuous
100
AcDbLine
 10
156.9230616140086
 20
119.3868442633076
 30
0.0
 11
155.4230616140086
 21
119.3868442633076
 31
0.0
  0
LINE
  5
231AD
330
22F93
100
AcDbEntity
  8
5_ALL_CURVES
  6
Continuous
100
AcDbLine
 10
156.5719977814086
 20
122.2930942633076
 30
0.0
 11
156.4124233323086
 21
122.2618442037076
 31
0.0
  0
LINE
  5
231AE
330
22F93
100
AcDbEntity
  8
5_ALL_CURVES
  6
Continuous
100
AcDbLine
 10
155.7741254020086
 20
121.9805942037076
 30
0.0
 11
155.9336999404087
 21
122.0118442633076
 31
0.0
  0
LINE
  5
231AF
330
22F93
100
AcDbEntity
  8
5_ALL_CURVES
  6
Continuous
100
AcDbLine
 10
156.5719977814086
 20
120.7930942633076
 30
0.0
 11
156.4124233323086
 21
120.7618442931075
 31
0.0
  0
LINE
  5
231B0
330
22F93
100
AcDbEntity
  8
5_ALL_CURVES
  6
Continuous
100
AcDbLine
 10
156.4124233323086
 20
122.4493443825075
 30
0.0
 11
156.5400828916087
 21
122.4805942633076
 31
0.0
  0
LINE
  5
231B1
330
22F93
100
AcDbEntity
  8
5_ALL_CURVES
  6
Continuous
100
AcDbLine
 10
155.9336999404087
 20
121.8243442633076
 30
0.0
 11
155.8060403812086
 21
121.7930942037076
 31
0.0
  0
LINE
  5
231B2
330
22F93
100
AcDbEntity
  8
5_ALL_CURVES
  6
Continuous
100
AcDbLine
 10
156.4124233323086
 20
120.9493442037076
 30
0.0
 11
156.5400828916087
 21
120.9805942633076
 31
0.0
  0
LINE
  5
231B3
330
22F93
100
AcDbEntity
  8
5_ALL_CURVES
  6
Continuous
100
AcDbLine
 10
156.8911467214086
 20
123.1993443825075
 30
0.0
 11
156.9230616140086
 21
123.0430942633076
 31
0.0
  0
LINE
  5
231B4
330
22F93
100
AcDbEntity
  8
5_ALL_CURVES
  6
Continuous
100
AcDbLine
 10
156.7315722528086
 20
123.0430942633076
 30
0.0
 11
156.6996573630086
 21
123.1680941441076
 31
0.0
  0
LINE
  5
231B5
330
22F93
100
AcDbEntity
  8
5_ALL_CURVES
  6
Continuous
100
AcDbLine
 10
155.6145509529086
 20
122.7618442633076
 30
0.0
 11
155.6464658427086
 21
122.6368443825075
 31
0.0
  0
LINE
  5
231B6
330
22F93
100
AcDbEntity
  8
5_ALL_CURVES
  6
Continuous
100
AcDbLine
 10
156.6996573630086
 20
122.6368443825075
 30
0.0
 11
156.7315722528086
 21
122.7618442633076
 31
0.0
  0
LINE
  5
231B7
330
22F93
100
AcDbEntity
  8
5_ALL_CURVES
  6
Continuous
100
AcDbLine
 10
155.6464658427086
 20
123.1680941441076
 30
0.0
 11
155.6145509529086
 21
123.0430942633076
 31
0.0
  0
LINE
  5
231B8
330
22F93
100
AcDbEntity
  8
5_ALL_CURVES
  6
Continuous
100
AcDbLine
 10
155.4230616140086
 20
123.0430942633076
 30
0.0
 11
155.4549765039086
 21
123.1993443825075
 31
0.0
  0
LINE
  5
231B9
330
22F93
100
AcDbEntity
  8
5_ALL_CURVES
  6
Continuous
100
AcDbLine
 10
156.9230616140086
 20
123.0430942633076
 30
0.0
 11
156.9230616140086
 21
122.7618442633076
 31
0.0
  0
LINE
  5
231BA
330
22F93
100
AcDbEntity
  8
5_ALL_CURVES
  6
Continuous
100
AcDbLine
 10
156.9230616140086
 20
123.9180941441076
 30
0.0
 11
156.9230616140086
 21
123.7305941441078
 31
0.0
  0
LINE
  5
231BB
330
22F93
100
AcDbEntity
  8
5_ALL_CURVES
  6
Continuous
100
AcDbLine
 10
156.9230616140086
 20
124.8555941441078
 30
0.0
 11
156.9230616140086
 21
124.6055943825075
 31
0.0
  0
LINE
  5
231BC
330
22F93
100
AcDbEntity
  8
5_ALL_CURVES
  6
Continuous
100
AcDbLine
 10
156.7315722528086
 20
122.7618442633076
 30
0.0
 11
156.7315722528086
 21
123.0430942633076
 31
0.0
  0
LINE
  5
231BD
330
22F93
100
AcDbEntity
  8
5_ALL_CURVES
  6
Continuous
100
AcDbLine
 10
156.5400828916087
 20
123.2930943825075
 30
0.0
 11
156.5400828916087
 21
123.4805943825075
 31
0.0
  0
LINE
  5
231BE
330
22F93
100
AcDbEntity
  8
5_ALL_CURVES
  6
Continuous
100
AcDbLine
 10
155.8060403812086
 20
123.4805943825075
 30
0.0
 11
155.8060403812086
 21
123.2930943825075
 31
0.0
  0
LINE
  5
231BF
330
22F93
100
AcDbEntity
  8
5_ALL_CURVES
  6
Continuous
100
AcDbLine
 10
155.6145509529086
 20
123.0430942633076
 30
0.0
 11
155.6145509529086
 21
122.7618442633076
 31
0.0
  0
LINE
  5
231C0
330
22F93
100
AcDbEntity
  8
5_ALL_CURVES
  6
Continuous
100
AcDbLine
 10
155.4230616140086
 20
124.6055943825075
 30
0.0
 11
155.4230616140086
 21
124.8555941441078
 31
0.0
  0
LINE
  5
231C1
330
22F93
100
AcDbEntity
  8
5_ALL_CURVES
  6
Continuous
100
AcDbLine
 10
155.4230616140086
 20
123.7305941441078
 30
0.0
 11
155.4230616140086
 21
123.9180941441076
 31
0.0
  0
LINE
  5
231C2
330
22F93
100
AcDbEntity
  8
5_ALL_CURVES
  6
Continuous
100
AcDbLine
 10
155.4230616140086
 20
122.7618442633076
 30
0.0
 11
155.4230616140086
 21
123.0430942633076
 31
0.0
  0
LINE
  5
231C3
330
22F93
100
AcDbEntity
  8
5_ALL_CURVES
  6
Continuous
100
AcDbLine
 10
156.8273169334086
 20
123.3243442633076
 30
0.0
 11
156.8911467214086
 21
123.1993443825075
 31
0.0
  0
LINE
  5
231C4
330
22F93
100
AcDbEntity
  8
5_ALL_CURVES
  6
Continuous
100
AcDbLine
 10
156.6996573630086
 20
123.1680941441076
 30
0.0
 11
156.6358275610086
 21
123.2618441441076
 31
0.0
  0
LINE
  5
231C5
330
22F93
100
AcDbEntity
  8
5_ALL_CURVES
  6
Continuous
100
AcDbLine
 10
155.7102956224086
 20
123.2618441441076
 30
0.0
 11
155.6464658427086
 21
123.1680941441076
 31
0.0
  0
LINE
  5
231C6
330
22F93
100
AcDbEntity
  8
5_ALL_CURVES
  6
Continuous
100
AcDbLine
 10
155.4549765039086
 20
123.1993443825075
 30
0.0
 11
155.5188062835086
 21
123.3243442633076
 31
0.0
  0
LINE
  5
231C7
330
22F93
100
AcDbEntity
  8
5_ALL_CURVES
  6
Continuous
100
AcDbLine
 10
156.1890190589086
 20
124.1368443825075
 30
0.0
 11
156.4124233323086
 21
123.9180941441076
 31
0.0
  0
LINE
  5
231C8
330
22F93
100
AcDbEntity
  8
5_ALL_CURVES
  6
Continuous
100
AcDbLine
 10
156.6996573630086
 20
123.4493441441076
 30
0.0
 11
156.8273169334086
 21
123.3243442633076
 31
0.0
  0
LINE
  5
231C9
330
22F93
100
AcDbEntity
  8
5_ALL_CURVES
  6
Continuous
100
AcDbLine
 10
156.1571041691086
 20
123.9180941441076
 30
0.0
 11
155.4230616140086
 21
124.6055943825075
 31
0.0
  0
LINE
  5
231CA
330
22F93
100
AcDbEntity
  8
5_ALL_CURVES
  6
Continuous
100
AcDbLine
 10
155.4230616140086
 20
124.8555941441078
 30
0.0
 11
156.0294446099086
 21
124.2930941441076
 31
0.0
  0
LINE
  5
231CB
330
22F93
100
AcDbEntity
  8
5_ALL_CURVES
  6
Continuous
100
AcDbLine
 10
155.5188062835086
 20
123.3243442633076
 30
0.0
 11
155.6464658427086
 21
123.4493441441076
 31
0.0
  0
LINE
  5
231CC
330
22F93
100
AcDbEntity
  8
5_ALL_CURVES
  6
Continuous
100
AcDbLine
 10
156.0294446099086
 20
124.2930941441076
 30
0.0
 11
156.9230616140086
 21
124.8555941441078
 31
0.0
  0
LINE
  5
231CD
330
22F93
100
AcDbEntity
  8
5_ALL_CURVES
  6
Continuous
100
AcDbLine
 10
156.9230616140086
 20
124.6055943825075
 30
0.0
 11
156.1890190589086
 21
124.1368443825075
 31
0.0
  0
LINE
  5
231CE
330
22F93
100
AcDbEntity
  8
5_ALL_CURVES
  6
Continuous
100
AcDbLine
 10
156.6358275610086
 20
123.2618441441076
 30
0.0
 11
156.5400828916087
 21
123.2930943825075
 31
0.0
  0
LINE
  5
231CF
330
22F93
100
AcDbEntity
  8
5_ALL_CURVES
  6
Continuous
100
AcDbLine
 10
155.8060403812086
 20
123.2930943825075
 30
0.0
 11
155.7102956224086
 21
123.2618441441076
 31
0.0
  0
LINE
  5
231D0
330
22F93
100
AcDbEntity
  8
5_ALL_CURVES
  6
Continuous
100
AcDbLine
 10
156.5400828916087
 20
123.4805943825075
 30
0.0
 11
156.6996573630086
 21
123.4493441441076
 31
0.0
  0
LINE
  5
231D1
330
22F93
100
AcDbEntity
  8
5_ALL_CURVES
  6
Continuous
100
AcDbLine
 10
156.4124233323086
 20
123.9180941441076
 30
0.0
 11
156.9230616140086
 21
123.9180941441076
 31
0.0
  0
LINE
  5
231D2
330
22F93
100
AcDbEntity
  8
5_ALL_CURVES
  6
Continuous
100
AcDbLine
 10
155.4230616140086
 20
123.9180941441076
 30
0.0
 11
156.1571041691086
 21
123.9180941441076
 31
0.0
  0
LINE
  5
231D3
330
22F93
100
AcDbEntity
  8
5_ALL_CURVES
  6
Continuous
100
AcDbLine
 10
156.9230616140086
 20
123.7305941441078
 30
0.0
 11
155.4230616140086
 21
123.7305941441078
 31
0.0
  0
LINE
  5
231D4
330
22F93
100
AcDbEntity
  8
5_ALL_CURVES
  6
Continuous
100
AcDbLine
 10
155.6464658427086
 20
123.4493441441076
 30
0.0
 11
155.8060403812086
 21
123.4805943825075
 31
0.0
  0
LINE
  5
231D5
330
22F93
100
AcDbEntity
  8
実線
100
AcDbLine
 10
231.0780793355765
 20
114.3858273462609
 30
0.0
 11
231.5395029124765
 21
113.9244037693611
 31
0.0
  0
LINE
  5
231D6
330
22F93
100
AcDbEntity
  8
実線
100
AcDbLine
 10
231.0780793355765
 20
117.401919769761
 30
0.0
 11
231.0780793355765
 21
114.3858273462609
 31
0.0
  0
LINE
  5
231D7
330
22F93
100
AcDbEntity
  8
実線
100
AcDbLine
 10
247.2244196247765
 20
102.0173498885608
 30
0.0
 11
248.8362510871765
 21
99.10952895686097
 31
0.0
  0
LINE
  5
231D8
330
22F93
100
AcDbEntity
  8
実線
100
AcDbLine
 10
247.7825274788765
 20
105.1358273462609
 30
0.0
 11
250.9495099073765
 21
99.42243980516089
 31
0.0
  0
LINE
  5
231D9
330
22F93
100
AcDbEntity
  8
実線
100
AcDbLine
 10
241.0764997864764
 20
100.8638742881608
 30
0.0
 11
237.4512686383766
 21
99.17340124116112
 31
0.0
  0
LINE
  5
231DA
330
22F93
100
AcDbEntity
  8
実線
100
AcDbLine
 10
237.4512686383766
 20
99.17340124116112
 30
0.0
 11
236.8173412457764
 21
100.5328629217608
 31
0.0
  0
LINE
  5
231DB
330
22F93
100
AcDbEntity
  8
実線
100
AcDbLine
 10
244.6005605032765
 20
100.5629210277608
 30
0.0
 11
246.2123919657765
 21
97.65510009606089
 31
0.0
  0
LINE
  5
231DC
330
22F93
100
AcDbEntity
  8
実線
100
AcDbLine
 10
250.0840212847765
 20
98.40549093746085
 30
0.0
 11
248.8362510871765
 21
99.10952895686097
 31
0.0
  0
LINE
  5
231DD
330
22F93
100
AcDbEntity
  8
実線
100
AcDbLine
 10
249.8933344305765
 20
98.74949912866089
 30
0.0
 11
248.6455642329765
 21
99.45353714806083
 31
0.0
  0
LINE
  5
231DE
330
22F93
100
AcDbEntity
  8
実線
100
AcDbLine
 10
243.2405314377765
 20
98.89114773136117
 30
0.0
 11
238.8490503943765
 21
96.45691003976105
 31
0.0
  0
LINE
  5
231DF
330
22F93
100
AcDbEntity
  8
実線
100
AcDbLine
 10
238.8490503943765
 20
96.45691003976105
 30
0.0
 11
237.1744227312765
 21
96.95748224326088
 31
0.0
  0
LINE
  5
231E0
330
22F93
100
AcDbEntity
  8
実線
100
AcDbLine
 10
245.9575457484765
 20
96.56785583756096
 30
0.0
 11
246.1482326026765
 21
96.22384764636116
 31
0.0
  0
LINE
  5
231E1
330
22F93
100
AcDbEntity
  8
実線
100
AcDbLine
 10
245.4922678222765
 20
95.86024043116111
 30
0.0
 11
246.1482326026765
 21
96.22384764636116
 31
0.0
  0
LINE
  5
231E2
330
22F93
100
AcDbEntity
  8
実線
100
AcDbLine
 10
245.9575457484765
 20
96.56785583756096
 30
0.0
 11
246.0217051115764
 21
97.99910828736086
 31
0.0
  0
LINE
  5
231E3
330
22F93
100
AcDbEntity
  8
実線
100
AcDbLine
 10
246.1482326026765
 20
96.22384764636116
 30
0.0
 11
246.2123919657765
 21
97.65510009606089
 31
0.0
  0
LINE
  5
231E4
330
22F93
100
AcDbEntity
  8
実線
100
AcDbLine
 10
244.6364851032765
 20
96.37278065466086
 30
0.0
 11
245.3015809681765
 21
96.20424862236086
 31
0.0
  0
LINE
  5
231E5
330
22F93
100
AcDbEntity
  8
実線
100
AcDbLine
 10
243.2405314377765
 20
98.89114773136117
 30
0.0
 11
244.8271719574765
 21
96.02877246346118
 31
0.0
  0
LINE
  5
231E6
330
22F93
100
AcDbEntity
  8
実線
100
AcDbLine
 10
245.3015809681765
 20
96.20424862236086
 30
0.0
 11
245.4922678222765
 21
95.86024043116111
 31
0.0
  0
LINE
  5
231E7
330
22F93
100
AcDbEntity
  8
実線
100
AcDbLine
 10
244.8271719574765
 20
96.02877246346118
 30
0.0
 11
245.4922678222765
 21
95.86024043116111
 31
0.0
  0
LINE
  5
231E8
330
22F93
100
AcDbEntity
  8
実線
100
AcDbLine
 10
243.7253410579765
 20
98.01652802426117
 30
0.0
 11
245.4745804722765
 21
98.98614726476097
 31
0.0
  0
LINE
  5
231E9
330
22F93
100
AcDbEntity
  8
実線
100
AcDbLine
 10
245.3015809681765
 20
96.20424862236086
 30
0.0
 11
245.9575457484765
 21
96.56785583756096
 31
0.0
  0
LINE
  5
231EA
330
22F93
100
AcDbEntity
  8
実線
100
AcDbLine
 10
249.8933344305765
 20
98.74949912866089
 30
0.0
 11
250.0840212847765
 21
98.40549093746085
 31
0.0
  0
LINE
  5
231EB
330
22F93
100
AcDbEntity
  8
実線
100
AcDbLine
 10
250.5492992109765
 20
99.11310634386087
 30
0.0
 11
250.7399860651765
 21
98.76909815266088
 31
0.0
  0
LINE
  5
231EC
330
22F93
100
AcDbEntity
  8
実線
100
AcDbLine
 10
250.5492992109765
 20
99.11310634386087
 30
0.0
 11
250.7588230532765
 21
99.76644799636085
 31
0.0
  0
LINE
  5
231ED
330
22F93
100
AcDbEntity
  8
実線
100
AcDbLine
 10
250.7399860651765
 20
98.76909815266088
 30
0.0
 11
250.9495099073765
 21
99.42243980516089
 31
0.0
  0
LINE
  5
231EE
330
22F93
100
AcDbEntity
  8
実線
100
AcDbLine
 10
249.8933344305765
 20
98.74949912866089
 30
0.0
 11
250.5492992109765
 21
99.11310634386087
 31
0.0
  0
LINE
  5
231EF
330
22F93
100
AcDbEntity
  8
実線
100
AcDbLine
 10
250.0840212847765
 20
98.40549093746085
 30
0.0
 11
250.7399860651765
 21
98.76909815266088
 31
0.0
  0
LINE
  5
231F0
330
22F93
100
AcDbEntity
  8
実線
100
AcDbLine
 10
239.6280793355765
 20
112.8858273462608
 30
0.0
 11
253.5280793355765
 21
112.8858273462608
 31
0.0
  0
LINE
  5
231F1
330
22F93
100
AcDbEntity
  8
実線
100
AcDbLine
 10
248.0984395936765
 20
100.4405761254609
 30
0.0
 11
249.8476790079765
 21
101.4101953659611
 31
0.0
  0
LINE
  5
231F2
330
22F93
100
AcDbEntity
  8
実線
100
AcDbLine
 10
239.8780793355764
 20
113.1358273462609
 30
0.0
 11
239.8780793355764
 21
112.8858273462608
 31
0.0
  0
LINE
  5
231F3
330
22F93
100
AcDbEntity
  8
実線
100
AcDbLine
 10
241.0780793355765
 20
112.8858273462608
 30
0.0
 11
241.0780793355765
 21
113.1358273462609
 31
0.0
  0
LINE
  5
231F4
330
22F93
100
AcDbEntity
  8
実線
100
AcDbLine
 10
239.6280793355765
 20
121.6358273462609
 30
0.0
 11
239.6280793355765
 21
112.8858273462608
 31
0.0
  0
LINE
  5
231F5
330
22F93
100
AcDbEntity
  8
実線
100
AcDbLine
 10
241.0280793355765
 20
113.1358273462609
 30
0.0
 11
241.0280793355765
 21
106.6358273462608
 31
0.0
  0
LINE
  5
231F6
330
22F93
100
AcDbEntity
  8
実線
100
AcDbLine
 10
239.6280793355765
 20
106.6358273462608
 30
0.0
 11
244.8327558567765
 21
106.6358273462608
 31
0.0
  0
LINE
  5
231F7
330
22F93
100
AcDbEntity
  8
実線
100
AcDbLine
 10
240.4425723938765
 20
102.2233359686608
 30
0.0
 11
241.0764997864764
 21
100.8638742881608
 31
0.0
  0
LINE
  5
231F8
330
22F93
100
AcDbEntity
  8
実線
100
AcDbLine
 10
239.6280793355765
 20
105.1358273462609
 30
0.0
 11
247.7825274788765
 21
105.1358273462609
 31
0.0
  0
LINE
  5
231F9
330
22F93
100
AcDbEntity
  8
実線
100
AcDbLine
 10
239.6280793355765
 20
106.6358273462608
 30
0.0
 11
239.6280793355765
 21
105.1358273462609
 31
0.0
  0
LINE
  5
231FA
330
22F93
100
AcDbEntity
  8
実線
100
AcDbLine
 10
236.8173412457764
 20
100.5328629217608
 30
0.0
 11
240.4425723938765
 21
102.2233359686608
 31
0.0
  0
LINE
  5
231FB
330
22F93
100
AcDbEntity
  8
実線
100
AcDbLine
 10
242.1780793355765
 20
111.6358273462608
 30
0.0
 11
241.0280793355765
 21
111.6358273462608
 31
0.0
  0
LINE
  5
231FC
330
22F93
100
AcDbEntity
  8
実線
100
AcDbLine
 10
242.1780793355765
 20
107.8858273462609
 30
0.0
 11
241.0280793355765
 21
107.8858273462609
 31
0.0
  0
ARC
  5
231FD
330
22F93
100
AcDbEntity
  8
実線
100
AcDbCircle
 10
245.9124900639765
 20
101.2901354581611
 30
0.0
 40
1.5
100
AcDbArc
 50
29.00000000000146
 51
209.0000000000013
  0
ARC
  5
231FE
330
22F93
100
AcDbEntity
  8
実線
100
AcDbCircle
 10
286.5280793355765
 20
122.8858273462609
 30
0.0
 40
44.75
100
AcDbArc
 50
201.2924521800004
 51
203.3935655170008
  0
LINE
  5
231FF
330
22F93
100
AcDbEntity
  8
実線
100
AcDbLine
 10
242.1780793355765
 20
106.6358273462608
 30
0.0
 11
242.1780793355765
 21
112.8858273462608
 31
0.0
  0
LINE
  5
23200
330
22F93
100
AcDbEntity
  8
実線
100
AcDbLine
 10
242.2280793355765
 20
113.1358273462609
 30
0.0
 11
239.6280793355765
 21
113.1358273462609
 31
0.0
  0
LINE
  5
23201
330
22F93
100
AcDbEntity
  8
実線
100
AcDbLine
 10
237.4530793355765
 20
122.6858273462609
 30
0.0
 11
237.4530793355765
 21
123.0858273462608
 31
0.0
  0
LINE
  5
23202
330
22F93
100
AcDbEntity
  8
実線
100
AcDbLine
 10
238.1280793355764
 20
122.0108273462608
 30
0.0
 11
238.1280793355764
 21
122.6858273462609
 31
0.0
  0
LINE
  5
23203
330
22F93
100
AcDbEntity
  8
実線
100
AcDbLine
 10
238.1280793355764
 20
123.0858273462608
 30
0.0
 11
238.1280793355764
 21
123.7608273462609
 31
0.0
  0
LINE
  5
23204
330
22F93
100
AcDbEntity
  8
実線
100
AcDbLine
 10
238.5280793355765
 20
123.7608273462609
 30
0.0
 11
238.5280793355765
 21
123.0858273462608
 31
0.0
  0
LINE
  5
23205
330
22F93
100
AcDbEntity
  8
実線
100
AcDbLine
 10
238.5280793355765
 20
122.6858273462609
 30
0.0
 11
238.5280793355765
 21
122.0108273462608
 31
0.0
  0
LINE
  5
23206
330
22F93
100
AcDbEntity
  8
実線
100
AcDbLine
 10
239.2030793355765
 20
123.0858273462608
 30
0.0
 11
239.2030793355765
 21
122.6858273462609
 31
0.0
  0
LINE
  5
23207
330
22F93
100
AcDbEntity
  8
実線
100
AcDbLine
 10
239.4970391020765
 20
121.6358273462609
 30
0.0
 11
239.6280793355765
 21
121.6358273462609
 31
0.0
  0
LINE
  5
23208
330
22F93
100
AcDbEntity
  8
実線
100
AcDbLine
 10
238.5280793355765
 20
122.0108273462608
 30
0.0
 11
238.1280793355764
 21
122.0108273462608
 31
0.0
  0
LINE
  5
23209
330
22F93
100
AcDbEntity
  8
実線
100
AcDbLine
 10
239.2030793355765
 20
122.6858273462609
 30
0.0
 11
238.5280793355765
 21
122.6858273462609
 31
0.0
  0
LINE
  5
2320A
330
22F93
100
AcDbEntity
  8
実線
100
AcDbLine
 10
238.1280793355764
 20
122.6858273462609
 30
0.0
 11
237.4530793355765
 21
122.6858273462609
 31
0.0
  0
LINE
  5
2320B
330
22F93
100
AcDbEntity
  8
実線
100
AcDbLine
 10
237.4530793355765
 20
123.0858273462608
 30
0.0
 11
238.1280793355764
 21
123.0858273462608
 31
0.0
  0
LINE
  5
2320C
330
22F93
100
AcDbEntity
  8
実線
100
AcDbLine
 10
238.5280793355765
 20
123.0858273462608
 30
0.0
 11
239.2030793355765
 21
123.0858273462608
 31
0.0
  0
LINE
  5
2320D
330
22F93
100
AcDbEntity
  8
実線
100
AcDbLine
 10
238.1280793355764
 20
123.7608273462609
 30
0.0
 11
238.5280793355765
 21
123.7608273462609
 31
0.0
  0
CIRCLE
  5
2320E
330
22F93
100
AcDbEntity
  8
実線
100
AcDbCircle
 10
238.3280793355765
 20
122.8858273462609
 30
0.0
 40
1.75
  0
CIRCLE
  5
2320F
330
22F93
100
AcDbEntity
  8
実線
100
AcDbCircle
 10
261.6298489767765
 20
108.5108273462608
 30
0.0
 40
1.0
  0
LINE
  5
23210
330
22F93
100
AcDbEntity
  8
5_ALL_CURVES
  6
Continuous
100
AcDbLine
 10
154.7102626944087
 20
134.2031447031076
 30
0.0
 11
154.5666215545086
 21
134.7792578485077
 31
0.0
  0
LINE
  5
23211
330
22F93
100
AcDbEntity
  8
5_ALL_CURVES
  6
Continuous
100
AcDbLine
 10
154.1021182499086
 20
134.6634441672077
 30
0.0
 11
154.2457593898086
 21
134.0873310219075
 31
0.0
  0
LINE
  5
23212
330
22F93
100
AcDbEntity
  8
5_ALL_CURVES
  6
Continuous
100
AcDbLine
 10
154.1362853393086
 20
133.8667960200077
 30
0.0
 11
153.9548439176086
 21
134.5945178147077
 31
0.0
  0
LINE
  5
23213
330
22F93
100
AcDbEntity
  8
5_ALL_CURVES
  6
Continuous
100
AcDbLine
 10
155.5917289287086
 20
134.2296788634075
 30
0.0
 11
154.1362853393086
 21
133.8667960200077
 31
0.0
  0
LINE
  5
23214
330
22F93
100
AcDbEntity
  8
5_ALL_CURVES
  6
Continuous
100
AcDbLine
 10
155.7731703504086
 20
133.5019570687076
 30
0.0
 11
155.8336508207086
 21
133.2593831516076
 31
0.0
  0
LINE
  5
23215
330
22F93
100
AcDbEntity
  8
5_ALL_CURVES
  6
Continuous
100
AcDbLine
 10
155.6478495119086
 20
133.2130576823076
 30
0.0
 11
155.5873690416086
 21
133.4556315995076
 31
0.0
  0
LINE
  5
23216
330
22F93
100
AcDbEntity
  8
5_ALL_CURVES
  6
Continuous
100
AcDbLine
 10
154.5035280481087
 20
133.1853996892077
 30
0.0
 11
154.5640085184086
 21
132.9428257720076
 31
0.0
  0
LINE
  5
23217
330
22F93
100
AcDbEntity
  8
5_ALL_CURVES
  6
Continuous
100
AcDbLine
 10
154.3782072313087
 20
132.8965003082075
 30
0.0
 11
154.3177267610086
 21
133.1390742253077
 31
0.0
  0
LINE
  5
23218
330
22F93
100
AcDbEntity
  8
5_ALL_CURVES
  6
Continuous
100
AcDbLine
 10
155.7044031631086
 20
133.6458448935076
 30
0.0
 11
155.7731703504086
 21
133.5019570687076
 31
0.0
  0
LINE
  5
23219
330
22F93
100
AcDbEntity
  8
5_ALL_CURVES
  6
Continuous
100
AcDbLine
 10
154.4469744105087
 20
132.7526125044076
 30
0.0
 11
154.3782072313087
 21
132.8965003082075
 31
0.0
  0
LINE
  5
2321A
330
22F93
100
AcDbEntity
  8
5_ALL_CURVES
  6
Continuous
100
AcDbLine
 10
155.5873690416086
 20
133.4556315995076
 30
0.0
 11
155.5261619307086
 21
133.5691976257077
 31
0.0
  0
LINE
  5
2321B
330
22F93
100
AcDbEntity
  8
5_ALL_CURVES
  6
Continuous
100
AcDbLine
 10
154.5640085184086
 20
132.9428257720076
 30
0.0
 11
154.6252156402086
 21
132.8292597024076
 31
0.0
  0
LINE
  5
2321C
330
22F93
100
AcDbEntity
  8
5_ALL_CURVES
  6
Continuous
100
AcDbLine
 10
155.6471228713086
 20
133.0840497915077
 30
0.0
 11
155.6478495119086
 21
133.2130576823076
 31
0.0
  0
LINE
  5
2321D
330
22F93
100
AcDbEntity
  8
5_ALL_CURVES
  6
Continuous
100
AcDbLine
 10
154.5042546996086
 20
133.3144075367076
 30
0.0
 11
154.5035280481087
 21
133.1853996892077
 31
0.0
  0
LINE
  5
2321E
330
22F93
100
AcDbEntity
  8
5_ALL_CURVES
  6
Continuous
100
AcDbLine
 10
155.8336508207086
 20
133.2593831516076
 30
0.0
 11
155.8404842348086
 21
133.1000535258076
 31
0.0
  0
LINE
  5
2321F
330
22F93
100
AcDbEntity
  8
5_ALL_CURVES
  6
Continuous
100
AcDbLine
 10
154.3177267610086
 20
133.1390742253077
 30
0.0
 11
154.3108933388086
 21
133.2984038721077
 31
0.0
  0
LINE
  5
23220
330
22F93
100
AcDbEntity
  8
5_ALL_CURVES
  6
Continuous
100
AcDbLine
 10
155.6122291629086
 20
133.7516900071077
 30
0.0
 11
155.7044031631086
 21
133.6458448935076
 31
0.0
  0
LINE
  5
23221
330
22F93
100
AcDbEntity
  8
5_ALL_CURVES
  6
Continuous
100
AcDbLine
 10
154.5391484134086
 20
132.6467673454077
 30
0.0
 11
154.4469744105087
 21
132.7526125044076
 31
0.0
  0
LINE
  5
23222
330
22F93
100
AcDbEntity
  8
5_ALL_CURVES
  6
Continuous
100
AcDbLine
 10
155.5261619307086
 20
133.5691976257077
 30
0.0
 11
155.4415479689086
 21
133.6447210233076
 31
0.0
  0
LINE
  5
23223
330
22F93
100
AcDbEntity
  8
5_ALL_CURVES
  6
Continuous
100
AcDbLine
 10
155.6078692649087
 20
132.9776427404077
 30
0.0
 11
155.6471228713086
 21
133.0840497915077
 31
0.0
  0
LINE
  5
23224
330
22F93
100
AcDbEntity
  8
5_ALL_CURVES
  6
Continuous
100
AcDbLine
 10
154.5435082843086
 20
133.4208145823076
 30
0.0
 11
154.5042546996086
 21
133.3144075367076
 31
0.0
  0
LINE
  5
23225
330
22F93
100
AcDbEntity
  8
5_ALL_CURVES
  6
Continuous
100
AcDbLine
 10
155.8404842348086
 20
133.1000535258076
 30
0.0
 11
155.8087907048086
 21
132.9633247223075
 31
0.0
  0
LINE
  5
23226
330
22F93
100
AcDbEntity
  8
5_ALL_CURVES
  6
Continuous
100
AcDbLine
 10
154.3108933388086
 20
133.2984038721077
 30
0.0
 11
154.3425868714086
 21
133.4351326302075
 31
0.0
  0
LINE
  5
23227
330
22F93
100
AcDbEntity
  8
5_ALL_CURVES
  6
Continuous
100
AcDbLine
 10
154.6252156402086
 20
132.8292597024076
 30
0.0
 11
154.7098295803086
 21
132.7537362994076
 31
0.0
  0
LINE
  5
23228
330
22F93
100
AcDbEntity
  8
5_ALL_CURVES
  6
Continuous
100
AcDbLine
 10
155.3874402033086
 20
131.3636461570076
 30
0.0
 11
156.2449982173086
 21
130.7405937895076
 31
0.0
  0
LINE
  5
23229
330
22F93
100
AcDbEntity
  8
5_ALL_CURVES
  6
Continuous
100
AcDbLine
 10
155.4581213975086
 20
133.8420932987076
 30
0.0
 11
155.6122291629086
 21
133.7516900071077
 31
0.0
  0
LINE
  5
2322A
330
22F93
100
AcDbEntity
  8
5_ALL_CURVES
  6
Continuous
100
AcDbLine
 10
154.7643878359086
 20
130.5060881429075
 30
0.0
 11
155.3874402033086
 21
131.3636461570076
 31
0.0
  0
LINE
  5
2322B
330
22F93
100
AcDbEntity
  8
5_ALL_CURVES
  6
Continuous
100
AcDbLine
 10
155.8087907048086
 20
132.9633247223075
 30
0.0
 11
155.7151634044086
 21
132.8111541184076
 31
0.0
  0
LINE
  5
2322C
330
22F93
100
AcDbEntity
  8
5_ALL_CURVES
  6
Continuous
100
AcDbLine
 10
154.3425868714086
 20
133.4351326302075
 30
0.0
 11
154.4362141665086
 21
133.5873032097077
 31
0.0
  0
LINE
  5
2322D
330
22F93
100
AcDbEntity
  8
5_ALL_CURVES
  6
Continuous
100
AcDbLine
 10
154.6932561733086
 20
132.5563640294076
 30
0.0
 11
154.5391484134086
 21
132.6467673454077
 31
0.0
  0
LINE
  5
2322E
330
22F93
100
AcDbEntity
  8
5_ALL_CURVES
  6
Continuous
100
AcDbLine
 10
155.5300887416086
 20
132.8938365184075
 30
0.0
 11
155.6078692649087
 21
132.9776427404077
 31
0.0
  0
LINE
  5
2322F
330
22F93
100
AcDbEntity
  8
5_ALL_CURVES
  6
Continuous
100
AcDbLine
 10
154.6212888889086
 20
133.5046208476076
 30
0.0
 11
154.5435082843086
 21
133.4208145823076
 31
0.0
  0
LINE
  5
23230
330
22F93
100
AcDbEntity
  8
5_ALL_CURVES
  6
Continuous
100
AcDbLine
 10
155.4415479689086
 20
133.6447210233076
 30
0.0
 11
155.3335271996086
 21
133.6822018032076
 31
0.0
  0
LINE
  5
23231
330
22F93
100
AcDbEntity
  8
5_ALL_CURVES
  6
Continuous
100
AcDbLine
 10
154.7098295803086
 20
132.7537362994076
 30
0.0
 11
154.8178504309086
 21
132.7162555628077
 31
0.0
  0
LINE
  5
23232
330
22F93
100
AcDbEntity
  8
5_ALL_CURVES
  6
Continuous
100
AcDbLine
 10
155.3191337254086
 20
133.8718531625076
 30
0.0
 11
155.4581213975086
 21
133.8420932987076
 31
0.0
  0
LINE
  5
23233
330
22F93
100
AcDbEntity
  8
5_ALL_CURVES
  6
Continuous
100
AcDbLine
 10
155.7151634044086
 20
132.8111541184076
 30
0.0
 11
155.6064159762086
 21
132.7196269885075
 31
0.0
  0
LINE
  5
23234
330
22F93
100
AcDbEntity
  8
5_ALL_CURVES
  6
Continuous
100
AcDbLine
 10
154.4362141665086
 20
133.5873032097077
 30
0.0
 11
154.5449615655086
 21
133.6788303641076
 31
0.0
  0
LINE
  5
23235
330
22F93
100
AcDbEntity
  8
5_ALL_CURVES
  6
Continuous
100
AcDbLine
 10
154.8322438163086
 20
132.5266041900077
 30
0.0
 11
154.6932561733086
 21
132.5563640294076
 31
0.0
  0
LINE
  5
23236
330
22F93
100
AcDbEntity
  8
5_ALL_CURVES
  6
Continuous
100
AcDbLine
 10
155.4137812743086
 20
132.8326311416077
 30
0.0
 11
155.5300887416086
 21
132.8938365184075
 31
0.0
  0
LINE
  5
23237
330
22F93
100
AcDbEntity
  8
5_ALL_CURVES
  6
Continuous
100
AcDbLine
 10
155.3335271996086
 20
133.6822018032076
 30
0.0
 11
155.2020996228086
 21
133.6816398732077
 31
0.0
  0
LINE
  5
23238
330
22F93
100
AcDbEntity
  8
5_ALL_CURVES
  6
Continuous
100
AcDbLine
 10
154.8178504309086
 20
132.7162555628077
 30
0.0
 11
154.9492780131086
 21
132.7168174712076
 31
0.0
  0
LINE
  5
23239
330
22F93
100
AcDbEntity
  8
5_ALL_CURVES
  6
Continuous
100
AcDbLine
 10
155.1567392674086
 20
133.8635703219077
 30
0.0
 11
155.3191337254086
 21
133.8718531625076
 31
0.0
  0
LINE
  5
2323A
330
22F93
100
AcDbEntity
  8
5_ALL_CURVES
  6
Continuous
100
AcDbLine
 10
155.6064159762086
 20
132.7196269885075
 30
0.0
 11
155.4591416297086
 21
132.6507006929075
 31
0.0
  0
LINE
  5
2323B
330
22F93
100
AcDbEntity
  8
5_ALL_CURVES
  6
Continuous
100
AcDbLine
 10
154.5449615655086
 20
133.6788303641076
 30
0.0
 11
154.6922360062086
 21
133.7477566514077
 31
0.0
  0
LINE
  5
2323C
330
22F93
100
AcDbEntity
  8
5_ALL_CURVES
  6
Continuous
100
AcDbLine
 10
154.7375963616086
 20
133.5658262027075
 30
0.0
 11
154.6212888889086
 21
133.5046208476076
 31
0.0
  0
LINE
  5
2323D
330
22F93
100
AcDbEntity
  8
5_ALL_CURVES
  6
Continuous
100
AcDbLine
 10
154.9946383685086
 20
132.5348870225075
 30
0.0
 11
154.8322438163086
 21
132.5266041900077
 31
0.0
  0
LINE
  5
2323E
330
22F93
100
AcDbEntity
  8
5_ALL_CURVES
  6
Continuous
100
AcDbLine
 10
155.0113099210086
 20
130.5451967592076
 30
0.0
 11
154.7643878359086
 21
130.5060881429075
 31
0.0
  0
LINE
  5
2323F
330
22F93
100
AcDbEntity
  8
5_ALL_CURVES
  6
Continuous
100
AcDbLine
 10
156.2449982173086
 20
130.7405937895076
 30
0.0
 11
155.9980761322086
 21
130.7014851733076
 31
0.0
  0
LINE
  5
23240
330
22F93
100
AcDbEntity
  8
5_ALL_CURVES
  6
Continuous
100
AcDbLine
 10
154.2457593898086
 20
134.0873310219075
 30
0.0
 11
154.7102626944087
 21
134.2031447031076
 31
0.0
  0
LINE
  5
23241
330
22F93
100
AcDbEntity
  8
5_ALL_CURVES
  6
Continuous
100
AcDbLine
 10
154.6922360062086
 20
133.7477566514077
 30
0.0
 11
155.1567392674086
 21
133.8635703219077
 31
0.0
  0
LINE
  5
23242
330
22F93
100
AcDbEntity
  8
5_ALL_CURVES
  6
Continuous
100
AcDbLine
 10
155.2020996228086
 20
133.6816398732077
 30
0.0
 11
154.7375963616086
 21
133.5658262027075
 31
0.0
  0
LINE
  5
23243
330
22F93
100
AcDbEntity
  8
5_ALL_CURVES
  6
Continuous
100
AcDbLine
 10
154.9492780131086
 20
132.7168174712076
 30
0.0
 11
155.4137812743086
 21
132.8326311416077
 31
0.0
  0
LINE
  5
23244
330
22F93
100
AcDbEntity
  8
5_ALL_CURVES
  6
Continuous
100
AcDbLine
 10
155.4591416297086
 20
132.6507006929075
 30
0.0
 11
154.9946383685086
 21
132.5348870225075
 31
0.0
  0
LINE
  5
23245
330
22F93
100
AcDbEntity
  8
5_ALL_CURVES
  6
Continuous
100
AcDbLine
 10
155.5463685733086
 20
134.4116093121077
 30
0.0
 11
155.5917289287086
 21
134.2296788634075
 31
0.0
  0
LINE
  5
23246
330
22F93
100
AcDbEntity
  8
5_ALL_CURVES
  6
Continuous
100
AcDbLine
 10
154.9793641305086
 20
136.6857399206076
 30
0.0
 11
155.2515262630086
 21
135.5941572285077
 31
0.0
  0
LINE
  5
23247
330
22F93
100
AcDbEntity
  8
5_ALL_CURVES
  6
Continuous
100
AcDbLine
 10
154.8735232723086
 20
137.1102444165076
 30
0.0
 11
154.9188836277086
 21
136.9283139678076
 31
0.0
  0
LINE
  5
23248
330
22F93
100
AcDbEntity
  8
5_ALL_CURVES
  6
Continuous
100
AcDbLine
 10
154.6164812871086
 20
138.1411835100077
 30
0.0
 11
154.6845218202086
 21
137.8682878370077
 31
0.0
  0
LINE
  5
23249
330
22F93
100
AcDbEntity
  8
5_ALL_CURVES
  6
Continuous
100
AcDbLine
 10
155.0203645988086
 20
135.7297622079076
 30
0.0
 11
154.7935628217086
 21
136.6394144513075
 31
0.0
  0
LINE
  5
2324A
330
22F93
100
AcDbEntity
  8
5_ALL_CURVES
  6
Continuous
100
AcDbLine
 10
154.7599829153086
 20
134.7952615130075
 30
0.0
 11
154.8960639816087
 21
134.2494701670075
 31
0.0
  0
LINE
  5
2324B
330
22F93
100
AcDbEntity
  8
5_ALL_CURVES
  6
Continuous
100
AcDbLine
 10
154.3283328657086
 20
136.3945930147077
 30
0.0
 11
154.5248944347086
 21
135.6062276214077
 31
0.0
  0
LINE
  5
2324C
330
22F93
100
AcDbEntity
  8
5_ALL_CURVES
  6
Continuous
100
AcDbLine
 10
154.3390931475086
 20
135.5599021576077
 30
0.0
 11
154.1425315785086
 21
136.3482675509076
 31
0.0
  0
LINE
  5
2324D
330
22F93
100
AcDbEntity
  8
5_ALL_CURVES
  6
Continuous
100
AcDbLine
 10
153.7097218282086
 20
136.3691825410077
 30
0.0
 11
153.9365236053086
 21
135.4595302976076
 31
0.0
  0
LINE
  5
2324E
330
22F93
100
AcDbEntity
  8
5_ALL_CURVES
  6
Continuous
100
AcDbLine
 10
153.2063980531086
 20
137.5963702179076
 30
0.0
 11
153.1610376977086
 21
137.7783006666077
 31
0.0
  0
LINE
  5
2324F
330
22F93
100
AcDbEntity
  8
5_ALL_CURVES
  6
Continuous
100
AcDbLine
 10
153.4634400383086
 20
136.5654311244076
 30
0.0
 11
153.3953995052086
 21
136.8383267974076
 31
0.0
  0
LINE
  5
23250
330
22F93
100
AcDbEntity
  8
5_ALL_CURVES
  6
Continuous
100
AcDbLine
 10
153.7960826736086
 20
135.2312743851077
 30
0.0
 11
153.5239205411086
 21
136.3228570772076
 31
0.0
  0
LINE
  5
23251
330
22F93
100
AcDbEntity
  8
5_ALL_CURVES
  6
Continuous
100
AcDbLine
 10
154.6912157523086
 20
134.9391492518075
 30
0.0
 11
154.7599829153086
 21
134.7952615130075
 31
0.0
  0
LINE
  5
23252
330
22F93
100
AcDbEntity
  8
5_ALL_CURVES
  6
Continuous
100
AcDbLine
 10
154.5666215545086
 20
134.7792578485077
 30
0.0
 11
154.5129744956086
 21
134.8625021622076
 31
0.0
  0
LINE
  5
23253
330
22F93
100
AcDbEntity
  8
5_ALL_CURVES
  6
Continuous
100
AcDbLine
 10
154.1104049534086
 20
134.7621303022077
 30
0.0
 11
154.1021182499086
 21
134.6634441672077
 31
0.0
  0
LINE
  5
23254
330
22F93
100
AcDbEntity
  8
5_ALL_CURVES
  6
Continuous
100
AcDbLine
 10
153.9548439176086
 20
134.5945178147077
 30
0.0
 11
153.9480105170087
 21
134.7538473748076
 31
0.0
  0
LINE
  5
23255
330
22F93
100
AcDbEntity
  8
5_ALL_CURVES
  6
Continuous
100
AcDbLine
 10
154.5680748574086
 20
135.0372735435076
 30
0.0
 11
154.6912157523086
 21
134.9391492518075
 31
0.0
  0
LINE
  5
23256
330
22F93
100
AcDbEntity
  8
5_ALL_CURVES
  6
Continuous
100
AcDbLine
 10
154.5129744956086
 20
134.8625021622076
 30
0.0
 11
154.4359206292086
 21
134.9077037659076
 31
0.0
  0
LINE
  5
23257
330
22F93
100
AcDbEntity
  8
5_ALL_CURVES
  6
Continuous
100
AcDbLine
 10
154.1572186117086
 20
134.8382155485075
 30
0.0
 11
154.1104049534086
 21
134.7621303022077
 31
0.0
  0
LINE
  5
23258
330
22F93
100
AcDbEntity
  8
5_ALL_CURVES
  6
Continuous
100
AcDbLine
 10
153.9480105170087
 20
134.7538473748076
 30
0.0
 11
154.0106709092086
 21
134.8982971303076
 31
0.0
  0
LINE
  5
23259
330
22F93
100
AcDbEntity
  8
5_ALL_CURVES
  6
Continuous
100
AcDbLine
 10
154.4215271549086
 20
135.0973551252076
 30
0.0
 11
154.5680748574086
 21
135.0372735435076
 31
0.0
  0
LINE
  5
2325A
330
22F93
100
AcDbEntity
  8
5_ALL_CURVES
  6
Continuous
100
AcDbLine
 10
154.0106709092086
 20
134.8982971303076
 30
0.0
 11
154.1118582563086
 21
135.0201459972076
 31
0.0
  0
LINE
  5
2325B
330
22F93
100
AcDbEntity
  8
5_ALL_CURVES
  6
Continuous
100
AcDbLine
 10
154.6845218202086
 20
137.8682878370077
 30
0.0
 11
153.6038809700086
 21
136.7936870369076
 31
0.0
  0
LINE
  5
2325C
330
22F93
100
AcDbEntity
  8
5_ALL_CURVES
  6
Continuous
100
AcDbLine
 10
153.3953995052086
 20
136.8383267974076
 30
0.0
 11
154.4450734525086
 21
137.9052066814075
 31
0.0
  0
LINE
  5
2325D
330
22F93
100
AcDbEntity
  8
5_ALL_CURVES
  6
Continuous
100
AcDbLine
 10
154.3210664377086
 20
135.1045141926077
 30
0.0
 11
154.4215271549086
 21
135.0973551252076
 31
0.0
  0
LINE
  5
2325E
330
22F93
100
AcDbEntity
  8
5_ALL_CURVES
  6
Continuous
100
AcDbLine
 10
154.4359206292086
 20
134.9077037659076
 30
0.0
 11
154.3354599119086
 21
134.9148628333077
 31
0.0
  0
LINE
  5
2325F
330
22F93
100
AcDbEntity
  8
5_ALL_CURVES
  6
Continuous
100
AcDbLine
 10
154.2425591816086
 20
134.8917000797077
 30
0.0
 11
154.1572186117086
 21
134.8382155485075
 31
0.0
  0
LINE
  5
23260
330
22F93
100
AcDbEntity
  8
5_ALL_CURVES
  6
Continuous
100
AcDbLine
 10
154.1118582563086
 20
135.0201459972076
 30
0.0
 11
154.1971988262086
 21
135.0736305284075
 31
0.0
  0
LINE
  5
23261
330
22F93
100
AcDbEntity
  8
5_ALL_CURVES
  6
Continuous
100
AcDbLine
 10
153.1610376977086
 20
137.7783006666077
 30
0.0
 11
154.6164812871086
 21
138.1411835100077
 31
0.0
  0
LINE
  5
23262
330
22F93
100
AcDbEntity
  8
5_ALL_CURVES
  6
Continuous
100
AcDbLine
 10
154.4450734525086
 20
137.9052066814075
 30
0.0
 11
153.2063980531086
 21
137.5963702179076
 31
0.0
  0
LINE
  5
23263
330
22F93
100
AcDbEntity
  8
5_ALL_CURVES
  6
Continuous
100
AcDbLine
 10
153.6038809700086
 20
136.7936870369076
 30
0.0
 11
154.8735232723086
 21
137.1102444165076
 31
0.0
  0
LINE
  5
23264
330
22F93
100
AcDbEntity
  8
5_ALL_CURVES
  6
Continuous
100
AcDbLine
 10
154.9188836277086
 20
136.9283139678076
 30
0.0
 11
153.4634400383086
 21
136.5654311244076
 31
0.0
  0
LINE
  5
23265
330
22F93
100
AcDbEntity
  8
5_ALL_CURVES
  6
Continuous
100
AcDbLine
 10
154.7935628217086
 20
136.6394144513075
 30
0.0
 11
154.9793641305086
 21
136.6857399206076
 31
0.0
  0
LINE
  5
23266
330
22F93
100
AcDbEntity
  8
5_ALL_CURVES
  6
Continuous
100
AcDbLine
 10
153.5239205411086
 20
136.3228570772076
 30
0.0
 11
153.7097218282086
 21
136.3691825410077
 31
0.0
  0
LINE
  5
23267
330
22F93
100
AcDbEntity
  8
5_ALL_CURVES
  6
Continuous
100
AcDbLine
 10
154.1425315785086
 20
136.3482675509076
 30
0.0
 11
154.3283328657086
 21
136.3945930147077
 31
0.0
  0
LINE
  5
23268
330
22F93
100
AcDbEntity
  8
5_ALL_CURVES
  6
Continuous
100
AcDbLine
 10
154.5248944347086
 20
135.6062276214077
 30
0.0
 11
155.0203645988086
 21
135.7297622079076
 31
0.0
  0
LINE
  5
23269
330
22F93
100
AcDbEntity
  8
5_ALL_CURVES
  6
Continuous
100
AcDbLine
 10
153.9365236053086
 20
135.4595302976076
 30
0.0
 11
154.3390931475086
 21
135.5599021576077
 31
0.0
  0
LINE
  5
2326A
330
22F93
100
AcDbEntity
  8
5_ALL_CURVES
  6
Continuous
100
AcDbLine
 10
155.2515262630086
 20
135.5941572285077
 30
0.0
 11
153.7960826736086
 21
135.2312743851077
 31
0.0
  0
LINE
  5
2326B
330
22F93
100
AcDbEntity
  8
5_ALL_CURVES
  6
Continuous
100
AcDbLine
 10
154.1971988262086
 20
135.0736305284075
 30
0.0
 11
154.3210664377086
 21
135.1045141926077
 31
0.0
  0
LINE
  5
2326C
330
22F93
100
AcDbEntity
  8
5_ALL_CURVES
  6
Continuous
100
AcDbLine
 10
154.3354599119086
 20
134.9148628333077
 30
0.0
 11
154.2425591816086
 21
134.8917000797077
 31
0.0
  0
LINE
  5
2326D
330
22F93
100
AcDbEntity
  8
5_ALL_CURVES
  6
Continuous
100
AcDbLine
 10
154.8960639816087
 20
134.2494701670075
 30
0.0
 11
155.5463685733086
 21
134.4116093121077
 31
0.0
  0
LINE
  5
2326E
330
22F93
100
AcDbEntity
  8
5_ALL_CURVES
  6
Continuous
100
AcDbLine
 10
156.4637912634086
 20
126.9085398080076
 30
0.0
 11
156.7128399379086
 21
126.9303287437076
 31
0.0
  0
LINE
  5
2326F
330
22F93
100
AcDbEntity
  8
5_ALL_CURVES
  6
Continuous
100
AcDbLine
 10
155.2194779619086
 20
126.7996765003076
 30
0.0
 11
155.4685266365086
 21
126.8214654360077
 31
0.0
  0
ARC
  5
23270
330
22F93
100
AcDbEntity
  8
5_ALL_CURVES
  6
Continuous
100
AcDbCircle
 10
101.9230616140086
 20
122.1368442633076
 30
0.0
 40
53.75
100
AcDbArc
 50
5.000000000000025
 51
9.000000000000312
  0
ARC
  5
23271
330
22F93
100
AcDbEntity
  8
5_ALL_CURVES
  6
Continuous
100
AcDbCircle
 10
101.9230616140086
 20
122.1368442633076
 30
0.0
 40
54.7490663761
100
AcDbArc
 50
5.000000000000025
 51
9.000000000000312
  0
LINE
  5
23272
330
22F93
100
AcDbEntity
  8
実線
100
AcDbLine
 10
157.6730291139086
 20
211.0389506101397
 30
0.0
 11
151.2773625439086
 21
211.0389506101397
 31
0.0
  0
LINE
  5
23273
330
22F93
100
AcDbEntity
  8
実線
100
AcDbLine
 10
139.2041206112085
 20
205.66973852384
 30
0.0
 11
157.2953298572086
 21
206.6178534596397
 31
0.0
  0
LINE
  5
23274
330
22F93
100
AcDbEntity
  8
実線
100
AcDbLine
 10
148.5730616140086
 20
213.5389506101397
 30
0.0
 11
157.3730616140085
 21
213.5389506101397
 31
0.0
  0
LINE
  5
23275
330
22F93
100
AcDbEntity
  8
実線
100
AcDbLine
 10
157.3730616140085
 20
214.6889506101397
 30
0.0
 11
148.5730616140086
 21
214.6889506101397
 31
0.0
  0
LINE
  5
23276
330
22F93
100
AcDbEntity
  8
実線
100
AcDbLine
 10
146.2230616140085
 20
213.5389506101397
 30
0.0
 11
146.2230616140085
 21
226.7889506101397
 31
0.0
  0
LINE
  5
23277
330
22F93
100
AcDbEntity
  8
実線
100
AcDbLine
 10
146.2730616140085
 20
212.7889506101397
 30
0.0
 11
146.2730616140085
 21
226.7889506101397
 31
0.0
  0
LINE
  5
23278
330
22F93
100
AcDbEntity
  8
実線
100
AcDbLine
 10
149.1230616140085
 20
214.6889506101397
 30
0.0
 11
149.1230616140085
 21
229.8889506101397
 31
0.0
  0
LINE
  5
23279
330
22F93
100
AcDbEntity
  8
実線
100
AcDbLine
 10
151.1230616140085
 20
214.6889506101397
 30
0.0
 11
151.1230616140085
 21
229.8889506101397
 31
0.0
  0
LINE
  5
2327A
330
22F93
100
AcDbEntity
  8
実線
100
AcDbLine
 10
142.8782527083086
 20
211.0389506101397
 30
0.0
 11
151.2767182183085
 21
211.0389506101397
 31
0.0
  0
LINE
  5
2327B
330
22F93
100
AcDbEntity
  8
実線
100
AcDbLine
 10
144.9886508856085
 20
211.1395902883399
 30
0.0
 11
144.9830248801085
 21
211.2389506101398
 31
0.0
  0
LINE
  5
2327C
330
22F93
100
AcDbEntity
  8
実線
100
AcDbLine
 10
144.9774348341085
 20
211.3376758537397
 30
0.0
 11
144.9660382035086
 21
211.5389506101397
 31
0.0
  0
LINE
  5
2327D
330
22F93
100
AcDbEntity
  8
実線
100
AcDbLine
 10
144.9886508856085
 20
211.3383109319397
 30
0.0
 11
144.9830248801085
 21
211.2389506101398
 31
0.0
  0
LINE
  5
2327E
330
22F93
100
AcDbEntity
  8
実線
100
AcDbLine
 10
144.9774348341085
 20
211.1402253664397
 30
0.0
 11
144.9717004290086
 21
211.0389506101397
 31
0.0
  0
LINE
  5
2327F
330
22F93
100
AcDbEntity
  8
実線
100
AcDbLine
 10
144.9773626837085
 20
211.3389500953398
 30
0.0
 11
144.9886508856085
 21
211.3383109319397
 31
0.0
  0
LINE
  5
23280
330
22F93
100
AcDbEntity
  8
実線
100
AcDbLine
 10
142.2387489838085
 20
210.5588439648397
 30
0.0
 11
142.8782527083086
 21
211.0389506101397
 31
0.0
  0
LINE
  5
23281
330
22F93
100
AcDbEntity
  8
実線
100
AcDbLine
 10
143.9614903804086
 20
210.5389506101397
 30
0.0
 11
144.6274921225086
 21
211.0389506101397
 31
0.0
  0
LINE
  5
23282
330
22F93
100
AcDbEntity
  8
実線
100
AcDbLine
 10
141.2267213248085
 20
210.9389506101399
 30
0.0
 11
141.2267213248085
 21
210.5389506101397
 31
0.0
  0
LINE
  5
23283
330
22F93
100
AcDbEntity
  8
実線
100
AcDbLine
 10
141.2886508856086
 20
210.9389506101399
 30
0.0
 11
141.2886508856086
 21
210.5389506101397
 31
0.0
  0
LINE
  5
23284
330
22F93
100
AcDbEntity
  8
実線
100
AcDbLine
 10
141.2360335443085
 20
212.1162881850397
 30
0.0
 11
141.1855230514086
 21
211.5389506101397
 31
0.0
  0
LINE
  5
23285
330
22F93
100
AcDbEntity
  8
実線
100
AcDbLine
 10
143.8412682268086
 20
212.1162881850397
 30
0.0
 11
143.8917787197086
 21
211.5389506101397
 31
0.0
  0
LINE
  5
23286
330
22F93
100
AcDbEntity
  8
実線
100
AcDbLine
 10
142.2005460966086
 20
212.2764349459398
 30
0.0
 11
142.2005460966086
 21
212.2323805934397
 31
0.0
  0
LINE
  5
23287
330
22F93
100
AcDbEntity
  8
実線
100
AcDbLine
 10
142.4352818780086
 20
212.2764349459398
 30
0.0
 11
142.4352818780086
 21
212.2340149710397
 31
0.0
  0
LINE
  5
23288
330
22F93
100
AcDbEntity
  8
実線
100
AcDbLine
 10
142.8767556745086
 20
212.2764349459398
 30
0.0
 11
142.8767556745086
 21
212.25540089904
 31
0.0
  0
LWPOLYLINE
  5
23289
330
22F93
100
AcDbEntity
  8
実線
100
AcDbPolyline
 90
        3
 70
     0
 43
0.0
 10
141.9658103152085
 20
212.2260550246397
 10
142.0497824549085
 20
212.2499288479397
 10
142.1280533367086
 20
212.2662942489398
  0
LINE
  5
2328E
330
22F93
100
AcDbEntity
  8
実線
100
AcDbLine
 10
142.2034728488086
 20
212.2558163432397
 30
0.0
 11
142.2219509881086
 21
212.2584392626398
 31
0.0
  0
LWPOLYLINE
  5
2328F
330
22F93
100
AcDbEntity
  8
実線
100
AcDbPolyline
 90
        4
 70
     0
 43
0.0
 10
142.6420198931086
 20
212.2764349459398
 10
142.5695271331085
 20
212.2662942489398
 10
142.4912562514086
 20
212.2499288479397
 10
142.4072841117086
 20
212.2260550246397
  0
LINE
  5
23295
330
22F93
100
AcDbEntity
  8
実線
100
AcDbLine
 10
142.1280533367086
 20
212.2662942489398
 30
0.0
 11
142.2005460966086
 21
212.2764349459398
 31
0.0
  0
LINE
  5
23296
330
22F93
100
AcDbEntity
  8
実線
100
AcDbLine
 10
142.0532149969085
 20
212.2652670604399
 30
0.0
 11
141.9972982622086
 21
212.2595628765398
 31
0.0
  0
LINE
  5
23297
330
22F93
100
AcDbEntity
  8
実線
100
AcDbLine
 10
142.2219509881086
 20
212.2584392626398
 30
0.0
 11
142.4352818780086
 21
212.2764349459398
 31
0.0
  0
LINE
  5
23298
330
22F93
100
AcDbEntity
  8
実線
100
AcDbLine
 10
142.1833068909085
 20
212.2751281921399
 30
0.0
 11
142.0532149969085
 21
212.2652670604399
 31
0.0
  0
LINE
  5
23299
330
22F93
100
AcDbEntity
  8
実線
100
AcDbLine
 10
142.2416217117086
 20
210.5389506101397
 30
0.0
 11
142.2387489838085
 21
210.5588439648397
 31
0.0
  0
LWPOLYLINE
  5
2329A
330
22F93
100
AcDbEntity
  8
実線
100
AcDbPolyline
 90
        3
 70
     0
 43
0.0
 10
142.1865472135086
 20
212.2323805934397
 10
142.0763473439085
 20
212.2308047860397
 10
141.9658103152085
 20
212.2260550246397
  0
LINE
  5
2329F
330
22F93
100
AcDbEntity
  8
実線
100
AcDbLine
 10
141.2360335443085
 20
212.1162881850397
 30
0.0
 11
143.8412682268086
 21
212.1162881850397
 31
0.0
  0
LWPOLYLINE
  5
232A0
330
22F93
100
AcDbEntity
  8
実線
100
AcDbPolyline
 90
        3
 70
     0
 43
0.0
 10
142.4072841117086
 20
212.2260550246397
 10
142.2962241207085
 20
212.2308197091399
 10
142.1865472135086
 20
212.2323805934397
  0
LWPOLYLINE
  5
232A5
330
22F93
100
AcDbEntity
  8
実線
100
AcDbPolyline
 90
        3
 70
     0
 43
0.0
 10
143.3182294709085
 20
212.2260550246397
 10
143.2008615802085
 20
212.2323805934397
 10
143.0834936895086
 20
212.2260550246397
  0
LINE
  5
232AA
330
22F93
100
AcDbEntity
  8
実線
100
AcDbLine
 10
142.8767556745086
 20
212.2764349459398
 30
0.0
 11
143.0240867742085
 21
212.2652670604399
 31
0.0
  0
LINE
  5
232AB
330
22F93
100
AcDbEntity
  8
実線
100
AcDbLine
 10
143.0240867742085
 20
212.2652670604399
 30
0.0
 11
143.0800035089086
 21
212.2595628765398
 31
0.0
  0
LWPOLYLINE
  5
232AC
330
22F93
100
AcDbEntity
  8
実線
100
AcDbPolyline
 90
        3
 70
     0
 43
0.0
 10
143.0800035089086
 20
212.2595628765398
 10
143.1704981286085
 20
212.2485856234398
 10
143.3182294709085
 20
212.2260550246397
  0
LWPOLYLINE
  5
232B1
330
22F93
100
AcDbEntity
  8
実線
100
AcDbPolyline
 90
        3
 70
     0
 43
0.0
 10
142.4352818780086
 20
212.2764349459398
 10
142.5077746380085
 20
212.2662942489398
 10
142.5386508856085
 20
212.2598384360399
  0
LWPOLYLINE
  5
232B6
330
22F93
100
AcDbEntity
  8
実線
100
AcDbPolyline
 90
        3
 70
     0
 43
0.0
 10
143.0834936895086
 20
212.2260550246397
 10
142.8553507830086
 20
212.2584392626398
 10
142.6420198931086
 20
212.2764349459398
  0
ARC
  5
232BB
330
22F93
100
AcDbEntity
  8
実線
100
AcDbCircle
 10
142.5386508856085
 20
207.2889506101397
 30
0.0
 40
5.0
100
AcDbArc
 50
83.67387263550254
 51
83.76949489919837
  0
ARC
  5
232BC
330
22F93
100
AcDbEntity
  8
実線
100
AcDbCircle
 10
142.5386508856085
 20
207.2889506101397
 30
0.0
 40
5.0
100
AcDbArc
 50
74.89887484250245
 51
81.02782869079762
  0
ARC
  5
232BD
330
22F93
100
AcDbEntity
  8
実線
100
AcDbCircle
 10
142.5386508856085
 20
207.2889506101397
 30
0.0
 40
5.0
100
AcDbArc
 50
96.23050510080167
 51
105.1011251574975
  0
LINE
  5
232BE
330
22F93
100
AcDbEntity
  8
実線
100
AcDbLine
 10
139.5590210990085
 20
210.5389506101397
 30
0.0
 11
139.6148898624085
 21
210.5588439648397
 31
0.0
  0
LINE
  5
232BF
330
22F93
100
AcDbEntity
  8
実線
100
AcDbLine
 10
137.8391524304086
 20
210.5389506101397
 30
0.0
 11
138.5051541726085
 21
211.0389506101397
 31
0.0
  0
LINE
  5
232C0
330
22F93
100
AcDbEntity
  8
実線
100
AcDbLine
 10
139.6148898624085
 20
210.5588439648397
 30
0.0
 11
140.2543935868085
 21
211.0389506101397
 31
0.0
  0
LINE
  5
232C1
330
22F93
100
AcDbEntity
  8
実線
100
AcDbLine
 10
140.0886508856086
 20
211.1395902883399
 30
0.0
 11
140.0942768910086
 21
211.2389506101398
 31
0.0
  0
LINE
  5
232C2
330
22F93
100
AcDbEntity
  8
実線
100
AcDbLine
 10
140.0998669370085
 20
211.3376758537397
 30
0.0
 11
140.1112635676086
 21
211.5389506101397
 31
0.0
  0
LINE
  5
232C3
330
22F93
100
AcDbEntity
  8
実線
100
AcDbLine
 10
140.0886508856086
 20
211.3383109319397
 30
0.0
 11
140.0942768910086
 21
211.2389506101398
 31
0.0
  0
LINE
  5
232C4
330
22F93
100
AcDbEntity
  8
実線
100
AcDbLine
 10
140.0998669370085
 20
211.1402253664397
 30
0.0
 11
140.1056013421086
 21
211.0389506101397
 31
0.0
  0
LINE
  5
232C5
330
22F93
100
AcDbEntity
  8
実線
100
AcDbLine
 10
139.6184001696086
 20
210.5389506101397
 30
0.0
 11
139.6148898624085
 21
210.5588439648397
 31
0.0
  0
LINE
  5
232C6
330
22F93
100
AcDbEntity
  8
実線
100
AcDbLine
 10
140.0999390874085
 20
211.3389500953398
 30
0.0
 11
140.0886508856086
 21
211.3383109319397
 31
0.0
  0
LINE
  5
232C7
330
22F93
100
AcDbEntity
  8
実線
100
AcDbLine
 10
140.2543935868085
 20
211.0389506101397
 30
0.0
 11
138.5051541726085
 21
211.0389506101397
 31
0.0
  0
LINE
  5
232C8
330
22F93
100
AcDbEntity
  8
実線
100
AcDbLine
 10
140.1112635676086
 20
210.9389506101399
 30
0.0
 11
142.7450523598085
 21
210.9389506101399
 31
0.0
  0
LINE
  5
232C9
330
22F93
100
AcDbEntity
  8
実線
100
AcDbLine
 10
140.0886508856086
 20
211.1395902883399
 30
0.0
 11
144.9886508856085
 21
211.1395902883399
 31
0.0
  0
LINE
  5
232CA
330
22F93
100
AcDbEntity
  8
実線
100
AcDbLine
 10
140.0886508856086
 20
211.3383109319397
 30
0.0
 11
144.9886508856085
 21
211.3383109319397
 31
0.0
  0
LINE
  5
232CB
330
22F93
100
AcDbEntity
  8
実線
100
AcDbLine
 10
140.1112635676086
 20
211.5389506101397
 30
0.0
 11
144.9660382035086
 21
211.5389506101397
 31
0.0
  0
LINE
  5
232CC
330
22F93
100
AcDbEntity
  8
実線
100
AcDbLine
 10
138.3426351534085
 20
205.6245768977397
 30
0.0
 11
139.2041206112085
 21
205.66973852384
 31
0.0
  0
LINE
  5
232CD
330
22F93
100
AcDbEntity
  8
実線
100
AcDbLine
 10
149.6020905552085
 20
210.5389506101397
 30
0.0
 11
149.6020905552085
 21
211.0389506101397
 31
0.0
  0
LINE
  5
232CE
330
22F93
100
AcDbEntity
  8
実線
100
AcDbLine
 10
151.2767182183085
 20
210.5389506101397
 30
0.0
 11
151.2767182183085
 21
211.0389506101397
 31
0.0
  0
LINE
  5
232CF
330
22F93
100
AcDbEntity
  8
実線
100
AcDbLine
 10
149.1230616140085
 20
211.0389506101397
 30
0.0
 11
149.1230616140085
 21
213.5389506101397
 31
0.0
  0
LINE
  5
232D0
330
22F93
100
AcDbEntity
  8
実線
100
AcDbLine
 10
151.1230616140085
 20
211.0389506101397
 30
0.0
 11
151.1230616140085
 21
213.5389506101397
 31
0.0
  0
LINE
  5
232D1
330
22F93
100
AcDbEntity
  8
実線
100
AcDbLine
 10
147.4230616140085
 20
212.7889506101397
 30
0.0
 11
146.2730616140085
 21
212.7889506101397
 31
0.0
  0
LINE
  5
232D2
330
22F93
100
AcDbEntity
  8
実線
100
AcDbLine
 10
146.2230616140085
 20
213.5389506101397
 30
0.0
 11
146.2730616140085
 21
213.5389506101397
 31
0.0
  0
LINE
  5
232D3
330
22F93
100
AcDbEntity
  8
実線
100
AcDbLine
 10
147.4230616140085
 20
214.0389506101397
 30
0.0
 11
146.2730616140085
 21
214.0389506101397
 31
0.0
  0
LINE
  5
232D4
330
22F93
100
AcDbEntity
  8
実線
100
AcDbLine
 10
145.2106095118086
 20
210.5389506101397
 30
0.0
 11
145.2106095118086
 21
211.0389506101397
 31
0.0
  0
LINE
  5
232D5
330
22F93
100
AcDbEntity
  8
実線
100
AcDbLine
 10
143.6183850928086
 20
226.7889506101397
 30
0.0
 11
143.6183850928086
 21
227.9389506101399
 31
0.0
  0
LINE
  5
232D6
330
22F93
100
AcDbEntity
  8
実線
100
AcDbLine
 10
149.1230616140085
 20
229.8889506101397
 30
0.0
 11
151.1230616140085
 21
229.8889506101397
 31
0.0
  0
LINE
  5
232D8
330
22F93
100
AcDbEntity
  8
実線
100
AcDbLine
 10
157.3730616140085
 20
213.5389506101397
 30
0.0
 11
157.3730616140085
 21
214.6889506101397
 31
0.0
  0
LINE
  5
232D9
330
22F93
100
AcDbEntity
  8
実線
100
AcDbLine
 10
159.2350951209086
 20
208.3904864176397
 30
0.0
 11
159.4230616140085
 21
210.5389506101397
 31
0.0
  0
LWPOLYLINE
  5
232DA
330
22F93
100
AcDbEntity
  8
実線
100
AcDbPolyline
 90
        8
 70
     0
 43
0.0
 10
157.2953298572086
 20
206.6178534596397
 10
157.7260726003086
 20
206.6404340020398
 10
158.1506508761086
 20
206.7084466522397
 10
158.5388910636085
 20
206.8929467274397
 10
158.8588598893085
 20
207.1799830108397
 10
159.0842930703086
 20
207.5459750182398
 10
159.1966722484085
 20
207.9608755527397
 10
159.2350951209086
 20
208.3904864176397
  0
LINE
  5
232E4
330
22F93
100
AcDbEntity
  8
実線
100
AcDbLine
 10
157.6730616140086
 20
210.5389506101397
 30
0.0
 11
157.6730616140086
 21
211.0389506101397
 31
0.0
  0
LINE
  5
232E5
330
22F93
100
AcDbEntity
  8
実線
100
AcDbLine
 10
156.1230616140085
 20
213.5389506101397
 30
0.0
 11
156.1230616140085
 21
214.6889506101397
 31
0.0
  0
LINE
  5
232E6
330
22F93
100
AcDbEntity
  8
5_ALL_CURVES
  6
Continuous
100
AcDbLine
 10
156.9230616140085
 20
206.6012457273398
 30
0.0
 11
156.1890190589086
 21
206.5618049138397
 31
0.0
  0
LINE
  5
232E7
330
22F93
100
AcDbEntity
  8
5_ALL_CURVES
  6
Continuous
100
AcDbLine
 10
156.0294446099085
 20
206.5537619479398
 30
0.0
 11
156.9230616140085
 21
206.6018629072397
 31
0.0
  0
LINE
  5
232E8
330
22F93
100
AcDbEntity
  8
5_ALL_CURVES
  6
Continuous
100
AcDbLine
 10
153.1610376977086
 20
206.5235180840399
 30
0.0
 11
154.6164812871085
 21
206.6020264757397
 31
0.0
  0
LWPOLYLINE
  5
232E9
330
22F93
100
AcDbEntity
  8
5_ALL_CURVES
  6
Continuous
100
AcDbPolyline
 90
        3
 70
     0
 43
0.0
 10
154.6845218202085
 20
206.6013196283397
 10
154.5621020398086
 20
206.5933516885396
 10
154.4402737954085
 20
206.5854285678397
  0
LINE
  5
232EE
330
22F93
100
AcDbEntity
  8
5_ALL_CURVES
  6
Continuous
100
AcDbLine
 10
153.9548439176085
 20
206.5198543703397
 30
0.0
 11
153.9480105170086
 21
206.5214623540398
 31
0.0
  0
LINE
  5
232EF
330
22F93
100
AcDbEntity
  8
5_ALL_CURVES
  6
Continuous
100
AcDbLine
 10
154.3177267610086
 20
206.5216904100397
 30
0.0
 11
154.3108933388086
 21
206.5230680340398
 31
0.0
  0
LINE
  5
232F0
330
22F93
100
AcDbEntity
  8
5_ALL_CURVES
  6
Continuous
100
AcDbLine
 10
155.8336508207085
 20
206.6007543989399
 30
0.0
 11
155.8404842348085
 21
206.5994297470397
 31
0.0
  0
LINE
  5
232F1
330
22F93
100
AcDbEntity
  8
5_ALL_CURVES
  6
Continuous
100
AcDbLine
 10
153.2063980531086
 20
206.5230250876397
 30
0.0
 11
153.1610376977086
 21
206.5235180840399
 31
0.0
  0
LINE
  5
232F2
330
22F93
100
AcDbEntity
  8
5_ALL_CURVES
  6
Continuous
100
AcDbLine
 10
153.4634400383085
 20
206.5208801189397
 30
0.0
 11
153.3953995052085
 21
206.5213405078398
 31
0.0
  0
LINE
  5
232F3
330
22F93
100
AcDbEntity
  8
5_ALL_CURVES
  6
Continuous
100
AcDbLine
 10
154.8735232723086
 20
206.5997505677397
 30
0.0
 11
154.9188836277085
 21
206.5994603730398
 31
0.0
  0
LWPOLYLINE
  5
232F4
330
22F93
100
AcDbEntity
  8
5_ALL_CURVES
  6
Continuous
100
AcDbPolyline
 90
        3
 70
     0
 43
0.0
 10
153.7097218282086
 20
206.5305685171399
 10
153.7853189142086
 20
206.5302254506398
 10
153.9365236053086
 20
206.5298251238397
  0
LWPOLYLINE
  5
232F9
330
22F93
100
AcDbEntity
  8
5_ALL_CURVES
  6
Continuous
100
AcDbPolyline
 90
        3
 70
     0
 43
0.0
 10
154.9793641305086
 20
206.5991254967397
 10
155.0700804917085
 20
206.5987347745397
 10
155.2515262630086
 20
206.5983551347398
  0
LINE
  5
232FE
330
22F93
100
AcDbEntity
  8
5_ALL_CURVES
  6
Continuous
100
AcDbLine
 10
154.3283328657086
 20
206.5621917564398
 30
0.0
 11
154.5248944347086
 21
206.5616036668398
 31
0.0
  0
LWPOLYLINE
  5
232FF
330
22F93
100
AcDbEntity
  8
5_ALL_CURVES
  6
Continuous
100
AcDbPolyline
 90
        3
 70
     0
 43
0.0
 10
155.0203645988086
 20
206.58836459994
 10
154.8691600475086
 20
206.5887567679398
 10
154.7935628217085
 20
206.5890928452396
  0
LWPOLYLINE
  5
23304
330
22F93
100
AcDbEntity
  8
5_ALL_CURVES
  6
Continuous
100
AcDbPolyline
 90
        3
 70
     0
 43
0.0
 10
154.3390931475086
 20
206.5515683421399
 10
154.2080497140086
 20
206.5518907742397
 10
154.1425315785085
 20
206.5521585135399
  0
LWPOLYLINE
  5
23309
330
22F93
100
AcDbEntity
  8
5_ALL_CURVES
  6
Continuous
100
AcDbPolyline
 90
        3
 70
     0
 43
0.0
 10
153.7960826736086
 20
206.5197438827397
 10
153.6146366539085
 20
206.5201341740397
 10
153.5239205411085
 20
206.5205358534397
  0
LINE
  5
2330E
330
22F93
100
AcDbEntity
  8
5_ALL_CURVES
  6
Continuous
100
AcDbLine
 10
155.9980761322086
 20
206.5851927617398
 30
0.0
 11
156.4637912608086
 21
206.5851927617398
 31
0.0
  0
LINE
  5
2330F
330
22F93
100
AcDbEntity
  8
5_ALL_CURVES
  6
Continuous
100
AcDbLine
 10
155.4685266365085
 20
206.5328338688397
 30
0.0
 11
155.0113099256086
 21
206.5328338688397
 31
0.0
  0
LINE
  5
23310
330
22F93
100
AcDbEntity
  8
5_ALL_CURVES
  6
Continuous
100
AcDbLine
 10
154.7102626944086
 20
206.5537300622397
 30
0.0
 11
154.5666215545085
 21
206.5532900538397
 31
0.0
  0
LINE
  5
23311
330
22F93
100
AcDbEntity
  8
5_ALL_CURVES
  6
Continuous
100
AcDbLine
 10
154.1021182499085
 20
206.5282021648398
 30
0.0
 11
154.2457593898086
 21
206.5286460978398
 31
0.0
  0
LINE
  5
23312
330
22F93
100
AcDbEntity
  8
5_ALL_CURVES
  6
Continuous
100
AcDbLine
 10
154.7599829153086
 20
206.5633398033397
 30
0.0
 11
154.8960639816086
 21
206.5637636599397
 31
0.0
  0
LWPOLYLINE
  5
23313
330
22F93
100
AcDbEntity
  8
5_ALL_CURVES
  6
Continuous
100
AcDbPolyline
 90
        3
 70
     0
 43
0.0
 10
154.1362853393085
 20
206.5204971209397
 10
154.0153265712086
 20
206.5200074262397
 10
153.9548439176085
 20
206.5198543703397
  0
LINE
  5
23318
330
22F93
100
AcDbEntity
  8
5_ALL_CURVES
  6
Continuous
100
AcDbLine
 10
155.5463685733085
 20
206.5988812918397
 30
0.0
 11
155.5917289287086
 21
206.59908782074
 31
0.0
  0
LINE
  5
23319
330
22F93
100
AcDbEntity
  8
5_ALL_CURVES
  6
Continuous
100
AcDbLine
 10
155.7731703504086
 20
206.6002485744399
 30
0.0
 11
155.8336508207085
 21
206.6007543989399
 31
0.0
  0
LINE
  5
2331A
330
22F93
100
AcDbEntity
  8
5_ALL_CURVES
  6
Continuous
100
AcDbLine
 10
155.6478495119085
 20
206.5907274531399
 30
0.0
 11
155.5873690416086
 21
206.5902198590398
 31
0.0
  0
LINE
  5
2331B
330
22F93
100
AcDbEntity
  8
5_ALL_CURVES
  6
Continuous
100
AcDbLine
 10
154.5035280481086
 20
206.5317189602398
 30
0.0
 11
154.5640085184085
 21
206.5322371015397
 31
0.0
  0
LINE
  5
2331C
330
22F93
100
AcDbEntity
  8
5_ALL_CURVES
  6
Continuous
100
AcDbLine
 10
154.3782072313086
 20
206.5222104028398
 30
0.0
 11
154.3177267610086
 21
206.5216904100397
 31
0.0
  0
LINE
  5
2331D
330
22F93
100
AcDbEntity
  8
5_ALL_CURVES
  6
Continuous
100
AcDbLine
 10
154.6912157523085
 20
206.5616036668398
 30
0.0
 11
154.7599829153086
 21
206.5633398033397
 31
0.0
  0
LINE
  5
2331E
330
22F93
100
AcDbEntity
  8
5_ALL_CURVES
  6
Continuous
100
AcDbLine
 10
155.7044031631085
 20
206.5982909981397
 30
0.0
 11
155.7731703504086
 21
206.6002485744399
 31
0.0
  0
LINE
  5
2331F
330
22F93
100
AcDbEntity
  8
5_ALL_CURVES
  6
Continuous
100
AcDbLine
 10
154.4469744105086
 20
206.52423730864
 30
0.0
 11
154.3782072313086
 21
206.5222104028398
 31
0.0
  0
LINE
  5
23320
330
22F93
100
AcDbEntity
  8
5_ALL_CURVES
  6
Continuous
100
AcDbLine
 10
155.5873690416086
 20
206.5902198590398
 30
0.0
 11
155.5261619307086
 21
206.5883168214397
 31
0.0
  0
LINE
  5
23321
330
22F93
100
AcDbEntity
  8
5_ALL_CURVES
  6
Continuous
100
AcDbLine
 10
154.5666215545085
 20
206.5532900538397
 30
0.0
 11
154.5129744956086
 21
206.5515792198397
 31
0.0
  0
LINE
  5
23322
330
22F93
100
AcDbEntity
  8
5_ALL_CURVES
  6
Continuous
100
AcDbLine
 10
154.5640085184085
 20
206.5322371015397
 30
0.0
 11
154.6252156402086
 21
206.5341899469397
 31
0.0
  0
LINE
  5
23323
330
22F93
100
AcDbEntity
  8
5_ALL_CURVES
  6
Continuous
100
AcDbLine
 10
155.6122291629085
 20
206.5947353562397
 30
0.0
 11
155.7044031631085
 21
206.5982909981397
 31
0.0
  0
LINE
  5
23324
330
22F93
100
AcDbEntity
  8
5_ALL_CURVES
  6
Continuous
100
AcDbLine
 10
154.5391484134085
 20
206.5278805489398
 30
0.0
 11
154.4469744105086
 21
206.52423730864
 31
0.0
  0
LINE
  5
23325
330
22F93
100
AcDbEntity
  8
5_ALL_CURVES
  6
Continuous
100
AcDbLine
 10
154.5680748574086
 20
206.5565520144397
 30
0.0
 11
154.6912157523085
 21
206.5616036668398
 31
0.0
  0
LINE
  5
23326
330
22F93
100
AcDbEntity
  8
5_ALL_CURVES
  6
Continuous
100
AcDbLine
 10
155.5261619307086
 20
206.5883168214397
 30
0.0
 11
155.4415479689085
 21
206.5848095246397
 31
0.0
  0
LINE
  5
23327
330
22F93
100
AcDbEntity
  8
5_ALL_CURVES
  6
Continuous
100
AcDbLine
 10
154.6252156402086
 20
206.5341899469397
 30
0.0
 11
154.7098295803086
 21
206.53775286794
 31
0.0
  0
LINE
  5
23328
330
22F93
100
AcDbEntity
  8
5_ALL_CURVES
  6
Continuous
100
AcDbLine
 10
154.5129744956086
 20
206.5515792198397
 30
0.0
 11
154.4359206292086
 21
206.5482132880398
 31
0.0
  0
LINE
  5
23329
330
22F93
100
AcDbEntity
  8
5_ALL_CURVES
  6
Continuous
100
AcDbLine
 10
155.4581213975085
 20
206.5878503589397
 30
0.0
 11
155.6122291629085
 21
206.5947353562397
 31
0.0
  0
LWPOLYLINE
  5
2332A
330
22F93
100
AcDbEntity
  8
5_ALL_CURVES
  6
Continuous
100
AcDbPolyline
 90
        3
 70
     0
 43
0.0
 10
155.3874402033085
 20
206.5592846479397
 10
155.5294759081086
 20
206.5657078638397
 10
155.9577033571086
 20
206.58516503454
  0
LINE
  5
2332F
330
22F93
100
AcDbEntity
  8
5_ALL_CURVES
  6
Continuous
100
AcDbLine
 10
154.6932561733086
 20
206.5348793823398
 30
0.0
 11
154.5391484134085
 21
206.5278805489398
 31
0.0
  0
LINE
  5
23330
330
22F93
100
AcDbEntity
  8
5_ALL_CURVES
  6
Continuous
100
AcDbLine
 10
155.9577033571086
 20
206.58516503454
 30
0.0
 11
156.2449982173086
 21
206.5982945751398
 31
0.0
  0
LINE
  5
23331
330
22F93
100
AcDbEntity
  8
5_ALL_CURVES
  6
Continuous
100
AcDbLine
 10
154.4215271549085
 20
206.5498460981397
 30
0.0
 11
154.5680748574086
 21
206.5565520144397
 31
0.0
  0
LINE
  5
23332
330
22F93
100
AcDbEntity
  8
5_ALL_CURVES
  6
Continuous
100
AcDbLine
 10
155.4415479689085
 20
206.5848095246397
 30
0.0
 11
155.3335271996085
 21
206.5796894976397
 31
0.0
  0
LINE
  5
23333
330
22F93
100
AcDbEntity
  8
5_ALL_CURVES
  6
Continuous
100
AcDbLine
 10
154.7098295803086
 20
206.53775286794
 30
0.0
 11
154.8178504309086
 21
206.5429171806398
 31
0.0
  0
LINE
  5
23334
330
22F93
100
AcDbEntity
  8
5_ALL_CURVES
  6
Continuous
100
AcDbLine
 10
156.8273169334085
 20
206.5939987643398
 30
0.0
 11
156.9230616140085
 21
206.5987347590397
 31
0.0
  0
LINE
  5
23335
330
22F93
100
AcDbEntity
  8
5_ALL_CURVES
  6
Continuous
100
AcDbLine
 10
155.4887007649086
 20
206.53278585954
 30
0.0
 11
155.2194779619085
 21
206.5197319249397
 31
0.0
  0
LINE
  5
23336
330
22F93
100
AcDbEntity
  8
5_ALL_CURVES
  6
Continuous
100
AcDbLine
 10
155.8952358042086
 20
206.5526105212398
 30
0.0
 11
155.4887007649086
 21
206.53278585954
 31
0.0
  0
LINE
  5
23337
330
22F93
100
AcDbEntity
  8
5_ALL_CURVES
  6
Continuous
100
AcDbLine
 10
155.3191337254085
 20
206.5810692042397
 30
0.0
 11
155.4581213975085
 21
206.5878503589397
 31
0.0
  0
LINE
  5
23338
330
22F93
100
AcDbEntity
  8
5_ALL_CURVES
  6
Continuous
100
AcDbLine
 10
156.7315722528086
 20
206.5887007362399
 30
0.0
 11
156.6996573630086
 21
206.5871442166399
 31
0.0
  0
LINE
  5
23339
330
22F93
100
AcDbEntity
  8
5_ALL_CURVES
  6
Continuous
100
AcDbLine
 10
156.0314850717085
 20
206.5592846479397
 30
0.0
 11
155.8952358042086
 21
206.5526105212398
 31
0.0
  0
LINE
  5
2333A
330
22F93
100
AcDbEntity
  8
5_ALL_CURVES
  6
Continuous
100
AcDbLine
 10
154.8322438163085
 20
206.5417248580398
 30
0.0
 11
154.6932561733086
 21
206.5348793823398
 31
0.0
  0
LINE
  5
2333B
330
22F93
100
AcDbEntity
  8
5_ALL_CURVES
  6
Continuous
100
AcDbLine
 10
156.4124233323085
 20
206.57158967904
 30
0.0
 11
155.4230616140085
 21
206.5199232435399
 31
0.0
  0
LINE
  5
2333C
330
22F93
100
AcDbEntity
  8
5_ALL_CURVES
  6
Continuous
100
AcDbLine
 10
154.3210664377085
 20
206.5448250254397
 30
0.0
 11
154.4215271549085
 21
206.5498460981397
 31
0.0
  0
LINE
  5
2333D
330
22F93
100
AcDbEntity
  8
5_ALL_CURVES
  6
Continuous
100
AcDbLine
 10
154.4359206292086
 20
206.5482132880398
 30
0.0
 11
154.3354599119085
 21
206.5431865918398
 31
0.0
  0
LWPOLYLINE
  5
2333E
330
22F93
100
AcDbEntity
  8
5_ALL_CURVES
  6
Continuous
100
AcDbPolyline
 90
        3
 70
     0
 43
0.0
 10
155.4230616140085
 20
206.5233499396398
 10
155.5236274044086
 20
206.5283701637398
 10
155.7253514209086
 20
206.5384684675397
  0
LINE
  5
23343
330
22F93
100
AcDbEntity
  8
5_ALL_CURVES
  6
Continuous
100
AcDbLine
 10
155.7253514209086
 20
206.5384684675397
 30
0.0
 11
155.9278769405086
 21
206.54864452864
 31
0.0
  0
LWPOLYLINE
  5
23344
330
22F93
100
AcDbEntity
  8
5_ALL_CURVES
  6
Continuous
100
AcDbPolyline
 90
        3
 70
     0
 43
0.0
 10
155.9112269960085
 20
206.5472788279397
 10
155.5446629616086
 20
206.5288133911396
 10
155.4230616140085
 20
206.5227154877399
  0
LINE
  5
23349
330
22F93
100
AcDbEntity
  8
5_ALL_CURVES
  6
Continuous
100
AcDbLine
 10
155.9278769405086
 20
206.54864452864
 30
0.0
 11
156.0294446099085
 21
206.5537619479398
 31
0.0
  0
LINE
  5
2334A
330
22F93
100
AcDbEntity
  8
5_ALL_CURVES
  6
Continuous
100
AcDbLine
 10
156.1890190589086
 20
206.5618049138397
 30
0.0
 11
156.4124233323085
 21
206.5731075803397
 31
0.0
  0
LINE
  5
2334B
330
22F93
100
AcDbEntity
  8
5_ALL_CURVES
  6
Continuous
100
AcDbLine
 10
156.1571041691085
 20
206.5597340587397
 30
0.0
 11
155.9112269960085
 21
206.5472788279397
 31
0.0
  0
LINE
  5
2334C
330
22F93
100
AcDbEntity
  8
5_ALL_CURVES
  6
Continuous
100
AcDbLine
 10
155.3335271996085
 20
206.5796894976397
 30
0.0
 11
155.2020996228085
 21
206.5729512735399
 31
0.0
  0
LINE
  5
2334D
330
22F93
100
AcDbEntity
  8
5_ALL_CURVES
  6
Continuous
100
AcDbLine
 10
156.5400828916086
 20
206.5791387226397
 30
0.0
 11
156.8273169334085
 21
206.5939987643398
 31
0.0
  0
LINE
  5
2334E
330
22F93
100
AcDbEntity
  8
5_ALL_CURVES
  6
Continuous
100
AcDbLine
 10
154.8178504309086
 20
206.5429171806398
 30
0.0
 11
154.9492780131086
 21
206.5496773270397
 31
0.0
  0
LINE
  5
2334F
330
22F93
100
AcDbEntity
  8
5_ALL_CURVES
  6
Continuous
100
AcDbLine
 10
155.1567392674085
 20
206.5726639840398
 30
0.0
 11
155.3191337254085
 21
206.5810692042397
 31
0.0
  0
LINE
  5
23350
330
22F93
100
AcDbEntity
  8
5_ALL_CURVES
  6
Continuous
100
AcDbLine
 10
154.9946383685085
 20
206.5501600096398
 30
0.0
 11
154.8322438163085
 21
206.5417248580398
 31
0.0
  0
LINE
  5
23351
330
22F93
100
AcDbEntity
  8
5_ALL_CURVES
  6
Continuous
100
AcDbLine
 10
156.6358275610086
 20
206.5838964205397
 30
0.0
 11
156.5400828916086
 21
206.5789138860398
 31
0.0
  0
LINE
  5
23352
330
22F93
100
AcDbEntity
  8
5_ALL_CURVES
  6
Continuous
100
AcDbLine
 10
155.4230616140085
 20
206.5212855324399
 30
0.0
 11
156.1571041691085
 21
206.5597340587397
 31
0.0
  0
LINE
  5
23353
330
22F93
100
AcDbEntity
  8
5_ALL_CURVES
  6
Continuous
100
AcDbLine
 10
156.4124233323085
 20
206.5731075803397
 30
0.0
 11
156.9230616140085
 21
206.5998547327398
 31
0.0
  0
LINE
  5
23354
330
22F93
100
AcDbEntity
  8
5_ALL_CURVES
  6
Continuous
100
AcDbLine
 10
156.9230616140085
 20
206.5995533869397
 30
0.0
 11
155.4230616140085
 21
206.5209757403398
 31
0.0
  0
LINE
  5
23355
330
22F93
100
AcDbEntity
  8
5_ALL_CURVES
  6
Continuous
100
AcDbLine
 10
156.5719977814085
 20
206.5799568402399
 30
0.0
 11
156.4124233323085
 21
206.57158967904
 31
0.0
  0
LINE
  5
23356
330
22F93
100
AcDbEntity
  8
5_ALL_CURVES
  6
Continuous
100
AcDbLine
 10
156.4124233323085
 20
206.5716291275399
 30
0.0
 11
156.7315722528086
 21
206.5884948574398
 31
0.0
  0
LINE
  5
23357
330
22F93
100
AcDbEntity
  8
5_ALL_CURVES
  6
Continuous
100
AcDbLine
 10
156.9230616140085
 20
206.5985296006398
 30
0.0
 11
156.5719977814085
 21
206.5799568402399
 31
0.0
  0
LINE
  5
23358
330
22F93
100
AcDbEntity
  8
5_ALL_CURVES
  6
Continuous
100
AcDbLine
 10
156.4637912634086
 20
206.5851927617398
 30
0.0
 11
156.7128399379086
 21
206.5982945751398
 31
0.0
  0
LINE
  5
23359
330
22F93
100
AcDbEntity
  8
5_ALL_CURVES
  6
Continuous
100
AcDbLine
 10
155.2194779619085
 20
206.5197319249397
 30
0.0
 11
155.4685266365085
 21
206.5328338688397
 31
0.0
  0
LINE
  5
2335A
330
22F93
100
AcDbEntity
  8
5_ALL_CURVES
  6
Continuous
100
AcDbLine
 10
155.5188062835085
 20
206.5254390550399
 30
0.0
 11
155.8060403812086
 21
206.5406809699398
 31
0.0
  0
LINE
  5
2335B
330
22F93
100
AcDbEntity
  8
5_ALL_CURVES
  6
Continuous
100
AcDbLine
 10
155.8060403812086
 20
206.5404530732398
 30
0.0
 11
155.7102956224085
 21
206.5354017361397
 31
0.0
  0
LINE
  5
2335C
330
22F93
100
AcDbEntity
  8
5_ALL_CURVES
  6
Continuous
100
AcDbLine
 10
156.2449982173086
 20
206.5982945751398
 30
0.0
 11
155.9980761322086
 21
206.5851927617398
 31
0.0
  0
LINE
  5
2335D
330
22F93
100
AcDbEntity
  8
5_ALL_CURVES
  6
Continuous
100
AcDbLine
 10
155.0113099210085
 20
206.5328338688397
 30
0.0
 11
154.7643878359086
 21
206.5197319249397
 31
0.0
  0
LINE
  5
2335E
330
22F93
100
AcDbEntity
  8
5_ALL_CURVES
  6
Continuous
100
AcDbLine
 10
154.4450734525085
 20
206.5898520141397
 30
0.0
 11
153.2063980531086
 21
206.5230250876397
 31
0.0
  0
LINE
  5
2335F
330
22F93
100
AcDbEntity
  8
5_ALL_CURVES
  6
Continuous
100
AcDbLine
 10
153.6038809700085
 20
206.5312088219398
 30
0.0
 11
154.8735232723086
 21
206.5997505677397
 31
0.0
  0
LINE
  5
23360
330
22F93
100
AcDbEntity
  8
5_ALL_CURVES
  6
Continuous
100
AcDbLine
 10
154.9188836277085
 20
206.5994603730398
 30
0.0
 11
153.4634400383085
 21
206.5208801189397
 31
0.0
  0
LINE
  5
23361
330
22F93
100
AcDbEntity
  8
5_ALL_CURVES
  6
Continuous
100
AcDbLine
 10
154.7935628217085
 20
206.5890928452396
 30
0.0
 11
154.9793641305086
 21
206.5991254967397
 31
0.0
  0
LINE
  5
23362
330
22F93
100
AcDbEntity
  8
5_ALL_CURVES
  6
Continuous
100
AcDbLine
 10
153.5239205411085
 20
206.5205358534397
 30
0.0
 11
153.7097218282086
 21
206.5305685171399
 31
0.0
  0
LINE
  5
23363
330
22F93
100
AcDbEntity
  8
5_ALL_CURVES
  6
Continuous
100
AcDbLine
 10
154.1425315785085
 20
206.5521585135399
 30
0.0
 11
154.3283328657086
 21
206.5621917564398
 31
0.0
  0
LINE
  5
23364
330
22F93
100
AcDbEntity
  8
5_ALL_CURVES
  6
Continuous
100
AcDbLine
 10
153.9365236053086
 20
206.5298251238397
 30
0.0
 11
154.3390931475086
 21
206.5515683421399
 31
0.0
  0
LINE
  5
23365
330
22F93
100
AcDbEntity
  8
5_ALL_CURVES
  6
Continuous
100
AcDbLine
 10
154.5248944347086
 20
206.5616036668398
 30
0.0
 11
155.0203645988086
 21
206.58836459994
 31
0.0
  0
LINE
  5
23366
330
22F93
100
AcDbEntity
  8
5_ALL_CURVES
  6
Continuous
100
AcDbLine
 10
155.2515262630086
 20
206.5983551347398
 30
0.0
 11
153.7960826736086
 21
206.5197438827397
 31
0.0
  0
LINE
  5
23367
330
22F93
100
AcDbEntity
  8
5_ALL_CURVES
  6
Continuous
100
AcDbLine
 10
154.1971988262085
 20
206.5381346748398
 30
0.0
 11
154.3210664377085
 21
206.5448250254397
 31
0.0
  0
LINE
  5
23368
330
22F93
100
AcDbEntity
  8
5_ALL_CURVES
  6
Continuous
100
AcDbLine
 10
154.3354599119085
 20
206.5431865918398
 30
0.0
 11
154.2425591816085
 21
206.5381688885397
 31
0.0
  0
LINE
  5
23369
330
22F93
100
AcDbEntity
  8
5_ALL_CURVES
  6
Continuous
100
AcDbLine
 10
154.2457593898086
 20
206.5286460978398
 30
0.0
 11
154.7102626944086
 21
206.5537300622397
 31
0.0
  0
LINE
  5
2336A
330
22F93
100
AcDbEntity
  8
5_ALL_CURVES
  6
Continuous
100
AcDbLine
 10
154.8960639816086
 20
206.5637636599397
 30
0.0
 11
155.5463685733085
 21
206.5988812918397
 31
0.0
  0
LINE
  5
2336B
330
22F93
100
AcDbEntity
  8
5_ALL_CURVES
  6
Continuous
100
AcDbLine
 10
155.5917289287086
 20
206.59908782074
 30
0.0
 11
154.1362853393085
 21
206.5204971209397
 31
0.0
  0
LINE
  5
2336C
330
22F93
100
AcDbEntity
  8
5_ALL_CURVES
  6
Continuous
100
AcDbLine
 10
154.6922360062085
 20
206.5475847518398
 30
0.0
 11
155.1567392674085
 21
206.5726639840398
 31
0.0
  0
LINE
  5
2336D
330
22F93
100
AcDbEntity
  8
5_ALL_CURVES
  6
Continuous
100
AcDbLine
 10
155.2020996228085
 20
206.5729512735399
 30
0.0
 11
154.7375963616086
 21
206.5478745853398
 31
0.0
  0
LINE
  5
2336E
330
22F93
100
AcDbEntity
  8
5_ALL_CURVES
  6
Continuous
100
AcDbLine
 10
154.9492780131086
 20
206.5496773270397
 30
0.0
 11
155.4137812743086
 21
206.5747382045397
 31
0.0
  0
LINE
  5
2336F
330
22F93
100
AcDbEntity
  8
5_ALL_CURVES
  6
Continuous
100
AcDbLine
 10
155.4591416297085
 20
206.5752166575399
 30
0.0
 11
154.9946383685085
 21
206.5501600096398
 31
0.0
  0
LINE
  5
23370
330
22F93
100
AcDbEntity
  8
5_ALL_CURVES
  6
Continuous
100
AcDbLine
 10
155.7102956224085
 20
206.5354017361397
 30
0.0
 11
155.6145509529085
 21
206.5301682528397
 31
0.0
  0
LINE
  5
23371
330
22F93
100
AcDbEntity
  8
5_ALL_CURVES
  6
Continuous
100
AcDbLine
 10
155.4230616140085
 20
206.5201341571397
 30
0.0
 11
155.5188062835085
 21
206.5254390550399
 31
0.0
  0
LINE
  5
23372
330
22F93
100
AcDbEntity
  8
5_ALL_CURVES
  6
Continuous
100
AcDbLine
 10
155.6064159762086
 20
206.5834871985399
 30
0.0
 11
155.4591416297085
 21
206.5752166575399
 31
0.0
  0
LINE
  5
23373
330
22F93
100
AcDbEntity
  8
5_ALL_CURVES
  6
Continuous
100
AcDbLine
 10
154.5449615655085
 20
206.5392711100396
 30
0.0
 11
154.6922360062085
 21
206.5475847518398
 31
0.0
  0
LINE
  5
23374
330
22F93
100
AcDbEntity
  8
5_ALL_CURVES
  6
Continuous
100
AcDbLine
 10
155.4137812743086
 20
206.5747382045397
 30
0.0
 11
155.5300887416086
 21
206.5813449324397
 31
0.0
  0
LINE
  5
23375
330
22F93
100
AcDbEntity
  8
5_ALL_CURVES
  6
Continuous
100
AcDbLine
 10
154.7375963616086
 20
206.5478745853398
 30
0.0
 11
154.6212888889086
 21
206.5412392390399
 31
0.0
  0
LWPOLYLINE
  5
23376
330
22F93
100
AcDbEntity
  8
5_ALL_CURVES
  6
Continuous
100
AcDbPolyline
 90
        3
 70
     0
 43
0.0
 10
156.5985573091085
 20
206.5917136177398
 10
156.1443310635085
 20
206.5657075492398
 10
156.0314850717085
 20
206.5592846479397
  0
LINE
  5
2337B
330
22F93
100
AcDbEntity
  8
5_ALL_CURVES
  6
Continuous
100
AcDbLine
 10
156.7128399379086
 20
206.5982945751398
 30
0.0
 11
156.5985573091085
 21
206.5917136177398
 31
0.0
  0
LINE
  5
2337C
330
22F93
100
AcDbEntity
  8
5_ALL_CURVES
  6
Continuous
100
AcDbLine
 10
154.2425591816085
 20
206.5381688885397
 30
0.0
 11
154.1572186117086
 21
206.5331602357399
 31
0.0
  0
LINE
  5
2337D
330
22F93
100
AcDbEntity
  8
5_ALL_CURVES
  6
Continuous
100
AcDbLine
 10
154.1118582563086
 20
206.5331202486397
 30
0.0
 11
154.1971988262085
 21
206.5381346748398
 31
0.0
  0
LINE
  5
2337E
330
22F93
100
AcDbEntity
  8
5_ALL_CURVES
  6
Continuous
100
AcDbLine
 10
155.7151634044086
 20
206.5900088010398
 30
0.0
 11
155.6064159762086
 21
206.5834871985399
 31
0.0
  0
LINE
  5
2337F
330
22F93
100
AcDbEntity
  8
5_ALL_CURVES
  6
Continuous
100
AcDbLine
 10
154.4362141665086
 20
206.5326786892399
 30
0.0
 11
154.5449615655085
 21
206.5392711100396
 31
0.0
  0
LINE
  5
23380
330
22F93
100
AcDbEntity
  8
5_ALL_CURVES
  6
Continuous
100
AcDbLine
 10
155.5300887416086
 20
206.5813449324397
 30
0.0
 11
155.6078692649086
 21
206.5862078364399
 31
0.0
  0
LINE
  5
23381
330
22F93
100
AcDbEntity
  8
5_ALL_CURVES
  6
Continuous
100
AcDbLine
 10
154.6212888889086
 20
206.5412392390399
 30
0.0
 11
154.5435082843085
 21
206.5363305367398
 31
0.0
  0
LINE
  5
23382
330
22F93
100
AcDbEntity
  8
5_ALL_CURVES
  6
Continuous
100
AcDbLine
 10
154.7643878359086
 20
206.5197319249397
 30
0.0
 11
155.0746691268086
 21
206.5393618921397
 31
0.0
  0
LINE
  5
23383
330
22F93
100
AcDbEntity
  8
5_ALL_CURVES
  6
Continuous
100
AcDbLine
 10
155.0746691268086
 20
206.5393618921397
 30
0.0
 11
155.3874402033085
 21
206.5592846479397
 31
0.0
  0
LWPOLYLINE
  5
23384
330
22F93
100
AcDbEntity
  8
5_ALL_CURVES
  6
Continuous
100
AcDbPolyline
 90
        4
 70
     0
 43
0.0
 10
154.0783558660086
 20
206.56192898564
 10
153.8399792794086
 20
206.5464825176399
 10
153.7216437699085
 20
206.5388239912397
 10
153.6038809700085
 20
206.5312088219398
  0
LWPOLYLINE
  5
2338A
330
22F93
100
AcDbEntity
  8
5_ALL_CURVES
  6
Continuous
100
AcDbPolyline
 90
        3
 70
     0
 43
0.0
 10
154.4402737954085
 20
206.5854285678397
 10
154.1984044744086
 20
206.5697174918397
 10
154.0783558660086
 20
206.56192898564
  0
LWPOLYLINE
  5
2338F
330
22F93
100
AcDbEntity
  8
5_ALL_CURVES
  6
Continuous
100
AcDbPolyline
 90
        3
 70
     0
 43
0.0
 10
153.3953995052085
 20
206.5213405078398
 10
153.5098613127086
 20
206.52878615994
 10
153.7403954165085
 20
206.5438012405397
  0
LWPOLYLINE
  5
23394
330
22F93
100
AcDbEntity
  8
5_ALL_CURVES
  6
Continuous
100
AcDbPolyline
 90
        3
 70
     0
 43
0.0
 10
153.7403954165085
 20
206.5438012405397
 10
153.8564629721085
 20
206.5513704269398
 10
154.0902334370086
 20
206.5666345648399
  0
LWPOLYLINE
  5
23399
330
22F93
100
AcDbEntity
  8
5_ALL_CURVES
  6
Continuous
100
AcDbPolyline
 90
        4
 70
     0
 43
0.0
 10
154.0902334370086
 20
206.5666345648399
 10
154.2079552968086
 20
206.5743308486397
 10
154.3262364866085
 20
206.5820700737397
 10
154.4450734525085
 20
206.5898520141397
  0
LINE
  5
2339F
330
22F93
100
AcDbEntity
  8
5_ALL_CURVES
  6
Continuous
100
AcDbLine
 10
154.0106709092086
 20
206.5264456596397
 30
0.0
 11
154.1118582563086
 21
206.5331202486397
 31
0.0
  0
LINE
  5
233A0
330
22F93
100
AcDbEntity
  8
5_ALL_CURVES
  6
Continuous
100
AcDbLine
 10
155.8087907048085
 20
206.5963821018399
 30
0.0
 11
155.7151634044086
 21
206.5900088010398
 31
0.0
  0
LINE
  5
233A1
330
22F93
100
AcDbEntity
  8
5_ALL_CURVES
  6
Continuous
100
AcDbLine
 10
154.3425868714086
 20
206.5261936300397
 30
0.0
 11
154.4362141665086
 21
206.5326786892399
 31
0.0
  0
LINE
  5
233A2
330
22F93
100
AcDbEntity
  8
5_ALL_CURVES
  6
Continuous
100
AcDbLine
 10
154.1572186117086
 20
206.5331602357399
 30
0.0
 11
154.1104049534086
 21
206.5298360855399
 31
0.0
  0
LINE
  5
233A3
330
22F93
100
AcDbEntity
  8
5_ALL_CURVES
  6
Continuous
100
AcDbLine
 10
156.9230616140085
 20
206.5998547327398
 30
0.0
 11
156.9230616140085
 21
206.5995533869397
 31
0.0
  0
LINE
  5
233A4
330
22F93
100
AcDbEntity
  8
5_ALL_CURVES
  6
Continuous
100
AcDbLine
 10
156.9230616140085
 20
206.5987347590397
 30
0.0
 11
156.9230616140085
 21
206.5985296006398
 31
0.0
  0
LINE
  5
233A5
330
22F93
100
AcDbEntity
  8
5_ALL_CURVES
  6
Continuous
100
AcDbLine
 10
156.7315722528086
 20
206.5884948574398
 30
0.0
 11
156.7315722528086
 21
206.5887007362399
 31
0.0
  0
LINE
  5
233A6
330
22F93
100
AcDbEntity
  8
5_ALL_CURVES
  6
Continuous
100
AcDbLine
 10
156.5400828916086
 20
206.5789138860398
 30
0.0
 11
156.5400828916086
 21
206.5791387226397
 31
0.0
  0
LINE
  5
233A7
330
22F93
100
AcDbEntity
  8
5_ALL_CURVES
  6
Continuous
100
AcDbLine
 10
155.8060403812086
 20
206.5406809699398
 30
0.0
 11
155.8060403812086
 21
206.5404530732398
 31
0.0
  0
LINE
  5
233A8
330
22F93
100
AcDbEntity
  8
5_ALL_CURVES
  6
Continuous
100
AcDbLine
 10
155.6145509529085
 20
206.5301682528397
 30
0.0
 11
155.6145509529085
 21
206.5299580912398
 31
0.0
  0
LINE
  5
233A9
330
22F93
100
AcDbEntity
  8
5_ALL_CURVES
  6
Continuous
100
AcDbLine
 10
155.4230616140085
 20
206.5199232435399
 30
0.0
 11
155.4230616140085
 21
206.5201341571397
 31
0.0
  0
LINE
  5
233AA
330
22F93
100
AcDbEntity
  8
5_ALL_CURVES
  6
Continuous
100
AcDbLine
 10
155.4230616140085
 20
206.5209757403398
 30
0.0
 11
155.4230616140085
 21
206.5212855324399
 31
0.0
  0
LINE
  5
233AB
330
22F93
100
AcDbEntity
  8
5_ALL_CURVES
  6
Continuous
100
AcDbLine
 10
155.4230616140085
 20
206.5227154877399
 30
0.0
 11
155.4230616140085
 21
206.5233499396398
 31
0.0
  0
LINE
  5
233AC
330
22F93
100
AcDbEntity
  8
5_ALL_CURVES
  6
Continuous
100
AcDbLine
 10
153.9480105170086
 20
206.5214623540398
 30
0.0
 11
154.0106709092086
 21
206.5264456596397
 31
0.0
  0
LINE
  5
233AD
330
22F93
100
AcDbEntity
  8
5_ALL_CURVES
  6
Continuous
100
AcDbLine
 10
155.6078692649086
 20
206.5862078364399
 30
0.0
 11
155.6471228713085
 21
206.5893325962398
 31
0.0
  0
LINE
  5
233AE
330
22F93
100
AcDbEntity
  8
5_ALL_CURVES
  6
Continuous
100
AcDbLine
 10
154.5435082843085
 20
206.5363305367398
 30
0.0
 11
154.5042546996085
 21
206.5331542873397
 31
0.0
  0
LINE
  5
233AF
330
22F93
100
AcDbEntity
  8
5_ALL_CURVES
  6
Continuous
100
AcDbLine
 10
155.8404842348085
 20
206.5994297470397
 30
0.0
 11
155.8087907048085
 21
206.5963821018399
 31
0.0
  0
LINE
  5
233B0
330
22F93
100
AcDbEntity
  8
5_ALL_CURVES
  6
Continuous
100
AcDbLine
 10
154.3108933388086
 20
206.5230680340398
 30
0.0
 11
154.3425868714086
 21
206.5261936300397
 31
0.0
  0
LINE
  5
233B1
330
22F93
100
AcDbEntity
  8
5_ALL_CURVES
  6
Continuous
100
AcDbLine
 10
154.1104049534086
 20
206.5298360855399
 30
0.0
 11
154.1021182499085
 21
206.5282021648398
 31
0.0
  0
LINE
  5
233B2
330
22F93
100
AcDbEntity
  8
5_ALL_CURVES
  6
Continuous
100
AcDbLine
 10
155.6471228713085
 20
206.5893325962398
 30
0.0
 11
155.6478495119085
 21
206.5907274531399
 31
0.0
  0
LINE
  5
233B3
330
22F93
100
AcDbEntity
  8
5_ALL_CURVES
  6
Continuous
100
AcDbLine
 10
154.5042546996085
 20
206.5331542873397
 30
0.0
 11
154.5035280481086
 21
206.5317189602398
 31
0.0
  0
LINE
  5
233B4
330
22F93
100
AcDbEntity
  8
5_ALL_CURVES
  6
Continuous
100
AcDbLine
 10
154.6164812871085
 20
206.6020264757397
 30
0.0
 11
154.6845218202085
 21
206.6013196283397
 31
0.0
  0
LINE
  5
233B5
330
22F93
100
AcDbEntity
  8
5_ALL_CURVES
  6
Continuous
100
AcDbLine
 10
156.9230616140085
 20
206.6018629072397
 30
0.0
 11
156.9230616140085
 21
206.6012457273398
 31
0.0
  0
TEXT
  5
233B6
330
22F93
100
AcDbEntity
  8
寸法
100
AcDbText
 10
176.0210469347505
 20
218.295360841184
 30
0.0
 40
2.5
  1
埋め込み部
 50
90.0
 41
0.8
  7
STANDARD1
100
AcDbText
  0
LINE
  5
233B7
330
22F93
100
AcDbEntity
  8
実線
100
AcDbLine
 10
231.0780793355765
 20
131.3858273462608
 30
0.0
 11
231.0780793355765
 21
128.6173511951608
 31
0.0
  0
LINE
  5
233B8
330
22F93
100
AcDbEntity
  8
実線
100
AcDbLine
 10
231.0780793355765
 20
131.3858273462608
 30
0.0
 11
231.5215765886765
 21
131.8293245994608
 31
0.0
  0
LINE
  5
233B9
330
22F93
100
AcDbEntity
  8
実線
100
AcDbLine
 10
239.6280793355765
 20
132.8858273462609
 30
0.0
 11
253.5280793355765
 21
132.8858273462609
 31
0.0
  0
LINE
  5
233BA
330
22F93
100
AcDbEntity
  8
実線
100
AcDbLine
 10
239.6280793355765
 20
144.1358273462609
 30
0.0
 11
239.6280793355765
 21
139.1358273462609
 31
0.0
  0
LINE
  5
233BB
330
22F93
100
AcDbEntity
  8
実線
100
AcDbLine
 10
239.6280793355765
 20
139.1358273462609
 30
0.0
 11
244.8327558567765
 21
139.1358273462609
 31
0.0
  0
LINE
  5
233BC
330
22F93
100
AcDbEntity
  8
実線
100
AcDbLine
 10
242.2280793355765
 20
132.6358273462608
 30
0.0
 11
239.6280793355765
 21
132.6358273462608
 31
0.0
  0
LINE
  5
233BD
330
22F93
100
AcDbEntity
  8
実線
100
AcDbLine
 10
239.8780793355764
 20
132.8858273462609
 30
0.0
 11
239.8780793355764
 21
132.6358273462608
 31
0.0
  0
LINE
  5
233BE
330
22F93
100
AcDbEntity
  8
実線
100
AcDbLine
 10
241.0780793355765
 20
132.8858273462609
 30
0.0
 11
241.0780793355765
 21
132.6358273462608
 31
0.0
  0
LINE
  5
233BF
330
22F93
100
AcDbEntity
  8
実線
100
AcDbLine
 10
242.1780793355765
 20
134.1358273462609
 30
0.0
 11
241.0280793355765
 21
134.1358273462609
 31
0.0
  0
LINE
  5
233C0
330
22F93
100
AcDbEntity
  8
実線
100
AcDbLine
 10
242.1780793355765
 20
137.8858273462609
 30
0.0
 11
241.0280793355765
 21
137.8858273462609
 31
0.0
  0
LINE
  5
233C1
330
22F93
100
AcDbEntity
  8
実線
100
AcDbLine
 10
241.0280793355765
 20
139.1358273462609
 30
0.0
 11
241.0280793355765
 21
132.6358273462608
 31
0.0
  0
LINE
  5
233C2
330
22F93
100
AcDbEntity
  8
実線
100
AcDbLine
 10
242.1780793355765
 20
132.8858273462609
 30
0.0
 11
242.1780793355765
 21
139.1358273462609
 31
0.0
  0
LINE
  5
233C3
330
22F93
100
AcDbEntity
  8
実線
100
AcDbLine
 10
239.6280793355765
 20
144.1358273462609
 30
0.0
 11
238.3780793355764
 21
145.3858273462609
 31
0.0
  0
LINE
  5
233C4
330
22F93
100
AcDbEntity
  8
実線
100
AcDbLine
 10
236.7548003346765
 20
145.3858273462609
 30
0.0
 11
235.0262072963765
 21
144.2310768521608
 31
0.0
  0
LINE
  5
233C5
330
22F93
100
AcDbEntity
  8
実線
100
AcDbLine
 10
236.7548003346765
 20
145.3858273462609
 30
0.0
 11
238.3780793355764
 21
145.3858273462609
 31
0.0
  0
LINE
  5
233C6
330
22F93
100
AcDbEntity
  8
実線
100
AcDbLine
 10
328.0280793355764
 20
112.8858273462608
 30
0.0
 11
328.0280793355764
 21
132.8858273462609
 31
0.0
  0
LINE
  5
233C7
330
22F93
100
AcDbEntity
  8
実線
100
AcDbLine
 10
330.7780793355765
 20
112.8858273462608
 30
0.0
 11
330.7780793355765
 21
132.8858273462609
 31
0.0
  0
LINE
  5
233C8
330
22F93
100
AcDbEntity
  8
実線
100
AcDbLine
 10
330.8280793355764
 20
112.8858273462608
 30
0.0
 11
330.8280793355764
 21
132.8858273462609
 31
0.0
  0
LINE
  5
233C9
330
22F93
100
AcDbEntity
  8
実線
100
AcDbLine
 10
333.4280793355765
 20
124.1358273462608
 30
0.0
 11
333.4280793355765
 21
132.8858273462609
 31
0.0
  0
ARC
  5
233CA
330
22F93
100
AcDbEntity
  8
実線
100
AcDbCircle
 10
286.5280793355765
 20
122.8858273462609
 30
0.0
 40
55.75
100
AcDbArc
 50
337.4895885664011
 51
27.71403118249914
  0
LINE
  5
233CB
330
22F93
100
AcDbEntity
  8
実線
100
AcDbLine
 10
319.5280793355765
 20
132.8858273462609
 30
0.0
 11
319.5280793355765
 21
112.8858273462608
 31
0.0
  0
LINE
  5
233CC
330
22F93
100
AcDbEntity
  8
一点鎖線
100
AcDbLine
 10
286.5280793355764
 20
63.16685906721494
 30
0.0
 11
286.5280793355764
 21
199.5552651236104
 31
0.0
  0
LINE
  5
233CD
330
22F93
100
AcDbEntity
  8
実線
100
AcDbLine
 10
328.2234028142764
 20
106.6358273462608
 30
0.0
 11
333.4280793355765
 21
106.6358273462608
 31
0.0
  0
LINE
  5
233CE
330
22F93
100
AcDbEntity
  8
実線
100
AcDbLine
 10
319.5280793355765
 20
112.8858273462608
 30
0.0
 11
333.4280793355765
 21
112.8858273462608
 31
0.0
  0
TEXT
  5
233CF
330
22F93
100
AcDbEntity
  8
寸法
100
AcDbText
 10
268.5062353067185
 20
50.34851942543673
 30
0.0
 40
3.0
  1
化粧カバーを外した状態
  7
STANDARD1
100
AcDbText
  0
LINE
  5
233D0
330
22F93
100
AcDbEntity
  8
実線-細
100
AcDbLine
 10
296.9655793355765
 20
87.42306141426087
 30
0.0
 11
296.8093288586763
 21
87.58263586326085
 31
0.0
  0
LINE
  5
233D1
330
22F93
100
AcDbEntity
  8
実線-細
100
AcDbLine
 10
296.8718293355765
 20
87.21029548216085
 30
0.0
 11
296.7780793355765
 21
87.31667844816087
 31
0.0
  0
LINE
  5
233D2
330
22F93
100
AcDbEntity
  8
実線-細
100
AcDbLine
 10
296.7780793355765
 20
85.45497628166083
 30
0.0
 11
296.8718293355765
 21
85.56135924776084
 31
0.0
  0
LINE
  5
233D3
330
22F93
100
AcDbEntity
  8
実線-細
100
AcDbLine
 10
296.8093288586763
 20
85.18901883396086
 30
0.0
 11
296.9655793355765
 21
85.34859329706085
 31
0.0
  0
LINE
  5
233D4
330
22F93
100
AcDbEntity
  8
実線
100
AcDbLine
 10
274.2780793355765
 20
84.78382862506094
 30
0.0
 11
298.9295808795765
 21
84.78382862506094
 31
0.0
  0
LINE
  5
233D5
330
22F93
100
AcDbEntity
  8
実線
100
AcDbLine
 10
298.9295808795765
 20
92.1358273462609
 30
0.0
 11
274.2780793355765
 21
92.1358273462609
 31
0.0
  0
LINE
  5
233D6
330
22F93
100
AcDbEntity
  8
一点鎖線
100
AcDbLine
 10
286.5280793355764
 20
122.8858273462609
 30
0.0
 11
311.4263096943764
 21
108.5108273462608
 31
0.0
  0
LINE
  5
233D7
330
22F93
100
AcDbEntity
  8
実線-細
100
AcDbLine
 10
280.8405793355765
 20
86.30604012176087
 30
0.0
 11
280.9968294547765
 21
86.0400826321611
 31
0.0
  0
LINE
  5
233D8
330
22F93
100
AcDbEntity
  8
実線-細
100
AcDbLine
 10
281.0280793355765
 20
86.09327418966087
 30
0.0
 11
280.8405793355765
 21
86.41242308786088
 31
0.0
  0
LINE
  5
233D9
330
22F93
100
AcDbEntity
  8
実線-細
100
AcDbLine
 10
280.9968294547765
 20
86.78476346896109
 30
0.0
 11
280.8405793355765
 21
86.51880605386082
 31
0.0
  0
LINE
  5
233DA
330
22F93
100
AcDbEntity
  8
実線-細
100
AcDbLine
 10
280.8405793355765
 20
86.41242308786088
 30
0.0
 11
281.0280793355765
 21
86.73157198596085
 31
0.0
  0
LINE
  5
233DB
330
22F93
100
AcDbEntity
  8
実線-細
100
AcDbLine
 10
280.0905793355765
 20
86.51880605386082
 30
0.0
 11
279.9343292162765
 21
86.78476346896109
 31
0.0
  0
LINE
  5
233DC
330
22F93
100
AcDbEntity
  8
実線-細
100
AcDbLine
 10
280.3405794547765
 20
86.73157198596085
 30
0.0
 11
280.3093292162765
 21
86.78476346896109
 31
0.0
  0
LINE
  5
233DD
330
22F93
100
AcDbEntity
  8
実線-細
100
AcDbLine
 10
280.7780792162765
 20
86.51880605386082
 30
0.0
 11
280.6218294547765
 21
86.78476346896109
 31
0.0
  0
LINE
  5
233DE
330
22F93
100
AcDbEntity
  8
実線-細
100
AcDbLine
 10
278.7155792162765
 20
87.31667844816087
 30
0.0
 11
278.7155792162765
 21
86.62518901986084
 31
0.0
  0
LINE
  5
233DF
330
22F93
100
AcDbEntity
  8
実線-細
100
AcDbLine
 10
280.0905793355765
 20
86.89114643496088
 30
0.0
 11
280.0905793355765
 21
86.51880605386082
 31
0.0
  0
LINE
  5
233E0
330
22F93
100
AcDbEntity
  8
実線-細
100
AcDbLine
 10
280.1530794547765
 20
86.51880605386082
 30
0.0
 11
280.1530794547765
 21
86.89114643496088
 31
0.0
  0
LINE
  5
233E1
330
22F93
100
AcDbEntity
  8
実線-細
100
AcDbLine
 10
280.7780792162765
 20
86.89114643496088
 30
0.0
 11
280.7780792162765
 21
86.51880605386082
 31
0.0
  0
LINE
  5
233E2
330
22F93
100
AcDbEntity
  8
実線-細
100
AcDbLine
 10
280.8405793355765
 20
86.51880605386082
 30
0.0
 11
280.8405793355765
 21
86.89114643496088
 31
0.0
  0
LINE
  5
233E3
330
22F93
100
AcDbEntity
  8
実線-細
100
AcDbLine
 10
279.9343292162765
 20
86.78476346896109
 30
0.0
 11
279.9030793355765
 21
86.73157198596085
 31
0.0
  0
LINE
  5
233E4
330
22F93
100
AcDbEntity
  8
実線-細
100
AcDbLine
 10
280.3093292162765
 20
86.78476346896109
 30
0.0
 11
280.1530794547765
 21
86.51880605386082
 31
0.0
  0
LINE
  5
233E5
330
22F93
100
AcDbEntity
  8
実線-細
100
AcDbLine
 10
280.6218294547765
 20
86.78476346896109
 30
0.0
 11
280.5905792162765
 21
86.73157198596085
 31
0.0
  0
LINE
  5
233E6
330
22F93
100
AcDbEntity
  8
実線-細
100
AcDbLine
 10
275.2155793355765
 20
86.89114643496088
 30
0.0
 11
275.2780793429765
 21
86.73157198596085
 31
0.0
  0
LINE
  5
233E7
330
22F93
100
AcDbEntity
  8
実線-細
100
AcDbLine
 10
275.0593293364765
 20
86.83795495196092
 30
0.0
 11
275.1218293355765
 21
86.62518901986084
 31
0.0
  0
LINE
  5
233E8
330
22F93
100
AcDbEntity
  8
実線-細
100
AcDbLine
 10
277.7780793951766
 20
87.21029548216085
 30
0.0
 11
277.7780793951766
 21
86.19965715576086
 31
0.0
  0
LINE
  5
233E9
330
22F93
100
AcDbEntity
  8
実線-細
100
AcDbLine
 10
277.9655793951765
 20
87.63582734626089
 30
0.0
 11
277.9655793951765
 21
86.19965715576086
 31
0.0
  0
LINE
  5
233EA
330
22F93
100
AcDbEntity
  8
実線-細
100
AcDbLine
 10
276.0593293355765
 20
86.62518901986084
 30
0.0
 11
276.1218293653765
 21
86.83795495196092
 31
0.0
  0
LINE
  5
233EB
330
22F93
100
AcDbEntity
  8
実線-細
100
AcDbLine
 10
275.9030793057765
 20
86.73157198596085
 30
0.0
 11
275.9655793355765
 21
86.89114643496088
 31
0.0
  0
LINE
  5
233EC
330
22F93
100
AcDbEntity
  8
実線-細
100
AcDbLine
 10
277.0280793951765
 20
86.19965715576086
 30
0.0
 11
277.7780793951766
 21
87.63582734626089
 31
0.0
  0
LINE
  5
233ED
330
22F93
100
AcDbEntity
  8
実線-細
100
AcDbLine
 10
277.2468292759765
 20
86.19965715576086
 30
0.0
 11
277.7780793951766
 21
87.21029548216085
 31
0.0
  0
LINE
  5
233EE
330
22F93
100
AcDbEntity
  8
実線-細
100
AcDbLine
 10
276.5905792759765
 20
85.13582734626089
 30
0.0
 11
276.5905792759765
 21
87.21029548216085
 31
0.0
  0
LINE
  5
233EF
330
22F93
100
AcDbEntity
  8
実線-細
100
AcDbLine
 10
276.7780792759765
 20
87.63582734626089
 30
0.0
 11
276.7780792759765
 21
85.13582734626089
 31
0.0
  0
LINE
  5
233F0
330
22F93
100
AcDbEntity
  8
実線-細
100
AcDbLine
 10
278.5280792162765
 20
85.13582734626089
 30
0.0
 11
278.5280792162765
 21
87.63582734626089
 31
0.0
  0
LINE
  5
233F1
330
22F93
100
AcDbEntity
  8
実線
100
AcDbLine
 10
274.0280793355765
 20
91.88582734626089
 30
0.0
 11
274.0280793355765
 21
85.03382862506095
 31
0.0
  0
LINE
  5
233F2
330
22F93
100
AcDbEntity
  8
実線-細
100
AcDbLine
 10
279.5280793355765
 20
86.30604012176087
 30
0.0
 11
278.7155792162765
 21
86.30604012176087
 31
0.0
  0
LINE
  5
233F3
330
22F93
100
AcDbEntity
  8
実線-細
100
AcDbLine
 10
278.7155792162765
 20
86.62518901986084
 30
0.0
 11
279.5280793355765
 21
86.62518901986084
 31
0.0
  0
LINE
  5
233F4
330
22F93
100
AcDbEntity
  8
実線-細
100
AcDbLine
 10
279.9030793355765
 20
86.09327418966087
 30
0.0
 11
279.9343292162765
 21
86.0400826321611
 31
0.0
  0
LINE
  5
233F5
330
22F93
100
AcDbEntity
  8
実線-細
100
AcDbLine
 10
279.9030793355765
 20
86.73157198596085
 30
0.0
 11
280.0905793355765
 21
86.41242308786088
 31
0.0
  0
LINE
  5
233F6
330
22F93
100
AcDbEntity
  8
実線-細
100
AcDbLine
 10
280.1530794547765
 20
86.30604012176087
 30
0.0
 11
280.3093292162765
 21
86.0400826321611
 31
0.0
  0
LINE
  5
233F7
330
22F93
100
AcDbEntity
  8
実線-細
100
AcDbLine
 10
280.3405794547765
 20
86.09327418966087
 30
0.0
 11
280.1530794547765
 21
86.41242308786088
 31
0.0
  0
LINE
  5
233F8
330
22F93
100
AcDbEntity
  8
実線-細
100
AcDbLine
 10
280.5905792162765
 20
86.09327418966087
 30
0.0
 11
280.6218294547765
 21
86.0400826321611
 31
0.0
  0
LINE
  5
233F9
330
22F93
100
AcDbEntity
  8
実線-細
100
AcDbLine
 10
280.5905792162765
 20
86.73157198596085
 30
0.0
 11
280.7780792162765
 21
86.41242308786088
 31
0.0
  0
LINE
  5
233FA
330
22F93
100
AcDbEntity
  8
実線-細
100
AcDbLine
 10
279.5280793355765
 20
86.62518901986084
 30
0.0
 11
279.5280793355765
 21
86.30604012176087
 31
0.0
  0
LINE
  5
233FB
330
22F93
100
AcDbEntity
  8
実線-細
100
AcDbLine
 10
280.0905793355765
 20
86.41242308786088
 30
0.0
 11
279.9030793355765
 21
86.09327418966087
 31
0.0
  0
LINE
  5
233FC
330
22F93
100
AcDbEntity
  8
実線-細
100
AcDbLine
 10
280.1530794547765
 20
86.41242308786088
 30
0.0
 11
280.3405794547765
 21
86.73157198596085
 31
0.0
  0
LINE
  5
233FD
330
22F93
100
AcDbEntity
  8
実線-細
100
AcDbLine
 10
279.9343292162765
 20
86.0400826321611
 30
0.0
 11
280.0905793355765
 21
86.30604012176087
 31
0.0
  0
LINE
  5
233FE
330
22F93
100
AcDbEntity
  8
実線-細
100
AcDbLine
 10
280.3093292162765
 20
86.0400826321611
 30
0.0
 11
280.3405794547765
 21
86.09327418966087
 31
0.0
  0
LINE
  5
233FF
330
22F93
100
AcDbEntity
  8
実線-細
100
AcDbLine
 10
280.7780792162765
 20
86.41242308786088
 30
0.0
 11
280.5905792162765
 21
86.09327418966087
 31
0.0
  0
LINE
  5
23400
330
22F93
100
AcDbEntity
  8
実線-細
100
AcDbLine
 10
280.6218294547765
 20
86.0400826321611
 30
0.0
 11
280.7780792162765
 21
86.30604012176087
 31
0.0
  0
LINE
  5
23401
330
22F93
100
AcDbEntity
  8
実線-細
100
AcDbLine
 10
277.7780793951766
 20
86.19965715576086
 30
0.0
 11
277.2468292759765
 21
86.19965715576086
 31
0.0
  0
LINE
  5
23402
330
22F93
100
AcDbEntity
  8
実線-細
100
AcDbLine
 10
275.7780793355765
 20
86.25284863876089
 30
0.0
 11
275.6530793206765
 21
86.30604012176087
 31
0.0
  0
LINE
  5
23403
330
22F93
100
AcDbEntity
  8
実線-細
100
AcDbLine
 10
275.4030793355765
 20
86.57199753686086
 30
0.0
 11
275.5280793504765
 21
86.51880605386082
 31
0.0
  0
LINE
  5
23404
330
22F93
100
AcDbEntity
  8
実線-細
100
AcDbLine
 10
275.6530793206765
 20
86.30604012176087
 30
0.0
 11
275.5280793504765
 21
86.30604012176087
 31
0.0
  0
LINE
  5
23405
330
22F93
100
AcDbEntity
  8
実線-細
100
AcDbLine
 10
275.5280793504765
 20
86.51880605386082
 30
0.0
 11
275.6530793206765
 21
86.51880605386082
 31
0.0
  0
LINE
  5
23406
330
22F93
100
AcDbEntity
  8
実線-細
100
AcDbLine
 10
275.2155793355765
 20
86.46561457086091
 30
0.0
 11
275.2780793429765
 21
86.41242308786088
 31
0.0
  0
LINE
  5
23407
330
22F93
100
AcDbEntity
  8
実線-細
100
AcDbLine
 10
275.9030793057765
 20
86.14646567276082
 30
0.0
 11
275.7780793355765
 21
86.25284863876089
 31
0.0
  0
LINE
  5
23408
330
22F93
100
AcDbEntity
  8
実線-細
100
AcDbLine
 10
275.9655793355765
 20
86.35923160476096
 30
0.0
 11
275.9030793057765
 21
86.41242308786088
 31
0.0
  0
LINE
  5
23409
330
22F93
100
AcDbEntity
  8
実線-細
100
AcDbLine
 10
275.2780793429765
 20
86.73157198596085
 30
0.0
 11
275.4030793355765
 21
86.57199753686086
 31
0.0
  0
LINE
  5
2340A
330
22F93
100
AcDbEntity
  8
実線-細
100
AcDbLine
 10
276.0905793057765
 20
86.19965715576086
 30
0.0
 11
275.9655793355765
 21
86.35923160476096
 31
0.0
  0
LINE
  5
2340B
330
22F93
100
AcDbEntity
  8
実線-細
100
AcDbLine
 10
275.1218293355765
 20
86.62518901986084
 30
0.0
 11
275.2155793355765
 21
86.46561457086091
 31
0.0
  0
LINE
  5
2340C
330
22F93
100
AcDbEntity
  8
実線-細
100
AcDbLine
 10
275.9655793355765
 20
86.46561457086091
 30
0.0
 11
276.0593293355765
 21
86.62518901986084
 31
0.0
  0
LINE
  5
2340D
330
22F93
100
AcDbEntity
  8
実線-細
100
AcDbLine
 10
275.2155793355765
 20
86.35923160476096
 30
0.0
 11
275.0905793373765
 21
86.19965715576086
 31
0.0
  0
LINE
  5
2340E
330
22F93
100
AcDbEntity
  8
実線-細
100
AcDbLine
 10
275.7780793355765
 20
86.57199753686086
 30
0.0
 11
275.9030793057765
 21
86.73157198596085
 31
0.0
  0
LINE
  5
2340F
330
22F93
100
AcDbEntity
  8
実線-細
100
AcDbLine
 10
275.2780793429765
 20
86.41242308786088
 30
0.0
 11
275.2155793355765
 21
86.35923160476096
 31
0.0
  0
LINE
  5
23410
330
22F93
100
AcDbEntity
  8
実線-細
100
AcDbLine
 10
275.4030793355765
 20
86.25284863876089
 30
0.0
 11
275.2780793429765
 21
86.14646567276082
 31
0.0
  0
LINE
  5
23411
330
22F93
100
AcDbEntity
  8
実線-細
100
AcDbLine
 10
275.9030793057765
 20
86.41242308786088
 30
0.0
 11
275.9655793355765
 21
86.46561457086091
 31
0.0
  0
LINE
  5
23412
330
22F93
100
AcDbEntity
  8
実線-細
100
AcDbLine
 10
275.6530793206765
 20
86.51880605386082
 30
0.0
 11
275.7780793355765
 21
86.57199753686086
 31
0.0
  0
LINE
  5
23413
330
22F93
100
AcDbEntity
  8
実線-細
100
AcDbLine
 10
275.5280793504765
 20
86.30604012176087
 30
0.0
 11
275.4030793355765
 21
86.25284863876089
 31
0.0
  0
LINE
  5
23414
330
22F93
100
AcDbEntity
  8
実線-細
100
AcDbLine
 10
277.9655793951765
 20
86.19965715576086
 30
0.0
 11
278.2780794547765
 21
86.19965715576086
 31
0.0
  0
LINE
  5
23415
330
22F93
100
AcDbEntity
  8
実線-細
100
AcDbLine
 10
278.7155792162765
 20
85.13582734626089
 30
0.0
 11
278.5280792162765
 21
85.13582734626089
 31
0.0
  0
LINE
  5
23416
330
22F93
100
AcDbEntity
  8
実線-細
100
AcDbLine
 10
280.0905793355765
 20
85.93369966616098
 30
0.0
 11
280.1530794547765
 21
85.93369966616098
 31
0.0
  0
LINE
  5
23417
330
22F93
100
AcDbEntity
  8
実線-細
100
AcDbLine
 10
280.7780792162765
 20
85.93369966616098
 30
0.0
 11
280.8405793355765
 21
85.93369966616098
 31
0.0
  0
LINE
  5
23418
330
22F93
100
AcDbEntity
  8
実線-細
100
AcDbLine
 10
277.9655793951765
 20
85.13582734626089
 30
0.0
 11
277.7780793951766
 21
85.13582734626089
 31
0.0
  0
LINE
  5
23419
330
22F93
100
AcDbEntity
  8
実線-細
100
AcDbLine
 10
276.7780792759765
 20
85.13582734626089
 30
0.0
 11
276.5905792759765
 21
85.13582734626089
 31
0.0
  0
LINE
  5
2341A
330
22F93
100
AcDbEntity
  8
実線-細
100
AcDbLine
 10
275.4968293355765
 20
85.13582734626089
 30
0.0
 11
275.6843293355765
 21
85.13582734626089
 31
0.0
  0
LINE
  5
2341B
330
22F93
100
AcDbEntity
  8
実線-細
100
AcDbLine
 10
275.5280793504765
 20
85.40178479866098
 30
0.0
 11
275.6530793206765
 21
85.40178479866098
 31
0.0
  0
LINE
  5
2341C
330
22F93
100
AcDbEntity
  8
実線-細
100
AcDbLine
 10
277.7780793951766
 20
85.8805081830609
 30
0.0
 11
277.0280793951765
 21
85.8805081830609
 31
0.0
  0
LINE
  5
2341D
330
22F93
100
AcDbEntity
  8
実線-細
100
AcDbLine
 10
275.3405793280764
 20
85.18901883396086
 30
0.0
 11
275.4968293355765
 21
85.13582734626089
 31
0.0
  0
LINE
  5
2341E
330
22F93
100
AcDbEntity
  8
実線-細
100
AcDbLine
 10
275.4030793355765
 20
85.45497628166083
 30
0.0
 11
275.5280793504765
 21
85.40178479866098
 31
0.0
  0
LINE
  5
2341F
330
22F93
100
AcDbEntity
  8
実線-細
100
AcDbLine
 10
275.2780793429765
 20
85.56135924776084
 30
0.0
 11
275.4030793355765
 21
85.45497628166083
 31
0.0
  0
LINE
  5
23420
330
22F93
100
AcDbEntity
  8
実線-細
100
AcDbLine
 10
275.1843293317765
 20
85.34859329706085
 30
0.0
 11
275.3405793280764
 21
85.18901883396086
 31
0.0
  0
LINE
  5
23421
330
22F93
100
AcDbEntity
  8
実線-細
100
AcDbLine
 10
275.0905793373765
 20
85.50816776466087
 30
0.0
 11
275.1843293317765
 21
85.34859329706085
 31
0.0
  0
LINE
  5
23422
330
22F93
100
AcDbEntity
  8
実線-細
100
AcDbLine
 10
275.1843293317765
 20
85.77412521706117
 30
0.0
 11
275.2780793429765
 21
85.56135924776084
 31
0.0
  0
LINE
  5
23423
330
22F93
100
AcDbEntity
  8
実線-細
100
AcDbLine
 10
275.0280793355765
 20
85.77412521706117
 30
0.0
 11
275.0905793373765
 21
85.50816776466087
 31
0.0
  0
LINE
  5
23424
330
22F93
100
AcDbEntity
  8
実線-細
100
AcDbLine
 10
275.0280793355765
 20
85.93369966616098
 30
0.0
 11
275.0280793355765
 21
85.77412521706117
 31
0.0
  0
LINE
  5
23425
330
22F93
100
AcDbEntity
  8
実線-細
100
AcDbLine
 10
275.1843293317765
 20
85.93369966616098
 30
0.0
 11
275.1843293317765
 21
85.77412521706117
 31
0.0
  0
LINE
  5
23426
330
22F93
100
AcDbEntity
  8
実線-細
100
AcDbLine
 10
275.9968293057765
 20
85.77412521706117
 30
0.0
 11
275.9968293057765
 21
85.93369966616098
 31
0.0
  0
LINE
  5
23427
330
22F93
100
AcDbEntity
  8
実線-細
100
AcDbLine
 10
276.1530793355765
 20
85.77412521706117
 30
0.0
 11
276.1530793355765
 21
85.93369966616098
 31
0.0
  0
LINE
  5
23428
330
22F93
100
AcDbEntity
  8
実線-細
100
AcDbLine
 10
277.7780793951766
 20
85.13582734626089
 30
0.0
 11
277.7780793951766
 21
85.8805081830609
 31
0.0
  0
LINE
  5
23429
330
22F93
100
AcDbEntity
  8
実線-細
100
AcDbLine
 10
277.9655793951765
 20
85.8805081830609
 30
0.0
 11
277.9655793951765
 21
85.13582734626089
 31
0.0
  0
LINE
  5
2342A
330
22F93
100
AcDbEntity
  8
実線-細
100
AcDbLine
 10
276.0905793057765
 20
85.50816776466087
 30
0.0
 11
276.1530793355765
 21
85.77412521706117
 31
0.0
  0
LINE
  5
2342B
330
22F93
100
AcDbEntity
  8
実線-細
100
AcDbLine
 10
275.9030793057765
 20
85.56135924776084
 30
0.0
 11
275.9968293057765
 21
85.77412521706117
 31
0.0
  0
LINE
  5
2342C
330
22F93
100
AcDbEntity
  8
実線-細
100
AcDbLine
 10
275.9968293057765
 20
85.34859329706085
 30
0.0
 11
276.0905793057765
 21
85.50816776466087
 31
0.0
  0
LINE
  5
2342D
330
22F93
100
AcDbEntity
  8
実線-細
100
AcDbLine
 10
275.8405793653765
 20
85.18901883396086
 30
0.0
 11
275.9968293057765
 21
85.34859329706085
 31
0.0
  0
LINE
  5
2342E
330
22F93
100
AcDbEntity
  8
実線-細
100
AcDbLine
 10
275.7780793355765
 20
85.45497628166083
 30
0.0
 11
275.9030793057765
 21
85.56135924776084
 31
0.0
  0
LINE
  5
2342F
330
22F93
100
AcDbEntity
  8
実線-細
100
AcDbLine
 10
275.6530793206765
 20
85.40178479866098
 30
0.0
 11
275.7780793355765
 21
85.45497628166083
 31
0.0
  0
LINE
  5
23430
330
22F93
100
AcDbEntity
  8
実線-細
100
AcDbLine
 10
275.6843293355765
 20
85.13582734626089
 30
0.0
 11
275.8405793653765
 21
85.18901883396086
 31
0.0
  0
LINE
  5
23431
330
22F93
100
AcDbEntity
  8
実線-細
100
AcDbLine
 10
278.2780794547765
 20
85.8805081830609
 30
0.0
 11
277.9655793951765
 21
85.8805081830609
 31
0.0
  0
LINE
  5
23432
330
22F93
100
AcDbEntity
  8
実線-細
100
AcDbLine
 10
275.9968293057765
 20
85.93369966616098
 30
0.0
 11
275.9030793057765
 21
86.14646567276082
 31
0.0
  0
LINE
  5
23433
330
22F93
100
AcDbEntity
  8
実線-細
100
AcDbLine
 10
276.1530793355765
 20
85.93369966616098
 30
0.0
 11
276.0905793057765
 21
86.19965715576086
 31
0.0
  0
LINE
  5
23434
330
22F93
100
AcDbEntity
  8
実線-細
100
AcDbLine
 10
277.0280793951765
 20
85.8805081830609
 30
0.0
 11
277.0280793951765
 21
86.19965715576086
 31
0.0
  0
LINE
  5
23435
330
22F93
100
AcDbEntity
  8
実線-細
100
AcDbLine
 10
278.2780794547765
 20
86.19965715576086
 30
0.0
 11
278.2780794547765
 21
85.8805081830609
 31
0.0
  0
LINE
  5
23436
330
22F93
100
AcDbEntity
  8
実線-細
100
AcDbLine
 10
278.7155792162765
 20
86.30604012176087
 30
0.0
 11
278.7155792162765
 21
85.13582734626089
 31
0.0
  0
LINE
  5
23437
330
22F93
100
AcDbEntity
  8
実線-細
100
AcDbLine
 10
280.0905793355765
 20
86.30604012176087
 30
0.0
 11
280.0905793355765
 21
85.93369966616098
 31
0.0
  0
LINE
  5
23438
330
22F93
100
AcDbEntity
  8
実線-細
100
AcDbLine
 10
280.1530794547765
 20
85.93369966616098
 30
0.0
 11
280.1530794547765
 21
86.30604012176087
 31
0.0
  0
LINE
  5
23439
330
22F93
100
AcDbEntity
  8
実線-細
100
AcDbLine
 10
280.7780792162765
 20
86.30604012176087
 30
0.0
 11
280.7780792162765
 21
85.93369966616098
 31
0.0
  0
LINE
  5
2343A
330
22F93
100
AcDbEntity
  8
実線-細
100
AcDbLine
 10
280.8405793355765
 20
85.93369966616098
 30
0.0
 11
280.8405793355765
 21
86.30604012176087
 31
0.0
  0
LINE
  5
2343B
330
22F93
100
AcDbEntity
  8
実線-細
100
AcDbLine
 10
275.0905793373765
 20
86.19965715576086
 30
0.0
 11
275.0280793355765
 21
85.93369966616098
 31
0.0
  0
LINE
  5
2343C
330
22F93
100
AcDbEntity
  8
実線-細
100
AcDbLine
 10
275.2780793429765
 20
86.14646567276082
 30
0.0
 11
275.1843293317765
 21
85.93369966616098
 31
0.0
  0
ARC
  5
2343D
330
22F93
100
AcDbEntity
  8
実線
100
AcDbCircle
 10
274.2780793355765
 20
85.03382862506095
 30
0.0
 40
0.25
100
AcDbArc
 50
180.0
 51
270.0
  0
LINE
  5
2343E
330
22F93
100
AcDbEntity
  8
実線-細
100
AcDbLine
 10
280.8405793355765
 20
86.89114643496088
 30
0.0
 11
280.7780792162765
 21
86.89114643496088
 31
0.0
  0
LINE
  5
2343F
330
22F93
100
AcDbEntity
  8
実線-細
100
AcDbLine
 10
280.1530794547765
 20
86.89114643496088
 30
0.0
 11
280.0905793355765
 21
86.89114643496088
 31
0.0
  0
LINE
  5
23440
330
22F93
100
AcDbEntity
  8
実線-細
100
AcDbLine
 10
279.6530792162765
 20
87.31667844816087
 30
0.0
 11
278.7155792162765
 21
87.31667844816087
 31
0.0
  0
LINE
  5
23441
330
22F93
100
AcDbEntity
  8
実線-細
100
AcDbLine
 10
278.5280792162765
 20
87.63582734626089
 30
0.0
 11
279.6530792162765
 21
87.63582734626089
 31
0.0
  0
LINE
  5
23442
330
22F93
100
AcDbEntity
  8
実線-細
100
AcDbLine
 10
279.6530792162765
 20
87.63582734626089
 30
0.0
 11
279.6530792162765
 21
87.31667844816087
 31
0.0
  0
LINE
  5
23443
330
22F93
100
AcDbEntity
  8
実線-細
100
AcDbLine
 10
275.8093293057765
 20
87.58263586326085
 30
0.0
 11
275.6530793206765
 21
87.63582734626089
 31
0.0
  0
LINE
  5
23444
330
22F93
100
AcDbEntity
  8
実線-細
100
AcDbLine
 10
275.7780793355765
 20
87.31667844816087
 30
0.0
 11
275.6530793206765
 21
87.36986993116095
 31
0.0
  0
LINE
  5
23445
330
22F93
100
AcDbEntity
  8
実線-細
100
AcDbLine
 10
275.6530793206765
 20
87.36986993116095
 30
0.0
 11
275.5280793504765
 21
87.36986993116095
 31
0.0
  0
LINE
  5
23446
330
22F93
100
AcDbEntity
  8
実線-細
100
AcDbLine
 10
275.6530793206765
 20
87.63582734626089
 30
0.0
 11
275.5280793504765
 21
87.63582734626089
 31
0.0
  0
LINE
  5
23447
330
22F93
100
AcDbEntity
  8
実線-細
100
AcDbLine
 10
276.5905792759765
 20
87.63582734626089
 30
0.0
 11
276.7780792759765
 21
87.63582734626089
 31
0.0
  0
LINE
  5
23448
330
22F93
100
AcDbEntity
  8
実線-細
100
AcDbLine
 10
277.7780793951766
 20
87.63582734626089
 30
0.0
 11
277.9655793951765
 21
87.63582734626089
 31
0.0
  0
LINE
  5
23449
330
22F93
100
AcDbEntity
  8
実線-細
100
AcDbLine
 10
275.9655793355765
 20
87.42306141426087
 30
0.0
 11
275.8093293057765
 21
87.58263586326085
 31
0.0
  0
LINE
  5
2344A
330
22F93
100
AcDbEntity
  8
実線-細
100
AcDbLine
 10
275.9030793057765
 20
87.15710399916082
 30
0.0
 11
275.7780793355765
 21
87.31667844816087
 31
0.0
  0
LINE
  5
2344B
330
22F93
100
AcDbEntity
  8
実線-細
100
AcDbLine
 10
276.0593293355765
 20
87.26348696516089
 30
0.0
 11
275.9655793355765
 21
87.42306141426087
 31
0.0
  0
LINE
  5
2344C
330
22F93
100
AcDbEntity
  8
実線-細
100
AcDbLine
 10
275.9655793355765
 20
86.99752940106117
 30
0.0
 11
275.9030793057765
 21
87.15710399916082
 31
0.0
  0
LINE
  5
2344D
330
22F93
100
AcDbEntity
  8
実線-細
100
AcDbLine
 10
276.1218293653765
 20
86.99752940106117
 30
0.0
 11
276.0593293355765
 21
87.26348696516089
 31
0.0
  0
LINE
  5
2344E
330
22F93
100
AcDbEntity
  8
実線-細
100
AcDbLine
 10
275.0593293364765
 20
86.99752940106117
 30
0.0
 11
275.0593293364765
 21
86.83795495196092
 31
0.0
  0
LINE
  5
2344F
330
22F93
100
AcDbEntity
  8
実線-細
100
AcDbLine
 10
275.2155793355765
 20
86.99752940106117
 30
0.0
 11
275.2155793355765
 21
86.89114643496088
 31
0.0
  0
LINE
  5
23450
330
22F93
100
AcDbEntity
  8
実線-細
100
AcDbLine
 10
275.9655793355765
 20
86.89114643496088
 30
0.0
 11
275.9655793355765
 21
86.99752940106117
 31
0.0
  0
LINE
  5
23451
330
22F93
100
AcDbEntity
  8
実線-細
100
AcDbLine
 10
276.1218293653765
 20
86.83795495196092
 30
0.0
 11
276.1218293653765
 21
86.99752940106117
 31
0.0
  0
LINE
  5
23452
330
22F93
100
AcDbEntity
  8
実線-細
100
AcDbLine
 10
276.4030793653765
 20
86.83795495196092
 30
0.0
 11
276.4030793653765
 21
87.26348696516089
 31
0.0
  0
LINE
  5
23453
330
22F93
100
AcDbEntity
  8
実線-細
100
AcDbLine
 10
275.1218293355765
 20
87.26348696516089
 30
0.0
 11
275.0593293364765
 21
86.99752940106117
 31
0.0
  0
LINE
  5
23454
330
22F93
100
AcDbEntity
  8
実線-細
100
AcDbLine
 10
275.2780793429765
 20
87.15710399916082
 30
0.0
 11
275.2155793355765
 21
86.99752940106117
 31
0.0
  0
LINE
  5
23455
330
22F93
100
AcDbEntity
  8
実線-細
100
AcDbLine
 10
276.4030793653765
 20
87.26348696516089
 30
0.0
 11
276.5905792759765
 21
87.63582734626089
 31
0.0
  0
LINE
  5
23456
330
22F93
100
AcDbEntity
  8
実線-細
100
AcDbLine
 10
276.5905792759765
 20
87.21029548216085
 30
0.0
 11
276.4030793653765
 21
86.83795495196092
 31
0.0
  0
LINE
  5
23457
330
22F93
100
AcDbEntity
  8
実線-細
100
AcDbLine
 10
275.2155793355765
 20
87.42306141426087
 30
0.0
 11
275.1218293355765
 21
87.26348696516089
 31
0.0
  0
LINE
  5
23458
330
22F93
100
AcDbEntity
  8
実線-細
100
AcDbLine
 10
275.4030793355765
 20
87.31667844816087
 30
0.0
 11
275.2780793429765
 21
87.15710399916082
 31
0.0
  0
LINE
  5
23459
330
22F93
100
AcDbEntity
  8
実線-細
100
AcDbLine
 10
275.3718293429765
 20
87.58263586326085
 30
0.0
 11
275.2155793355765
 21
87.42306141426087
 31
0.0
  0
LINE
  5
2345A
330
22F93
100
AcDbEntity
  8
実線-細
100
AcDbLine
 10
275.5280793504765
 20
87.36986993116095
 30
0.0
 11
275.4030793355765
 21
87.31667844816087
 31
0.0
  0
LINE
  5
2345B
330
22F93
100
AcDbEntity
  8
実線-細
100
AcDbLine
 10
275.5280793504765
 20
87.63582734626089
 30
0.0
 11
275.3718293429765
 21
87.58263586326085
 31
0.0
  0
ARC
  5
2345C
330
22F93
100
AcDbEntity
  8
実線
100
AcDbCircle
 10
274.2780793355765
 20
91.88582734626089
 30
0.0
 40
0.25
100
AcDbArc
 50
90.0
 51
180.0
  0
ARC
  5
2345D
330
22F93
100
AcDbEntity
  8
実線
100
AcDbCircle
 10
274.0280793355765
 20
92.1358273462609
 30
0.0
 40
0.25
100
AcDbArc
 50
0.0
 51
270.0
  0
LINE
  5
2345E
330
22F93
100
AcDbEntity
  8
実線-細
100
AcDbLine
 10
295.6530793355765
 20
86.57199753686086
 30
0.0
 11
295.6218298123765
 21
86.89114643496088
 31
0.0
  0
LINE
  5
2345F
330
22F93
100
AcDbEntity
  8
実線-細
100
AcDbLine
 10
295.8093298123765
 20
86.62518901986084
 30
0.0
 11
295.7780788586763
 21
86.89114643496088
 31
0.0
  0
LINE
  5
23460
330
22F93
100
AcDbEntity
  8
実線-細
100
AcDbLine
 10
294.8718298123765
 20
86.89114643496088
 30
0.0
 11
294.8405788586764
 21
86.57199753686086
 31
0.0
  0
LINE
  5
23461
330
22F93
100
AcDbEntity
  8
実線-細
100
AcDbLine
 10
296.2468288586764
 20
86.89114643496088
 30
0.0
 11
296.2155793355765
 21
86.57199753686086
 31
0.0
  0
LINE
  5
23462
330
22F93
100
AcDbEntity
  8
実線-細
100
AcDbLine
 10
294.7155793355765
 20
86.89114643496088
 30
0.0
 11
294.6843298123765
 21
86.62518901986084
 31
0.0
  0
LINE
  5
23463
330
22F93
100
AcDbEntity
  8
実線-細
100
AcDbLine
 10
296.0905798123765
 20
86.89114643496088
 30
0.0
 11
296.0593288586764
 21
86.62518901986084
 31
0.0
  0
LINE
  5
23464
330
22F93
100
AcDbEntity
  8
実線-細
100
AcDbLine
 10
294.2780788586765
 20
86.57199753686086
 30
0.0
 11
294.2468293355765
 21
86.89114643496088
 31
0.0
  0
LINE
  5
23465
330
22F93
100
AcDbEntity
  8
実線-細
100
AcDbLine
 10
292.5593293355765
 20
87.21029548216085
 30
0.0
 11
292.5593293355765
 21
86.19965715576086
 31
0.0
  0
LINE
  5
23466
330
22F93
100
AcDbEntity
  8
実線-細
100
AcDbLine
 10
294.4343293355765
 20
86.62518901986084
 30
0.0
 11
294.4030798123765
 21
86.89114643496088
 31
0.0
  0
LINE
  5
23467
330
22F93
100
AcDbEntity
  8
実線-細
100
AcDbLine
 10
292.7468293355765
 20
87.63582734626089
 30
0.0
 11
292.7468293355765
 21
86.19965715576086
 31
0.0
  0
LINE
  5
23468
330
22F93
100
AcDbEntity
  8
実線-細
100
AcDbLine
 10
293.4968293355765
 20
86.89114643496088
 30
0.0
 11
293.4655798123765
 21
86.57199753686086
 31
0.0
  0
LINE
  5
23469
330
22F93
100
AcDbEntity
  8
実線-細
100
AcDbLine
 10
293.3405788586765
 20
86.89114643496088
 30
0.0
 11
293.3093293355765
 21
86.62518901986084
 31
0.0
  0
LINE
  5
2346A
330
22F93
100
AcDbEntity
  8
実線-細
100
AcDbLine
 10
291.5280793355765
 20
86.94433791806085
 30
0.0
 11
291.4968298123765
 21
86.73157198596085
 31
0.0
  0
LINE
  5
2346B
330
22F93
100
AcDbEntity
  8
実線-細
100
AcDbLine
 10
291.3093298123765
 20
86.73157198596085
 30
0.0
 11
291.3718288586765
 21
86.94433791806085
 31
0.0
  0
LINE
  5
2346C
330
22F93
100
AcDbEntity
  8
実線-細
100
AcDbLine
 10
291.8093293355765
 20
86.19965715576086
 30
0.0
 11
292.5593293355765
 21
87.63582734626089
 31
0.0
  0
LINE
  5
2346D
330
22F93
100
AcDbEntity
  8
実線-細
100
AcDbLine
 10
292.0280788586765
 20
86.19965715576086
 30
0.0
 11
292.5593293355765
 21
87.21029548216085
 31
0.0
  0
LINE
  5
2346E
330
22F93
100
AcDbEntity
  8
実線-細
100
AcDbLine
 10
290.1843298123765
 20
86.94433791806085
 30
0.0
 11
290.1530788586765
 21
86.73157198596085
 31
0.0
  0
LINE
  5
2346F
330
22F93
100
AcDbEntity
  8
実線-細
100
AcDbLine
 10
289.9343293355765
 20
86.73157198596085
 30
0.0
 11
289.9968298123765
 21
86.94433791806085
 31
0.0
  0
LINE
  5
23470
330
22F93
100
AcDbEntity
  8
実線-細
100
AcDbLine
 10
284.4030793355765
 20
86.57199753686086
 30
0.0
 11
284.3718290970765
 21
86.89114643496088
 31
0.0
  0
LINE
  5
23471
330
22F93
100
AcDbEntity
  8
実線-細
100
AcDbLine
 10
284.5593290970765
 20
86.62518901986084
 30
0.0
 11
284.5280795739765
 21
86.89114643496088
 31
0.0
  0
LINE
  5
23472
330
22F93
100
AcDbEntity
  8
実線-細
100
AcDbLine
 10
283.6218290970765
 20
86.89114643496088
 30
0.0
 11
283.5905795739765
 21
86.57199753686086
 31
0.0
  0
LINE
  5
23473
330
22F93
100
AcDbEntity
  8
実線-細
100
AcDbLine
 10
283.4655793355765
 20
86.89114643496088
 30
0.0
 11
283.4343290970765
 21
86.62518901986084
 31
0.0
  0
LINE
  5
23474
330
22F93
100
AcDbEntity
  8
実線-細
100
AcDbLine
 10
281.0280793355765
 20
86.73157198596085
 30
0.0
 11
280.9968294547765
 21
86.78476346896109
 31
0.0
  0
LINE
  5
23475
330
22F93
100
AcDbEntity
  8
実線-細
100
AcDbLine
 10
281.4655790970765
 20
86.51880605386082
 30
0.0
 11
281.3093293355765
 21
86.78476346896109
 31
0.0
  0
LINE
  5
23476
330
22F93
100
AcDbEntity
  8
実線-細
100
AcDbLine
 10
281.7155795739765
 20
86.73157198596085
 30
0.0
 11
281.6843293355765
 21
86.78476346896109
 31
0.0
  0
LINE
  5
23477
330
22F93
100
AcDbEntity
  8
実線-細
100
AcDbLine
 10
281.4655790970765
 20
86.89114643496088
 30
0.0
 11
281.4655790970765
 21
86.51880605386082
 31
0.0
  0
LINE
  5
23478
330
22F93
100
AcDbEntity
  8
実線-細
100
AcDbLine
 10
281.5280795739765
 20
86.51880605386082
 30
0.0
 11
281.5280795739765
 21
86.89114643496088
 31
0.0
  0
LINE
  5
23479
330
22F93
100
AcDbEntity
  8
実線-細
100
AcDbLine
 10
281.3093293355765
 20
86.78476346896109
 30
0.0
 11
281.2780790970765
 21
86.73157198596085
 31
0.0
  0
LINE
  5
2347A
330
22F93
100
AcDbEntity
  8
実線-細
100
AcDbLine
 10
281.6843293355765
 20
86.78476346896109
 30
0.0
 11
281.5280795739765
 21
86.51880605386082
 31
0.0
  0
LINE
  5
2347B
330
22F93
100
AcDbEntity
  8
実線-細
100
AcDbLine
 10
286.1843293355765
 20
87.63582734626089
 30
0.0
 11
286.6843295739765
 21
85.13582734626089
 31
0.0
  0
LINE
  5
2347C
330
22F93
100
AcDbEntity
  8
実線-細
100
AcDbLine
 10
286.0593290970765
 20
87.42306141426087
 30
0.0
 11
286.3405790970765
 21
85.98689114916089
 31
0.0
  0
LINE
  5
2347D
330
22F93
100
AcDbEntity
  8
実線-細
100
AcDbLine
 10
281.9655793355765
 20
85.98689114916089
 30
0.0
 11
281.9655793355765
 21
86.78476346896109
 31
0.0
  0
LINE
  5
2347E
330
22F93
100
AcDbEntity
  8
実線-細
100
AcDbLine
 10
282.1530793355765
 20
86.78476346896109
 30
0.0
 11
282.1530793355765
 21
85.98689114916089
 31
0.0
  0
LINE
  5
2347F
330
22F93
100
AcDbEntity
  8
実線-細
100
AcDbLine
 10
284.9968295739765
 20
85.13582734626089
 30
0.0
 11
284.9968295739765
 21
87.21029548216085
 31
0.0
  0
LINE
  5
23480
330
22F93
100
AcDbEntity
  8
実線-細
100
AcDbLine
 10
285.1843295739765
 20
87.63582734626089
 30
0.0
 11
285.1843295739765
 21
85.13582734626089
 31
0.0
  0
LINE
  5
23481
330
22F93
100
AcDbEntity
  8
実線-細
100
AcDbLine
 10
288.6218293355765
 20
85.13582734626089
 30
0.0
 11
288.6218293355765
 21
87.21029548216085
 31
0.0
  0
LINE
  5
23482
330
22F93
100
AcDbEntity
  8
実線-細
100
AcDbLine
 10
288.8093293355765
 20
87.63582734626089
 30
0.0
 11
288.8093293355765
 21
85.13582734626089
 31
0.0
  0
LINE
  5
23483
330
22F93
100
AcDbEntity
  8
実線-細
100
AcDbLine
 10
285.7780790970765
 20
85.98689114916089
 30
0.0
 11
286.0593290970765
 21
87.42306141426087
 31
0.0
  0
LINE
  5
23484
330
22F93
100
AcDbEntity
  8
実線-細
100
AcDbLine
 10
285.4343293355765
 20
85.13582734626089
 30
0.0
 11
285.9343295739765
 21
87.63582734626089
 31
0.0
  0
LINE
  5
23485
330
22F93
100
AcDbEntity
  8
実線-細
100
AcDbLine
 10
282.9968293355765
 20
86.19965715576086
 30
0.0
 11
282.7155793355765
 21
86.19965715576086
 31
0.0
  0
LINE
  5
23486
330
22F93
100
AcDbEntity
  8
実線-細
100
AcDbLine
 10
282.7155793355765
 20
86.51880605386082
 30
0.0
 11
283.1843293355765
 21
86.51880605386082
 31
0.0
  0
LINE
  5
23487
330
22F93
100
AcDbEntity
  8
実線-細
100
AcDbLine
 10
282.7155793355765
 20
86.19965715576086
 30
0.0
 11
282.7155793355765
 21
86.51880605386082
 31
0.0
  0
LINE
  5
23488
330
22F93
100
AcDbEntity
  8
実線-細
100
AcDbLine
 10
283.4343290970765
 20
86.62518901986084
 30
0.0
 11
283.4343290970765
 21
86.14646567276082
 31
0.0
  0
LINE
  5
23489
330
22F93
100
AcDbEntity
  8
実線-細
100
AcDbLine
 10
283.5905795739765
 20
86.57199753686086
 30
0.0
 11
283.5905795739765
 21
86.19965715576086
 31
0.0
  0
LINE
  5
2348A
330
22F93
100
AcDbEntity
  8
実線-細
100
AcDbLine
 10
284.4030793355765
 20
86.19965715576086
 30
0.0
 11
284.4030793355765
 21
86.57199753686086
 31
0.0
  0
LINE
  5
2348B
330
22F93
100
AcDbEntity
  8
実線-細
100
AcDbLine
 10
284.5593290970765
 20
86.14646567276082
 30
0.0
 11
284.5593290970765
 21
86.62518901986084
 31
0.0
  0
LINE
  5
2348C
330
22F93
100
AcDbEntity
  8
実線-細
100
AcDbLine
 10
281.2780790970765
 20
86.09327418966087
 30
0.0
 11
281.3093293355765
 21
86.0400826321611
 31
0.0
  0
LINE
  5
2348D
330
22F93
100
AcDbEntity
  8
実線-細
100
AcDbLine
 10
281.2780790970765
 20
86.73157198596085
 30
0.0
 11
281.4655790970765
 21
86.41242308786088
 31
0.0
  0
LINE
  5
2348E
330
22F93
100
AcDbEntity
  8
実線-細
100
AcDbLine
 10
281.5280795739765
 20
86.30604012176087
 30
0.0
 11
281.6843293355765
 21
86.0400826321611
 31
0.0
  0
LINE
  5
2348F
330
22F93
100
AcDbEntity
  8
実線-細
100
AcDbLine
 10
281.7155795739765
 20
86.09327418966087
 30
0.0
 11
281.5280795739765
 21
86.41242308786088
 31
0.0
  0
LINE
  5
23490
330
22F93
100
AcDbEntity
  8
実線-細
100
AcDbLine
 10
280.9968294547765
 20
86.0400826321611
 30
0.0
 11
281.0280793355765
 21
86.09327418966087
 31
0.0
  0
LINE
  5
23491
330
22F93
100
AcDbEntity
  8
実線-細
100
AcDbLine
 10
281.4655790970765
 20
86.41242308786088
 30
0.0
 11
281.2780790970765
 21
86.09327418966087
 31
0.0
  0
LINE
  5
23492
330
22F93
100
AcDbEntity
  8
実線-細
100
AcDbLine
 10
281.3093293355765
 20
86.0400826321611
 30
0.0
 11
281.4655790970765
 21
86.30604012176087
 31
0.0
  0
LINE
  5
23493
330
22F93
100
AcDbEntity
  8
実線-細
100
AcDbLine
 10
281.5280795739765
 20
86.41242308786088
 30
0.0
 11
281.7155795739765
 21
86.73157198596085
 31
0.0
  0
LINE
  5
23494
330
22F93
100
AcDbEntity
  8
実線-細
100
AcDbLine
 10
281.6843293355765
 20
86.0400826321611
 30
0.0
 11
281.7155795739765
 21
86.09327418966087
 31
0.0
  0
LINE
  5
23495
330
22F93
100
AcDbEntity
  8
実線-細
100
AcDbLine
 10
288.8093293355765
 20
85.13582734626089
 30
0.0
 11
288.6218293355765
 21
85.13582734626089
 31
0.0
  0
LINE
  5
23496
330
22F93
100
AcDbEntity
  8
実線-細
100
AcDbLine
 10
286.6843295739765
 20
85.13582734626089
 30
0.0
 11
286.4968295739764
 21
85.13582734626089
 31
0.0
  0
LINE
  5
23497
330
22F93
100
AcDbEntity
  8
実線-細
100
AcDbLine
 10
286.4968295739764
 20
85.13582734626089
 30
0.0
 11
286.3718293355765
 21
85.77412521706117
 31
0.0
  0
LINE
  5
23498
330
22F93
100
AcDbEntity
  8
実線-細
100
AcDbLine
 10
285.6218293355765
 20
85.13582734626089
 30
0.0
 11
285.4343293355765
 21
85.13582734626089
 31
0.0
  0
LINE
  5
23499
330
22F93
100
AcDbEntity
  8
実線-細
100
AcDbLine
 10
285.1843295739765
 20
85.13582734626089
 30
0.0
 11
284.9968295739765
 21
85.13582734626089
 31
0.0
  0
LINE
  5
2349A
330
22F93
100
AcDbEntity
  8
実線-細
100
AcDbLine
 10
282.7468295739765
 20
85.13582734626089
 30
0.0
 11
282.4655795739765
 21
85.13582734626089
 31
0.0
  0
LINE
  5
2349B
330
22F93
100
AcDbEntity
  8
実線-細
100
AcDbLine
 10
282.4655795739765
 20
85.45497628166083
 30
0.0
 11
282.7468295739765
 21
85.45497628166083
 31
0.0
  0
LINE
  5
2349C
330
22F93
100
AcDbEntity
  8
実線-細
100
AcDbLine
 10
283.8093290970765
 20
85.18901883396086
 30
0.0
 11
283.9968290970765
 21
85.13582734626089
 31
0.0
  0
LINE
  5
2349D
330
22F93
100
AcDbEntity
  8
実線-細
100
AcDbLine
 10
282.4655795739765
 20
85.13582734626089
 30
0.0
 11
282.3093290970765
 21
85.18901883396086
 31
0.0
  0
LINE
  5
2349E
330
22F93
100
AcDbEntity
  8
実線-細
100
AcDbLine
 10
283.9968290970765
 20
85.13582734626089
 30
0.0
 11
284.1843290970765
 21
85.18901883396086
 31
0.0
  0
LINE
  5
2349F
330
22F93
100
AcDbEntity
  8
実線-細
100
AcDbLine
 10
283.8405793355765
 20
85.45497628166083
 30
0.0
 11
283.9968290970765
 21
85.40178479866098
 31
0.0
  0
LINE
  5
234A0
330
22F93
100
AcDbEntity
  8
実線-細
100
AcDbLine
 10
282.3405793355765
 20
85.50816776466087
 30
0.0
 11
282.4655795739765
 21
85.45497628166083
 31
0.0
  0
LINE
  5
234A1
330
22F93
100
AcDbEntity
  8
実線-細
100
AcDbLine
 10
283.6530793355765
 20
85.34859329706085
 30
0.0
 11
283.8093290970765
 21
85.18901883396086
 31
0.0
  0
LINE
  5
234A2
330
22F93
100
AcDbEntity
  8
実線-細
100
AcDbLine
 10
282.2468293355765
 20
85.61455076796091
 30
0.0
 11
282.3405793355765
 21
85.50816776466087
 31
0.0
  0
LINE
  5
234A3
330
22F93
100
AcDbEntity
  8
実線-細
100
AcDbLine
 10
283.7468293355765
 20
85.56135924776084
 30
0.0
 11
283.8405793355765
 21
85.45497628166083
 31
0.0
  0
LINE
  5
234A4
330
22F93
100
AcDbEntity
  8
実線-細
100
AcDbLine
 10
283.5593293355765
 20
85.50816776466087
 30
0.0
 11
283.6530793355765
 21
85.34859329706085
 31
0.0
  0
LINE
  5
234A5
330
22F93
100
AcDbEntity
  8
実線-細
100
AcDbLine
 10
283.6218290970765
 20
85.8805081830609
 30
0.0
 11
283.7468293355765
 21
85.56135924776084
 31
0.0
  0
LINE
  5
234A6
330
22F93
100
AcDbEntity
  8
実線-細
100
AcDbLine
 10
283.4968295739765
 20
85.7209337340609
 30
0.0
 11
283.5593293355765
 21
85.50816776466087
 31
0.0
  0
LINE
  5
234A7
330
22F93
100
AcDbEntity
  8
実線-細
100
AcDbLine
 10
283.4655793355765
 20
85.8805081830609
 30
0.0
 11
283.4968295739765
 21
85.7209337340609
 31
0.0
  0
LINE
  5
234A8
330
22F93
100
AcDbEntity
  8
実線-細
100
AcDbLine
 10
283.1843293355765
 20
85.7209337340609
 30
0.0
 11
283.1530790970765
 21
85.50816776466087
 31
0.0
  0
LINE
  5
234A9
330
22F93
100
AcDbEntity
  8
実線-細
100
AcDbLine
 10
282.9655790970765
 20
85.61455076796091
 30
0.0
 11
282.9968293355765
 21
85.77412521706117
 31
0.0
  0
LINE
  5
234AA
330
22F93
100
AcDbEntity
  8
実線-細
100
AcDbLine
 10
284.4968293355765
 20
85.7209337340609
 30
0.0
 11
284.5280795739765
 21
85.8805081830609
 31
0.0
  0
LINE
  5
234AB
330
22F93
100
AcDbEntity
  8
実線-細
100
AcDbLine
 10
285.7468295739765
 20
85.77412521706117
 30
0.0
 11
285.6218293355765
 21
85.13582734626089
 31
0.0
  0
LINE
  5
234AC
330
22F93
100
AcDbEntity
  8
実線-細
100
AcDbLine
 10
284.4343295739765
 20
85.50816776466087
 30
0.0
 11
284.4968293355765
 21
85.7209337340609
 31
0.0
  0
LINE
  5
234AD
330
22F93
100
AcDbEntity
  8
実線-細
100
AcDbLine
 10
284.2468295739765
 20
85.56135924776084
 30
0.0
 11
284.3718290970765
 21
85.8805081830609
 31
0.0
  0
LINE
  5
234AE
330
22F93
100
AcDbEntity
  8
実線-細
100
AcDbLine
 10
283.1530790970765
 20
85.50816776466087
 30
0.0
 11
283.0280795739765
 21
85.29540181396095
 31
0.0
  0
LINE
  5
234AF
330
22F93
100
AcDbEntity
  8
実線-細
100
AcDbLine
 10
284.3405795739765
 20
85.34859329706085
 30
0.0
 11
284.4343295739765
 21
85.50816776466087
 31
0.0
  0
LINE
  5
234B0
330
22F93
100
AcDbEntity
  8
実線-細
100
AcDbLine
 10
282.8718290970765
 20
85.50816776466087
 30
0.0
 11
282.9655790970765
 21
85.61455076796091
 31
0.0
  0
LINE
  5
234B1
330
22F93
100
AcDbEntity
  8
実線-細
100
AcDbLine
 10
284.1530795739764
 20
85.45497628166083
 30
0.0
 11
284.2468295739765
 21
85.56135924776084
 31
0.0
  0
LINE
  5
234B2
330
22F93
100
AcDbEntity
  8
実線-細
100
AcDbLine
 10
284.1843290970765
 20
85.18901883396086
 30
0.0
 11
284.3405795739765
 21
85.34859329706085
 31
0.0
  0
LINE
  5
234B3
330
22F93
100
AcDbEntity
  8
実線-細
100
AcDbLine
 10
283.0280795739765
 20
85.29540181396095
 30
0.0
 11
282.9030793355765
 21
85.18901883396086
 31
0.0
  0
LINE
  5
234B4
330
22F93
100
AcDbEntity
  8
実線-細
100
AcDbLine
 10
282.7468295739765
 20
85.45497628166083
 30
0.0
 11
282.8718290970765
 21
85.50816776466087
 31
0.0
  0
LINE
  5
234B5
330
22F93
100
AcDbEntity
  8
実線-細
100
AcDbLine
 10
282.9030793355765
 20
85.18901883396086
 30
0.0
 11
282.7468295739765
 21
85.13582734626089
 31
0.0
  0
LINE
  5
234B6
330
22F93
100
AcDbEntity
  8
実線-細
100
AcDbLine
 10
283.9968290970765
 20
85.40178479866098
 30
0.0
 11
284.1530795739764
 21
85.45497628166083
 31
0.0
  0
LINE
  5
234B7
330
22F93
100
AcDbEntity
  8
実線-細
100
AcDbLine
 10
281.4655790970765
 20
85.93369966616098
 30
0.0
 11
281.5280795739765
 21
85.93369966616098
 31
0.0
  0
LINE
  5
234B8
330
22F93
100
AcDbEntity
  8
実線-細
100
AcDbLine
 10
282.1843295739765
 20
85.29540181396095
 30
0.0
 11
282.0593293355765
 21
85.50816776466087
 31
0.0
  0
LINE
  5
234B9
330
22F93
100
AcDbEntity
  8
実線-細
100
AcDbLine
 10
282.0593293355765
 20
85.50816776466087
 30
0.0
 11
281.9968295739765
 21
85.7209337340609
 31
0.0
  0
LINE
  5
234BA
330
22F93
100
AcDbEntity
  8
実線-細
100
AcDbLine
 10
282.1530793355765
 20
85.98689114916089
 30
0.0
 11
282.1843295739765
 21
85.77412521706117
 31
0.0
  0
LINE
  5
234BB
330
22F93
100
AcDbEntity
  8
実線-細
100
AcDbLine
 10
281.9968295739765
 20
85.7209337340609
 30
0.0
 11
281.9655793355765
 21
85.98689114916089
 31
0.0
  0
LINE
  5
234BC
330
22F93
100
AcDbEntity
  8
実線-細
100
AcDbLine
 10
282.3093290970765
 20
85.18901883396086
 30
0.0
 11
282.1843295739765
 21
85.29540181396095
 31
0.0
  0
LINE
  5
234BD
330
22F93
100
AcDbEntity
  8
実線-細
100
AcDbLine
 10
282.1843295739765
 20
85.77412521706117
 30
0.0
 11
282.2468293355765
 21
85.61455076796091
 31
0.0
  0
LINE
  5
234BE
330
22F93
100
AcDbEntity
  8
実線-細
100
AcDbLine
 10
286.3718293355765
 20
85.77412521706117
 30
0.0
 11
285.7468295739765
 21
85.77412521706117
 31
0.0
  0
LINE
  5
234BF
330
22F93
100
AcDbEntity
  8
実線-細
100
AcDbLine
 10
286.3405790970765
 20
85.98689114916089
 30
0.0
 11
285.7780790970765
 21
85.98689114916089
 31
0.0
  0
LINE
  5
234C0
330
22F93
100
AcDbEntity
  8
実線-細
100
AcDbLine
 10
283.5905795739765
 20
86.19965715576086
 30
0.0
 11
283.6218290970765
 21
85.8805081830609
 31
0.0
  0
LINE
  5
234C1
330
22F93
100
AcDbEntity
  8
実線-細
100
AcDbLine
 10
281.4655790970765
 20
86.30604012176087
 30
0.0
 11
281.4655790970765
 21
85.93369966616098
 31
0.0
  0
LINE
  5
234C2
330
22F93
100
AcDbEntity
  8
実線-細
100
AcDbLine
 10
281.5280795739765
 20
85.93369966616098
 30
0.0
 11
281.5280795739765
 21
86.30604012176087
 31
0.0
  0
LINE
  5
234C3
330
22F93
100
AcDbEntity
  8
実線-細
100
AcDbLine
 10
283.4343290970765
 20
86.14646567276082
 30
0.0
 11
283.4655793355765
 21
85.8805081830609
 31
0.0
  0
LINE
  5
234C4
330
22F93
100
AcDbEntity
  8
実線-細
100
AcDbLine
 10
282.9968293355765
 20
85.77412521706117
 30
0.0
 11
282.9968293355765
 21
86.19965715576086
 31
0.0
  0
LINE
  5
234C5
330
22F93
100
AcDbEntity
  8
実線-細
100
AcDbLine
 10
283.1843293355765
 20
86.51880605386082
 30
0.0
 11
283.1843293355765
 21
85.7209337340609
 31
0.0
  0
LINE
  5
234C6
330
22F93
100
AcDbEntity
  8
実線-細
100
AcDbLine
 10
284.3718290970765
 20
85.8805081830609
 30
0.0
 11
284.4030793355765
 21
86.19965715576086
 31
0.0
  0
LINE
  5
234C7
330
22F93
100
AcDbEntity
  8
実線-細
100
AcDbLine
 10
284.5280795739765
 20
85.8805081830609
 30
0.0
 11
284.5593290970765
 21
86.14646567276082
 31
0.0
  0
LINE
  5
234C8
330
22F93
100
AcDbEntity
  8
実線-細
100
AcDbLine
 10
294.6843298123765
 20
86.62518901986084
 30
0.0
 11
294.6843298123765
 21
86.14646567276082
 31
0.0
  0
LINE
  5
234C9
330
22F93
100
AcDbEntity
  8
実線-細
100
AcDbLine
 10
294.8405788586764
 20
86.57199753686086
 30
0.0
 11
294.8405788586764
 21
86.19965715576086
 31
0.0
  0
LINE
  5
234CA
330
22F93
100
AcDbEntity
  8
実線-細
100
AcDbLine
 10
295.6530793355765
 20
86.19965715576086
 30
0.0
 11
295.6530793355765
 21
86.57199753686086
 31
0.0
  0
LINE
  5
234CB
330
22F93
100
AcDbEntity
  8
実線-細
100
AcDbLine
 10
295.8093298123765
 20
86.14646567276082
 30
0.0
 11
295.8093298123765
 21
86.62518901986084
 31
0.0
  0
LINE
  5
234CC
330
22F93
100
AcDbEntity
  8
実線-細
100
AcDbLine
 10
296.0593288586764
 20
86.62518901986084
 30
0.0
 11
296.0593288586764
 21
86.14646567276082
 31
0.0
  0
LINE
  5
234CD
330
22F93
100
AcDbEntity
  8
実線-細
100
AcDbLine
 10
296.2155793355765
 20
86.57199753686086
 30
0.0
 11
296.2155793355765
 21
86.19965715576086
 31
0.0
  0
LINE
  5
234CE
330
22F93
100
AcDbEntity
  8
実線-細
100
AcDbLine
 10
296.6218288586765
 20
85.13582734626089
 30
0.0
 11
296.8093288586763
 21
85.18901883396086
 31
0.0
  0
LINE
  5
234CF
330
22F93
100
AcDbEntity
  8
実線-細
100
AcDbLine
 10
295.2468298123765
 20
85.13582734626089
 30
0.0
 11
295.4343298123765
 21
85.18901883396086
 31
0.0
  0
LINE
  5
234D0
330
22F93
100
AcDbEntity
  8
実線-細
100
AcDbLine
 10
295.0593298123765
 20
85.18901883396086
 30
0.0
 11
295.2468298123765
 21
85.13582734626089
 31
0.0
  0
LINE
  5
234D1
330
22F93
100
AcDbEntity
  8
実線-細
100
AcDbLine
 10
296.4343288586764
 20
85.18901883396086
 30
0.0
 11
296.6218288586765
 21
85.13582734626089
 31
0.0
  0
LINE
  5
234D2
330
22F93
100
AcDbEntity
  8
実線-細
100
AcDbLine
 10
295.0905793355765
 20
85.45497628166083
 30
0.0
 11
295.2468298123765
 21
85.40178479866098
 31
0.0
  0
LINE
  5
234D3
330
22F93
100
AcDbEntity
  8
実線-細
100
AcDbLine
 10
296.4655798123764
 20
85.45497628166083
 30
0.0
 11
296.6218288586765
 21
85.40178479866098
 31
0.0
  0
LINE
  5
234D4
330
22F93
100
AcDbEntity
  8
実線-細
100
AcDbLine
 10
294.9030793355765
 20
85.34859329706085
 30
0.0
 11
295.0593298123765
 21
85.18901883396086
 31
0.0
  0
LINE
  5
234D5
330
22F93
100
AcDbEntity
  8
実線-細
100
AcDbLine
 10
296.2780798123765
 20
85.34859329706085
 30
0.0
 11
296.4343288586764
 21
85.18901883396086
 31
0.0
  0
LINE
  5
234D6
330
22F93
100
AcDbEntity
  8
実線-細
100
AcDbLine
 10
294.9968293355765
 20
85.56135924776084
 30
0.0
 11
295.0905793355765
 21
85.45497628166083
 31
0.0
  0
LINE
  5
234D7
330
22F93
100
AcDbEntity
  8
実線-細
100
AcDbLine
 10
296.3718298123765
 20
85.56135924776084
 30
0.0
 11
296.4655798123764
 21
85.45497628166083
 31
0.0
  0
LINE
  5
234D8
330
22F93
100
AcDbEntity
  8
実線-細
100
AcDbLine
 10
294.8093293355765
 20
85.50816776466087
 30
0.0
 11
294.9030793355765
 21
85.34859329706085
 31
0.0
  0
LINE
  5
234D9
330
22F93
100
AcDbEntity
  8
実線-細
100
AcDbLine
 10
296.1843298123765
 20
85.50816776466087
 30
0.0
 11
296.2780798123765
 21
85.34859329706085
 31
0.0
  0
LINE
  5
234DA
330
22F93
100
AcDbEntity
  8
実線-細
100
AcDbLine
 10
294.8718298123765
 20
85.8805081830609
 30
0.0
 11
294.9968293355765
 21
85.56135924776084
 31
0.0
  0
LINE
  5
234DB
330
22F93
100
AcDbEntity
  8
実線-細
100
AcDbLine
 10
296.2468288586764
 20
85.8805081830609
 30
0.0
 11
296.3718298123765
 21
85.56135924776084
 31
0.0
  0
LINE
  5
234DC
330
22F93
100
AcDbEntity
  8
実線-細
100
AcDbLine
 10
294.7468288586764
 20
85.7209337340609
 30
0.0
 11
294.8093293355765
 21
85.50816776466087
 31
0.0
  0
LINE
  5
234DD
330
22F93
100
AcDbEntity
  8
実線-細
100
AcDbLine
 10
296.1218293355765
 20
85.7209337340609
 30
0.0
 11
296.1843298123765
 21
85.50816776466087
 31
0.0
  0
LINE
  5
234DE
330
22F93
100
AcDbEntity
  8
実線-細
100
AcDbLine
 10
294.7155793355765
 20
85.8805081830609
 30
0.0
 11
294.7468288586764
 21
85.7209337340609
 31
0.0
  0
LINE
  5
234DF
330
22F93
100
AcDbEntity
  8
実線-細
100
AcDbLine
 10
296.0905798123765
 20
85.8805081830609
 30
0.0
 11
296.1218293355765
 21
85.7209337340609
 31
0.0
  0
LINE
  5
234E0
330
22F93
100
AcDbEntity
  8
実線-細
100
AcDbLine
 10
295.7468293355765
 20
85.7209337340609
 30
0.0
 11
295.7780788586763
 21
85.8805081830609
 31
0.0
  0
LINE
  5
234E1
330
22F93
100
AcDbEntity
  8
実線-細
100
AcDbLine
 10
295.6843288586764
 20
85.50816776466087
 30
0.0
 11
295.7468293355765
 21
85.7209337340609
 31
0.0
  0
LINE
  5
234E2
330
22F93
100
AcDbEntity
  8
実線-細
100
AcDbLine
 10
295.4968288586765
 20
85.56135924776084
 30
0.0
 11
295.6218298123765
 21
85.8805081830609
 31
0.0
  0
LINE
  5
234E3
330
22F93
100
AcDbEntity
  8
実線-細
100
AcDbLine
 10
295.5905788586765
 20
85.34859329706085
 30
0.0
 11
295.6843288586764
 21
85.50816776466087
 31
0.0
  0
LINE
  5
234E4
330
22F93
100
AcDbEntity
  8
実線-細
100
AcDbLine
 10
295.4030788586763
 20
85.45497628166083
 30
0.0
 11
295.4968288586765
 21
85.56135924776084
 31
0.0
  0
LINE
  5
234E5
330
22F93
100
AcDbEntity
  8
実線-細
100
AcDbLine
 10
295.4343298123765
 20
85.18901883396086
 30
0.0
 11
295.5905788586765
 21
85.34859329706085
 31
0.0
  0
LINE
  5
234E6
330
22F93
100
AcDbEntity
  8
実線-細
100
AcDbLine
 10
295.2468298123765
 20
85.40178479866098
 30
0.0
 11
295.4030788586763
 21
85.45497628166083
 31
0.0
  0
LINE
  5
234E7
330
22F93
100
AcDbEntity
  8
実線-細
100
AcDbLine
 10
296.6218288586765
 20
85.40178479866098
 30
0.0
 11
296.7780793355765
 21
85.45497628166083
 31
0.0
  0
LINE
  5
234E8
330
22F93
100
AcDbEntity
  8
実線-細
100
AcDbLine
 10
294.8405788586764
 20
86.19965715576086
 30
0.0
 11
294.8718298123765
 21
85.8805081830609
 31
0.0
  0
LINE
  5
234E9
330
22F93
100
AcDbEntity
  8
実線-細
100
AcDbLine
 10
294.6843298123765
 20
86.14646567276082
 30
0.0
 11
294.7155793355765
 21
85.8805081830609
 31
0.0
  0
LINE
  5
234EA
330
22F93
100
AcDbEntity
  8
実線-細
100
AcDbLine
 10
296.0593288586764
 20
86.14646567276082
 30
0.0
 11
296.0905798123765
 21
85.8805081830609
 31
0.0
  0
LINE
  5
234EB
330
22F93
100
AcDbEntity
  8
実線-細
100
AcDbLine
 10
296.2155793355765
 20
86.19965715576086
 30
0.0
 11
296.2468288586764
 21
85.8805081830609
 31
0.0
  0
LINE
  5
234EC
330
22F93
100
AcDbEntity
  8
実線-細
100
AcDbLine
 10
295.6218298123765
 20
85.8805081830609
 30
0.0
 11
295.6530793355765
 21
86.19965715576086
 31
0.0
  0
LINE
  5
234ED
330
22F93
100
AcDbEntity
  8
実線-細
100
AcDbLine
 10
295.7780788586763
 20
85.8805081830609
 30
0.0
 11
295.8093298123765
 21
86.14646567276082
 31
0.0
  0
LINE
  5
234EE
330
22F93
100
AcDbEntity
  8
実線-細
100
AcDbLine
 10
292.5593293355765
 20
86.19965715576086
 30
0.0
 11
292.0280788586765
 21
86.19965715576086
 31
0.0
  0
LINE
  5
234EF
330
22F93
100
AcDbEntity
  8
実線-細
100
AcDbLine
 10
292.7468293355765
 20
86.19965715576086
 30
0.0
 11
293.0593288586765
 21
86.19965715576086
 31
0.0
  0
LINE
  5
234F0
330
22F93
100
AcDbEntity
  8
実線-細
100
AcDbLine
 10
291.0593293355765
 20
86.30604012176087
 30
0.0
 11
290.9343298123765
 21
86.30604012176087
 31
0.0
  0
LINE
  5
234F1
330
22F93
100
AcDbEntity
  8
実線-細
100
AcDbLine
 10
290.9343298123765
 20
86.51880605386082
 30
0.0
 11
291.0593293355765
 21
86.51880605386082
 31
0.0
  0
LINE
  5
234F2
330
22F93
100
AcDbEntity
  8
実線-細
100
AcDbLine
 10
291.2468293355765
 20
86.25284863876089
 30
0.0
 11
291.0593293355765
 21
86.30604012176087
 31
0.0
  0
LINE
  5
234F3
330
22F93
100
AcDbEntity
  8
実線-細
100
AcDbLine
 10
291.3093298123765
 20
86.41242308786088
 30
0.0
 11
291.4655788586765
 21
86.30604012176087
 31
0.0
  0
LINE
  5
234F4
330
22F93
100
AcDbEntity
  8
実線-細
100
AcDbLine
 10
291.3405793355765
 20
86.14646567276082
 30
0.0
 11
291.2468293355765
 21
86.25284863876089
 31
0.0
  0
LINE
  5
234F5
330
22F93
100
AcDbEntity
  8
実線-細
100
AcDbLine
 10
291.4655788586765
 20
86.30604012176087
 30
0.0
 11
291.5280793355765
 21
86.14646567276082
 31
0.0
  0
LINE
  5
234F6
330
22F93
100
AcDbEntity
  8
実線-細
100
AcDbLine
 10
290.9343298123765
 20
86.30604012176087
 30
0.0
 11
290.9343298123765
 21
86.51880605386082
 31
0.0
  0
LINE
  5
234F7
330
22F93
100
AcDbEntity
  8
実線-細
100
AcDbLine
 10
293.3093293355765
 20
86.62518901986084
 30
0.0
 11
293.3093293355765
 21
86.14646567276082
 31
0.0
  0
LINE
  5
234F8
330
22F93
100
AcDbEntity
  8
実線-細
100
AcDbLine
 10
293.4655798123765
 20
86.57199753686086
 30
0.0
 11
293.4655798123765
 21
86.19965715576086
 31
0.0
  0
LINE
  5
234F9
330
22F93
100
AcDbEntity
  8
実線-細
100
AcDbLine
 10
294.2780788586765
 20
86.19965715576086
 30
0.0
 11
294.2780788586765
 21
86.57199753686086
 31
0.0
  0
LINE
  5
234FA
330
22F93
100
AcDbEntity
  8
実線-細
100
AcDbLine
 10
294.4343293355765
 20
86.14646567276082
 30
0.0
 11
294.4343293355765
 21
86.62518901986084
 31
0.0
  0
LINE
  5
234FB
330
22F93
100
AcDbEntity
  8
実線-細
100
AcDbLine
 10
291.4968298123765
 20
86.73157198596085
 30
0.0
 11
291.4343293355765
 21
86.57199753686086
 31
0.0
  0
LINE
  5
234FC
330
22F93
100
AcDbEntity
  8
実線-細
100
AcDbLine
 10
291.2468293355765
 20
86.62518901986084
 30
0.0
 11
291.3093298123765
 21
86.73157198596085
 31
0.0
  0
LINE
  5
234FD
330
22F93
100
AcDbEntity
  8
実線-細
100
AcDbLine
 10
291.4343293355765
 20
86.57199753686086
 30
0.0
 11
291.3093298123765
 21
86.41242308786088
 31
0.0
  0
LINE
  5
234FE
330
22F93
100
AcDbEntity
  8
実線-細
100
AcDbLine
 10
291.0593293355765
 20
86.51880605386082
 30
0.0
 11
291.2468293355765
 21
86.62518901986084
 31
0.0
  0
LINE
  5
234FF
330
22F93
100
AcDbEntity
  8
実線-細
100
AcDbLine
 10
290.1530788586765
 20
86.73157198596085
 30
0.0
 11
290.0905798123765
 21
86.57199753686086
 31
0.0
  0
LINE
  5
23500
330
22F93
100
AcDbEntity
  8
実線-細
100
AcDbLine
 10
293.8718293355765
 20
85.13582734626089
 30
0.0
 11
294.0593293355765
 21
85.18901883396086
 31
0.0
  0
LINE
  5
23501
330
22F93
100
AcDbEntity
  8
実線-細
100
AcDbLine
 10
292.7468293355765
 20
85.13582734626089
 30
0.0
 11
292.5593293355765
 21
85.13582734626089
 31
0.0
  0
LINE
  5
23502
330
22F93
100
AcDbEntity
  8
実線-細
100
AcDbLine
 10
291.1218298123765
 20
85.13582734626089
 30
0.0
 11
290.8718293355765
 21
85.13582734626089
 31
0.0
  0
LINE
  5
23503
330
22F93
100
AcDbEntity
  8
実線-細
100
AcDbLine
 10
290.9030788586765
 20
85.40178479866098
 30
0.0
 11
291.0905788586765
 21
85.40178479866098
 31
0.0
  0
LINE
  5
23504
330
22F93
100
AcDbEntity
  8
実線-細
100
AcDbLine
 10
290.4343288586765
 20
85.7209337340609
 30
0.0
 11
290.5905793355765
 21
85.7209337340609
 31
0.0
  0
LINE
  5
23505
330
22F93
100
AcDbEntity
  8
実線-細
100
AcDbLine
 10
293.0593288586765
 20
85.8805081830609
 30
0.0
 11
292.7468293355765
 21
85.8805081830609
 31
0.0
  0
LINE
  5
23506
330
22F93
100
AcDbEntity
  8
実線-細
100
AcDbLine
 10
292.5593293355765
 20
85.8805081830609
 30
0.0
 11
291.8093293355765
 21
85.8805081830609
 31
0.0
  0
LINE
  5
23507
330
22F93
100
AcDbEntity
  8
実線-細
100
AcDbLine
 10
293.6843293355765
 20
85.18901883396086
 30
0.0
 11
293.8718293355765
 21
85.13582734626089
 31
0.0
  0
LINE
  5
23508
330
22F93
100
AcDbEntity
  8
実線-細
100
AcDbLine
 10
290.7468298123765
 20
85.45497628166083
 30
0.0
 11
290.9030788586765
 21
85.40178479866098
 31
0.0
  0
LINE
  5
23509
330
22F93
100
AcDbEntity
  8
実線-細
100
AcDbLine
 10
293.7155788586765
 20
85.45497628166083
 30
0.0
 11
293.8718293355765
 21
85.40178479866098
 31
0.0
  0
LINE
  5
2350A
330
22F93
100
AcDbEntity
  8
実線-細
100
AcDbLine
 10
290.8718293355765
 20
85.13582734626089
 30
0.0
 11
290.7468298123765
 21
85.18901883396086
 31
0.0
  0
LINE
  5
2350B
330
22F93
100
AcDbEntity
  8
実線-細
100
AcDbLine
 10
290.7468298123765
 20
85.18901883396086
 30
0.0
 11
290.6218288586765
 21
85.29540181396095
 31
0.0
  0
LINE
  5
2350C
330
22F93
100
AcDbEntity
  8
実線-細
100
AcDbLine
 10
290.6843293355765
 20
85.50816776466087
 30
0.0
 11
290.7468298123765
 21
85.45497628166083
 31
0.0
  0
LINE
  5
2350D
330
22F93
100
AcDbEntity
  8
実線-細
100
AcDbLine
 10
293.5280788586765
 20
85.34859329706085
 30
0.0
 11
293.6843293355765
 21
85.18901883396086
 31
0.0
  0
LINE
  5
2350E
330
22F93
100
AcDbEntity
  8
実線-細
100
AcDbLine
 10
290.6218288586765
 20
85.29540181396095
 30
0.0
 11
290.5280788586765
 21
85.40178479866098
 31
0.0
  0
LINE
  5
2350F
330
22F93
100
AcDbEntity
  8
実線-細
100
AcDbLine
 10
293.6218288586765
 20
85.56135924776084
 30
0.0
 11
293.7155788586765
 21
85.45497628166083
 31
0.0
  0
LINE
  5
23510
330
22F93
100
AcDbEntity
  8
実線-細
100
AcDbLine
 10
290.6218288586765
 20
85.61455076796091
 30
0.0
 11
290.6843293355765
 21
85.50816776466087
 31
0.0
  0
LINE
  5
23511
330
22F93
100
AcDbEntity
  8
実線-細
100
AcDbLine
 10
293.4343288586765
 20
85.50816776466087
 30
0.0
 11
293.5280788586765
 21
85.34859329706085
 31
0.0
  0
LINE
  5
23512
330
22F93
100
AcDbEntity
  8
実線-細
100
AcDbLine
 10
290.5280788586765
 20
85.40178479866098
 30
0.0
 11
290.4655798123765
 21
85.56135924776084
 31
0.0
  0
LINE
  5
23513
330
22F93
100
AcDbEntity
  8
実線-細
100
AcDbLine
 10
293.4968293355765
 20
85.8805081830609
 30
0.0
 11
293.6218288586765
 21
85.56135924776084
 31
0.0
  0
LINE
  5
23514
330
22F93
100
AcDbEntity
  8
実線-細
100
AcDbLine
 10
290.5905793355765
 20
85.7209337340609
 30
0.0
 11
290.6218288586765
 21
85.61455076796091
 31
0.0
  0
LINE
  5
23515
330
22F93
100
AcDbEntity
  8
実線-細
100
AcDbLine
 10
293.3718298123764
 20
85.7209337340609
 30
0.0
 11
293.4343288586765
 21
85.50816776466087
 31
0.0
  0
LINE
  5
23516
330
22F93
100
AcDbEntity
  8
実線-細
100
AcDbLine
 10
290.4655798123765
 20
85.56135924776084
 30
0.0
 11
290.4343288586765
 21
85.7209337340609
 31
0.0
  0
LINE
  5
23517
330
22F93
100
AcDbEntity
  8
実線-細
100
AcDbLine
 10
293.3405788586765
 20
85.8805081830609
 30
0.0
 11
293.3718298123764
 21
85.7209337340609
 31
0.0
  0
LINE
  5
23518
330
22F93
100
AcDbEntity
  8
実線-細
100
AcDbLine
 10
291.4030798123765
 20
85.7209337340609
 30
0.0
 11
291.4030798123765
 21
85.93369966616098
 31
0.0
  0
LINE
  5
23519
330
22F93
100
AcDbEntity
  8
実線-細
100
AcDbLine
 10
291.5593288586766
 20
85.93369966616098
 30
0.0
 11
291.5593288586766
 21
85.7209337340609
 31
0.0
  0
LINE
  5
2351A
330
22F93
100
AcDbEntity
  8
実線-細
100
AcDbLine
 10
292.5593293355765
 20
85.13582734626089
 30
0.0
 11
292.5593293355765
 21
85.8805081830609
 31
0.0
  0
LINE
  5
2351B
330
22F93
100
AcDbEntity
  8
実線-細
100
AcDbLine
 10
292.7468293355765
 20
85.8805081830609
 30
0.0
 11
292.7468293355765
 21
85.13582734626089
 31
0.0
  0
LINE
  5
2351C
330
22F93
100
AcDbEntity
  8
実線-細
100
AcDbLine
 10
291.5593288586766
 20
85.7209337340609
 30
0.0
 11
291.5280793355765
 21
85.56135924776084
 31
0.0
  0
LINE
  5
2351D
330
22F93
100
AcDbEntity
  8
実線-細
100
AcDbLine
 10
294.3718288586765
 20
85.7209337340609
 30
0.0
 11
294.4030798123765
 21
85.8805081830609
 31
0.0
  0
LINE
  5
2351E
330
22F93
100
AcDbEntity
  8
実線-細
100
AcDbLine
 10
291.3718288586765
 20
85.61455076796091
 30
0.0
 11
291.4030798123765
 21
85.7209337340609
 31
0.0
  0
LINE
  5
2351F
330
22F93
100
AcDbEntity
  8
実線-細
100
AcDbLine
 10
294.3093298123765
 20
85.50816776466087
 30
0.0
 11
294.3718288586765
 21
85.7209337340609
 31
0.0
  0
LINE
  5
23520
330
22F93
100
AcDbEntity
  8
実線-細
100
AcDbLine
 10
291.5280793355765
 20
85.56135924776084
 30
0.0
 11
291.4655788586765
 21
85.40178479866098
 31
0.0
  0
LINE
  5
23521
330
22F93
100
AcDbEntity
  8
実線-細
100
AcDbLine
 10
294.1218298123764
 20
85.56135924776084
 30
0.0
 11
294.2468293355765
 21
85.8805081830609
 31
0.0
  0
LINE
  5
23522
330
22F93
100
AcDbEntity
  8
実線-細
100
AcDbLine
 10
291.3093298123765
 20
85.50816776466087
 30
0.0
 11
291.3718288586765
 21
85.61455076796091
 31
0.0
  0
LINE
  5
23523
330
22F93
100
AcDbEntity
  8
実線-細
100
AcDbLine
 10
294.2155798123764
 20
85.34859329706085
 30
0.0
 11
294.3093298123765
 21
85.50816776466087
 31
0.0
  0
LINE
  5
23524
330
22F93
100
AcDbEntity
  8
実線-細
100
AcDbLine
 10
291.4655788586765
 20
85.40178479866098
 30
0.0
 11
291.3718288586765
 21
85.29540181396095
 31
0.0
  0
LINE
  5
23525
330
22F93
100
AcDbEntity
  8
実線-細
100
AcDbLine
 10
294.0280798123765
 20
85.45497628166083
 30
0.0
 11
294.1218298123764
 21
85.56135924776084
 31
0.0
  0
LINE
  5
23526
330
22F93
100
AcDbEntity
  8
実線-細
100
AcDbLine
 10
294.0593293355765
 20
85.18901883396086
 30
0.0
 11
294.2155798123764
 21
85.34859329706085
 31
0.0
  0
LINE
  5
23527
330
22F93
100
AcDbEntity
  8
実線-細
100
AcDbLine
 10
291.2468293355765
 20
85.45497628166083
 30
0.0
 11
291.3093298123765
 21
85.50816776466087
 31
0.0
  0
LINE
  5
23528
330
22F93
100
AcDbEntity
  8
実線-細
100
AcDbLine
 10
291.3718288586765
 20
85.29540181396095
 30
0.0
 11
291.2468293355765
 21
85.18901883396086
 31
0.0
  0
LINE
  5
23529
330
22F93
100
AcDbEntity
  8
実線-細
100
AcDbLine
 10
291.2468293355765
 20
85.18901883396086
 30
0.0
 11
291.1218298123765
 21
85.13582734626089
 31
0.0
  0
LINE
  5
2352A
330
22F93
100
AcDbEntity
  8
実線-細
100
AcDbLine
 10
291.0905788586765
 20
85.40178479866098
 30
0.0
 11
291.2468293355765
 21
85.45497628166083
 31
0.0
  0
LINE
  5
2352B
330
22F93
100
AcDbEntity
  8
実線-細
100
AcDbLine
 10
293.8718293355765
 20
85.40178479866098
 30
0.0
 11
294.0280798123765
 21
85.45497628166083
 31
0.0
  0
LINE
  5
2352C
330
22F93
100
AcDbEntity
  8
実線-細
100
AcDbLine
 10
290.1843298123765
 20
85.13582734626089
 30
0.0
 11
289.0593298123765
 21
85.13582734626089
 31
0.0
  0
LINE
  5
2352D
330
22F93
100
AcDbEntity
  8
実線-細
100
AcDbLine
 10
289.3093288586765
 20
85.40178479866098
 30
0.0
 11
290.1843298123765
 21
85.40178479866098
 31
0.0
  0
LINE
  5
2352E
330
22F93
100
AcDbEntity
  8
実線-細
100
AcDbLine
 10
289.0593298123765
 20
85.13582734626089
 30
0.0
 11
289.0593298123765
 21
85.40178479866098
 31
0.0
  0
LINE
  5
2352F
330
22F93
100
AcDbEntity
  8
実線-細
100
AcDbLine
 10
290.1843298123765
 20
85.40178479866098
 30
0.0
 11
290.1843298123765
 21
85.13582734626089
 31
0.0
  0
LINE
  5
23530
330
22F93
100
AcDbEntity
  8
実線-細
100
AcDbLine
 10
291.4030798123765
 20
85.93369966616098
 30
0.0
 11
291.3405793355765
 21
86.14646567276082
 31
0.0
  0
LINE
  5
23531
330
22F93
100
AcDbEntity
  8
実線-細
100
AcDbLine
 10
291.5280793355765
 20
86.14646567276082
 30
0.0
 11
291.5593288586766
 21
85.93369966616098
 31
0.0
  0
LINE
  5
23532
330
22F93
100
AcDbEntity
  8
実線-細
100
AcDbLine
 10
293.4655798123765
 20
86.19965715576086
 30
0.0
 11
293.4968293355765
 21
85.8805081830609
 31
0.0
  0
LINE
  5
23533
330
22F93
100
AcDbEntity
  8
実線-細
100
AcDbLine
 10
291.8093293355765
 20
85.8805081830609
 30
0.0
 11
291.8093293355765
 21
86.19965715576086
 31
0.0
  0
LINE
  5
23534
330
22F93
100
AcDbEntity
  8
実線-細
100
AcDbLine
 10
293.3093293355765
 20
86.14646567276082
 30
0.0
 11
293.3405788586765
 21
85.8805081830609
 31
0.0
  0
LINE
  5
23535
330
22F93
100
AcDbEntity
  8
実線-細
100
AcDbLine
 10
293.0593288586765
 20
86.19965715576086
 30
0.0
 11
293.0593288586765
 21
85.8805081830609
 31
0.0
  0
LINE
  5
23536
330
22F93
100
AcDbEntity
  8
実線-細
100
AcDbLine
 10
294.2468293355765
 20
85.8805081830609
 30
0.0
 11
294.2780788586765
 21
86.19965715576086
 31
0.0
  0
LINE
  5
23537
330
22F93
100
AcDbEntity
  8
実線-細
100
AcDbLine
 10
294.4030798123765
 20
85.8805081830609
 30
0.0
 11
294.4343293355765
 21
86.14646567276082
 31
0.0
  0
LINE
  5
23538
330
22F93
100
AcDbEntity
  8
実線-細
100
AcDbLine
 10
289.0593298123765
 20
85.40178479866098
 30
0.0
 11
289.9343293355765
 21
86.73157198596085
 31
0.0
  0
LINE
  5
23539
330
22F93
100
AcDbEntity
  8
実線-細
100
AcDbLine
 10
290.0905798123765
 20
86.57199753686086
 30
0.0
 11
289.3093288586765
 21
85.40178479866098
 31
0.0
  0
LINE
  5
2353A
330
22F93
100
AcDbEntity
  8
実線-細
100
AcDbLine
 10
288.6218293355765
 20
87.63582734626089
 30
0.0
 11
288.8093293355765
 21
87.63582734626089
 31
0.0
  0
LINE
  5
2353B
330
22F93
100
AcDbEntity
  8
実線-細
100
AcDbLine
 10
288.4343293355765
 20
86.83795495196092
 30
0.0
 11
288.4343293355765
 21
87.26348696516089
 31
0.0
  0
LINE
  5
2353C
330
22F93
100
AcDbEntity
  8
実線-細
100
AcDbLine
 10
288.4343293355765
 20
87.26348696516089
 30
0.0
 11
288.6218293355765
 21
87.63582734626089
 31
0.0
  0
LINE
  5
2353D
330
22F93
100
AcDbEntity
  8
実線-細
100
AcDbLine
 10
288.6218293355765
 20
87.21029548216085
 30
0.0
 11
288.4343293355765
 21
86.83795495196092
 31
0.0
  0
LINE
  5
2353E
330
22F93
100
AcDbEntity
  8
実線-細
100
AcDbLine
 10
283.9968290970765
 20
87.63582734626089
 30
0.0
 11
283.8093290970765
 21
87.58263586326085
 31
0.0
  0
LINE
  5
2353F
330
22F93
100
AcDbEntity
  8
実線-細
100
AcDbLine
 10
283.1843293355765
 20
86.99752940106117
 30
0.0
 11
282.9968293355765
 21
86.99752940106117
 31
0.0
  0
LINE
  5
23540
330
22F93
100
AcDbEntity
  8
実線-細
100
AcDbLine
 10
282.7468295739765
 20
87.31667844816087
 30
0.0
 11
282.4655795739765
 21
87.31667844816087
 31
0.0
  0
LINE
  5
23541
330
22F93
100
AcDbEntity
  8
実線-細
100
AcDbLine
 10
282.4655795739765
 20
87.63582734626089
 30
0.0
 11
282.7468295739765
 21
87.63582734626089
 31
0.0
  0
LINE
  5
23542
330
22F93
100
AcDbEntity
  8
実線-細
100
AcDbLine
 10
284.9968295739765
 20
87.63582734626089
 30
0.0
 11
285.1843295739765
 21
87.63582734626089
 31
0.0
  0
LINE
  5
23543
330
22F93
100
AcDbEntity
  8
実線-細
100
AcDbLine
 10
285.9343295739765
 20
87.63582734626089
 30
0.0
 11
286.1843293355765
 21
87.63582734626089
 31
0.0
  0
LINE
  5
23544
330
22F93
100
AcDbEntity
  8
実線-細
100
AcDbLine
 10
284.1843290970765
 20
87.58263586326085
 30
0.0
 11
283.9968290970765
 21
87.63582734626089
 31
0.0
  0
LINE
  5
23545
330
22F93
100
AcDbEntity
  8
実線-細
100
AcDbLine
 10
282.7468295739765
 20
87.63582734626089
 30
0.0
 11
282.9030793355765
 21
87.58263586326085
 31
0.0
  0
LINE
  5
23546
330
22F93
100
AcDbEntity
  8
実線-細
100
AcDbLine
 10
284.1530795739764
 20
87.31667844816087
 30
0.0
 11
283.9968290970765
 21
87.36986993116095
 31
0.0
  0
LINE
  5
23547
330
22F93
100
AcDbEntity
  8
実線-細
100
AcDbLine
 10
282.8718290970765
 20
87.26348696516089
 30
0.0
 11
282.7468295739765
 21
87.31667844816087
 31
0.0
  0
LINE
  5
23548
330
22F93
100
AcDbEntity
  8
実線-細
100
AcDbLine
 10
282.9030793355765
 20
87.58263586326085
 30
0.0
 11
283.0280795739765
 21
87.47625289726096
 31
0.0
  0
LINE
  5
23549
330
22F93
100
AcDbEntity
  8
実線-細
100
AcDbLine
 10
284.3405795739765
 20
87.42306141426087
 30
0.0
 11
284.1843290970765
 21
87.58263586326085
 31
0.0
  0
LINE
  5
2354A
330
22F93
100
AcDbEntity
  8
実線-細
100
AcDbLine
 10
282.9655790970765
 20
87.15710399916082
 30
0.0
 11
282.8718290970765
 21
87.26348696516089
 31
0.0
  0
LINE
  5
2354B
330
22F93
100
AcDbEntity
  8
実線-細
100
AcDbLine
 10
284.2468295739765
 20
87.21029548216085
 30
0.0
 11
284.1530795739764
 21
87.31667844816087
 31
0.0
  0
LINE
  5
2354C
330
22F93
100
AcDbEntity
  8
実線-細
100
AcDbLine
 10
283.0280795739765
 20
87.47625289726096
 30
0.0
 11
283.1530790970765
 21
87.26348696516089
 31
0.0
  0
LINE
  5
2354D
330
22F93
100
AcDbEntity
  8
実線-細
100
AcDbLine
 10
284.4343295739765
 20
87.26348696516089
 30
0.0
 11
284.3405795739765
 21
87.42306141426087
 31
0.0
  0
LINE
  5
2354E
330
22F93
100
AcDbEntity
  8
実線-細
100
AcDbLine
 10
284.3718290970765
 20
86.89114643496088
 30
0.0
 11
284.2468295739765
 21
87.21029548216085
 31
0.0
  0
LINE
  5
2354F
330
22F93
100
AcDbEntity
  8
実線-細
100
AcDbLine
 10
284.4968293355765
 20
87.05072103306116
 30
0.0
 11
284.4343295739765
 21
87.26348696516089
 31
0.0
  0
LINE
  5
23550
330
22F93
100
AcDbEntity
  8
実線-細
100
AcDbLine
 10
282.9968293355765
 20
86.99752940106117
 30
0.0
 11
282.9655790970765
 21
87.15710399916082
 31
0.0
  0
LINE
  5
23551
330
22F93
100
AcDbEntity
  8
実線-細
100
AcDbLine
 10
284.5280795739765
 20
86.89114643496088
 30
0.0
 11
284.4968293355765
 21
87.05072103306116
 31
0.0
  0
LINE
  5
23552
330
22F93
100
AcDbEntity
  8
実線-細
100
AcDbLine
 10
283.1530790970765
 20
87.26348696516089
 30
0.0
 11
283.1843293355765
 21
86.99752940106117
 31
0.0
  0
LINE
  5
23553
330
22F93
100
AcDbEntity
  8
実線-細
100
AcDbLine
 10
284.8093295739765
 20
86.83795495196092
 30
0.0
 11
284.8093295739765
 21
87.26348696516089
 31
0.0
  0
LINE
  5
23554
330
22F93
100
AcDbEntity
  8
実線-細
100
AcDbLine
 10
283.4968295739765
 20
87.05072103306116
 30
0.0
 11
283.4655793355765
 21
86.89114643496088
 31
0.0
  0
LINE
  5
23555
330
22F93
100
AcDbEntity
  8
実線-細
100
AcDbLine
 10
283.5593293355765
 20
87.26348696516089
 30
0.0
 11
283.4968295739765
 21
87.05072103306116
 31
0.0
  0
LINE
  5
23556
330
22F93
100
AcDbEntity
  8
実線-細
100
AcDbLine
 10
283.7468293355765
 20
87.21029548216085
 30
0.0
 11
283.6218290970765
 21
86.89114643496088
 31
0.0
  0
LINE
  5
23557
330
22F93
100
AcDbEntity
  8
実線-細
100
AcDbLine
 10
284.8093295739765
 20
87.26348696516089
 30
0.0
 11
284.9968295739765
 21
87.63582734626089
 31
0.0
  0
LINE
  5
23558
330
22F93
100
AcDbEntity
  8
実線-細
100
AcDbLine
 10
284.9968295739765
 20
87.21029548216085
 30
0.0
 11
284.8093295739765
 21
86.83795495196092
 31
0.0
  0
LINE
  5
23559
330
22F93
100
AcDbEntity
  8
実線-細
100
AcDbLine
 10
283.6530793355765
 20
87.42306141426087
 30
0.0
 11
283.5593293355765
 21
87.26348696516089
 31
0.0
  0
LINE
  5
2355A
330
22F93
100
AcDbEntity
  8
実線-細
100
AcDbLine
 10
282.3405793355765
 20
87.26348696516089
 30
0.0
 11
282.2468293355765
 21
87.15710399916082
 31
0.0
  0
LINE
  5
2355B
330
22F93
100
AcDbEntity
  8
実線-細
100
AcDbLine
 10
283.8405793355765
 20
87.31667844816087
 30
0.0
 11
283.7468293355765
 21
87.21029548216085
 31
0.0
  0
LINE
  5
2355C
330
22F93
100
AcDbEntity
  8
実線-細
100
AcDbLine
 10
283.8093290970765
 20
87.58263586326085
 30
0.0
 11
283.6530793355765
 21
87.42306141426087
 31
0.0
  0
LINE
  5
2355D
330
22F93
100
AcDbEntity
  8
実線-細
100
AcDbLine
 10
282.4655795739765
 20
87.31667844816087
 30
0.0
 11
282.3405793355765
 21
87.26348696516089
 31
0.0
  0
LINE
  5
2355E
330
22F93
100
AcDbEntity
  8
実線-細
100
AcDbLine
 10
282.3093290970765
 20
87.58263586326085
 30
0.0
 11
282.4655795739765
 21
87.63582734626089
 31
0.0
  0
LINE
  5
2355F
330
22F93
100
AcDbEntity
  8
実線-細
100
AcDbLine
 10
283.9968290970765
 20
87.36986993116095
 30
0.0
 11
283.8405793355765
 21
87.31667844816087
 31
0.0
  0
LINE
  5
23560
330
22F93
100
AcDbEntity
  8
実線-細
100
AcDbLine
 10
281.5280795739765
 20
86.89114643496088
 30
0.0
 11
281.4655790970765
 21
86.89114643496088
 31
0.0
  0
LINE
  5
23561
330
22F93
100
AcDbEntity
  8
実線-細
100
AcDbLine
 10
281.9655793355765
 20
86.78476346896109
 30
0.0
 11
281.9968295739765
 21
87.05072103306116
 31
0.0
  0
LINE
  5
23562
330
22F93
100
AcDbEntity
  8
実線-細
100
AcDbLine
 10
282.1843295739765
 20
86.99752940106117
 30
0.0
 11
282.1530793355765
 21
86.78476346896109
 31
0.0
  0
LINE
  5
23563
330
22F93
100
AcDbEntity
  8
実線-細
100
AcDbLine
 10
281.9968295739765
 20
87.05072103306116
 30
0.0
 11
282.0593293355765
 21
87.26348696516089
 31
0.0
  0
LINE
  5
23564
330
22F93
100
AcDbEntity
  8
実線-細
100
AcDbLine
 10
282.0593293355765
 20
87.26348696516089
 30
0.0
 11
282.1843295739765
 21
87.47625289726096
 31
0.0
  0
LINE
  5
23565
330
22F93
100
AcDbEntity
  8
実線-細
100
AcDbLine
 10
282.2468293355765
 20
87.15710399916082
 30
0.0
 11
282.1843295739765
 21
86.99752940106117
 31
0.0
  0
LINE
  5
23566
330
22F93
100
AcDbEntity
  8
実線-細
100
AcDbLine
 10
282.1843295739765
 20
87.47625289726096
 30
0.0
 11
282.3093290970765
 21
87.58263586326085
 31
0.0
  0
LINE
  5
23567
330
22F93
100
AcDbEntity
  8
実線-細
100
AcDbLine
 10
296.6218288586765
 20
87.63582734626089
 30
0.0
 11
296.4343288586764
 21
87.58263586326085
 31
0.0
  0
LINE
  5
23568
330
22F93
100
AcDbEntity
  8
実線-細
100
AcDbLine
 10
295.2468298123765
 20
87.63582734626089
 30
0.0
 11
295.0593298123765
 21
87.58263586326085
 31
0.0
  0
LINE
  5
23569
330
22F93
100
AcDbEntity
  8
実線-細
100
AcDbLine
 10
295.4343298123765
 20
87.58263586326085
 30
0.0
 11
295.2468298123765
 21
87.63582734626089
 31
0.0
  0
LINE
  5
2356A
330
22F93
100
AcDbEntity
  8
実線-細
100
AcDbLine
 10
296.8093288586763
 20
87.58263586326085
 30
0.0
 11
296.6218288586765
 21
87.63582734626089
 31
0.0
  0
LINE
  5
2356B
330
22F93
100
AcDbEntity
  8
実線-細
100
AcDbLine
 10
295.4030788586763
 20
87.31667844816087
 30
0.0
 11
295.2468298123765
 21
87.36986993116095
 31
0.0
  0
LINE
  5
2356C
330
22F93
100
AcDbEntity
  8
実線-細
100
AcDbLine
 10
296.7780793355765
 20
87.31667844816087
 30
0.0
 11
296.6218288586765
 21
87.36986993116095
 31
0.0
  0
LINE
  5
2356D
330
22F93
100
AcDbEntity
  8
実線-細
100
AcDbLine
 10
295.5905788586765
 20
87.42306141426087
 30
0.0
 11
295.4343298123765
 21
87.58263586326085
 31
0.0
  0
LINE
  5
2356E
330
22F93
100
AcDbEntity
  8
実線-細
100
AcDbLine
 10
295.4968288586765
 20
87.21029548216085
 30
0.0
 11
295.4030788586763
 21
87.31667844816087
 31
0.0
  0
LINE
  5
2356F
330
22F93
100
AcDbEntity
  8
実線-細
100
AcDbLine
 10
295.6843288586764
 20
87.26348696516089
 30
0.0
 11
295.5905788586765
 21
87.42306141426087
 31
0.0
  0
LINE
  5
23570
330
22F93
100
AcDbEntity
  8
実線-細
100
AcDbLine
 10
295.6218298123765
 20
86.89114643496088
 30
0.0
 11
295.4968288586765
 21
87.21029548216085
 31
0.0
  0
LINE
  5
23571
330
22F93
100
AcDbEntity
  8
実線-細
100
AcDbLine
 10
295.7468293355765
 20
87.05072103306116
 30
0.0
 11
295.6843288586764
 21
87.26348696516089
 31
0.0
  0
LINE
  5
23572
330
22F93
100
AcDbEntity
  8
実線-細
100
AcDbLine
 10
295.7780788586763
 20
86.89114643496088
 30
0.0
 11
295.7468293355765
 21
87.05072103306116
 31
0.0
  0
LINE
  5
23573
330
22F93
100
AcDbEntity
  8
実線-細
100
AcDbLine
 10
294.7468288586764
 20
87.05072103306116
 30
0.0
 11
294.7155793355765
 21
86.89114643496088
 31
0.0
  0
LINE
  5
23574
330
22F93
100
AcDbEntity
  8
実線-細
100
AcDbLine
 10
296.1218293355765
 20
87.05072103306116
 30
0.0
 11
296.0905798123765
 21
86.89114643496088
 31
0.0
  0
LINE
  5
23575
330
22F93
100
AcDbEntity
  8
実線-細
100
AcDbLine
 10
294.8093293355765
 20
87.26348696516089
 30
0.0
 11
294.7468288586764
 21
87.05072103306116
 31
0.0
  0
LINE
  5
23576
330
22F93
100
AcDbEntity
  8
実線-細
100
AcDbLine
 10
296.1843298123765
 20
87.26348696516089
 30
0.0
 11
296.1218293355765
 21
87.05072103306116
 31
0.0
  0
LINE
  5
23577
330
22F93
100
AcDbEntity
  8
実線-細
100
AcDbLine
 10
294.9968293355765
 20
87.21029548216085
 30
0.0
 11
294.8718298123765
 21
86.89114643496088
 31
0.0
  0
LINE
  5
23578
330
22F93
100
AcDbEntity
  8
実線-細
100
AcDbLine
 10
296.3718298123765
 20
87.21029548216085
 30
0.0
 11
296.2468288586764
 21
86.89114643496088
 31
0.0
  0
LINE
  5
23579
330
22F93
100
AcDbEntity
  8
実線-細
100
AcDbLine
 10
294.9030793355765
 20
87.42306141426087
 30
0.0
 11
294.8093293355765
 21
87.26348696516089
 31
0.0
  0
LINE
  5
2357A
330
22F93
100
AcDbEntity
  8
実線-細
100
AcDbLine
 10
296.2780798123765
 20
87.42306141426087
 30
0.0
 11
296.1843298123765
 21
87.26348696516089
 31
0.0
  0
LINE
  5
2357B
330
22F93
100
AcDbEntity
  8
実線-細
100
AcDbLine
 10
295.0905793355765
 20
87.31667844816087
 30
0.0
 11
294.9968293355765
 21
87.21029548216085
 31
0.0
  0
LINE
  5
2357C
330
22F93
100
AcDbEntity
  8
実線-細
100
AcDbLine
 10
296.4655798123764
 20
87.31667844816087
 30
0.0
 11
296.3718298123765
 21
87.21029548216085
 31
0.0
  0
LINE
  5
2357D
330
22F93
100
AcDbEntity
  8
実線-細
100
AcDbLine
 10
295.0593298123765
 20
87.58263586326085
 30
0.0
 11
294.9030793355765
 21
87.42306141426087
 31
0.0
  0
LINE
  5
2357E
330
22F93
100
AcDbEntity
  8
実線-細
100
AcDbLine
 10
296.4343288586764
 20
87.58263586326085
 30
0.0
 11
296.2780798123765
 21
87.42306141426087
 31
0.0
  0
LINE
  5
2357F
330
22F93
100
AcDbEntity
  8
実線-細
100
AcDbLine
 10
295.2468298123765
 20
87.36986993116095
 30
0.0
 11
295.0905793355765
 21
87.31667844816087
 31
0.0
  0
LINE
  5
23580
330
22F93
100
AcDbEntity
  8
実線-細
100
AcDbLine
 10
296.6218288586765
 20
87.36986993116095
 30
0.0
 11
296.4655798123764
 21
87.31667844816087
 31
0.0
  0
LINE
  5
23581
330
22F93
100
AcDbEntity
  8
実線-細
100
AcDbLine
 10
293.8718293355765
 20
87.63582734626089
 30
0.0
 11
293.6843293355765
 21
87.58263586326085
 31
0.0
  0
LINE
  5
23582
330
22F93
100
AcDbEntity
  8
実線-細
100
AcDbLine
 10
290.7468298123765
 20
87.58263586326085
 30
0.0
 11
290.9655793355765
 21
87.63582734626089
 31
0.0
  0
LINE
  5
23583
330
22F93
100
AcDbEntity
  8
実線-細
100
AcDbLine
 10
290.6218288586765
 20
87.05072103306116
 30
0.0
 11
290.4655798123765
 21
87.05072103306116
 31
0.0
  0
LINE
  5
23584
330
22F93
100
AcDbEntity
  8
実線-細
100
AcDbLine
 10
291.0593293355765
 20
87.36986993116095
 30
0.0
 11
290.9343298123765
 21
87.36986993116095
 31
0.0
  0
LINE
  5
23585
330
22F93
100
AcDbEntity
  8
実線-細
100
AcDbLine
 10
290.9655793355765
 20
87.63582734626089
 30
0.0
 11
291.0280798123764
 21
87.63582734626089
 31
0.0
  0
LINE
  5
23586
330
22F93
100
AcDbEntity
  8
実線-細
100
AcDbLine
 10
292.5593293355765
 20
87.63582734626089
 30
0.0
 11
292.7468293355765
 21
87.63582734626089
 31
0.0
  0
LINE
  5
23587
330
22F93
100
AcDbEntity
  8
実線-細
100
AcDbLine
 10
291.0280798123764
 20
87.63582734626089
 30
0.0
 11
291.2468293355765
 21
87.58263586326085
 31
0.0
  0
LINE
  5
23588
330
22F93
100
AcDbEntity
  8
実線-細
100
AcDbLine
 10
294.0593293355765
 20
87.58263586326085
 30
0.0
 11
293.8718293355765
 21
87.63582734626089
 31
0.0
  0
LINE
  5
23589
330
22F93
100
AcDbEntity
  8
実線-細
100
AcDbLine
 10
291.2155798123765
 20
87.31667844816087
 30
0.0
 11
291.0593293355765
 21
87.36986993116095
 31
0.0
  0
LINE
  5
2358A
330
22F93
100
AcDbEntity
  8
実線-細
100
AcDbLine
 10
294.0280798123765
 20
87.31667844816087
 30
0.0
 11
293.8718293355765
 21
87.36986993116095
 31
0.0
  0
LINE
  5
2358B
330
22F93
100
AcDbEntity
  8
実線-細
100
AcDbLine
 10
291.2468293355765
 20
87.58263586326085
 30
0.0
 11
291.3718288586765
 21
87.47625289726096
 31
0.0
  0
LINE
  5
2358C
330
22F93
100
AcDbEntity
  8
実線-細
100
AcDbLine
 10
294.2155798123764
 20
87.42306141426087
 30
0.0
 11
294.0593293355765
 21
87.58263586326085
 31
0.0
  0
LINE
  5
2358D
330
22F93
100
AcDbEntity
  8
実線-細
100
AcDbLine
 10
291.3093298123765
 20
87.21029548216085
 30
0.0
 11
291.2155798123765
 21
87.31667844816087
 31
0.0
  0
LINE
  5
2358E
330
22F93
100
AcDbEntity
  8
実線-細
100
AcDbLine
 10
294.1218298123764
 20
87.21029548216085
 30
0.0
 11
294.0280798123765
 21
87.31667844816087
 31
0.0
  0
LINE
  5
2358F
330
22F93
100
AcDbEntity
  8
実線-細
100
AcDbLine
 10
291.3718288586765
 20
87.47625289726096
 30
0.0
 11
291.4968298123765
 21
87.26348696516089
 31
0.0
  0
LINE
  5
23590
330
22F93
100
AcDbEntity
  8
実線-細
100
AcDbLine
 10
294.3093298123765
 20
87.26348696516089
 30
0.0
 11
294.2155798123764
 21
87.42306141426087
 31
0.0
  0
LINE
  5
23591
330
22F93
100
AcDbEntity
  8
実線-細
100
AcDbLine
 10
291.3718288586765
 20
87.05072103306116
 30
0.0
 11
291.3093298123765
 21
87.21029548216085
 31
0.0
  0
LINE
  5
23592
330
22F93
100
AcDbEntity
  8
実線-細
100
AcDbLine
 10
294.2468293355765
 20
86.89114643496088
 30
0.0
 11
294.1218298123764
 21
87.21029548216085
 31
0.0
  0
LINE
  5
23593
330
22F93
100
AcDbEntity
  8
実線-細
100
AcDbLine
 10
294.3718288586765
 20
87.05072103306116
 30
0.0
 11
294.3093298123765
 21
87.26348696516089
 31
0.0
  0
LINE
  5
23594
330
22F93
100
AcDbEntity
  8
実線-細
100
AcDbLine
 10
291.4968298123765
 20
87.26348696516089
 30
0.0
 11
291.5280793355765
 21
87.05072103306116
 31
0.0
  0
LINE
  5
23595
330
22F93
100
AcDbEntity
  8
実線-細
100
AcDbLine
 10
291.3718288586765
 20
86.94433791806085
 30
0.0
 11
291.3718288586765
 21
87.05072103306116
 31
0.0
  0
LINE
  5
23596
330
22F93
100
AcDbEntity
  8
実線-細
100
AcDbLine
 10
291.5280793355765
 20
87.05072103306116
 30
0.0
 11
291.5280793355765
 21
86.94433791806085
 31
0.0
  0
LINE
  5
23597
330
22F93
100
AcDbEntity
  8
実線-細
100
AcDbLine
 10
294.4030798123765
 20
86.89114643496088
 30
0.0
 11
294.3718288586765
 21
87.05072103306116
 31
0.0
  0
LINE
  5
23598
330
22F93
100
AcDbEntity
  8
実線-細
100
AcDbLine
 10
290.4655798123765
 20
87.05072103306116
 30
0.0
 11
290.4968293355765
 21
87.26348696516089
 31
0.0
  0
LINE
  5
23599
330
22F93
100
AcDbEntity
  8
実線-細
100
AcDbLine
 10
293.3718298123764
 20
87.05072103306116
 30
0.0
 11
293.3405788586765
 21
86.89114643496088
 31
0.0
  0
LINE
  5
2359A
330
22F93
100
AcDbEntity
  8
実線-細
100
AcDbLine
 10
293.4343288586765
 20
87.26348696516089
 30
0.0
 11
293.3718298123764
 21
87.05072103306116
 31
0.0
  0
LINE
  5
2359B
330
22F93
100
AcDbEntity
  8
実線-細
100
AcDbLine
 10
290.6843293355765
 20
87.21029548216085
 30
0.0
 11
290.6218288586765
 21
87.05072103306116
 31
0.0
  0
LINE
  5
2359C
330
22F93
100
AcDbEntity
  8
実線-細
100
AcDbLine
 10
293.6218288586765
 20
87.21029548216085
 30
0.0
 11
293.4968293355765
 21
86.89114643496088
 31
0.0
  0
LINE
  5
2359D
330
22F93
100
AcDbEntity
  8
実線-細
100
AcDbLine
 10
290.4968293355765
 20
87.26348696516089
 30
0.0
 11
290.6218288586765
 21
87.47625289726096
 31
0.0
  0
LINE
  5
2359E
330
22F93
100
AcDbEntity
  8
実線-細
100
AcDbLine
 10
293.5280788586765
 20
87.42306141426087
 30
0.0
 11
293.4343288586765
 21
87.26348696516089
 31
0.0
  0
LINE
  5
2359F
330
22F93
100
AcDbEntity
  8
実線-細
100
AcDbLine
 10
290.7780793355765
 20
87.31667844816087
 30
0.0
 11
290.6843293355765
 21
87.21029548216085
 31
0.0
  0
LINE
  5
235A0
330
22F93
100
AcDbEntity
  8
実線-細
100
AcDbLine
 10
293.7155788586765
 20
87.31667844816087
 30
0.0
 11
293.6218288586765
 21
87.21029548216085
 31
0.0
  0
LINE
  5
235A1
330
22F93
100
AcDbEntity
  8
実線-細
100
AcDbLine
 10
293.6843293355765
 20
87.58263586326085
 30
0.0
 11
293.5280788586765
 21
87.42306141426087
 31
0.0
  0
LINE
  5
235A2
330
22F93
100
AcDbEntity
  8
実線-細
100
AcDbLine
 10
290.6218288586765
 20
87.47625289726096
 30
0.0
 11
290.7468298123765
 21
87.58263586326085
 31
0.0
  0
LINE
  5
235A3
330
22F93
100
AcDbEntity
  8
実線-細
100
AcDbLine
 10
290.9343298123765
 20
87.36986993116095
 30
0.0
 11
290.7780793355765
 21
87.31667844816087
 31
0.0
  0
LINE
  5
235A4
330
22F93
100
AcDbEntity
  8
実線-細
100
AcDbLine
 10
293.8718293355765
 20
87.36986993116095
 30
0.0
 11
293.7155788586765
 21
87.31667844816087
 31
0.0
  0
LINE
  5
235A5
330
22F93
100
AcDbEntity
  8
実線-細
100
AcDbLine
 10
289.3718293355765
 20
87.58263586326085
 30
0.0
 11
289.5905788586765
 21
87.63582734626089
 31
0.0
  0
LINE
  5
235A6
330
22F93
100
AcDbEntity
  8
実線-細
100
AcDbLine
 10
289.2468298123765
 20
87.05072103306116
 30
0.0
 11
289.0905793355765
 21
87.05072103306116
 31
0.0
  0
LINE
  5
235A7
330
22F93
100
AcDbEntity
  8
実線-細
100
AcDbLine
 10
289.6843288586765
 20
87.36986993116095
 30
0.0
 11
289.5593293355765
 21
87.36986993116095
 31
0.0
  0
LINE
  5
235A8
330
22F93
100
AcDbEntity
  8
実線-細
100
AcDbLine
 10
289.5905788586765
 20
87.63582734626089
 30
0.0
 11
289.7155798123765
 21
87.63582734626089
 31
0.0
  0
LINE
  5
235A9
330
22F93
100
AcDbEntity
  8
実線-細
100
AcDbLine
 10
289.7155798123765
 20
87.63582734626089
 30
0.0
 11
289.9030798123765
 21
87.58263586326085
 31
0.0
  0
LINE
  5
235AA
330
22F93
100
AcDbEntity
  8
実線-細
100
AcDbLine
 10
289.8405793355765
 20
87.31667844816087
 30
0.0
 11
289.6843288586765
 21
87.36986993116095
 31
0.0
  0
LINE
  5
235AB
330
22F93
100
AcDbEntity
  8
実線-細
100
AcDbLine
 10
289.9030798123765
 20
87.58263586326085
 30
0.0
 11
290.0280793355765
 21
87.47625289726096
 31
0.0
  0
LINE
  5
235AC
330
22F93
100
AcDbEntity
  8
実線-細
100
AcDbLine
 10
289.9343293355765
 20
87.21029548216085
 30
0.0
 11
289.8405793355765
 21
87.31667844816087
 31
0.0
  0
LINE
  5
235AD
330
22F93
100
AcDbEntity
  8
実線-細
100
AcDbLine
 10
290.0280793355765
 20
87.47625289726096
 30
0.0
 11
290.1530788586765
 21
87.26348696516089
 31
0.0
  0
LINE
  5
235AE
330
22F93
100
AcDbEntity
  8
実線-細
100
AcDbLine
 10
289.9968298123765
 20
87.05072103306116
 30
0.0
 11
289.9343293355765
 21
87.21029548216085
 31
0.0
  0
LINE
  5
235AF
330
22F93
100
AcDbEntity
  8
実線-細
100
AcDbLine
 10
290.1530788586765
 20
87.26348696516089
 30
0.0
 11
290.1843298123765
 21
87.05072103306116
 31
0.0
  0
LINE
  5
235B0
330
22F93
100
AcDbEntity
  8
実線-細
100
AcDbLine
 10
289.9968298123765
 20
86.94433791806085
 30
0.0
 11
289.9968298123765
 21
87.05072103306116
 31
0.0
  0
LINE
  5
235B1
330
22F93
100
AcDbEntity
  8
実線-細
100
AcDbLine
 10
290.1843298123765
 20
87.05072103306116
 30
0.0
 11
290.1843298123765
 21
86.94433791806085
 31
0.0
  0
LINE
  5
235B2
330
22F93
100
AcDbEntity
  8
実線-細
100
AcDbLine
 10
289.0905793355765
 20
87.05072103306116
 30
0.0
 11
289.1218288586765
 21
87.26348696516089
 31
0.0
  0
LINE
  5
235B3
330
22F93
100
AcDbEntity
  8
実線-細
100
AcDbLine
 10
289.3093288586765
 20
87.21029548216085
 30
0.0
 11
289.2468298123765
 21
87.05072103306116
 31
0.0
  0
LINE
  5
235B4
330
22F93
100
AcDbEntity
  8
実線-細
100
AcDbLine
 10
289.1218288586765
 20
87.26348696516089
 30
0.0
 11
289.2468298123765
 21
87.47625289726096
 31
0.0
  0
LINE
  5
235B5
330
22F93
100
AcDbEntity
  8
実線-細
100
AcDbLine
 10
289.4030788586765
 20
87.31667844816087
 30
0.0
 11
289.3093288586765
 21
87.21029548216085
 31
0.0
  0
LINE
  5
235B6
330
22F93
100
AcDbEntity
  8
実線-細
100
AcDbLine
 10
289.2468298123765
 20
87.47625289726096
 30
0.0
 11
289.3718293355765
 21
87.58263586326085
 31
0.0
  0
LINE
  5
235B7
330
22F93
100
AcDbEntity
  8
実線-細
100
AcDbLine
 10
289.5593293355765
 20
87.36986993116095
 30
0.0
 11
289.4030788586765
 21
87.31667844816087
 31
0.0
  0
LINE
  5
235B8
330
22F93
100
AcDbEntity
  8
実線-細
100
AcDbLine
 10
297.0280798123765
 20
86.57199753686086
 30
0.0
 11
296.9968288586763
 21
86.89114643496088
 31
0.0
  0
LINE
  5
235B9
330
22F93
100
AcDbEntity
  8
実線-細
100
AcDbLine
 10
297.1843288586764
 20
86.62518901986084
 30
0.0
 11
297.1530793355765
 21
86.89114643496088
 31
0.0
  0
LINE
  5
235BA
330
22F93
100
AcDbEntity
  8
実線-細
100
AcDbLine
 10
297.6218293355765
 20
85.13582734626089
 30
0.0
 11
297.6218293355765
 21
87.21029548216085
 31
0.0
  0
LINE
  5
235BB
330
22F93
100
AcDbEntity
  8
実線-細
100
AcDbLine
 10
297.8093293355765
 20
87.63582734626089
 30
0.0
 11
297.8093293355765
 21
85.13582734626089
 31
0.0
  0
LINE
  5
235BC
330
22F93
100
AcDbEntity
  8
実線
100
AcDbLine
 10
299.1795808795765
 20
85.03382862506095
 30
0.0
 11
299.1795808795765
 21
91.88582734626089
 31
0.0
  0
LINE
  5
235BD
330
22F93
100
AcDbEntity
  8
実線-細
100
AcDbLine
 10
297.0280798123765
 20
86.19965715576086
 30
0.0
 11
297.0280798123765
 21
86.57199753686086
 31
0.0
  0
LINE
  5
235BE
330
22F93
100
AcDbEntity
  8
実線-細
100
AcDbLine
 10
297.1843288586764
 20
86.14646567276082
 30
0.0
 11
297.1843288586764
 21
86.62518901986084
 31
0.0
  0
LINE
  5
235BF
330
22F93
100
AcDbEntity
  8
実線-細
100
AcDbLine
 10
297.8093293355765
 20
85.13582734626089
 30
0.0
 11
297.6218293355765
 21
85.13582734626089
 31
0.0
  0
LINE
  5
235C0
330
22F93
100
AcDbEntity
  8
実線-細
100
AcDbLine
 10
297.1218298123764
 20
85.7209337340609
 30
0.0
 11
297.1530793355765
 21
85.8805081830609
 31
0.0
  0
LINE
  5
235C1
330
22F93
100
AcDbEntity
  8
実線-細
100
AcDbLine
 10
297.0593293355765
 20
85.50816776466087
 30
0.0
 11
297.1218298123764
 21
85.7209337340609
 31
0.0
  0
LINE
  5
235C2
330
22F93
100
AcDbEntity
  8
実線-細
100
AcDbLine
 10
296.8718293355765
 20
85.56135924776084
 30
0.0
 11
296.9968288586763
 21
85.8805081830609
 31
0.0
  0
LINE
  5
235C3
330
22F93
100
AcDbEntity
  8
実線-細
100
AcDbLine
 10
296.9655793355765
 20
85.34859329706085
 30
0.0
 11
297.0593293355765
 21
85.50816776466087
 31
0.0
  0
LINE
  5
235C4
330
22F93
100
AcDbEntity
  8
実線-細
100
AcDbLine
 10
296.9968288586763
 20
85.8805081830609
 30
0.0
 11
297.0280798123765
 21
86.19965715576086
 31
0.0
  0
LINE
  5
235C5
330
22F93
100
AcDbEntity
  8
実線-細
100
AcDbLine
 10
297.1530793355765
 20
85.8805081830609
 30
0.0
 11
297.1843288586764
 21
86.14646567276082
 31
0.0
  0
ARC
  5
235C6
330
22F93
100
AcDbEntity
  8
実線
100
AcDbCircle
 10
298.9295808795765
 20
85.03382862506095
 30
0.0
 40
0.25
100
AcDbArc
 50
270.0
 51
0.0
  0
LINE
  5
235C7
330
22F93
100
AcDbEntity
  8
実線-細
100
AcDbLine
 10
297.6218293355765
 20
87.63582734626089
 30
0.0
 11
297.8093293355765
 21
87.63582734626089
 31
0.0
  0
LINE
  5
235C8
330
22F93
100
AcDbEntity
  8
実線-細
100
AcDbLine
 10
297.0593293355765
 20
87.26348696516089
 30
0.0
 11
296.9655793355765
 21
87.42306141426087
 31
0.0
  0
LINE
  5
235C9
330
22F93
100
AcDbEntity
  8
実線-細
100
AcDbLine
 10
296.9968288586763
 20
86.89114643496088
 30
0.0
 11
296.8718293355765
 21
87.21029548216085
 31
0.0
  0
LINE
  5
235CA
330
22F93
100
AcDbEntity
  8
実線-細
100
AcDbLine
 10
297.1218298123764
 20
87.05072103306116
 30
0.0
 11
297.0593293355765
 21
87.26348696516089
 31
0.0
  0
LINE
  5
235CB
330
22F93
100
AcDbEntity
  8
実線-細
100
AcDbLine
 10
297.1530793355765
 20
86.89114643496088
 30
0.0
 11
297.1218298123764
 21
87.05072103306116
 31
0.0
  0
LINE
  5
235CC
330
22F93
100
AcDbEntity
  8
実線-細
100
AcDbLine
 10
297.4343293355765
 20
86.83795495196092
 30
0.0
 11
297.4343293355765
 21
87.26348696516089
 31
0.0
  0
LINE
  5
235CD
330
22F93
100
AcDbEntity
  8
実線-細
100
AcDbLine
 10
297.4343293355765
 20
87.26348696516089
 30
0.0
 11
297.6218293355765
 21
87.63582734626089
 31
0.0
  0
LINE
  5
235CE
330
22F93
100
AcDbEntity
  8
実線-細
100
AcDbLine
 10
297.6218293355765
 20
87.21029548216085
 30
0.0
 11
297.4343293355765
 21
86.83795495196092
 31
0.0
  0
ARC
  5
235CF
330
22F93
100
AcDbEntity
  8
実線
100
AcDbCircle
 10
298.9295808795765
 20
91.88582734626089
 30
0.0
 40
0.25
100
AcDbArc
 50
0.0
 51
90.0
  0
ARC
  5
235D0
330
22F93
100
AcDbEntity
  8
実線
100
AcDbCircle
 10
299.0280793355765
 20
92.1358273462609
 30
0.0
 40
0.25
100
AcDbArc
 50
306.0000000000022
 51
180.0
  0
CIRCLE
  5
235D1
330
22F93
100
AcDbEntity
  8
実線
100
AcDbCircle
 10
311.4263096943765
 20
108.5108273462608
 30
0.0
 40
1.0
  0
LINE
  5
235D2
330
22F93
100
AcDbEntity
  8
実線
100
AcDbLine
 10
331.9780793355764
 20
112.8858273462608
 30
0.0
 11
331.9780793355764
 21
113.1358273462609
 31
0.0
  0
LINE
  5
235D3
330
22F93
100
AcDbEntity
  8
実線
100
AcDbLine
 10
333.1780793355765
 20
112.8858273462608
 30
0.0
 11
333.1780793355765
 21
113.1358273462609
 31
0.0
  0
LINE
  5
235D4
330
22F93
100
AcDbEntity
  8
実線
100
AcDbLine
 10
333.4280793355765
 20
112.8858273462608
 30
0.0
 11
333.4280793355765
 21
121.6358273462609
 31
0.0
  0
LINE
  5
235D5
330
22F93
100
AcDbEntity
  8
実線
100
AcDbLine
 10
332.0280793355765
 20
106.6358273462608
 30
0.0
 11
332.0280793355765
 21
113.1358273462609
 31
0.0
  0
LINE
  5
235D6
330
22F93
100
AcDbEntity
  8
実線
100
AcDbLine
 10
336.3013583363764
 20
100.3858273462608
 30
0.0
 11
338.0299513746765
 21
101.5405778404609
 31
0.0
  0
LINE
  5
235D7
330
22F93
100
AcDbEntity
  8
実線
100
AcDbLine
 10
332.0280793355765
 20
111.6358273462608
 30
0.0
 11
330.8780793355763
 21
111.6358273462608
 31
0.0
  0
LINE
  5
235D8
330
22F93
100
AcDbEntity
  8
実線
100
AcDbLine
 10
332.0280793355765
 20
107.8858273462609
 30
0.0
 11
330.8780793355763
 21
107.8858273462609
 31
0.0
  0
LINE
  5
235D9
330
22F93
100
AcDbEntity
  8
実線
100
AcDbLine
 10
333.4280793355765
 20
101.6358273462608
 30
0.0
 11
334.6780793355765
 21
100.3858273462608
 31
0.0
  0
LINE
  5
235DA
330
22F93
100
AcDbEntity
  8
実線
100
AcDbLine
 10
333.4280793355765
 20
101.6358273462608
 30
0.0
 11
333.4280793355765
 21
106.6358273462608
 31
0.0
  0
LINE
  5
235DB
330
22F93
100
AcDbEntity
  8
実線
100
AcDbLine
 10
336.3013583363764
 20
100.3858273462608
 30
0.0
 11
334.6780793355765
 21
100.3858273462608
 31
0.0
  0
LINE
  5
235DC
330
22F93
100
AcDbEntity
  8
実線
100
AcDbLine
 10
330.8780793355763
 20
106.6358273462608
 30
0.0
 11
330.8780793355763
 21
112.8858273462608
 31
0.0
  0
LINE
  5
235DD
330
22F93
100
AcDbEntity
  8
実線
100
AcDbLine
 10
335.6030793355764
 20
123.0858273462608
 30
0.0
 11
335.6030793355764
 21
122.6858273462609
 31
0.0
  0
LINE
  5
235DE
330
22F93
100
AcDbEntity
  8
実線
100
AcDbLine
 10
334.9280793355765
 20
122.0108273462608
 30
0.0
 11
334.5280793355765
 21
122.0108273462608
 31
0.0
  0
LINE
  5
235DF
330
22F93
100
AcDbEntity
  8
実線
100
AcDbLine
 10
334.5280793355765
 20
122.6858273462609
 30
0.0
 11
333.8530793355764
 21
122.6858273462609
 31
0.0
  0
LINE
  5
235E0
330
22F93
100
AcDbEntity
  8
実線
100
AcDbLine
 10
333.8530793355764
 20
123.0858273462608
 30
0.0
 11
334.5280793355765
 21
123.0858273462608
 31
0.0
  0
LINE
  5
235E1
330
22F93
100
AcDbEntity
  8
実線
100
AcDbLine
 10
334.5280793355765
 20
123.7608273462609
 30
0.0
 11
334.9280793355765
 21
123.7608273462609
 31
0.0
  0
LINE
  5
235E2
330
22F93
100
AcDbEntity
  8
実線
100
AcDbLine
 10
333.5591195689764
 20
124.1358273462608
 30
0.0
 11
333.4280793355765
 21
124.1358273462608
 31
0.0
  0
LINE
  5
235E3
330
22F93
100
AcDbEntity
  8
実線
100
AcDbLine
 10
333.8530793355764
 20
122.6858273462609
 30
0.0
 11
333.8530793355764
 21
123.0858273462608
 31
0.0
  0
LINE
  5
235E4
330
22F93
100
AcDbEntity
  8
実線
100
AcDbLine
 10
334.5280793355765
 20
122.0108273462608
 30
0.0
 11
334.5280793355765
 21
122.6858273462609
 31
0.0
  0
LINE
  5
235E5
330
22F93
100
AcDbEntity
  8
実線
100
AcDbLine
 10
334.5280793355765
 20
123.0858273462608
 30
0.0
 11
334.5280793355765
 21
123.7608273462609
 31
0.0
  0
LINE
  5
235E6
330
22F93
100
AcDbEntity
  8
実線
100
AcDbLine
 10
334.9280793355765
 20
123.7608273462609
 30
0.0
 11
334.9280793355765
 21
123.0858273462608
 31
0.0
  0
LINE
  5
235E7
330
22F93
100
AcDbEntity
  8
実線
100
AcDbLine
 10
334.9280793355765
 20
122.6858273462609
 30
0.0
 11
334.9280793355765
 21
122.0108273462608
 31
0.0
  0
LINE
  5
235E8
330
22F93
100
AcDbEntity
  8
実線
100
AcDbLine
 10
335.6030793355764
 20
122.6858273462609
 30
0.0
 11
334.9280793355765
 21
122.6858273462609
 31
0.0
  0
LINE
  5
235E9
330
22F93
100
AcDbEntity
  8
実線
100
AcDbLine
 10
334.9280793355765
 20
123.0858273462608
 30
0.0
 11
335.6030793355764
 21
123.0858273462608
 31
0.0
  0
CIRCLE
  5
235EA
330
22F93
100
AcDbEntity
  8
実線
100
AcDbCircle
 10
334.7280793355764
 20
122.8858273462609
 30
0.0
 40
1.75
  0
LINE
  5
235EB
330
22F93
100
AcDbEntity
  8
実線
100
AcDbLine
 10
330.8280793355764
 20
113.1358273462609
 30
0.0
 11
333.4280793355765
 21
113.1358273462609
 31
0.0
  0
LINE
  5
235EC
330
22F93
100
AcDbEntity
  8
実線
100
AcDbLine
 10
341.9780793355764
 20
114.3858273462609
 30
0.0
 11
341.5345820823763
 21
113.9423300931611
 31
0.0
  0
LINE
  5
235ED
330
22F93
100
AcDbEntity
  8
実線
100
AcDbLine
 10
341.9780793355764
 20
114.3858273462609
 30
0.0
 11
341.9780793355764
 21
117.1543034974611
 31
0.0
  0
LINE
  5
235EE
330
22F93
100
AcDbEntity
  8
実線
100
AcDbLine
 10
329.3308176130765
 20
147.7551266683608
 30
0.0
 11
327.5815781987763
 21
146.7855074278608
 31
0.0
  0
LINE
  5
235EF
330
22F93
100
AcDbEntity
  8
実線
100
AcDbLine
 10
329.8156272332764
 20
146.8805069612609
 30
0.0
 11
328.2289867136764
 21
149.7428822291609
 31
0.0
  0
LINE
  5
235F0
330
22F93
100
AcDbEntity
  8
実線
100
AcDbLine
 10
328.2234028142764
 20
139.1358273462609
 30
0.0
 11
333.4280793355765
 21
139.1358273462609
 31
0.0
  0
LINE
  5
235F1
330
22F93
100
AcDbEntity
  8
実線
100
AcDbLine
 10
319.5280793355765
 20
132.8858273462609
 30
0.0
 11
333.4280793355765
 21
132.8858273462609
 31
0.0
  0
LINE
  5
235F2
330
22F93
100
AcDbEntity
  8
実線
100
AcDbLine
 10
333.4280793355765
 20
140.6358273462609
 30
0.0
 11
325.2736311921764
 21
140.6358273462609
 31
0.0
  0
ARC
  5
235F3
330
22F93
100
AcDbEntity
  8
実線
100
AcDbCircle
 10
327.1436686070765
 20
144.4815192344607
 30
0.0
 40
1.5
100
AcDbArc
 50
209.0000000000013
 51
29.00000000000146
  0
TEXT
  5
235F4
330
22F93
100
AcDbEntity
  8
寸法
100
AcDbText
 10
316.4080127766059
 20
187.2054867764362
 30
0.0
 40
3.0
  1
3-M4　カメラ固定ネジ
100
AcDbText
  0
POLYLINE
  5
235F5
330
22F93
100
AcDbEntity
  8
0
100
AcDb3dPolyline
 66
     1
 10
0.0
 20
0.0
 30
0.0
 70
     8
  0
VERTEX
  5
235F6
330
235F5
100
AcDbEntity
  8
0
100
AcDbVertex
100
AcDb3dPolylineVertex
 10
287.0525999999999
 20
152.381976928467
 30
0.0
 70
    32
  0
VERTEX
  5
235F7
330
235F5
100
AcDbEntity
  8
0
100
AcDbVertex
100
AcDb3dPolylineVertex
 10
311.9079999999998
 20
188.4559769284669
 30
0.0
 70
    32
  0
VERTEX
  5
235F8
330
235F5
100
AcDbEntity
  8
0
100
AcDbVertex
100
AcDb3dPolylineVertex
 10
313.9079999999998
 20
188.4559769284669
 30
0.0
 70
    32
  0
SEQEND
  5
235F9
330
235F5
100
AcDbEntity
  8
0
  0
ARC
  5
235FA
330
22F93
100
AcDbEntity
  8
実線
100
AcDbCircle
 10
296.5280793355765
 20
152.8858273462609
 30
0.0
 40
0.5
100
AcDbArc
 50
0.0
 51
90.0
  0
CIRCLE
  5
235FB
330
22F93
100
AcDbEntity
  8
実線
100
AcDbCircle
 10
297.0280793355765
 20
153.6358273462609
 30
0.0
 40
0.25
  0
ARC
  5
235FC
330
22F93
100
AcDbEntity
  8
実線
100
AcDbCircle
 10
296.5280793355765
 20
150.3858273462609
 30
0.0
 40
0.5
100
AcDbArc
 50
270.0
 51
0.0
  0
LINE
  5
235FD
330
22F93
100
AcDbEntity
  8
実線
100
AcDbLine
 10
289.0280793355765
 20
152.8858273462609
 30
0.0
 11
289.0280793355765
 21
150.3858273462609
 31
0.0
  0
CIRCLE
  5
235FE
330
22F93
100
AcDbEntity
  8
実線
100
AcDbCircle
 10
286.5280793355765
 20
151.6358273462609
 30
0.0
 40
1.0
  0
ARC
  5
235FF
330
22F93
100
AcDbEntity
  8
実線
100
AcDbCircle
 10
289.5280793355765
 20
150.3858273462609
 30
0.0
 40
0.5
100
AcDbArc
 50
180.0
 51
270.0
  0
LINE
  5
23600
330
22F93
100
AcDbEntity
  8
実線
100
AcDbLine
 10
289.5280793355765
 20
149.8858273462609
 30
0.0
 11
296.5280793355765
 21
149.8858273462609
 31
0.0
  0
LINE
  5
23601
330
22F93
100
AcDbEntity
  8
5_ALL_CURVES
  6
Continuous
100
AcDbLine
 10
294.7280792401765
 20
150.3858273462609
 30
0.0
 11
294.5030792401764
 21
150.3858273462609
 31
0.0
  0
LINE
  5
23602
330
22F93
100
AcDbEntity
  8
5_ALL_CURVES
  6
Continuous
100
AcDbLine
 10
294.9280793355764
 20
152.3858273462609
 30
0.0
 11
295.8780791447765
 21
152.3858273462609
 31
0.0
  0
LINE
  5
23603
330
22F93
100
AcDbEntity
  8
5_ALL_CURVES
  6
Continuous
100
AcDbLine
 10
294.5780792401765
 20
152.3858273462609
 30
0.0
 11
294.7280792401765
 21
152.3858273462609
 31
0.0
  0
LINE
  5
23604
330
22F93
100
AcDbEntity
  8
5_ALL_CURVES
  6
Continuous
100
AcDbLine
 10
295.3280795262763
 20
152.1730614142608
 30
0.0
 11
294.9280793355764
 21
152.1730614142608
 31
0.0
  0
LINE
  5
23605
330
22F93
100
AcDbEntity
  8
5_ALL_CURVES
  6
Continuous
100
AcDbLine
 10
295.8780791447765
 20
152.1730614142608
 30
0.0
 11
295.4780795262763
 21
152.1730614142608
 31
0.0
  0
LINE
  5
23606
330
22F93
100
AcDbEntity
  8
5_ALL_CURVES
  6
Continuous
100
AcDbLine
 10
295.4780795262763
 20
150.3858273462609
 30
0.0
 11
295.3280795262763
 21
150.3858273462609
 31
0.0
  0
LINE
  5
23607
330
22F93
100
AcDbEntity
  8
5_ALL_CURVES
  6
Continuous
100
AcDbLine
 10
295.8780791447765
 20
152.3858273462609
 30
0.0
 11
295.8780791447765
 21
152.1730614142608
 31
0.0
  0
LINE
  5
23608
330
22F93
100
AcDbEntity
  8
5_ALL_CURVES
  6
Continuous
100
AcDbLine
 10
295.4780795262763
 20
152.1730614142608
 30
0.0
 11
295.4780795262763
 21
150.3858273462609
 31
0.0
  0
LINE
  5
23609
330
22F93
100
AcDbEntity
  8
5_ALL_CURVES
  6
Continuous
100
AcDbLine
 10
295.3280795262763
 20
150.3858273462609
 30
0.0
 11
295.3280795262763
 21
152.1730614142608
 31
0.0
  0
LINE
  5
2360A
330
22F93
100
AcDbEntity
  8
5_ALL_CURVES
  6
Continuous
100
AcDbLine
 10
294.9280793355764
 20
152.1730614142608
 30
0.0
 11
294.9280793355764
 21
152.3858273462609
 31
0.0
  0
LINE
  5
2360B
330
22F93
100
AcDbEntity
  8
5_ALL_CURVES
  6
Continuous
100
AcDbLine
 10
294.7280792401765
 20
152.3858273462609
 30
0.0
 11
294.7280792401765
 21
150.3858273462609
 31
0.0
  0
LINE
  5
2360C
330
22F93
100
AcDbEntity
  8
5_ALL_CURVES
  6
Continuous
100
AcDbLine
 10
294.5780792401765
 20
150.6836996810609
 30
0.0
 11
294.5780792401765
 21
152.3858273462609
 31
0.0
  0
LINE
  5
2360D
330
22F93
100
AcDbEntity
  8
5_ALL_CURVES
  6
Continuous
100
AcDbLine
 10
290.2780793355765
 20
152.3858273462609
 30
0.0
 11
291.1780793355765
 21
152.3858273462609
 31
0.0
  0
LINE
  5
2360E
330
22F93
100
AcDbEntity
  8
5_ALL_CURVES
  6
Continuous
100
AcDbLine
 10
290.4280793355765
 20
150.3858273462609
 30
0.0
 11
290.2780793355765
 21
150.3858273462609
 31
0.0
  0
LINE
  5
2360F
330
22F93
100
AcDbEntity
  8
5_ALL_CURVES
  6
Continuous
100
AcDbLine
 10
290.2780793355765
 20
150.3858273462609
 30
0.0
 11
290.2780793355765
 21
152.3858273462609
 31
0.0
  0
LINE
  5
23610
330
22F93
100
AcDbEntity
  8
5_ALL_CURVES
  6
Continuous
100
AcDbLine
 10
292.0780793355765
 20
152.130508227761
 30
0.0
 11
292.0030793355765
 21
152.1730614142608
 31
0.0
  0
LINE
  5
23611
330
22F93
100
AcDbEntity
  8
5_ALL_CURVES
  6
Continuous
100
AcDbLine
 10
293.1280793355765
 20
152.130508227761
 30
0.0
 11
293.2280792401765
 21
152.0879550413608
 31
0.0
  0
LINE
  5
23612
330
22F93
100
AcDbEntity
  8
5_ALL_CURVES
  6
Continuous
100
AcDbLine
 10
292.9280792401765
 20
150.6411464945608
 30
0.0
 11
292.8280793355765
 21
150.6836996810609
 31
0.0
  0
LINE
  5
23613
330
22F93
100
AcDbEntity
  8
5_ALL_CURVES
  6
Continuous
100
AcDbLine
 10
293.1280793355765
 20
152.3858273462609
 30
0.0
 11
293.2530794308765
 21
152.3432741598608
 31
0.0
  0
LINE
  5
23614
330
22F93
100
AcDbEntity
  8
5_ALL_CURVES
  6
Continuous
100
AcDbLine
 10
292.1030793831765
 20
152.3432741598608
 30
0.0
 11
291.9780792878766
 21
152.3858273462609
 31
0.0
  0
LINE
  5
23615
330
22F93
100
AcDbEntity
  8
5_ALL_CURVES
  6
Continuous
100
AcDbLine
 10
292.9280792401765
 20
150.3858273462609
 30
0.0
 11
292.8030794308765
 21
150.4283805364608
 31
0.0
  0
LINE
  5
23616
330
22F93
100
AcDbEntity
  8
5_ALL_CURVES
  6
Continuous
100
AcDbLine
 10
293.7280793355765
 20
152.3858273462609
 30
0.0
 11
293.9530793355765
 21
152.3858273462609
 31
0.0
  0
LINE
  5
23617
330
22F93
100
AcDbEntity
  8
5_ALL_CURVES
  6
Continuous
100
AcDbLine
 10
292.9280792401765
 20
152.3858273462609
 30
0.0
 11
293.1280793355765
 21
152.3858273462609
 31
0.0
  0
LINE
  5
23618
330
22F93
100
AcDbEntity
  8
5_ALL_CURVES
  6
Continuous
100
AcDbLine
 10
291.9780792878766
 20
152.3858273462609
 30
0.0
 11
291.3780793593765
 21
152.3858273462609
 31
0.0
  0
LINE
  5
23619
330
22F93
100
AcDbEntity
  8
5_ALL_CURVES
  6
Continuous
100
AcDbLine
 10
292.0030793355765
 20
152.1730614142608
 30
0.0
 11
291.5280792878764
 21
152.1730614142608
 31
0.0
  0
LINE
  5
2361A
330
22F93
100
AcDbEntity
  8
5_ALL_CURVES
  6
Continuous
100
AcDbLine
 10
292.9280792401765
 20
152.130508227761
 30
0.0
 11
293.1280793355765
 21
152.130508227761
 31
0.0
  0
LINE
  5
2361B
330
22F93
100
AcDbEntity
  8
5_ALL_CURVES
  6
Continuous
100
AcDbLine
 10
291.1780793355765
 20
152.130508227761
 30
0.0
 11
290.4280793355765
 21
152.130508227761
 31
0.0
  0
LINE
  5
2361C
330
22F93
100
AcDbEntity
  8
5_ALL_CURVES
  6
Continuous
100
AcDbLine
 10
290.4280793355765
 20
151.5773166851609
 30
0.0
 11
291.0780793593765
 21
151.5773166851609
 31
0.0
  0
LINE
  5
2361D
330
22F93
100
AcDbEntity
  8
5_ALL_CURVES
  6
Continuous
100
AcDbLine
 10
291.5280792878764
 20
151.5347634987608
 30
0.0
 11
292.0030793355765
 21
151.5347634987608
 31
0.0
  0
LINE
  5
2361E
330
22F93
100
AcDbEntity
  8
5_ALL_CURVES
  6
Continuous
100
AcDbLine
 10
291.0780793593765
 20
151.3219975666608
 30
0.0
 11
290.4280793355765
 21
151.3219975666608
 31
0.0
  0
LINE
  5
2361F
330
22F93
100
AcDbEntity
  8
5_ALL_CURVES
  6
Continuous
100
AcDbLine
 10
291.5280792878764
 20
151.279444380261
 30
0.0
 11
291.9530793831765
 21
151.279444380261
 31
0.0
  0
LINE
  5
23620
330
22F93
100
AcDbEntity
  8
5_ALL_CURVES
  6
Continuous
100
AcDbLine
 10
293.1280793355765
 20
150.6411464945608
 30
0.0
 11
292.9280792401765
 21
150.6411464945608
 31
0.0
  0
LINE
  5
23621
330
22F93
100
AcDbEntity
  8
5_ALL_CURVES
  6
Continuous
100
AcDbLine
 10
292.1530793355765
 20
150.3858273462609
 30
0.0
 11
292.3280793831765
 21
150.3858273462609
 31
0.0
  0
LINE
  5
23622
330
22F93
100
AcDbEntity
  8
5_ALL_CURVES
  6
Continuous
100
AcDbLine
 10
291.3780793593765
 20
150.3858273462609
 30
0.0
 11
291.5280792878764
 21
150.3858273462609
 31
0.0
  0
LINE
  5
23623
330
22F93
100
AcDbEntity
  8
5_ALL_CURVES
  6
Continuous
100
AcDbLine
 10
293.1280793355765
 20
150.3858273462609
 30
0.0
 11
292.9280792401765
 21
150.3858273462609
 31
0.0
  0
LINE
  5
23624
330
22F93
100
AcDbEntity
  8
5_ALL_CURVES
  6
Continuous
100
AcDbLine
 10
293.8780793355764
 20
150.3858273462609
 30
0.0
 11
293.7280793355765
 21
150.3858273462609
 31
0.0
  0
LINE
  5
23625
330
22F93
100
AcDbEntity
  8
5_ALL_CURVES
  6
Continuous
100
AcDbLine
 10
292.2030792878765
 20
152.2156146006608
 30
0.0
 11
292.1030793831765
 21
152.3432741598608
 31
0.0
  0
LINE
  5
23626
330
22F93
100
AcDbEntity
  8
5_ALL_CURVES
  6
Continuous
100
AcDbLine
 10
293.2280792401765
 20
152.0879550413608
 30
0.0
 11
293.3030792401765
 21
152.0028486685608
 31
0.0
  0
LINE
  5
23627
330
22F93
100
AcDbEntity
  8
5_ALL_CURVES
  6
Continuous
100
AcDbLine
 10
292.8280793355765
 20
150.6836996810609
 30
0.0
 11
292.7530793355765
 21
150.7688060836608
 31
0.0
  0
LINE
  5
23628
330
22F93
100
AcDbEntity
  8
5_ALL_CURVES
  6
Continuous
100
AcDbLine
 10
293.2530794308765
 20
152.3432741598608
 30
0.0
 11
293.3530793355765
 21
152.2581677870609
 31
0.0
  0
LINE
  5
23629
330
22F93
100
AcDbEntity
  8
5_ALL_CURVES
  6
Continuous
100
AcDbLine
 10
292.8030794308765
 20
150.4283805364608
 30
0.0
 11
292.7030792401766
 21
150.513486920461
 31
0.0
  0
LINE
  5
2362A
330
22F93
100
AcDbEntity
  8
5_ALL_CURVES
  6
Continuous
100
AcDbLine
 10
293.3030792401765
 20
152.0028486685608
 30
0.0
 11
293.3530793355765
 21
151.8751889900608
 31
0.0
  0
LINE
  5
2362B
330
22F93
100
AcDbEntity
  8
5_ALL_CURVES
  6
Continuous
100
AcDbLine
 10
292.2780792878764
 20
152.0454018549608
 30
0.0
 11
292.2030792878765
 21
152.2156146006608
 31
0.0
  0
LINE
  5
2362C
330
22F93
100
AcDbEntity
  8
5_ALL_CURVES
  6
Continuous
100
AcDbLine
 10
293.3530793355765
 20
152.2581677870609
 30
0.0
 11
293.4530792401765
 21
152.0879550413608
 31
0.0
  0
LINE
  5
2362D
330
22F93
100
AcDbEntity
  8
5_ALL_CURVES
  6
Continuous
100
AcDbLine
 10
292.1280792878765
 20
152.0454018549608
 30
0.0
 11
292.0780793355765
 21
152.130508227761
 31
0.0
  0
LINE
  5
2362E
330
22F93
100
AcDbEntity
  8
5_ALL_CURVES
  6
Continuous
100
AcDbLine
 10
292.7030792401766
 20
150.513486920461
 30
0.0
 11
292.6030793355765
 21
150.6836996810609
 31
0.0
  0
LINE
  5
2362F
330
22F93
100
AcDbEntity
  8
5_ALL_CURVES
  6
Continuous
100
AcDbLine
 10
291.9530793831765
 20
151.279444380261
 30
0.0
 11
292.1530793355765
 21
150.3858273462609
 31
0.0
  0
LINE
  5
23630
330
22F93
100
AcDbEntity
  8
5_ALL_CURVES
  6
Continuous
100
AcDbLine
 10
292.3280793831765
 20
150.3858273462609
 30
0.0
 11
292.1030793831765
 21
151.3645507530608
 31
0.0
  0
LINE
  5
23631
330
22F93
100
AcDbEntity
  8
5_ALL_CURVES
  6
Continuous
100
AcDbLine
 10
293.4530792401765
 20
152.0879550413608
 30
0.0
 11
293.5030793355764
 21
151.917742295761
 31
0.0
  0
LINE
  5
23632
330
22F93
100
AcDbEntity
  8
5_ALL_CURVES
  6
Continuous
100
AcDbLine
 10
292.6030793355765
 20
150.6836996810609
 30
0.0
 11
292.5530793831765
 21
150.853912456461
 31
0.0
  0
LINE
  5
23633
330
22F93
100
AcDbEntity
  8
5_ALL_CURVES
  6
Continuous
100
AcDbLine
 10
292.7530793355765
 20
150.7688060836608
 30
0.0
 11
292.7030792401766
 21
150.8964656428607
 31
0.0
  0
LINE
  5
23634
330
22F93
100
AcDbEntity
  8
5_ALL_CURVES
  6
Continuous
100
AcDbLine
 10
293.5030793355764
 20
151.917742295761
 30
0.0
 11
293.5280792401765
 21
151.7049762444608
 31
0.0
  0
LINE
  5
23635
330
22F93
100
AcDbEntity
  8
5_ALL_CURVES
  6
Continuous
100
AcDbLine
 10
292.5530793831765
 20
150.853912456461
 30
0.0
 11
292.5280793355765
 21
151.066678388561
 31
0.0
  0
LINE
  5
23636
330
22F93
100
AcDbEntity
  8
5_ALL_CURVES
  6
Continuous
100
AcDbLine
 10
293.3530793355765
 20
151.8751889900608
 30
0.0
 11
293.3780792401765
 21
151.7049762444608
 31
0.0
  0
LINE
  5
23637
330
22F93
100
AcDbEntity
  8
5_ALL_CURVES
  6
Continuous
100
AcDbLine
 10
292.7030792401766
 20
150.8964656428607
 30
0.0
 11
292.6780793355765
 21
151.066678388561
 31
0.0
  0
LINE
  5
23638
330
22F93
100
AcDbEntity
  8
5_ALL_CURVES
  6
Continuous
100
AcDbLine
 10
292.3030793355765
 20
151.917742295761
 30
0.0
 11
292.2780792878764
 21
152.0454018549608
 31
0.0
  0
LINE
  5
23639
330
22F93
100
AcDbEntity
  8
5_ALL_CURVES
  6
Continuous
100
AcDbLine
 10
292.1530793355765
 20
151.917742295761
 30
0.0
 11
292.1280792878765
 21
152.0454018549608
 31
0.0
  0
LINE
  5
2363A
330
22F93
100
AcDbEntity
  8
5_ALL_CURVES
  6
Continuous
100
AcDbLine
 10
293.8780793355764
 20
152.130508227761
 30
0.0
 11
293.8780793355764
 21
150.3858273462609
 31
0.0
  0
LINE
  5
2363B
330
22F93
100
AcDbEntity
  8
5_ALL_CURVES
  6
Continuous
100
AcDbLine
 10
293.7280793355765
 20
150.3858273462609
 30
0.0
 11
293.7280793355765
 21
152.3858273462609
 31
0.0
  0
LINE
  5
2363C
330
22F93
100
AcDbEntity
  8
5_ALL_CURVES
  6
Continuous
100
AcDbLine
 10
293.5280792401765
 20
151.7049762444608
 30
0.0
 11
293.5280792401765
 21
151.066678388561
 31
0.0
  0
LINE
  5
2363D
330
22F93
100
AcDbEntity
  8
5_ALL_CURVES
  6
Continuous
100
AcDbLine
 10
293.3780792401765
 20
151.7049762444608
 30
0.0
 11
293.3780792401765
 21
151.066678388561
 31
0.0
  0
LINE
  5
2363E
330
22F93
100
AcDbEntity
  8
5_ALL_CURVES
  6
Continuous
100
AcDbLine
 10
292.6780793355765
 20
151.066678388561
 30
0.0
 11
292.6780793355765
 21
151.7049762444608
 31
0.0
  0
LINE
  5
2363F
330
22F93
100
AcDbEntity
  8
5_ALL_CURVES
  6
Continuous
100
AcDbLine
 10
293.3780792401765
 20
151.066678388561
 30
0.0
 11
293.3530793355765
 21
150.8964656428607
 31
0.0
  0
LINE
  5
23640
330
22F93
100
AcDbEntity
  8
5_ALL_CURVES
  6
Continuous
100
AcDbLine
 10
292.6780793355765
 20
151.7049762444608
 30
0.0
 11
292.7030792401766
 21
151.8751889900608
 31
0.0
  0
LINE
  5
23641
330
22F93
100
AcDbEntity
  8
5_ALL_CURVES
  6
Continuous
100
AcDbLine
 10
293.5280792401765
 20
151.066678388561
 30
0.0
 11
293.5030793355764
 21
150.853912456461
 31
0.0
  0
LINE
  5
23642
330
22F93
100
AcDbEntity
  8
5_ALL_CURVES
  6
Continuous
100
AcDbLine
 10
292.5280793355765
 20
151.7049762444608
 30
0.0
 11
292.5530793831765
 21
151.917742295761
 31
0.0
  0
LINE
  5
23643
330
22F93
100
AcDbEntity
  8
5_ALL_CURVES
  6
Continuous
100
AcDbLine
 10
292.5280793355765
 20
151.066678388561
 30
0.0
 11
292.5280793355765
 21
151.7049762444608
 31
0.0
  0
LINE
  5
23644
330
22F93
100
AcDbEntity
  8
5_ALL_CURVES
  6
Continuous
100
AcDbLine
 10
292.3030793355765
 20
151.747529430861
 30
0.0
 11
292.3030793355765
 21
151.917742295761
 31
0.0
  0
LINE
  5
23645
330
22F93
100
AcDbEntity
  8
5_ALL_CURVES
  6
Continuous
100
AcDbLine
 10
292.1530793355765
 20
151.7900826172608
 30
0.0
 11
292.1530793355765
 21
151.917742295761
 31
0.0
  0
LINE
  5
23646
330
22F93
100
AcDbEntity
  8
5_ALL_CURVES
  6
Continuous
100
AcDbLine
 10
291.5280792878764
 20
150.3858273462609
 30
0.0
 11
291.5280792878764
 21
151.279444380261
 31
0.0
  0
LINE
  5
23647
330
22F93
100
AcDbEntity
  8
5_ALL_CURVES
  6
Continuous
100
AcDbLine
 10
291.5280792878764
 20
152.1730614142608
 30
0.0
 11
291.5280792878764
 21
151.5347634987608
 31
0.0
  0
LINE
  5
23648
330
22F93
100
AcDbEntity
  8
5_ALL_CURVES
  6
Continuous
100
AcDbLine
 10
291.3780793593765
 20
152.3858273462609
 30
0.0
 11
291.3780793593765
 21
150.3858273462609
 31
0.0
  0
LINE
  5
23649
330
22F93
100
AcDbEntity
  8
5_ALL_CURVES
  6
Continuous
100
AcDbLine
 10
291.1780793355765
 20
152.3858273462609
 30
0.0
 11
291.1780793355765
 21
152.130508227761
 31
0.0
  0
LINE
  5
2364A
330
22F93
100
AcDbEntity
  8
5_ALL_CURVES
  6
Continuous
100
AcDbLine
 10
291.0780793593765
 20
151.5773166851609
 30
0.0
 11
291.0780793593765
 21
151.3219975666608
 31
0.0
  0
LINE
  5
2364B
330
22F93
100
AcDbEntity
  8
5_ALL_CURVES
  6
Continuous
100
AcDbLine
 10
290.4280793355765
 20
151.3219975666608
 30
0.0
 11
290.4280793355765
 21
150.3858273462609
 31
0.0
  0
LINE
  5
2364C
330
22F93
100
AcDbEntity
  8
5_ALL_CURVES
  6
Continuous
100
AcDbLine
 10
290.4280793355765
 20
152.130508227761
 30
0.0
 11
290.4280793355765
 21
151.5773166851609
 31
0.0
  0
LINE
  5
2364D
330
22F93
100
AcDbEntity
  8
5_ALL_CURVES
  6
Continuous
100
AcDbLine
 10
293.3530793355765
 20
150.8964656428607
 30
0.0
 11
293.3030792401765
 21
150.7688060836608
 31
0.0
  0
LINE
  5
2364E
330
22F93
100
AcDbEntity
  8
5_ALL_CURVES
  6
Continuous
100
AcDbLine
 10
293.5030793355764
 20
150.853912456461
 30
0.0
 11
293.4530792401765
 21
150.6836996810609
 31
0.0
  0
LINE
  5
2364F
330
22F93
100
AcDbEntity
  8
5_ALL_CURVES
  6
Continuous
100
AcDbLine
 10
292.5530793831765
 20
151.917742295761
 30
0.0
 11
292.6030793355765
 21
152.0879550413608
 31
0.0
  0
LINE
  5
23650
330
22F93
100
AcDbEntity
  8
5_ALL_CURVES
  6
Continuous
100
AcDbLine
 10
292.2780792878764
 20
151.6198698715608
 30
0.0
 11
292.3030793355765
 21
151.747529430861
 31
0.0
  0
LINE
  5
23651
330
22F93
100
AcDbEntity
  8
5_ALL_CURVES
  6
Continuous
100
AcDbLine
 10
292.1280792878765
 20
151.6624230580608
 30
0.0
 11
292.1530793355765
 21
151.7900826172608
 31
0.0
  0
LINE
  5
23652
330
22F93
100
AcDbEntity
  8
5_ALL_CURVES
  6
Continuous
100
AcDbLine
 10
293.4530792401765
 20
150.6836996810609
 30
0.0
 11
293.3530793355765
 21
150.513486920461
 31
0.0
  0
LINE
  5
23653
330
22F93
100
AcDbEntity
  8
5_ALL_CURVES
  6
Continuous
100
AcDbLine
 10
292.6030793355765
 20
152.0879550413608
 30
0.0
 11
292.7030792401766
 21
152.2581677870609
 31
0.0
  0
LINE
  5
23654
330
22F93
100
AcDbEntity
  8
5_ALL_CURVES
  6
Continuous
100
AcDbLine
 10
292.0780793355765
 20
151.5773166851609
 30
0.0
 11
292.1280792878765
 21
151.6624230580608
 31
0.0
  0
LINE
  5
23655
330
22F93
100
AcDbEntity
  8
5_ALL_CURVES
  6
Continuous
100
AcDbLine
 10
292.2030792878765
 20
151.4496571259608
 30
0.0
 11
292.2780792878764
 21
151.6198698715608
 31
0.0
  0
LINE
  5
23656
330
22F93
100
AcDbEntity
  8
5_ALL_CURVES
  6
Continuous
100
AcDbLine
 10
292.7030792401766
 20
151.8751889900608
 30
0.0
 11
292.7530793355765
 21
152.0028486685608
 31
0.0
  0
LINE
  5
23657
330
22F93
100
AcDbEntity
  8
5_ALL_CURVES
  6
Continuous
100
AcDbLine
 10
293.3030792401765
 20
150.7688060836608
 30
0.0
 11
293.2280792401765
 21
150.6836996810609
 31
0.0
  0
LINE
  5
23658
330
22F93
100
AcDbEntity
  8
5_ALL_CURVES
  6
Continuous
100
AcDbLine
 10
292.7530793355765
 20
152.0028486685608
 30
0.0
 11
292.8280793355765
 21
152.0879550413608
 31
0.0
  0
LINE
  5
23659
330
22F93
100
AcDbEntity
  8
5_ALL_CURVES
  6
Continuous
100
AcDbLine
 10
293.3530793355765
 20
150.513486920461
 30
0.0
 11
293.2530794308765
 21
150.4283805364608
 31
0.0
  0
LINE
  5
2365A
330
22F93
100
AcDbEntity
  8
5_ALL_CURVES
  6
Continuous
100
AcDbLine
 10
292.1030793831765
 20
151.3645507530608
 30
0.0
 11
292.2030792878765
 21
151.4496571259608
 31
0.0
  0
LINE
  5
2365B
330
22F93
100
AcDbEntity
  8
5_ALL_CURVES
  6
Continuous
100
AcDbLine
 10
292.7030792401766
 20
152.2581677870609
 30
0.0
 11
292.8030794308765
 21
152.3432741598608
 31
0.0
  0
LINE
  5
2365C
330
22F93
100
AcDbEntity
  8
5_ALL_CURVES
  6
Continuous
100
AcDbLine
 10
293.2530794308765
 20
150.4283805364608
 30
0.0
 11
293.1280793355765
 21
150.3858273462609
 31
0.0
  0
LINE
  5
2365D
330
22F93
100
AcDbEntity
  8
5_ALL_CURVES
  6
Continuous
100
AcDbLine
 10
292.8030794308765
 20
152.3432741598608
 30
0.0
 11
292.9280792401765
 21
152.3858273462609
 31
0.0
  0
LINE
  5
2365E
330
22F93
100
AcDbEntity
  8
5_ALL_CURVES
  6
Continuous
100
AcDbLine
 10
293.2280792401765
 20
150.6836996810609
 30
0.0
 11
293.1280793355765
 21
150.6411464945608
 31
0.0
  0
LINE
  5
2365F
330
22F93
100
AcDbEntity
  8
5_ALL_CURVES
  6
Continuous
100
AcDbLine
 10
292.8280793355765
 20
152.0879550413608
 30
0.0
 11
292.9280792401765
 21
152.130508227761
 31
0.0
  0
LINE
  5
23660
330
22F93
100
AcDbEntity
  8
5_ALL_CURVES
  6
Continuous
100
AcDbLine
 10
292.0030793355765
 20
151.5347634987608
 30
0.0
 11
292.0780793355765
 21
151.5773166851609
 31
0.0
  0
LINE
  5
23661
330
22F93
100
AcDbEntity
  8
5_ALL_CURVES
  6
Continuous
100
AcDbLine
 10
293.9530793355765
 20
152.3858273462609
 30
0.0
 11
294.5780792401765
 21
150.6836996810609
 31
0.0
  0
LINE
  5
23662
330
22F93
100
AcDbEntity
  8
5_ALL_CURVES
  6
Continuous
100
AcDbLine
 10
294.5030792401764
 20
150.3858273462609
 30
0.0
 11
293.8780793355764
 21
152.130508227761
 31
0.0
  0
CIRCLE
  5
23663
330
22F93
100
AcDbEntity
  8
実線
100
AcDbCircle
 10
289.0280793355765
 20
153.6358273462609
 30
0.0
 40
0.25
  0
ARC
  5
23664
330
22F93
100
AcDbEntity
  8
実線
100
AcDbCircle
 10
289.5280793355765
 20
152.8858273462609
 30
0.0
 40
0.5
100
AcDbArc
 50
90.0
 51
180.0
  0
LINE
  5
23665
330
22F93
100
AcDbEntity
  8
実線
100
AcDbLine
 10
296.5280793355765
 20
153.3858273462609
 30
0.0
 11
289.5280793355765
 21
153.3858273462609
 31
0.0
  0
LINE
  5
23666
330
22F93
100
AcDbEntity
  8
実線
100
AcDbLine
 10
297.0280793355765
 20
150.3858273462609
 30
0.0
 11
297.0280793355765
 21
152.8858273462609
 31
0.0
  0
ARC
  5
23667
330
22F93
100
AcDbEntity
  8
実線
100
AcDbCircle
 10
286.5280793355765
 20
122.8858273462609
 30
0.0
 40
44.75
100
AcDbArc
 50
21.29245218000041
 51
23.39356551700098
  0
LINE
  5
23668
330
22F93
100
AcDbEntity
  8
実線
100
AcDbLine
 10
328.4196735677765
 20
149.3988740379608
 30
0.0
 11
327.7545777028765
 21
149.567406070261
 31
0.0
  0
LINE
  5
23669
330
22F93
100
AcDbEntity
  8
実線
100
AcDbLine
 10
328.2289867136764
 20
149.7428822291609
 30
0.0
 11
327.5638908487765
 21
149.9114142614608
 31
0.0
  0
LINE
  5
2366A
330
22F93
100
AcDbEntity
  8
実線
100
AcDbLine
 10
327.7545777028765
 20
149.567406070261
 30
0.0
 11
327.5638908487765
 21
149.9114142614608
 31
0.0
  0
LINE
  5
2366B
330
22F93
100
AcDbEntity
  8
実線
100
AcDbLine
 10
326.9079260683763
 20
149.5478070462608
 30
0.0
 11
326.8437667052763
 21
148.1165545964609
 31
0.0
  0
LINE
  5
2366C
330
22F93
100
AcDbEntity
  8
実線
100
AcDbLine
 10
327.0986129225765
 20
149.2037988550609
 30
0.0
 11
327.0344535594764
 21
147.7725464052609
 31
0.0
  0
LINE
  5
2366D
330
22F93
100
AcDbEntity
  8
実線
100
AcDbLine
 10
327.0986129225765
 20
149.2037988550609
 30
0.0
 11
326.9079260683763
 21
149.5478070462608
 31
0.0
  0
LINE
  5
2366E
330
22F93
100
AcDbEntity
  8
実線
100
AcDbLine
 10
322.9721373862764
 20
147.3661637551609
 30
0.0
 11
322.3161726058764
 21
147.0025565399608
 31
0.0
  0
LINE
  5
2366F
330
22F93
100
AcDbEntity
  8
実線
100
AcDbLine
 10
323.1628242404765
 20
147.0221555639609
 30
0.0
 11
322.5068594600764
 21
146.6585483487608
 31
0.0
  0
LINE
  5
23670
330
22F93
100
AcDbEntity
  8
実線
100
AcDbLine
 10
322.3161726058764
 20
147.0025565399608
 30
0.0
 11
322.1066487636763
 21
146.3492148874608
 31
0.0
  0
LINE
  5
23671
330
22F93
100
AcDbEntity
  8
実線
100
AcDbLine
 10
322.5068594600764
 20
146.6585483487608
 30
0.0
 11
322.2973356178765
 21
146.0052066962608
 31
0.0
  0
LINE
  5
23672
330
22F93
100
AcDbEntity
  8
実線
100
AcDbLine
 10
322.5068594600764
 20
146.6585483487608
 30
0.0
 11
322.3161726058764
 21
147.0025565399608
 31
0.0
  0
LINE
  5
23673
330
22F93
100
AcDbEntity
  8
実線
100
AcDbLine
 10
323.1628242404765
 20
147.0221555639609
 30
0.0
 11
322.9721373862764
 21
147.3661637551609
 31
0.0
  0
LINE
  5
23674
330
22F93
100
AcDbEntity
  8
実線
100
AcDbLine
 10
324.9577190773765
 20
145.331078567161
 30
0.0
 11
323.2084796630765
 21
144.3614593266608
 31
0.0
  0
LINE
  5
23675
330
22F93
100
AcDbEntity
  8
実線
100
AcDbLine
 10
323.1628242404765
 20
147.0221555639609
 30
0.0
 11
324.4105944380763
 21
146.3181175445609
 31
0.0
  0
LINE
  5
23676
330
22F93
100
AcDbEntity
  8
実線
100
AcDbLine
 10
322.9721373862764
 20
147.3661637551609
 30
0.0
 11
324.2199075838765
 21
146.6621257357608
 31
0.0
  0
LINE
  5
23677
330
22F93
100
AcDbEntity
  8
実線
100
AcDbLine
 10
325.2736311921764
 20
140.6358273462609
 30
0.0
 11
322.1066487636763
 21
146.3492148874608
 31
0.0
  0
LINE
  5
23678
330
22F93
100
AcDbEntity
  8
実線
100
AcDbLine
 10
325.8317390463764
 20
143.7543048040608
 30
0.0
 11
324.2199075838765
 21
146.6621257357608
 31
0.0
  0
LINE
  5
23679
330
22F93
100
AcDbEntity
  8
実線
100
AcDbLine
 10
327.5638908487765
 20
149.9114142614608
 30
0.0
 11
326.9079260683763
 21
149.5478070462608
 31
0.0
  0
LINE
  5
2367A
330
22F93
100
AcDbEntity
  8
実線
100
AcDbLine
 10
327.7545777028765
 20
149.567406070261
 30
0.0
 11
327.0986129225765
 21
149.2037988550609
 31
0.0
  0
LINE
  5
2367B
330
22F93
100
AcDbEntity
  8
実線
100
AcDbLine
 10
326.8437667052763
 20
148.1165545964609
 30
0.0
 11
328.4555981677764
 21
145.2087336648608
 31
0.0
  0
LINE
  5
2367C
330
22F93
100
AcDbEntity
  8
実線
100
AcDbLine
 10
333.4280793355765
 20
139.1358273462609
 30
0.0
 11
333.4280793355765
 21
140.6358273462609
 31
0.0
  0
LINE
  5
2367D
330
22F93
100
AcDbEntity
  8
実線
100
AcDbLine
 10
331.9780793355764
 20
132.8858273462609
 30
0.0
 11
331.9780793355764
 21
132.6358273462608
 31
0.0
  0
LINE
  5
2367E
330
22F93
100
AcDbEntity
  8
実線
100
AcDbLine
 10
333.1780793355765
 20
132.6358273462608
 30
0.0
 11
333.1780793355765
 21
132.8858273462609
 31
0.0
  0
LINE
  5
2367F
330
22F93
100
AcDbEntity
  8
実線
100
AcDbLine
 10
330.8280793355764
 20
132.6358273462608
 30
0.0
 11
333.4280793355765
 21
132.6358273462608
 31
0.0
  0
LINE
  5
23680
330
22F93
100
AcDbEntity
  8
実線
100
AcDbLine
 10
332.0280793355765
 20
134.1358273462609
 30
0.0
 11
330.8780793355763
 21
134.1358273462609
 31
0.0
  0
LINE
  5
23681
330
22F93
100
AcDbEntity
  8
実線
100
AcDbLine
 10
332.0280793355765
 20
137.8858273462609
 30
0.0
 11
330.8780793355763
 21
137.8858273462609
 31
0.0
  0
LINE
  5
23682
330
22F93
100
AcDbEntity
  8
実線
100
AcDbLine
 10
330.8780793355763
 20
132.8858273462609
 30
0.0
 11
330.8780793355763
 21
139.1358273462609
 31
0.0
  0
LINE
  5
23683
330
22F93
100
AcDbEntity
  8
実線
100
AcDbLine
 10
332.0280793355765
 20
132.6358273462608
 30
0.0
 11
332.0280793355765
 21
139.1358273462609
 31
0.0
  0
LINE
  5
23684
330
22F93
100
AcDbEntity
  8
実線
100
AcDbLine
 10
341.9780793355764
 20
131.3858273462608
 30
0.0
 11
341.5166557585763
 21
131.8472509232609
 31
0.0
  0
LINE
  5
23685
330
22F93
100
AcDbEntity
  8
実線
100
AcDbLine
 10
341.9780793355764
 20
128.3697349227609
 30
0.0
 11
341.9780793355764
 21
131.3858273462608
 31
0.0
  0
LINE
  5
23686
330
22F93
100
AcDbEntity
  8
実線
100
AcDbLine
 10
335.6048900326765
 20
146.5982534514609
 30
0.0
 11
336.2388174253765
 21
145.2387917708608
 31
0.0
  0
LINE
  5
23687
330
22F93
100
AcDbEntity
  8
実線
100
AcDbLine
 10
329.8156272332764
 20
146.8805069612609
 30
0.0
 11
334.2071082766765
 21
149.3147446528609
 31
0.0
  0
LINE
  5
23688
330
22F93
100
AcDbEntity
  8
実線
100
AcDbLine
 10
331.9796588845765
 20
144.9077804044608
 30
0.0
 11
335.6048900326765
 21
146.5982534514609
 31
0.0
  0
LINE
  5
23689
330
22F93
100
AcDbEntity
  8
実線
100
AcDbLine
 10
334.2071082766765
 20
149.3147446528609
 30
0.0
 11
335.8817359398765
 21
148.8141724493608
 31
0.0
  0
LINE
  5
2368A
330
22F93
100
AcDbEntity
  8
実線
100
AcDbLine
 10
336.2388174253765
 20
145.2387917708608
 30
0.0
 11
332.6135862771764
 21
143.5483187239607
 31
0.0
  0
LINE
  5
2368B
330
22F93
100
AcDbEntity
  8
実線
100
AcDbLine
 10
332.6135862771764
 20
143.5483187239607
 30
0.0
 11
331.9796588845765
 21
144.9077804044608
 31
0.0
  0
LINE
  5
2368C
330
22F93
100
AcDbEntity
  8
実線
100
AcDbLine
 10
148.5730616140086
 20
236.0389506101399
 30
0.0
 11
143.4230616140085
 21
236.0389506101399
 31
0.0
  0
LINE
  5
2368D
330
22F93
100
AcDbEntity
  8
実線
100
AcDbLine
 10
147.4230616140085
 20
234.8889506101397
 30
0.0
 11
143.4230616140085
 21
234.8889506101397
 31
0.0
  0
LINE
  5
2368E
330
22F93
100
AcDbEntity
  8
実線
100
AcDbLine
 10
143.4230616140085
 20
236.0389506101399
 30
0.0
 11
143.4230616140085
 21
234.8889506101397
 31
0.0
  0
LINE
  5
2368F
330
22F93
100
AcDbEntity
  8
実線
100
AcDbLine
 10
144.6730616140085
 20
236.0389506101399
 30
0.0
 11
144.6730616140085
 21
234.8889506101397
 31
0.0
  0
LINE
  5
23690
330
22F93
100
AcDbEntity
  8
実線
100
AcDbLine
 10
147.3730616140085
 20
242.4389506101399
 30
0.0
 11
146.2230616140085
 21
242.4389506101399
 31
0.0
  0
LINE
  5
23691
330
22F93
100
AcDbEntity
  8
実線
100
AcDbLine
 10
147.3730616140085
 20
243.6889506101397
 30
0.0
 11
146.2230616140085
 21
243.6889506101397
 31
0.0
  0
LINE
  5
23692
330
22F93
100
AcDbEntity
  8
実線
100
AcDbLine
 10
146.2230616140085
 20
239.6889506101397
 30
0.0
 11
147.3730616140085
 21
239.6889506101397
 31
0.0
  0
LINE
  5
23693
330
22F93
100
AcDbEntity
  8
実線
100
AcDbLine
 10
146.2230616140085
 20
240.9389506101399
 30
0.0
 11
147.3730616140085
 21
240.9389506101399
 31
0.0
  0
LINE
  5
23694
330
22F93
100
AcDbEntity
  8
実線
100
AcDbLine
 10
146.2230616140085
 20
236.0389506101399
 30
0.0
 11
146.2230616140085
 21
243.6889506101397
 31
0.0
  0
LINE
  5
23695
330
22F93
100
AcDbEntity
  8
実線
100
AcDbLine
 10
147.3730616140085
 20
236.0389506101399
 30
0.0
 11
147.3730616140085
 21
243.6889506101397
 31
0.0
  0
LINE
  5
2370C
330
22F93
100
AcDbEntity
  8
非表示
100
AcDbLine
 10
-0.0000003530979029
 20
-0.0000002860571157
 30
0.0
 11
419.9999996469022
 21
-0.0000002860571157
 31
0.0
  0
LINE
  5
2370D
330
22F93
100
AcDbEntity
  8
非表示
100
AcDbLine
 10
419.9999996469022
 20
-0.0000002860571157
 30
0.0
 11
419.9999996469022
 21
296.9999997139428
 31
0.0
  0
LINE
  5
2370E
330
22F93
100
AcDbEntity
  8
文字
100
AcDbLine
 10
409.9999996469018
 20
9.99999971394287
 30
0.0
 11
319.9999996469019
 21
9.99999971394287
 31
0.0
  0
LINE
  5
2370F
330
22F93
100
AcDbEntity
  8
文字
100
AcDbLine
 10
409.9999996469018
 20
17.99999971394287
 30
0.0
 11
319.9999996469019
 21
17.99999971394287
 31
0.0
  0
LINE
  5
23710
330
22F93
100
AcDbEntity
  8
文字
100
AcDbLine
 10
339.999999646902
 20
25.99999971394288
 30
0.0
 11
339.999999646902
 21
9.99999971394287
 31
0.0
  0
TEXT
  5
23711
330
22F93
100
AcDbEntity
  8
文字
100
AcDbText
 10
325.935289646902
 20
19.67168571394286
 30
0.0
 40
4.0
  1
品名
  7
STANDARD1
100
AcDbText
  0
TEXT
  5
23712
330
22F93
100
AcDbEntity
  8
文字
100
AcDbText
 10
325.935289646902
 20
11.67168571394286
 30
0.0
 40
4.0
  1
型名
  7
STANDARD1
100
AcDbText
  0
TEXT
  5
23713
330
22F93
100
AcDbEntity
  8
文字
100
AcDbText
 10
341.935289646902
 20
19.67168571394286
 30
0.0
 40
4.0
  1
埋込みユニット
  7
STANDARD1
100
AcDbText
  0
TEXT
  5
23714
330
22F93
100
AcDbEntity
  8
文字
100
AcDbText
 10
341.935289646902
 20
11.67168571394286
 30
0.0
 40
4.0
  1
K-9874
  7
STANDARD1
100
AcDbText
  0
LINE
  5
23715
330
22F93
100
AcDbEntity
  8
文字
100
AcDbLine
 10
409.9999996469018
 20
25.99999971394288
 30
0.0
 11
409.9999996469018
 21
9.99999971394287
 31
0.0
  0
LINE
  5
23716
330
22F93
100
AcDbEntity
  8
非表示
100
AcDbLine
 10
-0.0000003530979029
 20
-0.0000002860571157
 30
0.0
 11
-0.0000003530979029
 21
296.9999997139428
 31
0.0
  0
LINE
  5
23717
330
22F93
100
AcDbEntity
  8
非表示
100
AcDbLine
 10
-0.0000003530979029
 20
296.9999997139428
 30
0.0
 11
419.9999996469022
 21
296.9999997139428
 31
0.0
  0
LINE
  5
23718
330
22F93
100
AcDbEntity
  8
文字
100
AcDbLine
 10
319.9999996469019
 20
25.99999971394288
 30
0.0
 11
319.9999996469019
 21
9.99999971394287
 31
0.0
  0
LINE
  5
23719
330
22F93
100
AcDbEntity
  8
文字
100
AcDbLine
 10
409.9999996469018
 20
25.99999971394287
 30
0.0
 11
319.9999996469019
 21
25.99999971394287
 31
0.0
  0
DIMENSION
  5
23778
330
22F93
100
AcDbEntity
  8
寸法
100
AcDbDimension
  2
*D24
 10
59.25201971321129
 20
83.59553936712648
 30
0.0
 11
150.3574007499133
 21
169.5893446449331
 31
0.0
 70
    35
 71
     5
 42
115.0
  3
STANDARD-2
100
AcDbDiametricDimension
 15
144.5941035148059
 25
160.6781491594888
 35
0.0
 40
0.0
1001
ACAD
1000
DSTYLE
1002
{
1070
    42
1040
0.0
1070
    74
1070
     1
1070
   140
1040
3.5
1070
   144
1040
1.0
1070
   174
1070
     1
1070
   271
1070
     0
1070
   272
1070
     0
1070
   279
1070
     0
1070
   284
1070
     0
1070
   285
1070
     0
1070
   286
1070
     0
1070
   340
1005
22F86
1070
   341
1005
22FB3
1070
   343
1005
22FB3
1070
   344
1005
22FB3
1002
}
  0
DIMENSION
  5
23784
330
22F93
100
AcDbEntity
  8
寸法
100
AcDbDimension
  2
*D25
 10
80.29309117101162
 20
109.6011201663487
 30
0.0
 11
130.285341322464
 21
141.7527616453557
 31
0.0
 70
    35
 71
     5
 42
50.0
  3
STANDARD-2
100
AcDbDiametricDimension
 15
123.5530320570056
 25
134.6725683602665
 35
0.0
 40
0.0
1001
ACAD
1000
DSTYLE
1002
{
1070
    42
1040
0.0
1070
    74
1070
     1
1070
   140
1040
3.5
1070
   144
1040
1.0
1070
   174
1070
     1
1070
   271
1070
     0
1070
   272
1070
     0
1070
   279
1070
     0
1070
   284
1070
     0
1070
   285
1070
     0
1070
   286
1070
     0
1070
   340
1005
22F86
1070
   341
1005
22FB3
1070
   343
1005
22FB3
1070
   344
1005
22FB3
1002
}
  0
LINE
  5
237AD
330
22F93
100
AcDbEntity
  8
寸法
100
AcDbLine
 10
46.4730616140086
 20
213.5389506101397
 30
0.0
 11
34.94989118771019
 21
213.5389506101397
 31
0.0
  0
LINE
  5
237AE
330
22F93
100
AcDbEntity
  8
寸法
100
AcDbLine
 10
46.1730941141086
 20
211.0389506101397
 30
0.0
 11
34.94989118771019
 21
211.0389506101397
 31
0.0
  0
LINE
  5
237AF
330
22F93
100
AcDbEntity
  8
寸法
100
AcDbLine
 10
35.94989118771019
 20
215.5389506101397
 30
0.0
 11
35.94989118771019
 21
217.5389506101397
 31
0.0
  0
LINE
  5
237B0
330
22F93
100
AcDbEntity
  8
寸法
100
AcDbLine
 10
35.94989118771019
 20
209.0389506101397
 30
0.0
 11
35.94989118771018
 21
207.0389506101397
 31
0.0
  0
LINE
  5
237B1
330
22F93
100
AcDbEntity
  8
寸法
100
AcDbLine
 10
35.94989118771019
 20
213.5389506101397
 30
0.0
 11
35.94989118771019
 21
211.0389506101397
 31
0.0
  0
INSERT
  5
237B2
330
22F93
100
AcDbEntity
  8
寸法
100
AcDbBlockReference
  2
_OPEN30
 10
35.94989118771019
 20
213.5389506101397
 30
0.0
 41
2.0
 42
2.0
 43
2.0
 50
270.0
  0
INSERT
  5
237B3
330
22F93
100
AcDbEntity
  8
寸法
100
AcDbBlockReference
  2
_OPEN30
 10
35.94989118771019
 20
211.0389506101397
 30
0.0
 41
2.0
 42
2.0
 43
2.0
 50
90.0
  0
MTEXT
  5
237B4
330
22F93
100
AcDbEntity
  8
寸法
100
AcDbMText
 10
32.19989118771016
 20
212.2889506101397
 30
0.0
 40
3.5
 41
0.0
 71
     5
 72
     1
  1
0～30
 11
0.0000000000000001
 21
1.0
 31
0.0
 73
     1
 44
1.0
  0
LINE
  5
237C2
330
22F93
100
AcDbEntity
  8
寸法
100
AcDbLine
 10
147.3730616140085
 20
243.68895061014
 30
0.0
 11
172.4630439703858
 21
243.68895061014
 31
0.0
  0
LINE
  5
237C3
330
22F93
100
AcDbEntity
  8
寸法
100
AcDbLine
 10
157.6730291139086
 20
211.0389506101397
 30
0.0
 11
172.4630439703858
 21
211.0389506101397
 31
0.0
  0
LINE
  5
237C4
330
22F93
100
AcDbEntity
  8
寸法
100
AcDbLine
 10
171.4630439703858
 20
241.68895061014
 30
0.0
 11
171.4630439703858
 21
213.0389506101397
 31
0.0
  0
INSERT
  5
237C5
330
22F93
100
AcDbEntity
  8
寸法
100
AcDbBlockReference
  2
_OPEN30
 10
171.4630439703858
 20
243.68895061014
 30
0.0
 41
2.0
 42
2.0
 43
2.0
 50
90.0
  0
INSERT
  5
237C6
330
22F93
100
AcDbEntity
  8
寸法
100
AcDbBlockReference
  2
_OPEN30
 10
171.4630439703858
 20
211.0389506101397
 30
0.0
 41
2.0
 42
2.0
 43
2.0
 50
270.0
  0
MTEXT
  5
237C7
330
22F93
100
AcDbEntity
  8
寸法
100
AcDbMText
 10
168.7130439703858
 20
227.3639506101399
 30
0.0
 40
3.5
 41
0.0
 71
     5
 72
     1
  1
60～91
 11
0.0000000000000001
 21
1.0
 31
0.0
 73
     1
 44
1.0
  0
LINE
  5
237D7
330
22F93
100
AcDbEntity
  8
寸法
100
AcDbLine
 10
157.3730616140085
 20
213.5389506101397
 30
0.0
 11
165.5987871785567
 21
213.5389506101397
 31
0.0
  0
LINE
  5
237D8
330
22F93
100
AcDbEntity
  8
寸法
100
AcDbLine
 10
157.6730616140086
 20
211.0389506101398
 30
0.0
 11
165.5987871785567
 21
211.0389506101398
 31
0.0
  0
LINE
  5
237D9
330
22F93
100
AcDbEntity
  8
寸法
100
AcDbLine
 10
164.5987871785567
 20
215.5389506101397
 30
0.0
 11
164.5987871785567
 21
217.5389506101397
 31
0.0
  0
LINE
  5
237DA
330
22F93
100
AcDbEntity
  8
寸法
100
AcDbLine
 10
164.5987871785567
 20
209.0389506101398
 30
0.0
 11
164.5987871785567
 21
207.0389506101398
 31
0.0
  0
LINE
  5
237DB
330
22F93
100
AcDbEntity
  8
寸法
100
AcDbLine
 10
164.5987871785567
 20
213.5389506101397
 30
0.0
 11
164.5987871785567
 21
211.0389506101398
 31
0.0
  0
INSERT
  5
237DC
330
22F93
100
AcDbEntity
  8
寸法
100
AcDbBlockReference
  2
_OPEN30
 10
164.5987871785567
 20
213.5389506101397
 30
0.0
 41
2.0
 42
2.0
 43
2.0
 50
270.0
  0
INSERT
  5
237DD
330
22F93
100
AcDbEntity
  8
寸法
100
AcDbBlockReference
  2
_OPEN30
 10
164.5987871785567
 20
211.0389506101398
 30
0.0
 41
2.0
 42
2.0
 43
2.0
 50
90.0
  0
MTEXT
  5
237DE
330
22F93
100
AcDbEntity
  8
寸法
100
AcDbMText
 10
161.8487871785566
 20
221.1870701399325
 30
0.0
 40
3.5
 41
0.0
 71
     5
 72
     1
  1
0～30
 11
0.0000000000000001
 21
1.0
 31
0.0
 73
     1
 44
1.0
  0
LINE
  5
237EE
330
22F93
100
AcDbEntity
  8
寸法
100
AcDbLine
 10
157.6730291139086
 20
211.0389506101397
 30
0.0
 11
172.4630439703858
 21
211.0389506101397
 31
0.0
  0
LINE
  5
237EF
330
22F93
100
AcDbEntity
  8
寸法
100
AcDbLine
 10
135.8155069666085
 20
205.5389168920397
 30
0.0
 11
172.4630439703858
 21
205.5389168920397
 31
0.0
  0
LINE
  5
237F0
330
22F93
100
AcDbEntity
  8
寸法
100
AcDbLine
 10
171.4630439703858
 20
213.0389506101397
 30
0.0
 11
171.4630439703858
 21
215.0389506101397
 31
0.0
  0
LINE
  5
237F1
330
22F93
100
AcDbEntity
  8
寸法
100
AcDbLine
 10
171.4630439703858
 20
203.5389168920397
 30
0.0
 11
171.4630439703858
 21
201.5389168920397
 31
0.0
  0
LINE
  5
237F2
330
22F93
100
AcDbEntity
  8
寸法
100
AcDbLine
 10
171.4630439703858
 20
211.0389506101397
 30
0.0
 11
171.4630439703858
 21
205.5389168920397
 31
0.0
  0
INSERT
  5
237F3
330
22F93
100
AcDbEntity
  8
寸法
100
AcDbBlockReference
  2
_OPEN30
 10
171.4630439703858
 20
211.0389506101397
 30
0.0
 41
2.0
 42
2.0
 43
2.0
 50
270.0
  0
INSERT
  5
237F4
330
22F93
100
AcDbEntity
  8
寸法
100
AcDbBlockReference
  2
_OPEN30
 10
171.4630439703858
 20
205.5389168920397
 30
0.0
 41
2.0
 42
2.0
 43
2.0
 50
90.0
  0
MTEXT
  5
237F5
330
22F93
100
AcDbEntity
  8
寸法
100
AcDbMText
 10
168.7130439703858
 20
201.0061049288368
 30
0.0
 40
3.5
 41
0.0
 71
     5
 72
     1
  1
5.5
 11
0.0000000000000001
 21
1.0
 31
0.0
 73
     1
 44
1.0
  0
DIMENSION
  5
237F6
330
22F93
100
AcDbEntity
  8
寸法
100
AcDbDimension
  2
*D30
 10
268.0564164640257
 20
100.8549360624346
 30
0.0
 11
309.1032015715724
 21
154.0910614233771
 31
0.0
 70
    35
 71
     5
 42
57.49999999999994
  3
STANDARD-2
100
AcDbDiametricDimension
 15
304.9997422071272
 25
144.9167186300871
 35
0.0
 40
0.0
1001
ACAD
1000
DSTYLE
1002
{
1070
    42
1040
0.0
1070
    74
1070
     1
1070
   140
1040
3.5
1070
   144
1040
1.0
1070
   174
1070
     1
1070
   271
1070
     0
1070
   272
1070
     0
1070
   279
1070
     0
1070
   284
1070
     0
1070
   285
1070
     0
1070
   286
1070
     0
1070
   340
1005
22F86
1070
   341
1005
22FB3
1070
   343
1005
22FB3
1070
   344
1005
22FB3
1002
}
  0
DIMENSION
  5
23802
330
22F93
100
AcDbEntity
  8
寸法
100
AcDbDimension
  2
*D31
 10
311.4263096943764
 20
108.5108273462608
 30
0.0
 11
277.5115788952951
 21
60.99137700858658
 31
0.0
 70
   162
 71
     5
 42
2.094395102393103
  3
STANDARD-2
100
AcDb2LineAngularDimension
 13
286.5280793355764
 23
122.8858273462609
 33
0.0
 14
261.6298489767765
 24
108.5108273462608
 34
0.0
 15
286.5280793355764
 25
122.8858273462609
 35
0.0
 16
309.0472967997687
 26
61.0147858596016
 36
0.0
1001
ACAD
1000
DSTYLE
1002
{
1070
    42
1040
0.0
1070
    74
1070
     1
1070
   140
1040
3.5
1070
   144
1040
1.0
1070
   174
1070
     1
1070
   271
1070
     0
1070
   272
1070
     0
1070
   284
1070
     0
1070
   285
1070
     0
1070
   286
1070
     0
1070
   340
1005
22F86
1070
   341
1005
22FB3
1070
   343
1005
22FB3
1070
   344
1005
22FB3
1002
}
  0
TEXT
  5
23827
330
22F93
100
AcDbEntity
  8
寸法
100
AcDbText
 10
130.2151825707931
 20
187.0984873410129
 30
0.0
 40
3.0
  1
化粧カバー
100
AcDbText
  0
TEXT
  5
23828
330
22F93
100
AcDbEntity
  8
寸法
100
AcDbText
 10
130.2151825707931
 20
182.9318206743463
 30
0.0
 40
3.0
  1
（意匠部）
100
AcDbText
  0
TEXT
  5
23829
330
22F93
100
AcDbEntity
  8
文字
100
AcDbText
 10
365.9312624188585
 20
58.59559325429848
 30
0.0
 40
3.125
  1
１０００をこえるもの
 41
0.6
 11
365.9312624188585
 21
60.15809325429848
 31
0.0
100
AcDbText
 73
     2
  0
TEXT
  5
2382A
330
22F93
100
AcDbEntity
  8
文字
100
AcDbText
 10
365.928418004212
 20
63.28309325429848
 30
0.0
 40
3.125
  1
４００をこえ１０００以下
 41
0.6
 72
     2
 11
392.4284180042119
 21
64.84559325429848
 31
0.0
100
AcDbText
 73
     2
  0
LINE
  5
2382B
330
22F93
100
AcDbEntity
  8
実線
100
AcDbLine
 10
362.740918004212
 20
57.81434325429848
 30
0.0
 11
409.615918004212
 21
57.81434325429848
 31
0.0
  0
LINE
  5
2382C
330
22F93
100
AcDbEntity
  8
実線
100
AcDbLine
 10
362.740918004212
 20
62.50184325429848
 30
0.0
 11
409.615918004212
 21
62.50184325429848
 31
0.0
  0
LINE
  5
2382D
330
22F93
100
AcDbEntity
  8
実線
100
AcDbLine
 10
362.740918004212
 20
67.18934325429848
 30
0.0
 11
409.615918004212
 21
67.18934325429848
 31
0.0
  0
LINE
  5
2382E
330
22F93
100
AcDbEntity
  8
実線
100
AcDbLine
 10
362.740918004212
 20
71.87684325429848
 30
0.0
 11
409.615918004212
 21
71.87684325429848
 31
0.0
  0
LINE
  5
2382F
330
22F93
100
AcDbEntity
  8
実線
100
AcDbLine
 10
362.740918004212
 20
76.56434325429848
 30
0.0
 11
409.615918004212
 21
76.56434325429848
 31
0.0
  0
LINE
  5
23830
330
22F93
100
AcDbEntity
  8
実線
100
AcDbLine
 10
362.740918004212
 20
81.25184325429847
 30
0.0
 11
409.615918004212
 21
81.25184325429847
 31
0.0
  0
TEXT
  5
23831
330
22F93
100
AcDbEntity
  8
文字
100
AcDbText
 10
386.178418004212
 20
82.03309325429847
 30
0.0
 40
3.125
  1
６以下
 41
0.6
 72
     2
 11
392.428418004212
 21
83.59559325429847
 31
0.0
100
AcDbText
 73
     2
  0
TEXT
  5
23832
330
22F93
100
AcDbEntity
  8
文字
100
AcDbText
 10
370.428418004212
 20
77.34559325429848
 30
0.0
 40
3.125
  1
６をこえ　　３０以下
 41
0.6
 72
     2
 11
392.428418004212
 21
78.90809325429848
 31
0.0
100
AcDbText
 73
     2
  0
TEXT
  5
23833
330
22F93
100
AcDbEntity
  8
文字
100
AcDbText
 10
368.178418004212
 20
72.65809325429848
 30
0.0
 40
3.125
  1
３０をこえ　１２０以下
 41
0.6
 72
     2
 11
392.428418004212
 21
74.22059325429848
 31
0.0
100
AcDbText
 73
     2
  0
TEXT
  5
23834
330
22F93
100
AcDbEntity
  8
文字
100
AcDbText
 10
365.928418004212
 20
67.97059325429848
 30
0.0
 40
3.125
  1
１２０をこえ　４００以下
 41
0.6
 72
     2
 11
392.428418004212
 21
69.53309325429848
 31
0.0
100
AcDbText
 73
     2
  0
LINE
  5
23835
330
22F93
100
AcDbEntity
  8
実線
100
AcDbLine
 10
362.740918004212
 20
85.93934325429847
 30
0.0
 11
409.615918004212
 21
85.93934325429847
 31
0.0
  0
LINE
  5
23836
330
22F93
100
AcDbEntity
  8
実線
100
AcDbLine
 10
362.740918004212
 20
90.62684325429847
 30
0.0
 11
409.615918004212
 21
90.62684325429847
 31
0.0
  0
TEXT
  5
23837
330
22F93
100
AcDbEntity
  8
文字
100
AcDbText
 10
365.928418004212
 20
91.40809325429847
 30
0.0
 40
3.125
  1
（JIS B 0405 V級準拠）
 41
0.8
 72
     1
 11
386.178418004212
 21
92.97059325429847
 31
0.0
100
AcDbText
 73
     2
  0
LINE
  5
23838
330
22F93
100
AcDbEntity
  8
実線
100
AcDbLine
 10
362.740918004212
 20
100.0018432542984
 30
0.0
 11
362.740918004212
 21
57.81434325429848
 31
0.0
  0
TEXT
  5
23839
330
22F93
100
AcDbEntity
  8
文字
100
AcDbText
 10
372.0638346708787
 20
86.72059325429847
 30
0.0
 40
3.125
  1
呼び寸法
 72
     1
 11
379.147168004212
 21
88.28309325429847
 31
0.0
100
AcDbText
 73
     2
  0
LINE
  5
2383A
330
22F93
100
AcDbEntity
  8
実線
100
AcDbLine
 10
409.615918004212
 20
57.81434325429848
 30
0.0
 11
409.615918004212
 21
100.0018432542984
 31
0.0
  0
LINE
  5
2383B
330
22F93
100
AcDbEntity
  8
実線
100
AcDbLine
 10
395.553418004212
 20
57.81434325429848
 30
0.0
 11
395.553418004212
 21
90.62684325429847
 31
0.0
  0
TEXT
  5
2383C
330
22F93
100
AcDbEntity
  8
文字
100
AcDbText
 10
397.897168004212
 20
72.65809325429848
 30
0.0
 40
3.125
  1
±１．５
 41
0.6
 11
397.897168004212
 21
74.22059325429848
 31
0.0
100
AcDbText
 73
     2
  0
TEXT
  5
2383D
330
22F93
100
AcDbEntity
  8
文字
100
AcDbText
 10
397.897168004212
 20
67.97059325429848
 30
0.0
 40
3.125
  1
±２．５
 41
0.6
 11
397.897168004212
 21
69.53309325429848
 31
0.0
100
AcDbText
 73
     2
  0
TEXT
  5
2383E
330
22F93
100
AcDbEntity
  8
文字
100
AcDbText
 10
397.897168004212
 20
63.28309325429848
 30
0.0
 40
3.125
  1
±４
 41
0.6
 11
397.897168004212
 21
64.84559325429848
 31
0.0
100
AcDbText
 73
     2
  0
TEXT
  5
2383F
330
22F93
100
AcDbEntity
  8
文字
100
AcDbText
 10
397.897168004212
 20
58.59559325429848
 30
0.0
 40
3.125
  1
±６
 41
0.6
 11
397.897168004212
 21
60.15809325429848
 31
0.0
100
AcDbText
 73
     2
  0
TEXT
  5
23840
330
22F93
100
AcDbEntity
  8
文字
100
AcDbText
 10
399.2513346708787
 20
86.72059325429847
 30
0.0
 40
3.125
  1
公差
 72
     1
 11
402.584668004212
 21
88.28309325429847
 31
0.0
100
AcDbText
 73
     2
  0
TEXT
  5
23841
330
22F93
100
AcDbEntity
  8
文字
100
AcDbText
 10
397.897168004212
 20
82.03309325429847
 30
0.0
 40
3.125
  1
±０．５
 41
0.6
 11
397.897168004212
 21
83.59559325429847
 31
0.0
100
AcDbText
 73
     2
  0
TEXT
  5
23842
330
22F93
100
AcDbEntity
  8
文字
100
AcDbText
 10
397.897168004212
 20
77.34559325429848
 30
0.0
 40
3.125
  1
±１
 41
0.6
 11
397.897168004212
 21
78.90809325429848
 31
0.0
100
AcDbText
 73
     2
  0
LINE
  5
23843
330
22F93
100
AcDbEntity
  8
実線
100
AcDbLine
 10
409.615918004212
 20
100.0018432542984
 30
0.0
 11
362.740918004212
 21
100.0018432542984
 31
0.0
  0
TEXT
  5
23844
330
22F93
100
AcDbEntity
  8
文字
100
AcDbText
 10
365.4819894327834
 20
96.09559325429849
 30
0.0
 40
3.125
  1
指定以外の寸法に対する寸法差
 41
0.8
 72
     1
 11
386.178418004212
 21
97.65809325429849
 31
0.0
100
AcDbText
 73
     2
  0
ENDSEC
  0
SECTION
  2
OBJECTS
  0
DICTIONARY
  5
22F81
330
0
100
AcDbDictionary
281
     1
  3
ACAD_GROUP
350
22F82
  3
ACAD_LAYOUT
350
22F8E
  3
ACAD_MLINESTYLE
350
22F8B
  3
ACAD_PLOTSETTINGS
350
22F8D
  3
ACAD_PLOTSTYLENAME
350
22F83
  3
AcDbVariableDictionary
350
23845
  0
DICTIONARY
  5
23697
330
22F77
100
AcDbDictionary
280
     1
281
     1
  3
ACAD_LAYERFILTERS
360
23698
  3
ACAD_LAYERSTATES
360
236FA
  0
DICTIONARY
  5
22F82
102
{ACAD_REACTORS
330
22F81
102
}
330
22F81
100
AcDbDictionary
281
     1
  0
DICTIONARY
  5
22F8E
102
{ACAD_REACTORS
330
22F81
102
}
330
22F81
100
AcDbDictionary
281
     1
  3
Model
350
22F96
  3
ﾚｲｱｳﾄ1
350
22F92
  0
DICTIONARY
  5
22F8B
102
{ACAD_REACTORS
330
22F81
102
}
330
22F81
100
AcDbDictionary
281
     1
  3
Standard
350
22F8C
  0
DICTIONARY
  5
22F8D
102
{ACAD_REACTORS
330
22F81
102
}
330
22F81
100
AcDbDictionary
281
     1
  0
ACDBDICTIONARYWDFLT
  5
22F83
102
{ACAD_REACTORS
330
22F81
102
}
330
22F81
100
AcDbDictionary
281
     1
  3
Normal
350
22F84
100
AcDbDictionaryWithDefault
340
22F84
  0
DICTIONARY
  5
23845
102
{ACAD_REACTORS
330
22F81
102
}
330
22F81
100
AcDbDictionary
281
     1
  3
DIMASSOC
350
23846
  0
DICTIONARY
  5
23698
102
{ACAD_REACTORS
330
23697
102
}
330
23697
100
AcDbDictionary
280
     1
281
     1
  3
0
360
23699
  3
01全体計画平面図
360
2369A
  3
02現況平面図
360
2369B
  3
03撤去平面図
360
2369C
  3
04造成平面図
360
2369D
  3
05施設平面図
360
2369E
  3
06排水平面図
360
2369F
  3
07給水平面図
360
236A0
  3
08電気平面図
360
236A1
  3
09植栽平面図-1
360
236A2
  3
1
360
236A3
  3
1-交差点処理図（最新1案）
360
236A4
  3
10植栽平面図-2
360
236A5
  3
11寸法図
360
236A6
  3
1次施工
360
236A7
  3
2
360
236A8
  3
2-線形図1
360
236A9
  3
2次施工
360
236AA
  3
3
360
236AB
  3
3-線形図2
360
236AC
  3
3次施工
360
236AD
  3
4
360
236AE
  3
4次施工
360
236AF
  3
5
360
236B0
  3
50
360
236B1
  3
6
360
236B2
  3
7
360
236B3
  3
7-専用部北行
360
236B4
  3
8-ONﾗﾝﾌﾟ
360
236B5
  3
9-OFFﾗﾝﾌﾟ
360
236B6
  3
a
360
236B7
  3
b
360
236B8
  3
B北
360
236B9
  3
c
360
236BA
  3
CAR
360
236BB
  3
d
360
236BC
  3
DIM
360
236BD
  3
DIM2
360
236BE
  3
DIM3
360
236BF
  3
e
360
236C0
  3
E南
360
236C1
  3
GENKYOU
360
236C2
  3
HTXT
360
236C3
  3
HTXT2
360
236C4
  3
KAN
360
236C5
  3
LAND
360
236C6
  3
MASU
360
236C7
  3
OFF
360
236C8
  3
OFST
360
236C9
  3
ON
360
236CA
  3
ｼｭｳｾｲ
360
236CB
  3
ｾﾒﾝﾄ注入量上半円
360
236CC
  3
ﾌﾘｰｽﾞ解除
360
236CD
  3
ﾙｼﾞｵﾝ値下半円
360
236CE
  3
ｓ
360
236CF
  3
その他
360
236D0
  3
セメント注入量
360
236D1
  3
フリーズ以外
360
236D2
  3
ランプ
360
236D3
  3
ルジオン値
360
236D4
  3
ロック
360
236D5
  3
ロック解除
360
236D6
  3
案1
360
236D7
  3
案2
360
236D8
  3
一般
360
236D9
  3
外部参照の非表示画層
360
236DA
  3
形状
360
236DB
  3
形状以外
360
236DC
  3
計画
360
236DD
  3
現況
360
236DE
  3
暫定形
360
236DF
  3
縦断セット
360
236E0
  3
縦断計画
360
236E1
  3
縦断埋設
360
236E2
  3
数量用
360
236E3
  3
専北
360
236E4
  3
専用
360
236E5
  3
線形
360
236E6
  3
全帯
360
236E7
  3
断面
360
236E8
  3
東西線
360
236E9
  3
道路詳細設計　平面図
360
236EA
  3
南北線
360
236EB
  3
非表示
360
236EC
  3
非表示を表示
360
236ED
  3
非表示画層を表示
360
236EE
  3
表示レイヤ－を表示
360
236EF
  3
副道
360
236F0
  3
平面図
360
236F1
  3
埋設
360
236F2
  0
DICTIONARY
  5
236FA
102
{ACAD_REACTORS
330
23697
102
}
330
23697
100
AcDbDictionary
281
     1
  0
LAYOUT
  5
22F96
102
{ACAD_REACTORS
330
22F8E
102
}
330
22F8E
100
AcDbPlotSettings
  1

  2
RICOH IPSiO SP 6210 RPCS
  4
A4
  6

 40
5.873749732971191
 41
5.873747825622558
 42
5.873748779296875
 43
5.873748779296875
 44
209.9733276367187
 45
296.9259948730469
 46
0.0
 47
0.0
 48
0.0
 49
0.0
140
0.0
141
0.0
142
1.0
143
1.0
 70
 11952
 72
     0
 73
     1
 74
     0
  7

 75
     0
147
1.0
148
-217.2087660431323
149
2845.582714520929
100
AcDbLayout
  1
Model
 70
     1
 71
     0
 10
0.0
 20
0.0
 11
12.0
 21
9.0
 12
0.0
 22
0.0
 32
0.0
 14
0.0
 24
0.0
 34
0.0
 15
0.0
 25
0.0
 35
0.0
146
0.0
 13
0.0
 23
0.0
 33
0.0
 16
1.0
 26
0.0
 36
0.0
 17
0.0
 27
1.0
 37
0.0
 76
     0
330
22F93
  0
LAYOUT
  5
22F92
102
{ACAD_REACTORS
330
22F8E
102
}
330
22F8E
100
AcDbPlotSettings
  1

  2
RICOH IPSiO SP 6210 RPCS
  4

  6

 40
0.0
 41
0.0
 42
0.0
 43
0.0
 44
0.0
 45
0.0
 46
0.0
 47
0.0
 48
0.0
 49
0.0
140
0.0
141
0.0
142
1.0
143
1.0
 70
   688
 72
     0
 73
     0
 74
     5
  7
A3.ctb
 75
    16
147
1.0
148
0.0
149
0.0
100
AcDbLayout
  1
ﾚｲｱｳﾄ1
 70
     1
 71
     1
 10
0.0
 20
0.0
 11
12.0
 21
9.0
 12
0.0
 22
0.0
 32
0.0
 14
1.000000000000000E+20
 24
1.000000000000000E+20
 34
1.000000000000000E+20
 15
-1.000000000000000E+20
 25
-1.000000000000000E+20
 35
-1.000000000000000E+20
146
0.0
 13
0.0
 23
0.0
 33
0.0
 16
1.0
 26
0.0
 36
0.0
 17
0.0
 27
1.0
 37
0.0
 76
     0
330
22F8F
  0
MLINESTYLE
  5
22F8C
102
{ACAD_REACTORS
330
22F8B
102
}
330
22F8B
100
AcDbMlineStyle
  2
STANDARD
 70
     0
  3

 62
   256
 51
90.0
 52
90.0
 71
     2
 49
0.5
 62
   256
  6
BYLAYER
 49
-0.5
 62
   256
  6
BYLAYER
  0
ACDBPLACEHOLDER
  5
22F84
102
{ACAD_REACTORS
330
22F83
102
}
330
22F83
  0
DICTIONARYVAR
  5
23846
102
{ACAD_REACTORS
330
23845
102
}
330
23845
100
DictionaryVariables
280
     0
  1
1
  0
XRECORD
  5
23699
102
{ACAD_REACTORS
330
23698
102
}
330
23698
100
AcDbXrecord
280
     1
  1
0
  1
0*
  1
*
  1
*
 70
     0
  1
*
  1
*
  0
XRECORD
  5
2369A
102
{ACAD_REACTORS
330
23698
102
}
330
23698
100
AcDbXrecord
280
     1
  1
01全体計画平面図
  1
00*,01*,0A*,0E-2*
  1
*
  1
*
 70
     0
  1
*
  1
*
  0
XRECORD
  5
2369B
102
{ACAD_REACTORS
330
23698
102
}
330
23698
100
AcDbXrecord
280
     1
  1
02現況平面図
  1
00*,02*,0B*
  1
*
  1
*
 70
     0
  1
*
  1
*
  0
XRECORD
  5
2369C
102
{ACAD_REACTORS
330
23698
102
}
330
23698
100
AcDbXrecord
280
     1
  1
03撤去平面図
  1
00*,01*,0C*
  1
*
  1
*
 70
     0
  1
*
  1
*
  0
XRECORD
  5
2369D
102
{ACAD_REACTORS
330
23698
102
}
330
23698
100
AcDbXrecord
280
     1
  1
04造成平面図
  1
00*,02*,0D*,03*
  1
*
  1
*
 70
     0
  1
*
  1
*
  0
XRECORD
  5
2369E
102
{ACAD_REACTORS
330
23698
102
}
330
23698
100
AcDbXrecord
280
     1
  1
05施設平面図
  1
00*,02*,0E*
  1
*
  1
*
 70
     0
  1
*
  1
*
  0
XRECORD
  5
2369F
102
{ACAD_REACTORS
330
23698
102
}
330
23698
100
AcDbXrecord
280
     1
  1
06排水平面図
  1
00*,02*,0F*
  1
*
  1
*
 70
     0
  1
*
  1
*
  0
XRECORD
  5
236A0
102
{ACAD_REACTORS
330
23698
102
}
330
23698
100
AcDbXrecord
280
     1
  1
07給水平面図
  1
00*,02*,0G*
  1
*
  1
*
 70
     0
  1
*
  1
*
  0
XRECORD
  5
236A1
102
{ACAD_REACTORS
330
23698
102
}
330
23698
100
AcDbXrecord
280
     1
  1
08電気平面図
  1
00*,02*,0H*
  1
*
  1
*
 70
     0
  1
*
  1
*
  0
XRECORD
  5
236A2
102
{ACAD_REACTORS
330
23698
102
}
330
23698
100
AcDbXrecord
280
     1
  1
09植栽平面図-1
  1
00*,02*,0I*
  1
*
  1
*
 70
     0
  1
*
  1
*
  0
XRECORD
  5
236A3
102
{ACAD_REACTORS
330
23698
102
}
330
23698
100
AcDbXrecord
280
     1
  1
1
  1
*計画*
  1
*
  1
*
 70
     0
  1
*
  1
*
  0
XRECORD
  5
236A4
102
{ACAD_REACTORS
330
23698
102
}
330
23698
100
AcDbXrecord
280
     1
  1
1-交差点処理図（最新1案）
  1
*交差点処理図（最新1案）*
  1
*
  1
*
 70
     0
  1
*
  1
*
  0
XRECORD
  5
236A5
102
{ACAD_REACTORS
330
23698
102
}
330
23698
100
AcDbXrecord
280
     1
  1
10植栽平面図-2
  1
00*,02*,0J*
  1
*
  1
*
 70
     0
  1
*
  1
*
  0
XRECORD
  5
236A6
102
{ACAD_REACTORS
330
23698
102
}
330
23698
100
AcDbXrecord
280
     1
  1
11寸法図
  1
00*,02*,0K*,03*
  1
*
  1
*
 70
     0
  1
*
  1
*
  0
XRECORD
  5
236A7
102
{ACAD_REACTORS
330
23698
102
}
330
23698
100
AcDbXrecord
280
     1
  1
1次施工
  1
*1次*
  1
*
  1
*
 70
     0
  1
*
  1
*
  0
XRECORD
  5
236A8
102
{ACAD_REACTORS
330
23698
102
}
330
23698
100
AcDbXrecord
280
     1
  1
2
  1
*SOKUTENME
  1
*
  1
*
 70
     0
  1
*
  1
*
  0
XRECORD
  5
236A9
102
{ACAD_REACTORS
330
23698
102
}
330
23698
100
AcDbXrecord
280
     1
  1
2-線形図1
  1
*線形図1*
  1
*
  1
*
 70
     0
  1
*
  1
*
  0
XRECORD
  5
236AA
102
{ACAD_REACTORS
330
23698
102
}
330
23698
100
AcDbXrecord
280
     1
  1
2次施工
  1
*2次*
  1
*
  1
*
 70
     0
  1
*
  1
*
  0
XRECORD
  5
236AB
102
{ACAD_REACTORS
330
23698
102
}
330
23698
100
AcDbXrecord
280
     1
  1
3
  1
*下部工*
  1
*
  1
*
 70
     0
  1
*
  1
*
  0
XRECORD
  5
236AC
102
{ACAD_REACTORS
330
23698
102
}
330
23698
100
AcDbXrecord
280
     1
  1
3-線形図2
  1
*線形図2*
  1
*
  1
*
 70
     0
  1
*
  1
*
  0
XRECORD
  5
236AD
102
{ACAD_REACTORS
330
23698
102
}
330
23698
100
AcDbXrecord
280
     1
  1
3次施工
  1
*3次*
  1
*
  1
*
 70
     0
  1
*
  1
*
  0
XRECORD
  5
236AE
102
{ACAD_REACTORS
330
23698
102
}
330
23698
100
AcDbXrecord
280
     1
  1
4
  1
*
  1
4
  1
*
 70
     0
  1
*
  1
*
  0
XRECORD
  5
236AF
102
{ACAD_REACTORS
330
23698
102
}
330
23698
100
AcDbXrecord
280
     1
  1
4次施工
  1
*4次*
  1
*
  1
*
 70
     0
  1
*
  1
*
  0
XRECORD
  5
236B0
102
{ACAD_REACTORS
330
23698
102
}
330
23698
100
AcDbXrecord
280
     1
  1
5
  1
*
  1
5
  1
*
 70
     0
  1
*
  1
*
  0
XRECORD
  5
236B1
102
{ACAD_REACTORS
330
23698
102
}
330
23698
100
AcDbXrecord
280
     1
  1
50
  1
*-50
  1
*
  1
*
 70
     0
  1
*
  1
*
  0
XRECORD
  5
236B2
102
{ACAD_REACTORS
330
23698
102
}
330
23698
100
AcDbXrecord
280
     1
  1
6
  1
*
  1
6
  1
*
 70
     0
  1
*
  1
*
  0
XRECORD
  5
236B3
102
{ACAD_REACTORS
330
23698
102
}
330
23698
100
AcDbXrecord
280
     1
  1
7
  1
*
  1
7
  1
*
 70
     0
  1
*
  1
*
  0
XRECORD
  5
236B4
102
{ACAD_REACTORS
330
23698
102
}
330
23698
100
AcDbXrecord
280
     1
  1
7-専用部北行
  1
80*,90*,A0*,B0*,
  1
*
  1
*
 70
     0
  1
*
  1
*
  0
XRECORD
  5
236B5
102
{ACAD_REACTORS
330
23698
102
}
330
23698
100
AcDbXrecord
280
     1
  1
8-ONﾗﾝﾌﾟ
  1
70*,90*,A0*,B0*,
  1
*
  1
*
 70
     0
  1
*
  1
*
  0
XRECORD
  5
236B6
102
{ACAD_REACTORS
330
23698
102
}
330
23698
100
AcDbXrecord
280
     1
  1
9-OFFﾗﾝﾌﾟ
  1
70*,80*,A0*B0*,
  1
*
  1
*
 70
     0
  1
*
  1
*
  0
XRECORD
  5
236B7
102
{ACAD_REACTORS
330
23698
102
}
330
23698
100
AcDbXrecord
280
     1
  1
a
  1
*A_*
  1
*
  1
*
 70
    12
  1
*
  1
*
  0
XRECORD
  5
236B8
102
{ACAD_REACTORS
330
23698
102
}
330
23698
100
AcDbXrecord
280
     1
  1
b
  1
*b_*
  1
*
  1
*
 70
    12
  1
*
  1
*
  0
XRECORD
  5
236B9
102
{ACAD_REACTORS
330
23698
102
}
330
23698
100
AcDbXrecord
280
     1
  1
B北
  1
*B北*
  1
*
  1
*
 70
     0
  1
*
  1
*
  0
XRECORD
  5
236BA
102
{ACAD_REACTORS
330
23698
102
}
330
23698
100
AcDbXrecord
280
     1
  1
c
  1
*c_*
  1
*
  1
*
 70
    12
  1
*
  1
*
  0
XRECORD
  5
236BB
102
{ACAD_REACTORS
330
23698
102
}
330
23698
100
AcDbXrecord
280
     1
  1
CAR
  1
CAR*
  1
*
  1
*
 70
     0
  1
*
  1
*
  0
XRECORD
  5
236BC
102
{ACAD_REACTORS
330
23698
102
}
330
23698
100
AcDbXrecord
280
     1
  1
d
  1
*d_*
  1
*
  1
*
 70
    12
  1
*
  1
*
  0
XRECORD
  5
236BD
102
{ACAD_REACTORS
330
23698
102
}
330
23698
100
AcDbXrecord
280
     1
  1
DIM
  1
*DIM
  1
*
  1
*
 70
     0
  1
*
  1
*
  0
XRECORD
  5
236BE
102
{ACAD_REACTORS
330
23698
102
}
330
23698
100
AcDbXrecord
280
     1
  1
DIM2
  1
*DIM2
  1
*
  1
*
 70
     0
  1
*
  1
*
  0
XRECORD
  5
236BF
102
{ACAD_REACTORS
330
23698
102
}
330
23698
100
AcDbXrecord
280
     1
  1
DIM3
  1
*DIM3
  1
*
  1
*
 70
     0
  1
*
  1
*
  0
XRECORD
  5
236C0
102
{ACAD_REACTORS
330
23698
102
}
330
23698
100
AcDbXrecord
280
     1
  1
e
  1
*e_*
  1
*
  1
*
 70
    12
  1
*
  1
*
  0
XRECORD
  5
236C1
102
{ACAD_REACTORS
330
23698
102
}
330
23698
100
AcDbXrecord
280
     1
  1
E南
  1
*E*南*
  1
*
  1
*
 70
     0
  1
*
  1
*
  0
XRECORD
  5
236C2
102
{ACAD_REACTORS
330
23698
102
}
330
23698
100
AcDbXrecord
280
     1
  1
GENKYOU
  1
*G*
  1
*
  1
*
 70
     0
  1
*
  1
*
  0
XRECORD
  5
236C3
102
{ACAD_REACTORS
330
23698
102
}
330
23698
100
AcDbXrecord
280
     1
  1
HTXT
  1
*HTXT
  1
*
  1
*
 70
     0
  1
*
  1
*
  0
XRECORD
  5
236C4
102
{ACAD_REACTORS
330
23698
102
}
330
23698
100
AcDbXrecord
280
     1
  1
HTXT2
  1
*HTXT2
  1
*
  1
*
 70
     0
  1
*
  1
*
  0
XRECORD
  5
236C5
102
{ACAD_REACTORS
330
23698
102
}
330
23698
100
AcDbXrecord
280
     1
  1
KAN
  1
W,S,T,G,E,
  1
*
  1
*
 70
     0
  1
*
  1
*
  0
XRECORD
  5
236C6
102
{ACAD_REACTORS
330
23698
102
}
330
23698
100
AcDbXrecord
280
     1
  1
LAND
  1
*
  1
*
  1
*
 70
     0
  1
*
  1
*
  0
XRECORD
  5
236C7
102
{ACAD_REACTORS
330
23698
102
}
330
23698
100
AcDbXrecord
280
     1
  1
MASU
  1
*MASU
  1
*
  1
*
 70
     0
  1
*
  1
*
  0
XRECORD
  5
236C8
102
{ACAD_REACTORS
330
23698
102
}
330
23698
100
AcDbXrecord
280
     1
  1
OFF
  1
*OFF*
  1
*
  1
*
 70
     0
  1
*
  1
*
  0
XRECORD
  5
236C9
102
{ACAD_REACTORS
330
23698
102
}
330
23698
100
AcDbXrecord
280
     1
  1
OFST
  1
*OFST
  1
*
  1
*
 70
     0
  1
*
  1
*
  0
XRECORD
  5
236CA
102
{ACAD_REACTORS
330
23698
102
}
330
23698
100
AcDbXrecord
280
     1
  1
ON
  1
*ON*
  1
*
  1
*
 70
     0
  1
*
  1
*
  0
XRECORD
  5
236CB
102
{ACAD_REACTORS
330
23698
102
}
330
23698
100
AcDbXrecord
280
     1
  1
ｼｭｳｾｲ
  1
*
  1
*
  1
*
 70
     0
  1
*
  1
*
  0
XRECORD
  5
236CC
102
{ACAD_REACTORS
330
23698
102
}
330
23698
100
AcDbXrecord
280
     1
  1
ｾﾒﾝﾄ注入量上半円
  1
CE-?-T-?
  1
*
  1
*
 70
     0
  1
*
  1
*
  0
XRECORD
  5
236CD
102
{ACAD_REACTORS
330
23698
102
}
330
23698
100
AcDbXrecord
280
     1
  1
ﾌﾘｰｽﾞ解除
  1
*
  1
*
  1
*
 70
    12
  1
*
  1
*
  0
XRECORD
  5
236CE
102
{ACAD_REACTORS
330
23698
102
}
330
23698
100
AcDbXrecord
280
     1
  1
ﾙｼﾞｵﾝ値下半円
  1
LU-?-B-?
  1
*
  1
*
 70
     0
  1
*
  1
*
  0
XRECORD
  5
236CF
102
{ACAD_REACTORS
330
23698
102
}
330
23698
100
AcDbXrecord
280
     1
  1
ｓ
  1
*SOKUTENME
  1
*
  1
*
 70
     0
  1
*
  1
*
  0
XRECORD
  5
236D0
102
{ACAD_REACTORS
330
23698
102
}
330
23698
100
AcDbXrecord
280
     1
  1
その他
  1
O*
  1
*
  1
*
 70
     0
  1
*
  1
*
  0
XRECORD
  5
236D1
102
{ACAD_REACTORS
330
23698
102
}
330
23698
100
AcDbXrecord
280
     1
  1
セメント注入量
  1
CE-*
  1
*
  1
*
 70
     0
  1
*
  1
*
  0
XRECORD
  5
236D2
102
{ACAD_REACTORS
330
23698
102
}
330
23698
100
AcDbXrecord
280
     1
  1
フリーズ以外
  1
*
  1
*
  1
*
 70
    12
  1
*
  1
*
  0
XRECORD
  5
236D3
102
{ACAD_REACTORS
330
23698
102
}
330
23698
100
AcDbXrecord
280
     1
  1
ランプ
  1
*ランプ*
  1
*
  1
*
 70
     0
  1
*
  1
*
  0
XRECORD
  5
236D4
102
{ACAD_REACTORS
330
23698
102
}
330
23698
100
AcDbXrecord
280
     1
  1
ルジオン値
  1
LU-*
  1
*
  1
*
 70
     0
  1
*
  1
*
  0
XRECORD
  5
236D5
102
{ACAD_REACTORS
330
23698
102
}
330
23698
100
AcDbXrecord
280
     1
  1
ロック
  1
*
  1
*
  1
*
 70
   256
  1
*
  1
*
  0
XRECORD
  5
236D6
102
{ACAD_REACTORS
330
23698
102
}
330
23698
100
AcDbXrecord
280
     1
  1
ロック解除
  1
*
  1
*
  1
*
 70
   768
  1
*
  1
*
  0
XRECORD
  5
236D7
102
{ACAD_REACTORS
330
23698
102
}
330
23698
100
AcDbXrecord
280
     1
  1
案1
  1
*案1
  1
*
  1
*
 70
     0
  1
*
  1
*
  0
XRECORD
  5
236D8
102
{ACAD_REACTORS
330
23698
102
}
330
23698
100
AcDbXrecord
280
     1
  1
案2
  1
*案2
  1
*
  1
*
 70
     0
  1
*
  1
*
  0
XRECORD
  5
236D9
102
{ACAD_REACTORS
330
23698
102
}
330
23698
100
AcDbXrecord
280
     1
  1
一般
  1
*般*
  1
*
  1
*
 70
     0
  1
*
  1
*
  0
XRECORD
  5
236DA
102
{ACAD_REACTORS
330
23698
102
}
330
23698
100
AcDbXrecord
280
     1
  1
外部参照の非表示画層
  1
*
  1
*
  1
*
 70
     0
  1
*
  1
*
  0
XRECORD
  5
236DB
102
{ACAD_REACTORS
330
23698
102
}
330
23698
100
AcDbXrecord
280
     1
  1
形状
  1
pen1,pen3,pen4,up,dia,low
  1
*
  1
*
 70
     0
  1
*
  1
*
  0
XRECORD
  5
236DC
102
{ACAD_REACTORS
330
23698
102
}
330
23698
100
AcDbXrecord
280
     1
  1
形状以外
  1
dim,cen,text,sakuzu1,sakuzu2,siten,defpoints,0
  1
*
  1
*
 70
     0
  1
*
  1
*
  0
XRECORD
  5
236DD
102
{ACAD_REACTORS
330
23698
102
}
330
23698
100
AcDbXrecord
280
     1
  1
計画
  1
K*
  1
*
  1
*
 70
     0
  1
*
  1
*
  0
XRECORD
  5
236DE
102
{ACAD_REACTORS
330
23698
102
}
330
23698
100
AcDbXrecord
280
     1
  1
現況
  1
G*
  1
*
  1
*
 70
     0
  1
*
  1
*
  0
XRECORD
  5
236DF
102
{ACAD_REACTORS
330
23698
102
}
330
23698
100
AcDbXrecord
280
     1
  1
暫定形
  1
*暫*
  1
*
  1
*
 70
     0
  1
*
  1
*
  0
XRECORD
  5
236E0
102
{ACAD_REACTORS
330
23698
102
}
330
23698
100
AcDbXrecord
280
     1
  1
縦断セット
  1
JO*
  1
*
  1
*
 70
     0
  1
*
  1
*
  0
XRECORD
  5
236E1
102
{ACAD_REACTORS
330
23698
102
}
330
23698
100
AcDbXrecord
280
     1
  1
縦断計画
  1
JK*
  1
*
  1
*
 70
     0
  1
*
  1
*
  0
XRECORD
  5
236E2
102
{ACAD_REACTORS
330
23698
102
}
330
23698
100
AcDbXrecord
280
     1
  1
縦断埋設
  1
JM*
  1
*
  1
*
 70
     0
  1
*
  1
*
  0
XRECORD
  5
236E3
102
{ACAD_REACTORS
330
23698
102
}
330
23698
100
AcDbXrecord
280
     1
  1
数量用
  1
*数量用*
  1
*
  1
*
 70
     0
  1
*
  1
*
  0
XRECORD
  5
236E4
102
{ACAD_REACTORS
330
23698
102
}
330
23698
100
AcDbXrecord
280
     1
  1
専北
  1
*専北*
  1
*
  1
*
 70
     0
  1
*
  1
*
  0
XRECORD
  5
236E5
102
{ACAD_REACTORS
330
23698
102
}
330
23698
100
AcDbXrecord
280
     1
  1
専用
  1
*専*
  1
*
  1
*
 70
     0
  1
*
  1
*
  0
XRECORD
  5
236E6
102
{ACAD_REACTORS
330
23698
102
}
330
23698
100
AcDbXrecord
280
     1
  1
線形
  1
*線形*
  1
*
  1
*
 70
     0
  1
*
  1
*
  0
XRECORD
  5
236E7
102
{ACAD_REACTORS
330
23698
102
}
330
23698
100
AcDbXrecord
280
     1
  1
全帯
  1
*帯*
  1
*
  1
*
 70
     0
  1
*
  1
*
  0
XRECORD
  5
236E8
102
{ACAD_REACTORS
330
23698
102
}
330
23698
100
AcDbXrecord
280
     1
  1
断面
  1
*断面*
  1
*
  1
*
 70
     0
  1
*
  1
*
  0
XRECORD
  5
236E9
102
{ACAD_REACTORS
330
23698
102
}
330
23698
100
AcDbXrecord
280
     1
  1
東西線
  1
*A
  1
*
  1
*
 70
     0
  1
*
  1
*
  0
XRECORD
  5
236EA
102
{ACAD_REACTORS
330
23698
102
}
330
23698
100
AcDbXrecord
280
     1
  1
道路詳細設計　平面図
  1
道路中心線
  1
*
  1
*
 70
     0
  1
*
  1
*
  0
XRECORD
  5
236EB
102
{ACAD_REACTORS
330
23698
102
}
330
23698
100
AcDbXrecord
280
     1
  1
南北線
  1
*B
  1
*
  1
*
 70
     0
  1
*
  1
*
  0
XRECORD
  5
236EC
102
{ACAD_REACTORS
330
23698
102
}
330
23698
100
AcDbXrecord
280
     1
  1
非表示
  1
z*
  1
*
  1
*
 70
     0
  1
*
  1
*
  0
XRECORD
  5
236ED
102
{ACAD_REACTORS
330
23698
102
}
330
23698
100
AcDbXrecord
280
     1
  1
非表示を表示
  1
*
  1
*
  1
*
 70
     3
  1
*
  1
*
  0
XRECORD
  5
236EE
102
{ACAD_REACTORS
330
23698
102
}
330
23698
100
AcDbXrecord
280
     1
  1
非表示画層を表示
  1
*
  1
*
  1
*
 70
     3
  1
*
  1
*
  0
XRECORD
  5
236EF
102
{ACAD_REACTORS
330
23698
102
}
330
23698
100
AcDbXrecord
280
     1
  1
表示レイヤ－を表示
  1
*
  1
*
  1
*
 70
     1
  1
*
  1
*
  0
XRECORD
  5
236F0
102
{ACAD_REACTORS
330
23698
102
}
330
23698
100
AcDbXrecord
280
     1
  1
副道
  1
*副*
  1
*
  1
*
 70
     0
  1
*
  1
*
  0
XRECORD
  5
236F1
102
{ACAD_REACTORS
330
23698
102
}
330
23698
100
AcDbXrecord
280
     1
  1
平面図
  1
*平*
  1
*
  1
*
 70
     0
  1
*
  1
*
  0
XRECORD
  5
236F2
102
{ACAD_REACTORS
330
23698
102
}
330
23698
100
AcDbXrecord
280
     1
  1
埋設
  1
M*
  1
*
  1
*
 70
     0
  1
*
  1
*
  0
ENDSEC
  0
EOF
