  0
SECTION
  2
HEADER
  9
$ACADVER
  1
AC1014
  9
$ACADMAINTVER
 70
     9
  9
$DWGCODEPAGE
  3
ANSI_932
  9
$INSBASE
 10
0.0
 20
0.0
 30
0.0
  9
$EXTMIN
 10
726.7875035626714
 20
403.1006285101339
 30
-0.0000000000000057
  9
$EXTMAX
 10
1133.828070468366
 20
658.3320958700226
 30
0.0000000000000104
  9
$LIMMIN
 10
696.248231648284
 20
399.8920328102921
  9
$LIMMAX
 10
1147.238870744714
 20
668.9899763901252
  9
$ORTHOMODE
 70
     0
  9
$REGENMODE
 70
     1
  9
$FILLMODE
 70
     1
  9
$QTEXTMODE
 70
     0
  9
$MIRRTEXT
 70
     1
  9
$DRAGMODE
 70
     2
  9
$LTSCALE
 40
23.1
  9
$OSMODE
 70
  3071
  9
$ATTMODE
 70
     1
  9
$TEXTSIZE
 40
0.2
  9
$TRACEWID
 40
1.0
  9
$TEXTSTYLE
  7
STANDARD
  9
$CLAYER
  8
寸法
  9
$CELTYPE
  6
BYLAYER
  9
$CECOLOR
 62
   256
  9
$CELTSCALE
 40
1.0
  9
$DELOBJ
 70
     1
  9
$DISPSILH
 70
     0
  9
$DIMSCALE
 40
1.0
  9
$DIMASZ
 40
2.0
  9
$DIMEXO
 40
2.625
  9
$DIMDLI
 40
15.96
  9
$DIMRND
 40
0.0
  9
$DIMDLE
 40
0.0
  9
$DIMEXE
 40
7.559999999999997
  9
$DIMTP
 40
0.001
  9
$DIMTM
 40
0.001
  9
$DIMTXT
 40
5.0
  9
$DIMCEN
 40
3.779999999999998
  9
$DIMTSZ
 40
0.0
  9
$DIMTOL
 70
     0
  9
$DIMLIM
 70
     0
  9
$DIMTIH
 70
     0
  9
$DIMTOH
 70
     0
  9
$DIMSE1
 70
     0
  9
$DIMSE2
 70
     0
  9
$DIMTAD
 70
     1
  9
$DIMZIN
 70
     8
  9
$DIMBLK
  1
OPEN30
  9
$DIMASO
 70
     1
  9
$DIMSHO
 70
     1
  9
$DIMPOST
  1

  9
$DIMAPOST
  1

  9
$DIMALT
 70
     0
  9
$DIMALTD
 70
     4
  9
$DIMALTF
 40
0.0394
  9
$DIMLFAC
 40
1.0
  9
$DIMTOFL
 70
     1
  9
$DIMTVP
 40
0.0
  9
$DIMTIX
 70
     0
  9
$DIMSOXD
 70
     0
  9
$DIMSAH
 70
     0
  9
$DIMBLK1
  1

  9
$DIMBLK2
  1

  9
$DIMSTYLE
  2
STANDARD
  9
$DIMCLRD
 70
     0
  9
$DIMCLRE
 70
     0
  9
$DIMCLRT
 70
     0
  9
$DIMTFAC
 40
1.0
  9
$DIMGAP
 40
0.625
  9
$DIMJUST
 70
     0
  9
$DIMSD1
 70
     0
  9
$DIMSD2
 70
     0
  9
$DIMTOLJ
 70
     1
  9
$DIMTZIN
 70
     0
  9
$DIMALTZ
 70
     0
  9
$DIMALTTZ
 70
     0
  9
$DIMFIT
 70
     3
  9
$DIMUPT
 70
     0
  9
$DIMUNIT
 70
     2
  9
$DIMDEC
 70
     4
  9
$DIMTDEC
 70
     4
  9
$DIMALTU
 70
     8
  9
$DIMALTTD
 70
     4
  9
$DIMTXSTY
  7
STANDARD
  9
$DIMAUNIT
 70
     0
  9
$LUNITS
 70
     2
  9
$LUPREC
 70
     4
  9
$SKETCHINC
 40
1.0
  9
$FILLETRAD
 40
10.0
  9
$AUNITS
 70
     0
  9
$AUPREC
 70
     0
  9
$MENU
  1
acad
  9
$ELEVATION
 40
0.0
  9
$PELEVATION
 40
0.0
  9
$THICKNESS
 40
0.0
  9
$LIMCHECK
 70
     0
  9
$BLIPMODE
 70
     0
  9
$CHAMFERA
 40
10.0
  9
$CHAMFERB
 40
10.0
  9
$CHAMFERC
 40
20.0
  9
$CHAMFERD
 40
0.0
  9
$SKPOLY
 70
     0
  9
$TDCREATE
 40
2454127.846746192
  9
$TDUPDATE
 40
2455240.557859027
  9
$TDINDWG
 40
0.0950889583
  9
$TDUSRTIMER
 40
0.0950884144
  9
$USRTIMER
 70
     1
  9
$ANGBASE
 50
0.0
  9
$ANGDIR
 70
     0
  9
$PDMODE
 70
     0
  9
$PDSIZE
 40
0.0
  9
$PLINEWID
 40
0.0
  9
$COORDS
 70
     0
  9
$SPLFRAME
 70
     0
  9
$SPLINETYPE
 70
     6
  9
$SPLINESEGS
 70
     8
  9
$ATTDIA
 70
     0
  9
$ATTREQ
 70
     1
  9
$HANDLING
 70
     1
  9
$HANDSEED
  5
30A1
  9
$SURFTAB1
 70
     6
  9
$SURFTAB2
 70
     6
  9
$SURFTYPE
 70
     6
  9
$SURFU
 70
     6
  9
$SURFV
 70
     6
  9
$UCSNAME
  2

  9
$UCSORG
 10
0.0
 20
0.0
 30
0.0
  9
$UCSXDIR
 10
1.0
 20
0.0
 30
0.0
  9
$UCSYDIR
 10
0.0
 20
1.0
 30
0.0
  9
$PUCSNAME
  2

  9
$PUCSORG
 10
0.0
 20
0.0
 30
0.0
  9
$PUCSXDIR
 10
1.0
 20
0.0
 30
0.0
  9
$PUCSYDIR
 10
0.0
 20
1.0
 30
0.0
  9
$USERI1
 70
     0
  9
$USERI2
 70
     0
  9
$USERI3
 70
     0
  9
$USERI4
 70
     0
  9
$USERI5
 70
     0
  9
$USERR1
 40
0.0
  9
$USERR2
 40
0.0
  9
$USERR3
 40
0.0
  9
$USERR4
 40
0.0
  9
$USERR5
 40
0.0
  9
$WORLDVIEW
 70
     1
  9
$SHADEDGE
 70
     3
  9
$SHADEDIF
 70
    70
  9
$TILEMODE
 70
     1
  9
$MAXACTVP
 70
    48
  9
$PINSBASE
 10
0.0
 20
0.0
 30
0.0
  9
$PLIMCHECK
 70
     0
  9
$PEXTMIN
 10
1.000000000000000E+20
 20
1.000000000000000E+20
 30
1.000000000000000E+20
  9
$PEXTMAX
 10
-1.000000000000000E+20
 20
-1.000000000000000E+20
 30
-1.000000000000000E+20
  9
$PLIMMIN
 10
0.0
 20
0.0
  9
$PLIMMAX
 10
420.0
 20
297.0
  9
$UNITMODE
 70
     0
  9
$VISRETAIN
 70
     1
  9
$PLINEGEN
 70
     0
  9
$PSLTSCALE
 70
     1
  9
$TREEDEPTH
 70
  3020
  9
$PICKSTYLE
 70
     1
  9
$CMLSTYLE
  2
STANDARD
  9
$CMLJUST
 70
     0
  9
$CMLSCALE
 40
20.0
  9
$PROXYGRAPHICS
 70
     1
  9
$MEASUREMENT
 70
     1
  0
ENDSEC
  0
SECTION
  2
CLASSES
  0
CLASS
  1
HATCH
  2
AcDbHatch
  3
AutoCAD 2000
 90
        0
280
     0
281
     1
  0
CLASS
  1
ACDBDICTIONARYWDFLT
  2
AcDbDictionaryWithDefault
  3
AutoCAD 2000
 90
        0
280
     0
281
     0
  0
CLASS
  1
ACDBPLACEHOLDER
  2
AcDbPlaceHolder
  3
AutoCAD 2000
 90
        0
280
     0
281
     0
  0
CLASS
  1
LAYOUT
  2
AcDbLayout
  3
AutoCAD 2000
 90
        0
280
     0
281
     0
  0
CLASS
  1
DICTIONARYVAR
  2
AcDbDictionaryVar
  3
AutoCAD 2000
 90
        0
280
     0
281
     0
  0
CLASS
  1
LONG_TRANSACTION
  2
AcDbLongTransaction
  3
AutoCAD 2000
 90
        0
280
     0
281
     0
  0
CLASS
  1
LWPOLYLINE
  2
AcDbPolyline
  3
AutoCAD 2000
 90
        0
280
     0
281
     1
  0
CLASS
  1
HATCH
  2
AcDbHatch
  3
AutoCAD 2000
 90
        0
280
     0
281
     1
  0
CLASS
  1
XRECORD
  2
AcDbXrecord
  3
AutoCAD 2000
 90
        0
280
     0
281
     0
  0
CLASS
  1
LONG_TRANSACTION
  2
AcDbLongTransaction
  3
AutoCAD 2000
 90
        0
280
     0
281
     0
  0
CLASS
  1
LWPOLYLINE
  2
AcDbPolyline
  3
AutoCAD 2000
 90
        0
280
     0
281
     1
  0
CLASS
  1
HATCH
  2
AcDbHatch
  3
AutoCAD 2000
 90
        0
280
     0
281
     1
  0
CLASS
  1
XRECORD
  2
AcDbXrecord
  3
AutoCAD 2000
 90
        0
280
     0
281
     0
  0
CLASS
  1
LONG_TRANSACTION
  2
AcDbLongTransaction
  3
AutoCAD 2000
 90
        0
280
     0
281
     0
  0
CLASS
  1
LWPOLYLINE
  2
AcDbPolyline
  3
AutoCAD 2000
 90
        0
280
     0
281
     1
  0
CLASS
  1
HATCH
  2
AcDbHatch
  3
AutoCAD 2000
 90
        0
280
     0
281
     1
  0
CLASS
  1
XRECORD
  2
AcDbXrecord
  3
AutoCAD 2000
 90
        0
280
     0
281
     0
  0
ENDSEC
  0
SECTION
  2
TABLES
  0
TABLE
  2
VPORT
  5
8
330
0
100
AcDbSymbolTable
 70
     4
  0
VPORT
  5
307D
330
8
100
AcDbSymbolTableRecord
100
AcDbViewportTableRecord
  2
*ACTIVE
 70
     0
 10
0.0
 20
0.0
 11
1.0
 21
1.0
 12
921.7435511964991
 22
534.4410046002088
 13
0.0
 23
0.0
 14
1.0
 24
1.0
 15
0.0
 25
0.0
 16
0.0
 26
0.0
 36
1.0
 17
0.0
 27
0.0
 37
0.0
 40
381.2910086011744
 41
1.190355329949238
 42
50.0
 43
0.0
 44
0.0
 50
0.0
 51
0.0
 71
     0
 72
   100
 73
     1
 74
     1
 75
     0
 76
     0
 77
     0
 78
     0
  0
ENDTAB
  0
TABLE
  2
LTYPE
  5
5
330
0
100
AcDbSymbolTable
 70
     3
  0
LTYPE
  5
14
330
5
100
AcDbSymbolTableRecord
100
AcDbLinetypeTableRecord
  2
BYBLOCK
 70
     0
  3

 72
    65
 73
     0
 40
0.0
  0
LTYPE
  5
15
330
5
100
AcDbSymbolTableRecord
100
AcDbLinetypeTableRecord
  2
BYLAYER
 70
     0
  3

 72
    65
 73
     0
 40
0.0
  0
LTYPE
  5
16
330
5
100
AcDbSymbolTableRecord
100
AcDbLinetypeTableRecord
  2
CONTINUOUS
 70
     0
  3
Solid line
 72
    65
 73
     0
 40
0.0
  0
LTYPE
  5
1F5
330
5
100
AcDbSymbolTableRecord
100
AcDbLinetypeTableRecord
  2
CENTER
 70
     0
  3
____ _ ____ _ ____ _ ____ _ ____ _ ____ _ ____
 72
    65
 73
     4
 40
0.6
 49
0.375
 74
     0
 49
-0.075
 74
     0
 49
0.075
 74
     0
 49
-0.075
 74
     0
  0
LTYPE
  5
1D41
330
5
100
AcDbSymbolTableRecord
100
AcDbLinetypeTableRecord
  2
DASHDOT
 70
     0
  3
__ . __ . __ . __ . __ . __ . __ . __ . __ . __
 72
    65
 73
     4
 40
1.0
 49
0.5
 74
     0
 49
-0.25
 74
     0
 49
0.0
 74
     0
 49
-0.25
 74
     0
  0
ENDTAB
  0
TABLE
  2
LAYER
  5
2
102
{ACAD_XDICTIONARY
360
D91
102
}
330
0
100
AcDbSymbolTable
 70
    12
  0
LAYER
  5
10
330
2
100
AcDbSymbolTableRecord
100
AcDbLayerTableRecord
  2
0
 70
     0
 62
     7
  6
CONTINUOUS
  0
LAYER
  5
1FA
330
2
100
AcDbSymbolTableRecord
100
AcDbLayerTableRecord
  2
DEFAULT_1
 70
     0
 62
     7
  6
CENTER
  0
LAYER
  5
20A
330
2
100
AcDbSymbolTableRecord
100
AcDbLayerTableRecord
  2
2_ALL_NOTES
 70
     0
 62
     7
  6
CONTINUOUS
  0
LAYER
  5
214
330
2
100
AcDbSymbolTableRecord
100
AcDbLayerTableRecord
  2
7_ALL_DRAFT_GEOMS
 70
     0
 62
     7
  6
CONTINUOUS
  0
LAYER
  5
215
330
2
100
AcDbSymbolTableRecord
100
AcDbLayerTableRecord
  2
7_ALL_FEATURES
 70
     0
 62
     7
  6
CONTINUOUS
  0
LAYER
  5
D63
330
2
100
AcDbSymbolTableRecord
100
AcDbLayerTableRecord
  2
DEFPOINTS
 70
     0
 62
     7
  6
CONTINUOUS
  0
LAYER
  5
E16
330
2
100
AcDbSymbolTableRecord
100
AcDbLayerTableRecord
  2
寸法
 70
     0
 62
    40
  6
CONTINUOUS
  0
LAYER
  5
1148
330
2
100
AcDbSymbolTableRecord
100
AcDbLayerTableRecord
  2
実線
 70
     0
 62
     3
  6
CONTINUOUS
  0
LAYER
  5
1149
330
2
100
AcDbSymbolTableRecord
100
AcDbLayerTableRecord
  2
文字
 70
     0
 62
     7
  6
CONTINUOUS
  0
LAYER
  5
1D42
330
2
100
AcDbSymbolTableRecord
100
AcDbLayerTableRecord
  2
1
 70
     0
 62
     3
  6
CONTINUOUS
  0
LAYER
  5
1FD7
330
2
100
AcDbSymbolTableRecord
100
AcDbLayerTableRecord
  2
1_ALL_DRAFT_DIMS
 70
     0
 62
     7
  6
CONTINUOUS
  0
LAYER
  5
1FD8
330
2
100
AcDbSymbolTableRecord
100
AcDbLayerTableRecord
  2
5_ALL_CURVES
 70
     0
 62
     7
  6
CONTINUOUS
  0
ENDTAB
  0
TABLE
  2
STYLE
  5
3
330
0
100
AcDbSymbolTable
 70
     3
  0
STYLE
  5
11
330
3
100
AcDbSymbolTableRecord
100
AcDbTextStyleTableRecord
  2
STANDARD
 70
     0
 40
0.0
 41
0.8
 50
0.0
 71
     0
 42
0.2
  3
txt.shx
  4
bigfont.shx
  0
STYLE
  5
108A
330
3
100
AcDbSymbolTableRecord
100
AcDbTextStyleTableRecord
  2
STANDARD1
 70
     0
 40
0.0
 41
1.0
 50
0.0
 71
     0
 42
4.0
  3
monotxt.shx
  4
bigfont.shx
  0
STYLE
  5
114A
330
3
100
AcDbSymbolTableRecord
100
AcDbTextStyleTableRecord
  2
ｽﾀｲﾙ1
 70
     0
 40
0.0
 41
0.8
 50
0.0
 71
     0
 42
2.5
  3
monotxt.shx
  4
extfont.shx
  0
ENDTAB
  0
TABLE
  2
VIEW
  5
6
330
0
100
AcDbSymbolTable
 70
     0
  0
ENDTAB
  0
TABLE
  2
UCS
  5
7
330
0
100
AcDbSymbolTable
 70
     0
  0
ENDTAB
  0
TABLE
  2
APPID
  5
9
330
0
100
AcDbSymbolTable
 70
     1
  0
APPID
  5
2FF
330
9
100
AcDbSymbolTableRecord
100
AcDbRegAppTableRecord
  2
ACAD
 70
     0
  0
ENDTAB
  0
TABLE
  2
DIMSTYLE
  5
A
330
0
100
AcDbSymbolTable
 70
     2
  0
DIMSTYLE
105
300
102
{ACAD_REACTORS
330
2785
330
26D0
330
26A2
330
26A3
330
2692
330
2690
330
2691
102
}
330
A
100
AcDbSymbolTableRecord
100
AcDbDimStyleTableRecord
  2
STANDARD
 70
     0
  3

  4

  5
OPEN30
  6

  7

 40
1.0
 41
2.0
 42
0.0625
 43
3.0
 44
2.0
 45
0.0
 46
0.0
 47
0.001
 48
0.001
140
5.0
141
0.09
142
0.0
143
25.4
144
1.0
145
0.0
146
1.0
147
1.0
 71
     0
 72
     0
 73
     0
 74
     0
 75
     0
 76
     0
 77
     1
 78
     8
170
     0
171
     2
172
     0
173
     0
174
     0
175
     0
176
     0
177
     0
178
     0
270
     2
271
     0
272
     0
273
     2
274
     2
340
11
275
     0
280
     0
281
     0
282
     0
283
     1
284
     8
285
     0
286
     0
287
     3
288
     0
  0
DIMSTYLE
105
E17
330
A
100
AcDbSymbolTableRecord
100
AcDbDimStyleTableRecord
  2
NABE
 70
     0
  3

  4

  5

  6
OPEN30
  7
OPEN30
 40
1.0
 41
2.0
 42
1.0
 43
1.0
 44
1.0
 45
0.0
 46
0.0
 47
0.0
 48
0.0
140
4.0
141
2.5
142
0.0
143
0.0394
144
1.0
145
0.0
146
1.0
147
1.0
 71
     0
 72
     0
 73
     0
 74
     0
 75
     0
 76
     0
 77
     3
 78
     8
170
     0
171
     4
172
     1
173
     1
174
     0
175
     0
176
     0
177
     0
178
     0
270
     2
271
     8
272
     8
273
     8
274
     4
340
11
275
     0
280
     0
281
     0
282
     0
283
     1
284
     8
285
     0
286
     0
287
     3
288
     0
  0
ENDTAB
  0
TABLE
  2
BLOCK_RECORD
  5
1
330
0
100
AcDbSymbolTable
 70
    24
  0
BLOCK_RECORD
  5
1B
102
{ACAD_XDICTIONARY
360
1118
102
}
330
1
100
AcDbSymbolTableRecord
100
AcDbBlockTableRecord
  2
*MODEL_SPACE
  0
BLOCK_RECORD
  5
1C
102
{ACAD_XDICTIONARY
360
111A
102
}
330
1
100
AcDbSymbolTableRecord
100
AcDbBlockTableRecord
  2
*PAPER_SPACE
  0
BLOCK_RECORD
  5
DEC
330
1
100
AcDbSymbolTableRecord
100
AcDbBlockTableRecord
  2
_OPEN30
  0
BLOCK_RECORD
  5
1C2A
330
1
100
AcDbSymbolTableRecord
100
AcDbBlockTableRecord
  2
*D1
  0
BLOCK_RECORD
  5
1C36
330
1
100
AcDbSymbolTableRecord
100
AcDbBlockTableRecord
  2
*D2
  0
BLOCK_RECORD
  5
1C42
330
1
100
AcDbSymbolTableRecord
100
AcDbBlockTableRecord
  2
*D3
  0
BLOCK_RECORD
  5
1D16
330
1
100
AcDbSymbolTableRecord
100
AcDbBlockTableRecord
  2
*D4
  0
BLOCK_RECORD
  5
1D23
330
1
100
AcDbSymbolTableRecord
100
AcDbBlockTableRecord
  2
*D5
  0
BLOCK_RECORD
  5
1E5C
330
1
100
AcDbSymbolTableRecord
100
AcDbBlockTableRecord
  2
*D6
  0
BLOCK_RECORD
  5
1E69
330
1
100
AcDbSymbolTableRecord
100
AcDbBlockTableRecord
  2
*D7
  0
BLOCK_RECORD
  5
1F92
330
1
100
AcDbSymbolTableRecord
100
AcDbBlockTableRecord
  2
*D8
  0
BLOCK_RECORD
  5
1F9B
330
1
100
AcDbSymbolTableRecord
100
AcDbBlockTableRecord
  2
_OPEN
  0
BLOCK_RECORD
  5
1FA1
330
1
100
AcDbSymbolTableRecord
100
AcDbBlockTableRecord
  2
*D10
  0
BLOCK_RECORD
  5
1FAA
330
1
100
AcDbSymbolTableRecord
100
AcDbBlockTableRecord
  2
*D11
  0
BLOCK_RECORD
  5
1FB3
330
1
100
AcDbSymbolTableRecord
100
AcDbBlockTableRecord
  2
*D12
  0
BLOCK_RECORD
  5
1FBC
330
1
100
AcDbSymbolTableRecord
100
AcDbBlockTableRecord
  2
*D13
  0
BLOCK_RECORD
  5
1FC5
330
1
100
AcDbSymbolTableRecord
100
AcDbBlockTableRecord
  2
*D14
  0
BLOCK_RECORD
  5
1FCE
330
1
100
AcDbSymbolTableRecord
100
AcDbBlockTableRecord
  2
*D15
  0
BLOCK_RECORD
  5
2D2B
330
1
100
AcDbSymbolTableRecord
100
AcDbBlockTableRecord
  2
*D17
  0
BLOCK_RECORD
  5
2D37
330
1
100
AcDbSymbolTableRecord
100
AcDbBlockTableRecord
  2
*D18
  0
BLOCK_RECORD
  5
2D43
330
1
100
AcDbSymbolTableRecord
100
AcDbBlockTableRecord
  2
*D19
  0
BLOCK_RECORD
  5
2D4F
330
1
100
AcDbSymbolTableRecord
100
AcDbBlockTableRecord
  2
*D20
  0
BLOCK_RECORD
  5
2D5B
330
1
100
AcDbSymbolTableRecord
100
AcDbBlockTableRecord
  2
*D21
  0
BLOCK_RECORD
  5
2D67
330
1
100
AcDbSymbolTableRecord
100
AcDbBlockTableRecord
  2
*D22
  0
BLOCK_RECORD
  5
2D73
330
1
100
AcDbSymbolTableRecord
100
AcDbBlockTableRecord
  2
*D23
  0
ENDTAB
  0
ENDSEC
  0
SECTION
  2
BLOCKS
  0
BLOCK
  5
1E
330
1B
100
AcDbEntity
  8
0
100
AcDbBlockBegin
  2
*MODEL_SPACE
 70
     0
 10
0.0
 20
0.0
 30
0.0
  3
*MODEL_SPACE
  1

  0
ENDBLK
  5
1F
330
1B
100
AcDbEntity
  8
0
100
AcDbBlockEnd
  0
BLOCK
  5
20
330
1C
100
AcDbEntity
 67
     1
  8
0
100
AcDbBlockBegin
  2
*PAPER_SPACE
 70
     0
 10
0.0
 20
0.0
 30
0.0
  3
*PAPER_SPACE
  1

  0
ENDBLK
  5
21
330
1C
100
AcDbEntity
 67
     1
  8
0
100
AcDbBlockEnd
  0
BLOCK
  5
DF0
330
DEC
100
AcDbEntity
  8
0
100
AcDbBlockBegin
  2
_OPEN30
 70
     0
 10
0.0
 20
0.0
 30
0.0
  3
_OPEN30
  1

  0
LINE
  5
DED
330
DEC
100
AcDbEntity
  8
0
  6
BYBLOCK
 62
     0
100
AcDbLine
 10
-1.0
 20
0.267949
 30
0.0
 11
0.0
 21
0.0
 31
0.0
  0
LINE
  5
DEE
330
DEC
100
AcDbEntity
  8
0
  6
BYBLOCK
 62
     0
100
AcDbLine
 10
0.0
 20
0.0
 30
0.0
 11
-1.0
 21
-0.267949
 31
0.0
  0
LINE
  5
DEF
330
DEC
100
AcDbEntity
  8
0
  6
BYBLOCK
 62
     0
100
AcDbLine
 10
0.0
 20
0.0
 30
0.0
 11
-1.0
 21
0.0
 31
0.0
  0
ENDBLK
  5
DF1
330
DEC
100
AcDbEntity
  8
0
100
AcDbBlockEnd
  0
BLOCK
  5
1C34
330
1C2A
100
AcDbEntity
  8
0
100
AcDbBlockBegin
  2
*D1
 70
     1
 10
0.0
 20
0.0
 30
0.0
  3
*D1
  1

  0
LINE
  5
2DF4
330
1C2A
100
AcDbEntity
  8
寸法
 62
     0
100
AcDbLine
 10
213.2168206135062
 20
468.435008730207
 30
0.0
 11
213.2168206135062
 21
511.5220781690598
 31
0.0
  0
LINE
  5
2DF5
330
1C2A
100
AcDbEntity
  8
寸法
 62
     0
100
AcDbLine
 10
243.2168206135062
 20
468.435008730207
 30
0.0
 11
243.2168206135062
 21
511.5220781690598
 31
0.0
  0
LINE
  5
2DF6
330
1C2A
100
AcDbEntity
  8
寸法
 62
     0
100
AcDbLine
 10
215.2168206135062
 20
510.5220781690597
 30
0.0
 11
241.2168206135062
 21
510.5220781690597
 31
0.0
  0
INSERT
  5
2DF7
330
1C2A
100
AcDbEntity
  8
寸法
 62
     0
100
AcDbBlockReference
  2
_OPEN30
 10
213.2168206135062
 20
510.5220781690597
 30
0.0
 41
2.0
 42
2.0
 43
2.0
 50
180.0
  0
INSERT
  5
2DF8
330
1C2A
100
AcDbEntity
  8
寸法
 62
     0
100
AcDbBlockReference
  2
_OPEN30
 10
243.2168206135062
 20
510.5220781690597
 30
0.0
 41
2.0
 42
2.0
 43
2.0
  0
MTEXT
  5
2DF9
330
1C2A
100
AcDbEntity
  8
寸法
 62
     0
100
AcDbMText
 10
228.2168206135062
 20
513.5220781690597
 30
0.0
 40
4.0
 41
0.0
 71
     5
 72
     1
  1
\A1;30
1001
ACAD
1000
MTEXTBEGIN
1070
    73
1070
     1
1070
    44
1040
1.0
1070
    74
1070
     0
1000
MTEXTEND
  0
POINT
  5
2DFA
330
1C2A
100
AcDbEntity
  8
DEFPOINTS
 62
     0
100
AcDbPoint
 10
213.2168206135062
 20
467.435008730207
 30
0.0
  0
POINT
  5
2DFB
330
1C2A
100
AcDbEntity
  8
DEFPOINTS
 62
     0
100
AcDbPoint
 10
243.2168206135062
 20
467.435008730207
 30
0.0
  0
POINT
  5
2DFC
330
1C2A
100
AcDbEntity
  8
DEFPOINTS
 62
     0
100
AcDbPoint
 10
243.2168206135062
 20
510.5220781690597
 30
0.0
  0
ENDBLK
  5
1C35
330
1C2A
100
AcDbEntity
  8
0
100
AcDbBlockEnd
  0
BLOCK
  5
1C40
330
1C36
100
AcDbEntity
  8
0
100
AcDbBlockBegin
  2
*D2
 70
     1
 10
0.0
 20
0.0
 30
0.0
  3
*D2
  1

  0
LINE
  5
2DEB
330
1C36
100
AcDbEntity
  8
寸法
 62
     0
100
AcDbLine
 10
152.2168206135061
 20
494.252216361407
 30
0.0
 11
152.2168206135061
 21
511.5220781690598
 31
0.0
  0
LINE
  5
2DEC
330
1C36
100
AcDbEntity
  8
寸法
 62
     0
100
AcDbLine
 10
213.2168206135062
 20
468.435008730207
 30
0.0
 11
213.2168206135062
 21
511.5220781690598
 31
0.0
  0
LINE
  5
2DED
330
1C36
100
AcDbEntity
  8
寸法
 62
     0
100
AcDbLine
 10
154.2168206135061
 20
510.5220781690597
 30
0.0
 11
211.2168206135062
 21
510.5220781690597
 31
0.0
  0
INSERT
  5
2DEE
330
1C36
100
AcDbEntity
  8
寸法
 62
     0
100
AcDbBlockReference
  2
_OPEN30
 10
152.2168206135061
 20
510.5220781690597
 30
0.0
 41
2.0
 42
2.0
 43
2.0
 50
180.0
  0
INSERT
  5
2DEF
330
1C36
100
AcDbEntity
  8
寸法
 62
     0
100
AcDbBlockReference
  2
_OPEN30
 10
213.2168206135062
 20
510.5220781690597
 30
0.0
 41
2.0
 42
2.0
 43
2.0
  0
MTEXT
  5
2DF0
330
1C36
100
AcDbEntity
  8
寸法
 62
     0
100
AcDbMText
 10
182.7168206135062
 20
513.5220781690597
 30
0.0
 40
4.0
 41
0.0
 71
     5
 72
     1
  1
\A1;61
1001
ACAD
1000
MTEXTBEGIN
1070
    73
1070
     1
1070
    44
1040
1.0
1070
    74
1070
     0
1000
MTEXTEND
  0
POINT
  5
2DF1
330
1C36
100
AcDbEntity
  8
DEFPOINTS
 62
     0
100
AcDbPoint
 10
152.2168206135061
 20
493.252216361407
 30
0.0
  0
POINT
  5
2DF2
330
1C36
100
AcDbEntity
  8
DEFPOINTS
 62
     0
100
AcDbPoint
 10
213.2168206135062
 20
467.435008730207
 30
0.0
  0
POINT
  5
2DF3
330
1C36
100
AcDbEntity
  8
DEFPOINTS
 62
     0
100
AcDbPoint
 10
213.2168206135062
 20
510.5220781690597
 30
0.0
  0
ENDBLK
  5
1C41
330
1C36
100
AcDbEntity
  8
0
100
AcDbBlockEnd
  0
BLOCK
  5
1C4C
330
1C42
100
AcDbEntity
  8
0
100
AcDbBlockBegin
  2
*D3
 70
     1
 10
0.0
 20
0.0
 30
0.0
  3
*D3
  1

  0
LINE
  5
2DBE
330
1C42
100
AcDbEntity
  8
寸法
 62
     0
100
AcDbLine
 10
152.2168206135061
 20
431.0060837459586
 30
0.0
 11
152.2168206135061
 21
409.8918772456896
 31
0.0
  0
LINE
  5
2DBF
330
1C42
100
AcDbEntity
  8
寸法
 62
     0
100
AcDbLine
 10
322.0764688480062
 20
428.303699866007
 30
0.0
 11
322.0764688480062
 21
409.8918772456896
 31
0.0
  0
LINE
  5
2DC0
330
1C42
100
AcDbEntity
  8
寸法
 62
     0
100
AcDbLine
 10
154.2168206135061
 20
410.8918772456896
 30
0.0
 11
320.0764688480062
 21
410.8918772456896
 31
0.0
  0
INSERT
  5
2DC1
330
1C42
100
AcDbEntity
  8
寸法
 62
     0
100
AcDbBlockReference
  2
_OPEN30
 10
152.2168206135061
 20
410.8918772456896
 30
0.0
 41
2.0
 42
2.0
 43
2.0
 50
180.0
  0
INSERT
  5
2DC2
330
1C42
100
AcDbEntity
  8
寸法
 62
     0
100
AcDbBlockReference
  2
_OPEN30
 10
322.0764688480062
 20
410.8918772456896
 30
0.0
 41
2.0
 42
2.0
 43
2.0
  0
MTEXT
  5
2DC3
330
1C42
100
AcDbEntity
  8
寸法
 62
     0
100
AcDbMText
 10
237.1466447307561
 20
413.8918772456896
 30
0.0
 40
4.0
 41
0.0
 71
     5
 72
     1
  1
\A1;170
1001
ACAD
1000
MTEXTBEGIN
1070
    73
1070
     1
1070
    44
1040
1.0
1070
    74
1070
     0
1000
MTEXTEND
  0
POINT
  5
2DC4
330
1C42
100
AcDbEntity
  8
DEFPOINTS
 62
     0
100
AcDbPoint
 10
152.2168206135061
 20
432.0060837459585
 30
0.0
  0
POINT
  5
2DC5
330
1C42
100
AcDbEntity
  8
DEFPOINTS
 62
     0
100
AcDbPoint
 10
322.0764688480062
 20
429.303699866007
 30
0.0
  0
POINT
  5
2DC6
330
1C42
100
AcDbEntity
  8
DEFPOINTS
 62
     0
100
AcDbPoint
 10
322.0764688480062
 20
410.8918772456896
 30
0.0
  0
ENDBLK
  5
1C4D
330
1C42
100
AcDbEntity
  8
0
100
AcDbBlockEnd
  0
BLOCK
  5
1D20
330
1D16
100
AcDbEntity
  8
0
100
AcDbBlockBegin
  2
*D4
 70
     1
 10
0.0
 20
0.0
 30
0.0
  3
*D4
  1

  0
LINE
  5
2DD0
330
1D16
100
AcDbEntity
  8
寸法
 62
     0
100
AcDbLine
 10
118.8349544534113
 20
399.1373769506124
 30
0.0
 11
135.7617233390296
 21
399.1373769506123
 31
0.0
  0
LINE
  5
2DD1
330
1D16
100
AcDbEntity
  8
寸法
 62
     0
100
AcDbLine
 10
119.1080623243388
 20
339.1920984653808
 30
0.0
 11
135.7617233390296
 21
339.1920984653808
 31
0.0
  0
LINE
  5
2DD2
330
1D16
100
AcDbEntity
  8
寸法
 62
     0
100
AcDbLine
 10
134.7617233390296
 20
397.1373769506124
 30
0.0
 11
134.7617233390296
 21
341.1920984653808
 31
0.0
  0
INSERT
  5
2DD3
330
1D16
100
AcDbEntity
  8
寸法
 62
     0
100
AcDbBlockReference
  2
_OPEN30
 10
134.7617233390296
 20
399.1373769506123
 30
0.0
 41
2.0
 42
2.0
 43
2.0
 50
90.0
  0
INSERT
  5
2DD4
330
1D16
100
AcDbEntity
  8
寸法
 62
     0
100
AcDbBlockReference
  2
_OPEN30
 10
134.7617233390296
 20
339.1920984653808
 30
0.0
 41
2.0
 42
2.0
 43
2.0
 50
270.0
  0
MTEXT
  5
2DD5
330
1D16
100
AcDbEntity
  8
寸法
 62
     0
100
AcDbMText
 10
131.7617233390296
 20
369.1647377079966
 30
0.0
 40
4.0
 41
0.0
 71
     5
 72
     1
  1
\A1;60
 11
0.0000000000000001
 21
1.0
 31
0.0
1001
ACAD
1000
MTEXTBEGIN
1070
    73
1070
     1
1070
    44
1040
1.0
1070
    74
1070
     0
1000
MTEXTEND
  0
POINT
  5
2DD6
330
1D16
100
AcDbEntity
  8
DEFPOINTS
 62
     0
100
AcDbPoint
 10
117.8349544534113
 20
399.1373769506124
 30
0.0
  0
POINT
  5
2DD7
330
1D16
100
AcDbEntity
  8
DEFPOINTS
 62
     0
100
AcDbPoint
 10
118.1080623243388
 20
339.1920984653808
 30
0.0
  0
POINT
  5
2DD8
330
1D16
100
AcDbEntity
  8
DEFPOINTS
 62
     0
100
AcDbPoint
 10
134.7617233390296
 20
339.1920984653808
 30
0.0
  0
ENDBLK
  5
1D21
330
1D16
100
AcDbEntity
  8
0
100
AcDbBlockEnd
  0
BLOCK
  5
1D2D
330
1D23
100
AcDbEntity
  8
0
100
AcDbBlockBegin
  2
*D5
 70
     1
 10
0.0
 20
0.0
 30
0.0
  3
*D5
  1

  0
LINE
  5
2DC7
330
1D23
100
AcDbEntity
  8
寸法
 62
     0
100
AcDbLine
 10
50.8036198086113
 20
368.1461044831124
 30
0.0
 11
50.8036198086113
 21
318.0739150440363
 31
0.0
  0
LINE
  5
2DC8
330
1D23
100
AcDbEntity
  8
寸法
 62
     0
100
AcDbLine
 10
120.5194167002112
 20
368.1461044831124
 30
0.0
 11
120.5194167002112
 21
318.0739150440363
 31
0.0
  0
LINE
  5
2DC9
330
1D23
100
AcDbEntity
  8
寸法
 62
     0
100
AcDbLine
 10
52.8036198086113
 20
319.0739150440363
 30
0.0
 11
118.5194167002111
 21
319.0739150440363
 31
0.0
  0
INSERT
  5
2DCA
330
1D23
100
AcDbEntity
  8
寸法
 62
     0
100
AcDbBlockReference
  2
_OPEN30
 10
50.8036198086113
 20
319.0739150440363
 30
0.0
 41
2.0
 42
2.0
 43
2.0
 50
180.0
  0
INSERT
  5
2DCB
330
1D23
100
AcDbEntity
  8
寸法
 62
     0
100
AcDbBlockReference
  2
_OPEN30
 10
120.5194167002112
 20
319.0739150440363
 30
0.0
 41
2.0
 42
2.0
 43
2.0
  0
MTEXT
  5
2DCC
330
1D23
100
AcDbEntity
  8
寸法
 62
     0
100
AcDbMText
 10
85.66151825441124
 20
322.0739150440363
 30
0.0
 40
4.0
 41
0.0
 71
     5
 72
     1
  1
\A1;70
1001
ACAD
1000
MTEXTBEGIN
1070
    73
1070
     1
1070
    44
1040
1.0
1070
    74
1070
     0
1000
MTEXTEND
  0
POINT
  5
2DCD
330
1D23
100
AcDbEntity
  8
DEFPOINTS
 62
     0
100
AcDbPoint
 10
50.8036198086113
 20
369.1461044831124
 30
0.0
  0
POINT
  5
2DCE
330
1D23
100
AcDbEntity
  8
DEFPOINTS
 62
     0
100
AcDbPoint
 10
120.5194167002112
 20
369.1461044831124
 30
0.0
  0
POINT
  5
2DCF
330
1D23
100
AcDbEntity
  8
DEFPOINTS
 62
     0
100
AcDbPoint
 10
120.5194167002112
 20
319.0739150440363
 30
0.0
  0
ENDBLK
  5
1D2E
330
1D23
100
AcDbEntity
  8
0
100
AcDbBlockEnd
  0
BLOCK
  5
1E66
330
1E5C
100
AcDbEntity
  8
0
100
AcDbBlockBegin
  2
*D6
 70
     1
 10
0.0
 20
0.0
 30
0.0
  3
*D6
  1

  0
LINE
  5
2DD9
330
1E5C
100
AcDbEntity
  8
寸法
 62
     0
100
AcDbLine
 10
149.0578243938088
 20
307.5312242252749
 30
0.0
 11
149.0578243938088
 21
321.5406517659912
 31
0.0
  0
LINE
  5
2DDA
330
1E5C
100
AcDbEntity
  8
寸法
 62
     0
100
AcDbLine
 10
210.0578243938087
 20
281.714016594075
 30
0.0
 11
210.0578243938087
 21
321.5406517659912
 31
0.0
  0
LINE
  5
2DDB
330
1E5C
100
AcDbEntity
  8
寸法
 62
     0
100
AcDbLine
 10
151.0578243938088
 20
320.5406517659911
 30
0.0
 11
208.0578243938087
 21
320.5406517659911
 31
0.0
  0
INSERT
  5
2DDC
330
1E5C
100
AcDbEntity
  8
寸法
 62
     0
100
AcDbBlockReference
  2
_OPEN30
 10
149.0578243938088
 20
320.5406517659911
 30
0.0
 41
2.0
 42
2.0
 43
2.0
 50
180.0
  0
INSERT
  5
2DDD
330
1E5C
100
AcDbEntity
  8
寸法
 62
     0
100
AcDbBlockReference
  2
_OPEN30
 10
210.0578243938087
 20
320.5406517659911
 30
0.0
 41
2.0
 42
2.0
 43
2.0
  0
MTEXT
  5
2DDE
330
1E5C
100
AcDbEntity
  8
寸法
 62
     0
100
AcDbMText
 10
179.5578243938087
 20
323.5406517659912
 30
0.0
 40
4.0
 41
0.0
 71
     5
 72
     1
  1
\A1;61
1001
ACAD
1000
MTEXTBEGIN
1070
    73
1070
     1
1070
    44
1040
1.0
1070
    74
1070
     0
1000
MTEXTEND
  0
POINT
  5
2DDF
330
1E5C
100
AcDbEntity
  8
DEFPOINTS
 62
     0
100
AcDbPoint
 10
149.0578243938088
 20
306.5312242252749
 30
0.0
  0
POINT
  5
2DE0
330
1E5C
100
AcDbEntity
  8
DEFPOINTS
 62
     0
100
AcDbPoint
 10
210.0578243938087
 20
280.714016594075
 30
0.0
  0
POINT
  5
2DE1
330
1E5C
100
AcDbEntity
  8
DEFPOINTS
 62
     0
100
AcDbPoint
 10
210.0578243938087
 20
320.5406517659911
 30
0.0
  0
ENDBLK
  5
1E67
330
1E5C
100
AcDbEntity
  8
0
100
AcDbBlockEnd
  0
BLOCK
  5
1E73
330
1E69
100
AcDbEntity
  8
0
100
AcDbBlockBegin
  2
*D7
 70
     1
 10
0.0
 20
0.0
 30
0.0
  3
*D7
  1

  0
LINE
  5
2DE2
330
1E69
100
AcDbEntity
  8
寸法
 62
     0
100
AcDbLine
 10
210.0578243938087
 20
281.714016594075
 30
0.0
 11
210.0578243938087
 21
321.5406517659912
 31
0.0
  0
LINE
  5
2DE3
330
1E69
100
AcDbEntity
  8
寸法
 62
     0
100
AcDbLine
 10
240.0578243938088
 20
280.5140165940751
 30
0.0
 11
240.0578243938088
 21
321.5406517659912
 31
0.0
  0
LINE
  5
2DE4
330
1E69
100
AcDbEntity
  8
寸法
 62
     0
100
AcDbLine
 10
212.0578243938086
 20
320.5406517659911
 30
0.0
 11
238.0578243938088
 21
320.5406517659911
 31
0.0
  0
INSERT
  5
2DE5
330
1E69
100
AcDbEntity
  8
寸法
 62
     0
100
AcDbBlockReference
  2
_OPEN30
 10
210.0578243938087
 20
320.5406517659911
 30
0.0
 41
2.0
 42
2.0
 43
2.0
 50
180.0
  0
INSERT
  5
2DE6
330
1E69
100
AcDbEntity
  8
寸法
 62
     0
100
AcDbBlockReference
  2
_OPEN30
 10
240.0578243938088
 20
320.5406517659911
 30
0.0
 41
2.0
 42
2.0
 43
2.0
  0
MTEXT
  5
2DE7
330
1E69
100
AcDbEntity
  8
寸法
 62
     0
100
AcDbMText
 10
225.0578243938087
 20
323.5406517659912
 30
0.0
 40
4.0
 41
0.0
 71
     5
 72
     1
  1
\A1;30
1001
ACAD
1000
MTEXTBEGIN
1070
    73
1070
     1
1070
    44
1040
1.0
1070
    74
1070
     0
1000
MTEXTEND
  0
POINT
  5
2DE8
330
1E69
100
AcDbEntity
  8
DEFPOINTS
 62
     0
100
AcDbPoint
 10
210.0578243938087
 20
280.714016594075
 30
0.0
  0
POINT
  5
2DE9
330
1E69
100
AcDbEntity
  8
DEFPOINTS
 62
     0
100
AcDbPoint
 10
240.0578243938088
 20
279.5140165940751
 30
0.0
  0
POINT
  5
2DEA
330
1E69
100
AcDbEntity
  8
DEFPOINTS
 62
     0
100
AcDbPoint
 10
240.0578243938088
 20
320.5406517659911
 30
0.0
  0
ENDBLK
  5
1E74
330
1E69
100
AcDbEntity
  8
0
100
AcDbBlockEnd
  0
BLOCK
  5
1F99
330
1F92
100
AcDbEntity
  8
1_ALL_DRAFT_DIMS
  6
CONTINUOUS
 62
     2
100
AcDbBlockBegin
  2
*D8
 70
     1
 10
0.0
 20
0.0
 30
0.0
  3
*D8
  1

  0
LINE
  5
1F93
330
1F92
100
AcDbEntity
  8
1_ALL_DRAFT_DIMS
  6
CONTINUOUS
 62
     2
100
AcDbLine
 10
187.4155597304999
 20
84.9857239475
 30
0.0
 11
187.4155597304999
 21
119.3316001069
 31
0.0
  0
LINE
  5
1F94
330
1F92
100
AcDbEntity
  8
1_ALL_DRAFT_DIMS
  6
CONTINUOUS
 62
     2
100
AcDbLine
 10
126.415559989
 20
109.5914883937
 30
0.0
 11
126.415559989
 21
119.3316001069
 31
0.0
  0
LINE
  5
1F95
330
1F92
100
AcDbEntity
  8
1_ALL_DRAFT_DIMS
  6
CONTINUOUS
 62
     2
100
AcDbLine
 10
187.4155597304999
 20
118.3316001069
 30
0.0
 11
156.9155598597999
 21
118.3316001069
 31
0.0
  0
LINE
  5
1F96
330
1F92
100
AcDbEntity
  8
1_ALL_DRAFT_DIMS
  6
CONTINUOUS
 62
     2
100
AcDbLine
 10
126.415559989
 20
118.3316001069
 30
0.0
 11
156.9155598597999
 21
118.3316001069
 31
0.0
  0
INSERT
  5
1F97
330
1F92
100
AcDbEntity
  8
1_ALL_DRAFT_DIMS
  6
CONTINUOUS
 62
     2
100
AcDbBlockReference
  2
_OPEN
 10
187.4155597304999
 20
118.3316001069
 30
0.0
 41
2.0
 42
2.0
 43
2.0
  0
INSERT
  5
1F98
330
1F92
100
AcDbEntity
  8
1_ALL_DRAFT_DIMS
  6
CONTINUOUS
 62
     2
100
AcDbBlockReference
  2
_OPEN
 10
126.415559989
 20
118.3316001069
 30
0.0
 41
2.0
 42
2.0
 43
2.0
 50
180.0
  0
ENDBLK
  5
1F9A
330
1F92
100
AcDbEntity
  8
0
  6
BYBLOCK
 62
     0
100
AcDbBlockEnd
  0
BLOCK
  5
1F9F
330
1F9B
100
AcDbEntity
  8
0
100
AcDbBlockBegin
  2
_OPEN
 70
     0
 10
0.0
 20
0.0
 30
0.0
  3
_OPEN
  1

  0
LINE
  5
1F9C
330
1F9B
100
AcDbEntity
  8
0
  6
BYBLOCK
 62
     0
100
AcDbLine
 10
0.0
 20
0.0
 30
0.0
 11
-1.0
 21
0.3125
 31
0.0
  0
LINE
  5
1F9D
330
1F9B
100
AcDbEntity
  8
0
  6
BYBLOCK
 62
     0
100
AcDbLine
 10
-1.0
 20
-0.3125
 30
0.0
 11
0.0
 21
0.0
 31
0.0
  0
LINE
  5
1F9E
330
1F9B
100
AcDbEntity
  8
0
  6
BYBLOCK
 62
     0
100
AcDbLine
 10
-1.0
 20
0.0
 30
0.0
 11
0.0
 21
0.0
 31
0.0
  0
ENDBLK
  5
1FA0
330
1F9B
100
AcDbEntity
  8
0
  6
BYBLOCK
 62
     0
100
AcDbBlockEnd
  0
BLOCK
  5
1FA8
330
1FA1
100
AcDbEntity
  8
1_ALL_DRAFT_DIMS
  6
CONTINUOUS
 62
     2
100
AcDbBlockBegin
  2
*D10
 70
     1
 10
0.0
 20
0.0
 30
0.0
  3
*D10
  1

  0
LINE
  5
1FA2
330
1FA1
100
AcDbEntity
  8
1_ALL_DRAFT_DIMS
  6
CONTINUOUS
 62
     2
100
AcDbLine
 10
187.4155597304999
 20
84.9857239475
 30
0.0
 11
187.4155597304999
 21
119.3316001069
 31
0.0
  0
LINE
  5
1FA3
330
1FA1
100
AcDbEntity
  8
1_ALL_DRAFT_DIMS
  6
CONTINUOUS
 62
     2
100
AcDbLine
 10
217.4155597304999
 20
82.27428076189999
 30
0.0
 11
217.4155597304999
 21
119.3316001069
 31
0.0
  0
LINE
  5
1FA4
330
1FA1
100
AcDbEntity
  8
1_ALL_DRAFT_DIMS
  6
CONTINUOUS
 62
     2
100
AcDbLine
 10
187.4155597304999
 20
118.3316001069
 30
0.0
 11
202.4155597304999
 21
118.3316001069
 31
0.0
  0
LINE
  5
1FA5
330
1FA1
100
AcDbEntity
  8
1_ALL_DRAFT_DIMS
  6
CONTINUOUS
 62
     2
100
AcDbLine
 10
217.4155597304999
 20
118.3316001069
 30
0.0
 11
202.4155597304999
 21
118.3316001069
 31
0.0
  0
INSERT
  5
1FA6
330
1FA1
100
AcDbEntity
  8
1_ALL_DRAFT_DIMS
  6
CONTINUOUS
 62
     2
100
AcDbBlockReference
  2
_OPEN
 10
187.4155597304999
 20
118.3316001069
 30
0.0
 41
2.0
 42
2.0
 43
2.0
 50
180.0
  0
INSERT
  5
1FA7
330
1FA1
100
AcDbEntity
  8
1_ALL_DRAFT_DIMS
  6
CONTINUOUS
 62
     2
100
AcDbBlockReference
  2
_OPEN
 10
217.4155597304999
 20
118.3316001069
 30
0.0
 41
2.0
 42
2.0
 43
2.0
  0
ENDBLK
  5
1FA9
330
1FA1
100
AcDbEntity
  8
0
  6
BYBLOCK
 62
     0
100
AcDbBlockEnd
  0
BLOCK
  5
1FB1
330
1FAA
100
AcDbEntity
  8
1_ALL_DRAFT_DIMS
  6
CONTINUOUS
 62
     2
100
AcDbBlockBegin
  2
*D11
 70
     1
 10
0.0
 20
0.0
 30
0.0
  3
*D11
  1

  0
LINE
  5
1FAB
330
1FAA
100
AcDbEntity
  8
1_ALL_DRAFT_DIMS
  6
CONTINUOUS
 62
     2
100
AcDbLine
 10
126.415559989
 20
200.1990558779
 30
0.0
 11
126.415559989
 21
187.9184033116
 31
0.0
  0
LINE
  5
1FAC
330
1FAA
100
AcDbEntity
  8
1_ALL_DRAFT_DIMS
  6
CONTINUOUS
 62
     2
100
AcDbLine
 10
296.2752079648999
 20
199.8849546768999
 30
0.0
 11
296.2752079648999
 21
187.9184033116
 31
0.0
  0
LINE
  5
1FAD
330
1FAA
100
AcDbEntity
  8
1_ALL_DRAFT_DIMS
  6
CONTINUOUS
 62
     2
100
AcDbLine
 10
126.415559989
 20
188.9184033116
 30
0.0
 11
211.345383977
 21
188.9184033116
 31
0.0
  0
LINE
  5
1FAE
330
1FAA
100
AcDbEntity
  8
1_ALL_DRAFT_DIMS
  6
CONTINUOUS
 62
     2
100
AcDbLine
 10
296.2752079648999
 20
188.9184033116
 30
0.0
 11
211.345383977
 21
188.9184033116
 31
0.0
  0
INSERT
  5
1FAF
330
1FAA
100
AcDbEntity
  8
1_ALL_DRAFT_DIMS
  6
CONTINUOUS
 62
     2
100
AcDbBlockReference
  2
_OPEN
 10
126.415559989
 20
188.9184033116
 30
0.0
 41
2.0
 42
2.0
 43
2.0
 50
180.0
  0
INSERT
  5
1FB0
330
1FAA
100
AcDbEntity
  8
1_ALL_DRAFT_DIMS
  6
CONTINUOUS
 62
     2
100
AcDbBlockReference
  2
_OPEN
 10
296.2752079648999
 20
188.9184033116
 30
0.0
 41
2.0
 42
2.0
 43
2.0
  0
ENDBLK
  5
1FB2
330
1FAA
100
AcDbEntity
  8
0
  6
BYBLOCK
 62
     0
100
AcDbBlockEnd
  0
BLOCK
  5
1FBA
330
1FB3
100
AcDbEntity
  8
1_ALL_DRAFT_DIMS
  6
CONTINUOUS
 62
     2
100
AcDbBlockBegin
  2
*D12
 70
     1
 10
0.0
 20
0.0
 30
0.0
  3
*D12
  1

  0
LINE
  5
1FB4
330
1FB3
100
AcDbEntity
  8
1_ALL_DRAFT_DIMS
  6
CONTINUOUS
 62
     2
100
AcDbLine
 10
187.4155597304999
 20
240.0292847188
 30
0.0
 11
187.4155597304999
 21
274.6120300991
 31
0.0
  0
LINE
  5
1FB5
330
1FB3
100
AcDbEntity
  8
1_ALL_DRAFT_DIMS
  6
CONTINUOUS
 62
     2
100
AcDbLine
 10
126.4155603397999
 20
264.8334711422
 30
0.0
 11
126.4155603397999
 21
274.6120300991
 31
0.0
  0
LINE
  5
1FB6
330
1FB3
100
AcDbEntity
  8
1_ALL_DRAFT_DIMS
  6
CONTINUOUS
 62
     2
100
AcDbLine
 10
187.4155597304999
 20
273.6120300991
 30
0.0
 11
156.9155600351
 21
273.6120300991
 31
0.0
  0
LINE
  5
1FB7
330
1FB3
100
AcDbEntity
  8
1_ALL_DRAFT_DIMS
  6
CONTINUOUS
 62
     2
100
AcDbLine
 10
126.4155603397999
 20
273.6120300991
 30
0.0
 11
156.9155600351
 21
273.6120300991
 31
0.0
  0
INSERT
  5
1FB8
330
1FB3
100
AcDbEntity
  8
1_ALL_DRAFT_DIMS
  6
CONTINUOUS
 62
     2
100
AcDbBlockReference
  2
_OPEN
 10
187.4155597304999
 20
273.6120300991
 30
0.0
 41
2.0
 42
2.0
 43
2.0
  0
INSERT
  5
1FB9
330
1FB3
100
AcDbEntity
  8
1_ALL_DRAFT_DIMS
  6
CONTINUOUS
 62
     2
100
AcDbBlockReference
  2
_OPEN
 10
126.4155603397999
 20
273.6120300991
 30
0.0
 41
2.0
 42
2.0
 43
2.0
 50
180.0
  0
ENDBLK
  5
1FBB
330
1FB3
100
AcDbEntity
  8
0
  6
BYBLOCK
 62
     0
100
AcDbBlockEnd
  0
BLOCK
  5
1FC3
330
1FBC
100
AcDbEntity
  8
1_ALL_DRAFT_DIMS
  6
CONTINUOUS
 62
     2
100
AcDbBlockBegin
  2
*D13
 70
     1
 10
0.0
 20
0.0
 30
0.0
  3
*D13
  1

  0
LINE
  5
1FBD
330
1FBC
100
AcDbEntity
  8
1_ALL_DRAFT_DIMS
  6
CONTINUOUS
 62
     2
100
AcDbLine
 10
187.4155597304999
 20
240.0292847188
 30
0.0
 11
187.4155597304999
 21
274.6120300991
 31
0.0
  0
LINE
  5
1FBE
330
1FBC
100
AcDbEntity
  8
1_ALL_DRAFT_DIMS
  6
CONTINUOUS
 62
     2
100
AcDbLine
 10
217.4155597304999
 20
237.5162635095999
 30
0.0
 11
217.4155597304999
 21
274.6120300991
 31
0.0
  0
LINE
  5
1FBF
330
1FBC
100
AcDbEntity
  8
1_ALL_DRAFT_DIMS
  6
CONTINUOUS
 62
     2
100
AcDbLine
 10
187.4155597304999
 20
273.6120300991
 30
0.0
 11
202.4155597304999
 21
273.6120300991
 31
0.0
  0
LINE
  5
1FC0
330
1FBC
100
AcDbEntity
  8
1_ALL_DRAFT_DIMS
  6
CONTINUOUS
 62
     2
100
AcDbLine
 10
217.4155597304999
 20
273.6120300991
 30
0.0
 11
202.4155597304999
 21
273.6120300991
 31
0.0
  0
INSERT
  5
1FC1
330
1FBC
100
AcDbEntity
  8
1_ALL_DRAFT_DIMS
  6
CONTINUOUS
 62
     2
100
AcDbBlockReference
  2
_OPEN
 10
187.4155597304999
 20
273.6120300991
 30
0.0
 41
2.0
 42
2.0
 43
2.0
 50
180.0
  0
INSERT
  5
1FC2
330
1FBC
100
AcDbEntity
  8
1_ALL_DRAFT_DIMS
  6
CONTINUOUS
 62
     2
100
AcDbBlockReference
  2
_OPEN
 10
217.4155597304999
 20
273.6120300991
 30
0.0
 41
2.0
 42
2.0
 43
2.0
  0
ENDBLK
  5
1FC4
330
1FBC
100
AcDbEntity
  8
0
  6
BYBLOCK
 62
     0
100
AcDbBlockEnd
  0
BLOCK
  5
1FCC
330
1FC5
100
AcDbEntity
  8
1_ALL_DRAFT_DIMS
  6
CONTINUOUS
 62
     2
100
AcDbBlockBegin
  2
*D14
 70
     1
 10
0.0
 20
0.0
 30
0.0
  3
*D14
  1

  0
LINE
  5
1FC6
330
1FC5
100
AcDbEntity
  8
1_ALL_DRAFT_DIMS
  6
CONTINUOUS
 62
     2
100
AcDbLine
 10
37.5035007653
 20
150.1195862582999
 30
0.0
 11
37.5035007653
 21
106.8208983428
 31
0.0
  0
LINE
  5
1FC7
330
1FC5
100
AcDbEntity
  8
1_ALL_DRAFT_DIMS
  6
CONTINUOUS
 62
     2
100
AcDbLine
 10
107.4113328224999
 20
150.1195862582999
 30
0.0
 11
107.4113328224999
 21
106.8208983428
 31
0.0
  0
LINE
  5
1FC8
330
1FC5
100
AcDbEntity
  8
1_ALL_DRAFT_DIMS
  6
CONTINUOUS
 62
     2
100
AcDbLine
 10
37.5035007653
 20
107.8208983428
 30
0.0
 11
72.4574167939
 21
107.8208983428
 31
0.0
  0
LINE
  5
1FC9
330
1FC5
100
AcDbEntity
  8
1_ALL_DRAFT_DIMS
  6
CONTINUOUS
 62
     2
100
AcDbLine
 10
107.4113328224999
 20
107.8208983428
 30
0.0
 11
72.4574167939
 21
107.8208983428
 31
0.0
  0
INSERT
  5
1FCA
330
1FC5
100
AcDbEntity
  8
1_ALL_DRAFT_DIMS
  6
CONTINUOUS
 62
     2
100
AcDbBlockReference
  2
_OPEN
 10
37.5035007653
 20
107.8208983428
 30
0.0
 41
2.0
 42
2.0
 43
2.0
 50
180.0
  0
INSERT
  5
1FCB
330
1FC5
100
AcDbEntity
  8
1_ALL_DRAFT_DIMS
  6
CONTINUOUS
 62
     2
100
AcDbBlockReference
  2
_OPEN
 10
107.4113328224999
 20
107.8208983428
 30
0.0
 41
2.0
 42
2.0
 43
2.0
  0
ENDBLK
  5
1FCD
330
1FC5
100
AcDbEntity
  8
0
  6
BYBLOCK
 62
     0
100
AcDbBlockEnd
  0
BLOCK
  5
1FD5
330
1FCE
100
AcDbEntity
  8
1_ALL_DRAFT_DIMS
  6
CONTINUOUS
 62
     2
100
AcDbBlockBegin
  2
*D15
 70
     1
 10
0.0
 20
0.0
 30
0.0
  3
*D15
  1

  0
LINE
  5
1FCF
330
1FCE
100
AcDbEntity
  8
1_ALL_DRAFT_DIMS
  6
CONTINUOUS
 62
     2
100
AcDbLine
 10
105.0729545470999
 20
123.6283137907999
 30
0.0
 11
117.9942438250999
 21
123.6283137907999
 31
0.0
  0
LINE
  5
1FD0
330
1FCE
100
AcDbEntity
  8
1_ALL_DRAFT_DIMS
  6
CONTINUOUS
 62
     2
100
AcDbLine
 10
105.0729545470999
 20
183.6108587258
 30
0.0
 11
117.9942438250999
 21
183.6108587258
 31
0.0
  0
LINE
  5
1FD1
330
1FCE
100
AcDbEntity
  8
1_ALL_DRAFT_DIMS
  6
CONTINUOUS
 62
     2
100
AcDbLine
 10
116.9942438250999
 20
123.6283137907999
 30
0.0
 11
116.9942438250999
 21
153.6195862582999
 31
0.0
  0
LINE
  5
1FD2
330
1FCE
100
AcDbEntity
  8
1_ALL_DRAFT_DIMS
  6
CONTINUOUS
 62
     2
100
AcDbLine
 10
116.9942438250999
 20
183.6108587258
 30
0.0
 11
116.9942438250999
 21
153.6195862582999
 31
0.0
  0
INSERT
  5
1FD3
330
1FCE
100
AcDbEntity
  8
1_ALL_DRAFT_DIMS
  6
CONTINUOUS
 62
     2
100
AcDbBlockReference
  2
_OPEN
 10
116.9942438250999
 20
123.6283137907999
 30
0.0
 41
2.0
 42
2.0
 43
2.0
 50
270.0
  0
INSERT
  5
1FD4
330
1FCE
100
AcDbEntity
  8
1_ALL_DRAFT_DIMS
  6
CONTINUOUS
 62
     2
100
AcDbBlockReference
  2
_OPEN
 10
116.9942438250999
 20
183.6108587258
 30
0.0
 41
2.0
 42
2.0
 43
2.0
 50
90.0
  0
ENDBLK
  5
1FD6
330
1FCE
100
AcDbEntity
  8
0
  6
BYBLOCK
 62
     0
100
AcDbBlockEnd
  0
BLOCK
  5
2D35
330
2D2B
100
AcDbEntity
  8
0
100
AcDbBlockBegin
  2
*D17
 70
     1
 10
0.0
 20
0.0
 30
0.0
  3
*D17
  1

  0
LINE
  5
302B
330
2D2B
100
AcDbEntity
  8
寸法
 62
     0
100
AcDbLine
 10
881.5142199458401
 20
618.0997553910558
 30
0.0
 11
881.5142199458401
 21
654.3200007713558
 31
0.0
  0
LINE
  5
302C
330
2D2B
100
AcDbEntity
  8
寸法
 62
     0
100
AcDbLine
 10
820.5142205551402
 20
642.9039418144559
 30
0.0
 11
820.5142205551402
 21
654.3200007713558
 31
0.0
  0
LINE
  5
302D
330
2D2B
100
AcDbEntity
  8
寸法
 62
     0
100
AcDbLine
 10
879.51421994584
 20
652.3200007713557
 30
0.0
 11
822.5142205551401
 21
652.3200007713557
 31
0.0
  0
INSERT
  5
302E
330
2D2B
100
AcDbEntity
  8
寸法
 62
     0
100
AcDbBlockReference
  2
_OPEN30
 10
881.5142199458401
 20
652.3200007713557
 30
0.0
 41
2.0
 42
2.0
 43
2.0
  0
INSERT
  5
302F
330
2D2B
100
AcDbEntity
  8
寸法
 62
     0
100
AcDbBlockReference
  2
_OPEN30
 10
820.5142205551402
 20
652.3200007713557
 30
0.0
 41
2.0
 42
2.0
 43
2.0
 50
180.0
  0
MTEXT
  5
3030
330
2D2B
100
AcDbEntity
  8
寸法
 62
     0
100
AcDbMText
 10
848.7742202504401
 20
655.8200007713558
 30
0.0
 40
5.0
 41
0.0
 71
     5
 72
     1
  1
\A1;61
1001
ACAD
1000
MTEXTBEGIN
1070
    73
1070
     1
1070
    44
1040
1.0
1070
    74
1070
     0
1000
MTEXTEND
  0
POINT
  5
3031
330
2D2B
100
AcDbEntity
  8
DEFPOINTS
 62
     0
100
AcDbPoint
 10
881.5142199458401
 20
618.0372553910558
 30
0.0
  0
POINT
  5
3032
330
2D2B
100
AcDbEntity
  8
DEFPOINTS
 62
     0
100
AcDbPoint
 10
820.5142205551402
 20
642.8414418144559
 30
0.0
  0
POINT
  5
3033
330
2D2B
100
AcDbEntity
  8
DEFPOINTS
 62
     0
100
AcDbPoint
 10
820.5142205551402
 20
652.3200007713557
 30
0.0
  0
ENDBLK
  5
2D36
330
2D2B
100
AcDbEntity
  8
0
100
AcDbBlockEnd
  0
BLOCK
  5
2D41
330
2D37
100
AcDbEntity
  8
0
100
AcDbBlockBegin
  2
*D18
 70
     1
 10
0.0
 20
0.0
 30
0.0
  3
*D18
  1

  0
LINE
  5
3034
330
2D37
100
AcDbEntity
  8
寸法
 62
     0
100
AcDbLine
 10
881.5142199458401
 20
441.5317452746554
 30
0.0
 11
881.5142199458401
 21
403.1209839875812
 31
0.0
  0
LINE
  5
3035
330
2D37
100
AcDbEntity
  8
寸法
 62
     0
100
AcDbLine
 10
820.5142199478402
 20
423.4025438069552
 30
0.0
 11
820.5142199478402
 21
403.1209839875812
 31
0.0
  0
LINE
  5
3036
330
2D37
100
AcDbEntity
  8
寸法
 62
     0
100
AcDbLine
 10
879.51421994584
 20
405.1209839875813
 30
0.0
 11
822.5142199478401
 21
405.1209839875813
 31
0.0
  0
INSERT
  5
3037
330
2D37
100
AcDbEntity
  8
寸法
 62
     0
100
AcDbBlockReference
  2
_OPEN30
 10
881.5142199458401
 20
405.1209839875813
 30
0.0
 41
2.0
 42
2.0
 43
2.0
  0
INSERT
  5
3038
330
2D37
100
AcDbEntity
  8
寸法
 62
     0
100
AcDbBlockReference
  2
_OPEN30
 10
820.5142199478402
 20
405.1209839875813
 30
0.0
 41
2.0
 42
2.0
 43
2.0
 50
180.0
  0
MTEXT
  5
3039
330
2D37
100
AcDbEntity
  8
寸法
 62
     0
100
AcDbMText
 10
851.4725098425719
 20
408.6209839875813
 30
0.0
 40
5.0
 41
0.0
 71
     5
 72
     1
  1
\A1;61
1001
ACAD
1000
MTEXTBEGIN
1070
    73
1070
     1
1070
    44
1040
1.0
1070
    74
1070
     0
1000
MTEXTEND
  0
POINT
  5
303A
330
2D37
100
AcDbEntity
  8
DEFPOINTS
 62
     0
100
AcDbPoint
 10
881.5142199458401
 20
441.5942452746555
 30
0.0
  0
POINT
  5
303B
330
2D37
100
AcDbEntity
  8
DEFPOINTS
 62
     0
100
AcDbPoint
 10
820.5142199478402
 20
423.4650438069552
 30
0.0
  0
POINT
  5
303C
330
2D37
100
AcDbEntity
  8
DEFPOINTS
 62
     0
100
AcDbPoint
 10
820.5142199478402
 20
405.1209839875813
 30
0.0
  0
ENDBLK
  5
2D42
330
2D37
100
AcDbEntity
  8
0
100
AcDbBlockEnd
  0
BLOCK
  5
2D4D
330
2D43
100
AcDbEntity
  8
0
100
AcDbBlockBegin
  2
*D19
 70
     1
 10
0.0
 20
0.0
 30
0.0
  3
*D19
  1

  0
LINE
  5
303D
330
2D43
100
AcDbEntity
  8
寸法
 62
     0
100
AcDbLine
 10
799.2341147624402
 20
501.6362844630558
 30
0.0
 11
814.4497154312848
 21
501.6362844630558
 31
0.0
  0
LINE
  5
303E
330
2D43
100
AcDbEntity
  8
寸法
 62
     0
100
AcDbLine
 10
799.2341147624402
 20
561.6188293980558
 30
0.0
 11
814.4497154312848
 21
561.6188293980558
 31
0.0
  0
LINE
  5
303F
330
2D43
100
AcDbEntity
  8
寸法
 62
     0
100
AcDbLine
 10
812.4497154312848
 20
503.6362844630558
 30
0.0
 11
812.4497154312848
 21
559.6188293980558
 31
0.0
  0
INSERT
  5
3040
330
2D43
100
AcDbEntity
  8
寸法
 62
     0
100
AcDbBlockReference
  2
_OPEN30
 10
812.4497154312848
 20
501.6362844630558
 30
0.0
 41
2.0
 42
2.0
 43
2.0
 50
270.0
  0
INSERT
  5
3041
330
2D43
100
AcDbEntity
  8
寸法
 62
     0
100
AcDbBlockReference
  2
_OPEN30
 10
812.4497154312848
 20
561.6188293980558
 30
0.0
 41
2.0
 42
2.0
 43
2.0
 50
90.0
  0
MTEXT
  5
3042
330
2D43
100
AcDbEntity
  8
寸法
 62
     0
100
AcDbMText
 10
808.9497154312848
 20
529.3034976396819
 30
0.0
 40
5.0
 41
0.0
 71
     5
 72
     1
  1
\A1;60
 11
0.0000000000000001
 21
1.0
 31
0.0
1001
ACAD
1000
MTEXTBEGIN
1070
    73
1070
     1
1070
    44
1040
1.0
1070
    74
1070
     0
1000
MTEXTEND
  0
POINT
  5
3043
330
2D43
100
AcDbEntity
  8
DEFPOINTS
 62
     0
100
AcDbPoint
 10
799.1716147624401
 20
501.6362844630558
 30
0.0
  0
POINT
  5
3044
330
2D43
100
AcDbEntity
  8
DEFPOINTS
 62
     0
100
AcDbPoint
 10
799.1716147624401
 20
561.6188293980558
 30
0.0
  0
POINT
  5
3045
330
2D43
100
AcDbEntity
  8
DEFPOINTS
 62
     0
100
AcDbPoint
 10
812.4497154312848
 20
561.6188293980558
 30
0.0
  0
ENDBLK
  5
2D4E
330
2D43
100
AcDbEntity
  8
0
100
AcDbBlockEnd
  0
BLOCK
  5
2D59
330
2D4F
100
AcDbEntity
  8
0
100
AcDbBlockBegin
  2
*D20
 70
     1
 10
0.0
 20
0.0
 30
0.0
  3
*D20
  1

  0
LINE
  5
3073
330
2D4F
100
AcDbEntity
  8
寸法
 62
     0
100
AcDbLine
 10
731.6021609806401
 20
528.0650569305557
 30
0.0
 11
731.6021609806401
 21
484.5288690150558
 31
0.0
  0
LINE
  5
3074
330
2D4F
100
AcDbEntity
  8
寸法
 62
     0
100
AcDbLine
 10
801.5099930378401
 20
528.0650569305557
 30
0.0
 11
801.5099930378401
 21
484.5288690150558
 31
0.0
  0
LINE
  5
3075
330
2D4F
100
AcDbEntity
  8
寸法
 62
     0
100
AcDbLine
 10
733.6021609806401
 20
486.5288690150558
 30
0.0
 11
799.5099930378401
 21
486.5288690150558
 31
0.0
  0
INSERT
  5
3076
330
2D4F
100
AcDbEntity
  8
寸法
 62
     0
100
AcDbBlockReference
  2
_OPEN30
 10
731.6021609806401
 20
486.5288690150558
 30
0.0
 41
2.0
 42
2.0
 43
2.0
 50
180.0
  0
INSERT
  5
3077
330
2D4F
100
AcDbEntity
  8
寸法
 62
     0
100
AcDbBlockReference
  2
_OPEN30
 10
801.5099930378401
 20
486.5288690150558
 30
0.0
 41
2.0
 42
2.0
 43
2.0
  0
MTEXT
  5
3078
330
2D4F
100
AcDbEntity
  8
寸法
 62
     0
100
AcDbMText
 10
766.5560770092402
 20
490.0288690150558
 30
0.0
 40
5.0
 41
0.0
 71
     5
 72
     1
  1
\A1;70
1001
ACAD
1000
MTEXTBEGIN
1070
    73
1070
     1
1070
    44
1040
1.0
1070
    74
1070
     0
1000
MTEXTEND
  0
POINT
  5
3079
330
2D4F
100
AcDbEntity
  8
DEFPOINTS
 62
     0
100
AcDbPoint
 10
731.6021609806401
 20
528.1275569305558
 30
0.0
  0
POINT
  5
307A
330
2D4F
100
AcDbEntity
  8
DEFPOINTS
 62
     0
100
AcDbPoint
 10
801.5099930378401
 20
528.1275569305558
 30
0.0
  0
POINT
  5
307B
330
2D4F
100
AcDbEntity
  8
DEFPOINTS
 62
     0
100
AcDbPoint
 10
801.5099930378401
 20
486.5288690150558
 30
0.0
  0
ENDBLK
  5
2D5A
330
2D4F
100
AcDbEntity
  8
0
100
AcDbBlockEnd
  0
BLOCK
  5
2D65
330
2D5B
100
AcDbEntity
  8
0
100
AcDbBlockBegin
  2
*D21
 70
     1
 10
0.0
 20
0.0
 30
0.0
  3
*D21
  1

  0
LINE
  5
304F
330
2D5B
100
AcDbEntity
  8
寸法
 62
     0
100
AcDbLine
 10
881.5142199458401
 20
448.0083082486558
 30
0.0
 11
881.5142199458401
 21
403.1209839875812
 31
0.0
  0
LINE
  5
3050
330
2D5B
100
AcDbEntity
  8
寸法
 62
     0
100
AcDbLine
 10
911.51421994584
 20
450.7197514341558
 30
0.0
 11
911.51421994584
 21
403.1209839875812
 31
0.0
  0
LINE
  5
3051
330
2D5B
100
AcDbEntity
  8
寸法
 62
     0
100
AcDbLine
 10
883.5142199458401
 20
405.1209839875813
 30
0.0
 11
909.51421994584
 21
405.1209839875813
 31
0.0
  0
INSERT
  5
3052
330
2D5B
100
AcDbEntity
  8
寸法
 62
     0
100
AcDbBlockReference
  2
_OPEN30
 10
881.5142199458401
 20
405.1209839875813
 30
0.0
 41
2.0
 42
2.0
 43
2.0
 50
180.0
  0
INSERT
  5
3053
330
2D5B
100
AcDbEntity
  8
寸法
 62
     0
100
AcDbBlockReference
  2
_OPEN30
 10
911.51421994584
 20
405.1209839875813
 30
0.0
 41
2.0
 42
2.0
 43
2.0
  0
MTEXT
  5
3054
330
2D5B
100
AcDbEntity
  8
寸法
 62
     0
100
AcDbMText
 10
896.51421994584
 20
408.6209839875813
 30
0.0
 40
5.0
 41
0.0
 71
     5
 72
     1
  1
\A1;30
1001
ACAD
1000
MTEXTBEGIN
1070
    73
1070
     1
1070
    44
1040
1.0
1070
    74
1070
     0
1000
MTEXTEND
  0
POINT
  5
3055
330
2D5B
100
AcDbEntity
  8
DEFPOINTS
 62
     0
100
AcDbPoint
 10
881.5142199458401
 20
448.0708082486558
 30
0.0
  0
POINT
  5
3056
330
2D5B
100
AcDbEntity
  8
DEFPOINTS
 62
     0
100
AcDbPoint
 10
911.51421994584
 20
450.7822514341558
 30
0.0
  0
POINT
  5
3057
330
2D5B
100
AcDbEntity
  8
DEFPOINTS
 62
     0
100
AcDbPoint
 10
911.51421994584
 20
405.1209839875813
 30
0.0
  0
ENDBLK
  5
2D66
330
2D5B
100
AcDbEntity
  8
0
100
AcDbBlockEnd
  0
BLOCK
  5
2D71
330
2D67
100
AcDbEntity
  8
0
100
AcDbBlockBegin
  2
*D22
 70
     1
 10
0.0
 20
0.0
 30
0.0
  3
*D22
  1

  0
LINE
  5
3058
330
2D67
100
AcDbEntity
  8
寸法
 62
     0
100
AcDbLine
 10
881.5142199458401
 20
618.0997553910558
 30
0.0
 11
881.5142199458401
 21
654.3200007713558
 31
0.0
  0
LINE
  5
3059
330
2D67
100
AcDbEntity
  8
寸法
 62
     0
100
AcDbLine
 10
911.51421994584
 20
615.5867341818558
 30
0.0
 11
911.51421994584
 21
654.3200007713558
 31
0.0
  0
LINE
  5
305A
330
2D67
100
AcDbEntity
  8
寸法
 62
     0
100
AcDbLine
 10
883.5142199458401
 20
652.3200007713557
 30
0.0
 11
909.51421994584
 21
652.3200007713557
 31
0.0
  0
INSERT
  5
305B
330
2D67
100
AcDbEntity
  8
寸法
 62
     0
100
AcDbBlockReference
  2
_OPEN30
 10
881.5142199458401
 20
652.3200007713557
 30
0.0
 41
2.0
 42
2.0
 43
2.0
 50
180.0
  0
INSERT
  5
305C
330
2D67
100
AcDbEntity
  8
寸法
 62
     0
100
AcDbBlockReference
  2
_OPEN30
 10
911.51421994584
 20
652.3200007713557
 30
0.0
 41
2.0
 42
2.0
 43
2.0
  0
MTEXT
  5
305D
330
2D67
100
AcDbEntity
  8
寸法
 62
     0
100
AcDbMText
 10
894.2742199458402
 20
655.8200007713558
 30
0.0
 40
5.0
 41
0.0
 71
     5
 72
     1
  1
\A1;30
1001
ACAD
1000
MTEXTBEGIN
1070
    73
1070
     1
1070
    44
1040
1.0
1070
    74
1070
     0
1000
MTEXTEND
  0
POINT
  5
305E
330
2D67
100
AcDbEntity
  8
DEFPOINTS
 62
     0
100
AcDbPoint
 10
881.5142199458401
 20
618.0372553910558
 30
0.0
  0
POINT
  5
305F
330
2D67
100
AcDbEntity
  8
DEFPOINTS
 62
     0
100
AcDbPoint
 10
911.51421994584
 20
615.5242341818558
 30
0.0
  0
POINT
  5
3060
330
2D67
100
AcDbEntity
  8
DEFPOINTS
 62
     0
100
AcDbPoint
 10
911.51421994584
 20
652.3200007713557
 30
0.0
  0
ENDBLK
  5
2D72
330
2D67
100
AcDbEntity
  8
0
100
AcDbBlockEnd
  0
BLOCK
  5
2D7D
330
2D73
100
AcDbEntity
  8
0
100
AcDbBlockBegin
  2
*D23
 70
     1
 10
0.0
 20
0.0
 30
0.0
  3
*D23
  1

  0
LINE
  5
3061
330
2D73
100
AcDbEntity
  8
寸法
 62
     0
100
AcDbLine
 10
820.5142202043401
 20
578.1445265501559
 30
0.0
 11
820.5142202043401
 21
565.6263739838558
 31
0.0
  0
LINE
  5
3062
330
2D73
100
AcDbEntity
  8
寸法
 62
     0
100
AcDbLine
 10
990.3738681802401
 20
577.8304253491557
 30
0.0
 11
990.3738681802401
 21
565.6263739838558
 31
0.0
  0
LINE
  5
3063
330
2D73
100
AcDbEntity
  8
寸法
 62
     0
100
AcDbLine
 10
822.5142202043402
 20
567.6263739838558
 30
0.0
 11
988.3738681802402
 21
567.6263739838558
 31
0.0
  0
INSERT
  5
3064
330
2D73
100
AcDbEntity
  8
寸法
 62
     0
100
AcDbBlockReference
  2
_OPEN30
 10
820.5142202043401
 20
567.6263739838558
 30
0.0
 41
2.0
 42
2.0
 43
2.0
 50
180.0
  0
INSERT
  5
3065
330
2D73
100
AcDbEntity
  8
寸法
 62
     0
100
AcDbBlockReference
  2
_OPEN30
 10
990.3738681802401
 20
567.6263739838558
 30
0.0
 41
2.0
 42
2.0
 43
2.0
  0
MTEXT
  5
3066
330
2D73
100
AcDbEntity
  8
寸法
 62
     0
100
AcDbMText
 10
903.60188596494
 20
571.1263739838558
 30
0.0
 40
5.0
 41
0.0
 71
     5
 72
     1
  1
\A1;170
1001
ACAD
1000
MTEXTBEGIN
1070
    73
1070
     1
1070
    44
1040
1.0
1070
    74
1070
     0
1000
MTEXTEND
  0
POINT
  5
3067
330
2D73
100
AcDbEntity
  8
DEFPOINTS
 62
     0
100
AcDbPoint
 10
820.5142202043401
 20
578.2070265501558
 30
0.0
  0
POINT
  5
3068
330
2D73
100
AcDbEntity
  8
DEFPOINTS
 62
     0
100
AcDbPoint
 10
990.3738681802401
 20
577.8929253491558
 30
0.0
  0
POINT
  5
3069
330
2D73
100
AcDbEntity
  8
DEFPOINTS
 62
     0
100
AcDbPoint
 10
990.3738681802401
 20
567.6263739838558
 30
0.0
  0
ENDBLK
  5
2D7E
330
2D73
100
AcDbEntity
  8
0
100
AcDbBlockEnd
  0
ENDSEC
  0
SECTION
  2
ENTITIES
  0
TEXT
  5
41F
330
1B
100
AcDbEntity
  8
0
  6
CONTINUOUS
 62
     2
100
AcDbText
 10
405.2799999999999
 20
19.0
 30
0.0
 40
3.0
  1
 
 41
0.8
 72
     1
 11
406.0
 21
19.0
 31
0.0
100
AcDbText
  0
TEXT
  5
422
330
1B
100
AcDbEntity
  8
0
  6
CONTINUOUS
 62
     2
100
AcDbText
 10
405.2799999999999
 20
12.0
 30
0.0
 40
3.0
  1
 
 41
0.8
 72
     1
 11
406.0
 21
12.0
 31
0.0
100
AcDbText
  0
LINE
  5
109A
330
1B
100
AcDbEntity
  8
0
100
AcDbLine
 10
1133.821272071698
 20
418.7435369206294
 30
0.0
 11
1013.821272071699
 21
418.7435369206294
 31
0.0
  0
LINE
  5
109B
330
1B
100
AcDbEntity
  8
0
100
AcDbLine
 10
1133.821272071698
 20
430.7435369206295
 30
0.0
 11
1013.821272071699
 21
430.7435369206295
 31
0.0
  0
LINE
  5
109C
330
1B
100
AcDbEntity
  8
0
100
AcDbLine
 10
1133.821272071698
 20
442.7435369206294
 30
0.0
 11
1013.821272071699
 21
442.7435369206294
 31
0.0
  0
LINE
  5
109D
330
1B
100
AcDbEntity
  8
0
100
AcDbLine
 10
1013.821272071699
 20
442.7435369206294
 30
0.0
 11
1013.821272071699
 21
418.7435369206294
 31
0.0
  0
TEXT
  5
109E
330
1B
100
AcDbEntity
  8
0
100
AcDbText
 10
1022.724207071699
 20
421.2510659206295
 30
0.0
 40
6.0
  1
型名
  7
STANDARD1
100
AcDbText
  0
TEXT
  5
109F
330
1B
100
AcDbEntity
  8
0
100
AcDbText
 10
1022.724207071699
 20
433.2510659206295
 30
0.0
 40
6.0
  1
品名
  7
STANDARD1
100
AcDbText
  0
TEXT
  5
10A0
330
1B
100
AcDbEntity
  8
0
100
AcDbText
 10
1046.724207071699
 20
421.2510659206295
 30
0.0
 40
6.0
  1
NC-2000
  7
STANDARD1
100
AcDbText
  0
TEXT
  5
10A1
330
1B
100
AcDbEntity
  8
0
100
AcDbText
 10
1046.724207071699
 20
433.2510659206295
 30
0.0
 40
6.0
  1
固定型メガピクセルカメラ
 41
0.9
  7
STANDARD1
100
AcDbText
  0
LINE
  5
10A2
330
1B
100
AcDbEntity
  8
0
100
AcDbLine
 10
1043.821272071699
 20
442.7435369206294
 30
0.0
 11
1043.821272071699
 21
418.7435369206294
 31
0.0
  0
LINE
  5
10A3
330
1B
100
AcDbEntity
  8
0
100
AcDbLine
 10
1133.821272071698
 20
442.7435369206294
 30
0.0
 11
1133.821272071698
 21
418.7435369206294
 31
0.0
  0
LINE
  5
2684
330
1B
100
AcDbEntity
  8
実線
100
AcDbLine
 10
867.5142199458401
 20
490.2623390525558
 30
0.0
 11
962.51421994584
 21
490.2623390525558
 31
0.0
  0
LINE
  5
2685
330
1B
100
AcDbEntity
  8
実線
100
AcDbLine
 10
962.51421994584
 20
490.2298862394558
 30
0.0
 11
867.5142199458401
 21
490.2298862394558
 31
0.0
  0
LINE
  5
2686
330
1B
100
AcDbEntity
  8
実線
100
AcDbLine
 10
962.51421994584
 20
490.2134044016558
 30
0.0
 11
866.5142199458401
 21
490.2134044016558
 31
0.0
  0
LINE
  5
2687
330
1B
100
AcDbEntity
  8
実線
100
AcDbLine
 10
962.51421994584
 20
420.3510984667558
 30
0.0
 11
866.5142199458401
 21
420.3510984667558
 31
0.0
  0
LINE
  5
2688
330
1B
100
AcDbEntity
  8
実線
100
AcDbLine
 10
962.51421994584
 20
420.3346166289558
 30
0.0
 11
867.5142199458401
 21
420.3346166289558
 31
0.0
  0
LINE
  5
2689
330
1B
100
AcDbEntity
  8
実線
100
AcDbLine
 10
962.51421994584
 20
420.3021638158558
 30
0.0
 11
867.5142199458401
 21
420.3021638158558
 31
0.0
  0
LINE
  5
268A
330
1B
100
AcDbEntity
  8
実線
100
AcDbLine
 10
962.51421994584
 20
645.5043218002558
 30
0.0
 11
866.5142199458401
 21
645.5043218002558
 31
0.0
  0
LINE
  5
268B
330
1B
100
AcDbEntity
  8
実線
100
AcDbLine
 10
866.5142199458401
 20
575.5441465635558
 30
0.0
 11
962.51421994584
 21
575.5441465635558
 31
0.0
  0
LINE
  5
268C
330
1B
100
AcDbEntity
  8
実線
100
AcDbLine
 10
866.5142199458401
 20
561.6275569305559
 30
0.0
 11
962.5141594166402
 21
561.6275569305559
 31
0.0
  0
LINE
  5
268D
330
1B
100
AcDbEntity
  8
実線
100
AcDbLine
 10
866.5142199458401
 20
534.6275569305557
 30
0.0
 11
990.3738681802401
 21
534.6275569305557
 31
0.0
  0
LINE
  5
268E
330
1B
100
AcDbEntity
  8
実線
100
AcDbLine
 10
988.5400696461401
 20
528.6275569305558
 30
0.0
 11
867.5142199458401
 21
528.6275569305558
 31
0.0
  0
LINE
  5
268F
330
1B
100
AcDbEntity
  8
実線
100
AcDbLine
 10
962.41820000004
 20
501.6277637906559
 30
0.0
 11
866.5142199458401
 21
501.6275569305558
 31
0.0
  0
DIMENSION
  5
2690
330
1B
100
AcDbEntity
  8
寸法
100
AcDbDimension
  2
*D22
 10
911.51421994584
 20
652.3200007713557
 30
0.0
 11
894.2742199458402
 21
652.3200007713557
 31
0.0
 70
   160
  3
STANDARD
100
AcDbAlignedDimension
 13
881.5142199458401
 23
618.0372553910558
 33
0.0
 14
911.51421994584
 24
615.5242341818558
 34
0.0
100
AcDbRotatedDimension
  0
DIMENSION
  5
2691
330
1B
100
AcDbEntity
  8
寸法
100
AcDbDimension
  2
*D23
 10
990.3738681802401
 20
567.6263739838558
 30
0.0
 11
903.60188596494
 21
567.6263739838558
 31
0.0
 70
   160
  3
STANDARD
100
AcDbAlignedDimension
 13
820.5142202043401
 23
578.2070265501558
 33
0.0
 14
990.3738681802401
 24
577.8929253491558
 34
0.0
100
AcDbRotatedDimension
  0
DIMENSION
  5
2692
330
1B
100
AcDbEntity
  8
寸法
100
AcDbDimension
  2
*D21
 10
911.51421994584
 20
405.1209839875813
 30
0.0
 11
896.51421994584
 21
405.1209839875813
 31
0.0
 70
   160
  3
STANDARD
100
AcDbAlignedDimension
 13
881.5142199458401
 23
448.0708082486558
 33
0.0
 14
911.51421994584
 24
450.7822514341558
 34
0.0
100
AcDbRotatedDimension
  0
ARC
  5
2693
330
1B
100
AcDbEntity
  8
実線
100
AcDbCircle
 10
957.5905031471402
 20
531.6275569305558
 30
0.0
 40
226.0
100
AcDbArc
 50
180.9999999999985
 51
187.4024753931998
  0
ARC
  5
2694
330
1B
100
AcDbEntity
  8
実線
100
AcDbCircle
 10
575.5216508713401
 20
531.6275569305558
 30
0.0
 40
226.0
100
AcDbArc
 50
352.5975246068
 51
358.9999999999982
  0
LWPOLYLINE
  5
2695
330
1B
100
AcDbEntity
  8
実線
100
AcDbPolyline
 90
        4
 70
     0
 43
0.0
 10
801.4718739009401
 20
537.4674259000559
 10
801.4718739007401
 20
525.7876879547558
 10
800.8683731039401
 20
514.1235656699558
 10
799.6631255134401
 20
502.5072839320558
  0
LWPOLYLINE
  5
2696
330
1B
100
AcDbEntity
  8
実線
100
AcDbPolyline
 90
       10
 70
     0
 43
0.0
 10
785.5950349345402
 20
544.8900315236557
 10
787.0762995020401
 20
541.9013602273558
 10
788.1319448194401
 20
538.9344503229558
 10
788.8081432282401
 20
535.9970549433557
 10
789.1379473281402
 20
533.0811433196559
 10
789.1379171227401
 20
530.1734112579558
 10
788.8080588167402
 20
527.2575490932559
 10
788.1318131943401
 20
524.3201960652559
 10
787.0761644857402
 20
521.3534301099558
 10
785.5950349345402
 20
518.3650823374558
  0
LWPOLYLINE
  5
2697
330
1B
100
AcDbEntity
  8
実線
100
AcDbPolyline
 90
       10
 70
     0
 43
0.0
 10
785.2804326798401
 20
544.6768618304559
 10
786.7613065691402
 20
541.7378301434559
 10
787.8171033681401
 20
538.8185927496558
 10
788.4934024984401
 20
535.9280223424558
 10
788.8232715225401
 20
533.0583233277558
 10
788.8232599155401
 20
530.1965681575558
 10
788.4933671748401
 20
527.3268746206558
 10
787.8170423117401
 20
524.4363001682558
 10
786.7612626332401
 20
521.5171773716559
 10
785.28037473904
 20
518.5781370378558
  0
LINE
  5
2698
330
1B
100
AcDbEntity
  8
実線
100
AcDbLine
 10
784.5560770092402
 20
519.6255569305558
 30
0.0
 11
784.5560770092402
 21
543.6295569305558
 31
0.0
  0
LINE
  5
2699
330
1B
100
AcDbEntity
  8
文字
  6
CENTER
 62
     0
100
AcDbLine
 10
766.5560770092402
 20
531.6275569305558
 30
0.0
 11
766.5560770092402
 21
498.329290073436
 31
0.0
  0
LINE
  5
269A
330
1B
100
AcDbEntity
  8
実線
100
AcDbLine
 10
748.5560770092401
 20
543.6295569305558
 30
0.0
 11
748.5560770092401
 21
519.6255569305558
 31
0.0
  0
LWPOLYLINE
  5
269B
330
1B
100
AcDbEntity
  8
実線
100
AcDbPolyline
 90
       10
 70
     0
 43
0.0
 10
747.51711908394
 20
518.3650823374558
 10
746.03598987134
 20
521.3534293635558
 10
744.9803407703401
 20
524.3201961841558
 10
744.3040952085401
 20
527.2575490757558
 10
743.9742368962401
 20
530.1734112533559
 10
743.9742066919401
 20
533.0811433230557
 10
744.3040107730402
 20
535.9970549017559
 10
744.98020929164
 20
538.9344505266558
 10
746.0358540295401
 20
541.9013591642558
 10
747.51711908394
 20
544.8900315236557
  0
LWPOLYLINE
  5
269C
330
1B
100
AcDbEntity
  8
実線
100
AcDbPolyline
 90
       10
 70
     0
 43
0.0
 10
747.8317792794402
 20
518.5781370378558
 10
746.35089140534
 20
521.5171773819559
 10
745.29511169074
 20
524.4363001567558
 10
744.6187868476402
 20
527.3268746184558
 10
744.2888941033401
 20
530.1965681542558
 10
744.2888824970402
 20
533.0583233241558
 10
744.6187515099401
 20
535.9280223415558
 10
745.2950506788401
 20
538.8185927314558
 10
746.3508474170402
 20
541.7378301614558
 10
747.8317792794402
 20
544.6769768232558
  0
LWPOLYLINE
  5
269D
330
1B
100
AcDbEntity
  8
実線
100
AcDbPolyline
 90
        4
 70
     0
 43
0.0
 10
731.64028011754
 20
537.4674259000559
 10
731.6402801177401
 20
525.7876879547558
 10
732.2437809144401
 20
514.1235656699558
 10
733.4490285050401
 20
502.5072839320558
  0
LINE
  5
269E
330
1B
100
AcDbEntity
  8
実線
100
AcDbLine
 10
866.5142199458401
 20
501.6275569305558
 30
0.0
 11
866.5142199458401
 21
561.6275569305559
 31
0.0
  0
LINE
  5
269F
330
1B
100
AcDbEntity
  8
実線
100
AcDbLine
 10
866.01421994584
 20
561.6188293980558
 30
0.0
 11
866.01421994584
 21
501.6362844630558
 31
0.0
  0
LWPOLYLINE
  5
26A0
330
1B
100
AcDbEntity
  8
実線
100
AcDbPolyline
 90
       14
 70
     0
 43
0.0
 10
837.4332676626401
 20
504.3653266771558
 10
834.9823072267401
 20
505.6386878479558
 10
832.3790343827402
 20
507.3662714229558
 10
829.7065885382401
 20
509.6356492988558
 10
827.1232946395402
 20
512.4724418121558
 10
824.82579830704
 20
515.8003007391559
 10
822.9773645531402
 20
519.4527456262558
 10
821.6236040775401
 20
523.3542167549558
 10
820.7937365253402
 20
527.4434567013559
 10
820.5142202043401
 20
531.6235228269558
 10
820.7926761890401
 20
535.8037532359558
 10
821.6215432416401
 20
539.8933642549557
 10
822.9742339153402
 20
543.7949844667558
 10
824.8219188453401
 20
547.4482846910558
  0
LWPOLYLINE
  5
26A1
330
1B
100
AcDbEntity
  8
実線
100
AcDbPolyline
 90
        9
 70
     0
 43
0.0
 10
823.46393236904
 20
544.8900315236557
 10
822.2445279879401
 20
541.9013602273558
 10
821.37566675304
 20
538.9344503229558
 10
820.8191954676401
 20
535.9970549433557
 10
820.5478070462401
 20
533.0811433196559
 10
820.5478329128402
 20
530.1734112579558
 10
820.8192670316401
 20
527.2575490932559
 10
821.3757787318401
 20
524.3201960652559
 10
822.2446405542401
 20
521.3534301099558
  0
DIMENSION
  5
26A2
330
1B
100
AcDbEntity
  8
寸法
100
AcDbDimension
  2
*D19
 10
812.4497154312848
 20
561.6188293980558
 30
0.0
 11
812.4497154312846
 21
529.3034976396819
 31
0.0
 70
   160
  3
STANDARD
100
AcDbAlignedDimension
 13
799.1716147624401
 23
501.6362844630558
 33
0.0
 14
799.1716147624401
 24
561.6188293980558
 34
0.0
 50
90.0
100
AcDbRotatedDimension
  0
DIMENSION
  5
26A3
330
1B
100
AcDbEntity
  8
寸法
100
AcDbDimension
  2
*D20
 10
801.5099930378401
 20
486.5288690150558
 30
0.0
 11
766.5560770092402
 21
486.5288690150558
 31
0.0
 70
   160
  3
STANDARD
100
AcDbAlignedDimension
 13
731.6021609806401
 23
528.1275569305558
 33
0.0
 14
801.5099930378401
 24
528.1275569305558
 34
0.0
100
AcDbRotatedDimension
  0
LINE
  5
26A4
330
1B
100
AcDbEntity
  8
実線
100
AcDbLine
 10
783.5560770092402
 20
518.6255569305558
 30
0.0
 11
749.5560770092402
 21
518.6255569305558
 31
0.0
  0
LINE
  5
26A5
330
1B
100
AcDbEntity
  8
実線
100
AcDbLine
 10
784.2512442877401
 20
518.2997449727558
 30
0.0
 11
748.8609098800401
 21
518.2997449727558
 31
0.0
  0
LINE
  5
26A6
330
1B
100
AcDbEntity
  8
実線
100
AcDbLine
 10
784.2512984404401
 20
517.7498539540558
 30
0.0
 11
748.8608555780402
 21
517.7498539540558
 31
0.0
  0
LINE
  5
26A7
330
1B
100
AcDbEntity
  8
実線
100
AcDbLine
 10
734.4405392560401
 20
501.6362844630558
 30
0.0
 11
798.6716147624401
 21
501.6362844630558
 31
0.0
  0
LINE
  5
26A8
330
1B
100
AcDbEntity
  8
実線
100
AcDbLine
 10
734.4672188400401
 20
501.6275569305558
 30
0.0
 11
798.6449351784401
 21
501.6275569305558
 31
0.0
  0
ARC
  5
26A9
330
1B
100
AcDbEntity
  8
実線
100
AcDbCircle
 10
734.4672188400401
 20
502.6275569305558
 30
0.0
 40
1.0
100
AcDbArc
 50
252.5551623743992
 51
270.0
  0
LWPOLYLINE
  5
26AA
330
1B
100
AcDbEntity
  8
実線
100
AcDbPolyline
 90
        6
 70
     0
 43
0.0
 10
734.4405392560401
 20
501.6362844630558
 10
734.1574024706401
 20
501.6772047238559
 10
733.8953046986402
 20
501.7980125619557
 10
733.6798760655401
 20
501.9871973708558
 10
733.5260350154401
 20
502.2319173741558
 10
733.4490285050401
 20
502.5072839320558
  0
LINE
  5
26AB
330
1B
100
AcDbEntity
  8
実線
100
AcDbLine
 10
733.4740782243401
 20
502.5100694044558
 30
0.0
 11
733.4755597986401
 21
502.4986680420558
 31
0.0
  0
LINE
  5
26AF
330
1B
100
AcDbEntity
  8
実線
100
AcDbLine
 10
747.8317792794402
 20
518.5781370378558
 30
0.0
 11
748.6082994916402
 21
519.3066246852558
 31
0.0
  0
LWPOLYLINE
  5
26B0
330
1B
100
AcDbEntity
  8
実線
100
AcDbPolyline
 90
        4
 70
     0
 43
0.0
 10
748.8609186511402
 20
518.2997532029558
 10
748.6115168647401
 20
518.2759016374558
 10
748.3894849704402
 20
518.2837358561559
 10
748.1980789272401
 20
518.3207550861558
  0
LWPOLYLINE
  5
26B1
330
1B
100
AcDbEntity
  8
実線
100
AcDbPolyline
 90
        4
 70
     0
 43
0.0
 10
748.8608555780402
 20
517.7498539540558
 10
748.5466224619401
 20
517.7705114315558
 10
748.2631841247401
 20
517.8299145854558
 10
748.0153065329401
 20
517.9236745084558
  0
LWPOLYLINE
  5
26B2
330
1B
100
AcDbEntity
  8
実線
100
AcDbPolyline
 90
        4
 70
     0
 43
0.0
 10
747.5171190841401
 20
518.3650852203558
 10
747.6324531582402
 20
518.4273528338557
 10
747.73981402424
 20
518.5000453036558
 10
747.8317792794402
 20
518.5781370378558
  0
LWPOLYLINE
  5
26B3
330
1B
100
AcDbEntity
  8
実線
100
AcDbPolyline
 90
        4
 70
     0
 43
0.0
 10
748.0153049784401
 20
517.9236147249558
 10
748.0843726526401
 20
518.0517764931558
 10
748.1471895698401
 20
518.1882705934558
 10
748.1980744902402
 20
518.3207507937559
  0
LWPOLYLINE
  5
26B4
330
1B
100
AcDbEntity
  8
実線
100
AcDbPolyline
 90
        4
 70
     0
 43
0.0
 10
748.1980789272401
 20
518.3207550861558
 10
748.0375874687402
 20
518.3857612597558
 10
747.9155391687401
 20
518.4735575598558
 10
747.8317792794402
 20
518.5781370378558
  0
LWPOLYLINE
  5
26B5
330
1B
100
AcDbEntity
  8
実線
100
AcDbPolyline
 90
        4
 70
     0
 43
0.0
 10
748.0153031204402
 20
517.9236325126558
 10
747.8029910377402
 20
518.0501314879558
 10
747.6367875725401
 20
518.2001402580558
 10
747.51711908394
 20
518.3650823374558
  0
ARC
  5
26B6
330
1B
100
AcDbEntity
  8
実線
100
AcDbCircle
 10
749.5560770092402
 20
519.6255569305558
 30
0.0
 40
1.0
100
AcDbArc
 50
180.0
 51
270.0
  0
LINE
  5
26B7
330
1B
100
AcDbEntity
  8
実線
100
AcDbLine
 10
748.8609098800401
 20
518.2997449727558
 30
0.0
 11
749.2569540855401
 21
518.6713423443558
 31
0.0
  0
LINE
  5
26B8
330
1B
100
AcDbEntity
  8
実線
100
AcDbLine
 10
748.8608555780402
 20
517.7498539540558
 30
0.0
 11
748.8608555778402
 21
518.2997449726558
 31
0.0
  0
LINE
  5
26B9
330
1B
100
AcDbEntity
  8
実線
100
AcDbLine
 10
866.5142199458401
 20
420.2822514341558
 30
0.0
 11
866.5142199458401
 21
490.2822514341558
 31
0.0
  0
LINE
  5
26BA
330
1B
100
AcDbEntity
  8
実線
100
AcDbLine
 10
866.01421994584
 20
420.2910169429558
 30
0.0
 11
866.01421994584
 21
490.2734859253558
 31
0.0
  0
LWPOLYLINE
  5
26BB
330
1B
100
AcDbEntity
  8
実線
100
AcDbPolyline
 90
        3
 70
     0
 43
0.0
 10
823.46393236904
 20
436.2432935089558
 10
822.2446408139401
 20
434.7621642963559
 10
820.81926703414
 20
433.0302696334558
  0
LINE
  5
26BC
330
1B
100
AcDbEntity
  8
実線
100
AcDbLine
 10
820.6253271291402
 20
432.9738276153558
 30
0.0
 11
823.5478103495402
 21
436.5827938343558
 31
0.0
  0
ARC
  5
26BD
330
1B
100
AcDbEntity
  8
実線
100
AcDbCircle
 10
848.5142199458401
 20
617.5964426028558
 30
0.0
 40
196.9800876184
100
AcDbArc
 50
262.4580685407973
 51
270.0000505441984
  0
LINE
  5
26BE
330
1B
100
AcDbEntity
  8
実線
100
AcDbLine
 10
822.6576272115401
 20
422.3006755925558
 30
0.0
 11
821.3768552189401
 21
422.4745231892558
 31
0.0
  0
LINE
  5
26BF
330
1B
100
AcDbEntity
  8
実線
100
AcDbLine
 10
820.5142199458402
 20
432.6596256795558
 30
0.0
 11
820.5142199458402
 21
423.4650438030558
 31
0.0
  0
ARC
  5
26C0
330
1B
100
AcDbEntity
  8
実線
100
AcDbCircle
 10
821.5142199478401
 20
423.4650438029558
 30
0.0
 40
1.0
100
AcDbArc
 50
179.9999999991011
 51
262.0820355727972
  0
ARC
  5
26C1
330
1B
100
AcDbEntity
  8
実線
100
AcDbCircle
 10
821.0142666692402
 20
432.6596200830558
 30
0.0
 40
0.5
100
AcDbArc
 50
141.0000000000017
 51
179.9993587311985
  0
LWPOLYLINE
  5
26C2
330
1B
100
AcDbEntity
  8
実線
100
AcDbPolyline
 90
        3
 70
     0
 43
0.0
 10
820.81926703414
 20
433.0302696334558
 10
820.54783291304
 20
432.7004113212558
 10
820.5142199461402
 20
432.6591673183558
  0
ARC
  5
26C3
330
1B
100
AcDbEntity
  8
実線
100
AcDbCircle
 10
847.7642199458401
 20
617.7352514341557
 30
0.0
 40
197.05
100
AcDbArc
 50
262.7093030999022
 51
265.1429113648968
  0
LINE
  5
26C4
330
1B
100
AcDbEntity
  8
実線
100
AcDbLine
 10
822.6602410524401
 20
422.3204156730558
 30
0.0
 11
822.6576271876401
 21
422.3006757060558
 31
0.0
  0
LINE
  5
26C5
330
1B
100
AcDbEntity
  8
実線
100
AcDbLine
 10
822.7615926805402
 20
422.3074489561558
 30
0.0
 11
822.7578747681402
 21
422.2783886719558
 31
0.0
  0
LINE
  5
26C6
330
1B
100
AcDbEntity
  8
実線
100
AcDbLine
 10
865.0150243445402
 20
420.3283354056558
 30
0.0
 11
848.5143937141401
 21
420.6163549846558
 31
0.0
  0
LINE
  5
26C7
330
1B
100
AcDbEntity
  8
実線
100
AcDbLine
 10
866.5142199458401
 20
420.2822514341558
 30
0.0
 11
867.5142199458401
 21
420.2822514341558
 31
0.0
  0
LINE
  5
26C8
330
1B
100
AcDbEntity
  8
実線
100
AcDbLine
 10
866.0129029160401
 20
420.2910019554558
 30
0.0
 11
865.0146768255401
 21
420.3084260567558
 31
0.0
  0
LINE
  5
26C9
330
1B
100
AcDbEntity
  8
実線
100
AcDbLine
 10
866.01421994584
 20
420.7822880326558
 30
0.0
 11
866.5142199458401
 21
420.7822880326558
 31
0.0
  0
LINE
  5
26CA
330
1B
100
AcDbEntity
  8
実線
100
AcDbLine
 10
865.0146768274401
 20
420.3084261661558
 30
0.0
 11
865.0150243445402
 21
420.3283354056558
 31
0.0
  0
LINE
  5
26CB
330
1B
100
AcDbEntity
  8
実線
100
AcDbLine
 10
867.5142199458401
 20
420.2822514341558
 30
0.0
 11
867.5142199458401
 21
420.3346166289558
 31
0.0
  0
ARC
  5
26CC
330
1B
100
AcDbEntity
  8
実線
100
AcDbCircle
 10
848.5142199458401
 20
292.9680602654558
 30
0.0
 40
196.9800876184
100
AcDbArc
 50
89.99994945580155
 51
97.54193145920259
  0
LWPOLYLINE
  5
26CD
330
1B
100
AcDbEntity
  8
文字
 62
     0
100
AcDbPolyline
 90
        8
 70
     0
 43
0.0
 10
838.70893609424
 20
495.2047815853558
 10
838.70893609424
 20
492.8714539486557
 10
838.56893182174
 20
492.6381263118558
 10
838.2889360942401
 20
492.4047858577558
 10
838.0089403667401
 20
492.4047858577558
 10
837.7289318217401
 20
492.6381263118558
 10
837.5889403667402
 20
492.8714539486557
 10
837.5889403667402
 20
495.2047815853558
  0
LWPOLYLINE
  5
26CE
330
1B
100
AcDbEntity
  8
実線
100
AcDbPolyline
 90
        3
 70
     0
 43
0.0
 10
841.7702625796401
 20
502.8156699178558
 10
839.6976622970401
 20
503.4517919928559
 10
837.4321774561401
 20
504.3658247942558
  0
LINE
  5
26CF
330
1B
100
AcDbEntity
  8
実線
100
AcDbLine
 10
837.4332676626401
 20
504.3653266771558
 30
0.0
 11
839.6985249480401
 21
503.4514885921558
 31
0.0
  0
DIMENSION
  5
26D0
330
1B
100
AcDbEntity
  8
寸法
100
AcDbDimension
  2
*D18
 10
820.5142199478402
 20
405.1209839875813
 30
0.0
 11
851.4725098425719
 21
405.1209839875813
 31
0.0
 70
   160
  3
STANDARD
100
AcDbAlignedDimension
 13
881.5142199458401
 23
441.5942452746555
 33
0.0
 14
820.5142199478402
 24
423.4650438069552
 34
0.0
 50
180.0
100
AcDbRotatedDimension
  0
LINE
  5
26D1
330
1B
100
AcDbEntity
  8
実線
100
AcDbLine
 10
820.5142199458402
 20
487.0994590653558
 30
0.0
 11
820.5142199458402
 21
477.9048771884559
 31
0.0
  0
LINE
  5
26D2
330
1B
100
AcDbEntity
  8
実線
100
AcDbLine
 10
823.7623313996401
 20
472.9774728654558
 30
0.0
 11
823.7623313996401
 21
437.5870300029558
 31
0.0
  0
LINE
  5
26D3
330
1B
100
AcDbEntity
  8
実線
100
AcDbLine
 10
823.7097577820401
 20
472.9774728655558
 30
0.0
 11
823.7097577820401
 21
437.5870304324558
 31
0.0
  0
LINE
  5
26D4
330
1B
100
AcDbEntity
  8
実線
100
AcDbLine
 10
823.7623313996401
 20
437.5870300029558
 30
0.0
 11
823.7097577820401
 21
437.5870304643558
 31
0.0
  0
LINE
  5
26D5
330
1B
100
AcDbEntity
  8
実線
100
AcDbLine
 10
823.5277339582401
 20
436.5580015642558
 30
0.0
 11
823.5276952089401
 21
436.5579537044558
 31
0.0
  0
LWPOLYLINE
  5
26D6
330
1B
100
AcDbEntity
  8
実線
100
AcDbPolyline
 90
        3
 70
     0
 43
0.0
 10
823.5450309598402
 20
436.5850445396558
 10
823.52915843474
 20
436.5598575705558
 10
823.5276302730401
 20
436.5578776696558
  0
LINE
  5
26D7
330
1B
100
AcDbEntity
  8
実線
100
AcDbLine
 10
823.54289098934
 20
436.5812799160558
 30
0.0
 11
823.53482902804
 21
436.5680583757558
 31
0.0
  0
LINE
  5
26D8
330
1B
100
AcDbEntity
  8
実線
100
AcDbLine
 10
823.4754664694401
 20
436.4659884492558
 30
0.0
 11
823.5276952090401
 21
436.5579537043558
 31
0.0
  0
LINE
  5
26D9
330
1B
100
AcDbEntity
  8
実線
100
AcDbLine
 10
823.5612691664401
 20
436.6169419485558
 30
0.0
 11
823.5450309598402
 21
436.5850445396558
 31
0.0
  0
LINE
  5
26DA
330
1B
100
AcDbEntity
  8
実線
100
AcDbLine
 10
823.5670054869402
 20
436.6323102288558
 30
0.0
 11
823.54289098934
 21
436.5812799160558
 31
0.0
  0
LWPOLYLINE
  5
26DB
330
1B
100
AcDbEntity
  8
実線
100
AcDbPolyline
 90
        3
 70
     0
 43
0.0
 10
823.61449123464
 20
436.5291654626558
 10
823.5422271970401
 20
436.3629619974558
 10
823.46393236904
 20
436.2432935089558
  0
LINE
  5
26DC
330
1B
100
AcDbEntity
  8
実線
100
AcDbLine
 10
823.6086624600401
 20
436.7439141822558
 30
0.0
 11
823.5612691664401
 21
436.6169419485558
 31
0.0
  0
LINE
  5
26DD
330
1B
100
AcDbEntity
  8
実線
100
AcDbLine
 10
823.6162594431402
 20
436.7696757427558
 30
0.0
 11
823.61268993284
 21
436.7590726482558
 31
0.0
  0
LINE
  5
26DE
330
1B
100
AcDbEntity
  8
実線
100
AcDbLine
 10
823.6762196603402
 20
436.7414775454558
 30
0.0
 11
823.61449123464
 21
436.5291654626558
 31
0.0
  0
LINE
  5
26DF
330
1B
100
AcDbEntity
  8
実線
100
AcDbLine
 10
823.63788027644
 20
436.8538832110558
 30
0.0
 11
823.6086624600401
 21
436.7439141822558
 31
0.0
  0
LINE
  5
26E0
330
1B
100
AcDbEntity
  8
実線
100
AcDbLine
 10
823.6379023425401
 20
436.8539779281558
 30
0.0
 11
823.6162594431402
 21
436.7696757427558
 31
0.0
  0
LINE
  5
26E1
330
1B
100
AcDbEntity
  8
実線
100
AcDbLine
 10
823.63788027644
 20
436.8538832110558
 30
0.0
 11
823.6379692204401
 21
436.8542674519559
 31
0.0
  0
LWPOLYLINE
  5
26E2
330
1B
100
AcDbEntity
  8
実線
100
AcDbPolyline
 90
        3
 70
     0
 43
0.0
 10
823.6761861973402
 20
436.7414794034558
 10
823.63850693274
 20
436.8105470775558
 10
823.63788027644
 20
436.8538832110558
  0
LINE
  5
26E3
330
1B
100
AcDbEntity
  8
実線
100
AcDbLine
 10
823.72254329654
 20
436.9893585497558
 30
0.0
 11
823.6763193001401
 21
436.7414809578558
 31
0.0
  0
LINE
  5
26E4
330
1B
100
AcDbEntity
  8
実線
100
AcDbLine
 10
823.6837378795401
 20
437.1595801866558
 30
0.0
 11
823.6648067079402
 21
436.9910279440558
 31
0.0
  0
LWPOLYLINE
  5
26E5
330
1B
100
AcDbEntity
  8
実線
100
AcDbPolyline
 90
        3
 70
     0
 43
0.0
 10
823.7623313996401
 20
437.5870300029558
 10
823.7520370388402
 20
437.2727968869559
 10
823.72254329654
 20
436.9893585497558
  0
LINE
  5
26E6
330
1B
100
AcDbEntity
  8
実線
100
AcDbLine
 10
823.7097531951402
 20
437.5870300028558
 30
0.0
 11
823.7016454701402
 21
437.3242531881558
 31
0.0
  0
LWPOLYLINE
  5
26E7
330
1B
100
AcDbEntity
  8
実線
100
AcDbPolyline
 90
        4
 70
     0
 43
0.0
 10
823.7097529067401
 20
437.5870304625558
 10
823.7021707445402
 20
437.3290834585558
 10
823.66615994584
 20
436.9979386133558
 10
823.6380239859402
 20
436.8542548447559
  0
LWPOLYLINE
  5
26E8
330
1B
100
AcDbEntity
  8
実線
100
AcDbPolyline
 90
        3
 70
     0
 43
0.0
 10
823.46393849004
 20
436.2432935090558
 10
823.45371291784
 20
436.3586275831558
 10
823.4754664694401
 20
436.4659884492558
  0
LINE
  5
26E9
330
1B
100
AcDbEntity
  8
実線
100
AcDbLine
 10
823.7161353624401
 20
473.7738449542558
 30
0.0
 11
820.6253271280401
 21
477.5906752542558
 31
0.0
  0
LWPOLYLINE
  5
26EA
330
1B
100
AcDbEntity
  8
実線
100
AcDbPolyline
 90
        3
 70
     0
 43
0.0
 10
820.8192670316401
 20
477.5342332416558
 10
821.3757787318401
 20
476.8579876192559
 10
823.46393236904
 20
474.3212093594558
  0
ARC
  5
26EB
330
1B
100
AcDbEntity
  8
実線
100
AcDbCircle
 10
821.01426666954
 20
477.9048827849559
 30
0.0
 40
0.5
100
AcDbArc
 50
180.0006412701009
 51
218.9999999999982
  0
LINE
  5
26EC
330
1B
100
AcDbEntity
  8
実線
100
AcDbLine
 10
820.5142199461402
 20
477.9053355519558
 30
0.0
 11
820.5478329128402
 21
477.8640915477558
 31
0.0
  0
LINE
  5
26ED
330
1B
100
AcDbEntity
  8
実線
100
AcDbLine
 10
820.5478329128402
 20
477.8640915477558
 30
0.0
 11
820.8192670316401
 21
477.5342332416558
 31
0.0
  0
LWPOLYLINE
  5
26EE
330
1B
100
AcDbEntity
  8
実線
100
AcDbPolyline
 90
        3
 70
     0
 43
0.0
 10
823.46393236904
 20
474.3212093594558
 10
823.54338301754
 20
474.1993486119558
 10
823.6152087171401
 20
474.0333463395558
  0
LWPOLYLINE
  5
26EF
330
1B
100
AcDbEntity
  8
実線
100
AcDbPolyline
 90
        4
 70
     0
 43
0.0
 10
823.4639386515402
 20
474.3212093606558
 10
823.4537104367401
 20
474.2058746865558
 10
823.4754633513402
 20
474.0985130986558
 10
823.5276932886401
 20
474.0065476094558
  0
LINE
  5
26F0
330
1B
100
AcDbEntity
  8
実線
100
AcDbLine
 10
823.7623313996401
 20
472.9774728654558
 30
0.0
 11
823.7097577820401
 21
472.9774728656558
 31
0.0
  0
LINE
  5
26F1
330
1B
100
AcDbEntity
  8
実線
100
AcDbLine
 10
823.5517273246401
 20
473.9645237878558
 30
0.0
 11
823.5612691664401
 21
473.9475609199558
 31
0.0
  0
LWPOLYLINE
  5
26F2
330
1B
100
AcDbEntity
  8
実線
100
AcDbPolyline
 90
        4
 70
     0
 43
0.0
 10
823.5277575983401
 20
474.0064679033558
 10
823.5428909894402
 20
473.9832229521558
 10
823.5774720033401
 20
473.9100437389558
 10
823.6162594434402
 20
473.7948271245558
  0
LINE
  5
26F3
330
1B
100
AcDbEntity
  8
実線
100
AcDbLine
 10
823.6378802763402
 20
473.7106196576558
 30
0.0
 11
823.6379692203401
 21
473.7102354168558
 31
0.0
  0
LINE
  5
26F4
330
1B
100
AcDbEntity
  8
実線
100
AcDbLine
 10
823.6162594434402
 20
473.7948271245558
 30
0.0
 11
823.6379023428401
 21
473.7105249387558
 31
0.0
  0
LINE
  5
26F5
330
1B
100
AcDbEntity
  8
実線
100
AcDbLine
 10
823.6152087171401
 20
474.0333463395558
 30
0.0
 11
823.6762197087401
 21
473.8230251231558
 31
0.0
  0
LWPOLYLINE
  5
26F6
330
1B
100
AcDbEntity
  8
実線
100
AcDbPolyline
 90
        3
 70
     0
 43
0.0
 10
823.5612691664401
 20
473.9475609199558
 10
823.6086624599401
 20
473.8205886863558
 10
823.6126899329402
 20
473.8054302196558
  0
LINE
  5
26F7
330
1B
100
AcDbEntity
  8
実線
100
AcDbLine
 10
823.6763193465401
 20
473.8230217131558
 30
0.0
 11
823.7225416319402
 21
473.5751608748558
 31
0.0
  0
LINE
  5
26F8
330
1B
100
AcDbEntity
  8
実線
100
AcDbLine
 10
823.6380239859402
 20
473.7102480239558
 30
0.0
 11
823.6648067075401
 21
473.5734749267558
 31
0.0
  0
LWPOLYLINE
  5
26F9
330
1B
100
AcDbEntity
  8
実線
100
AcDbPolyline
 90
        4
 70
     0
 43
0.0
 10
823.6380259720402
 20
473.7102401390558
 10
823.66438592444
 20
473.5772213370558
 10
823.70142280964
 20
473.2474662552558
 10
823.70975319504
 20
472.9774728655558
  0
LWPOLYLINE
  5
26FA
330
1B
100
AcDbEntity
  8
実線
100
AcDbPolyline
 90
        3
 70
     0
 43
0.0
 10
823.6763166743401
 20
473.8230232617558
 10
823.6385959727401
 20
473.7539603290558
 10
823.63795721234
 20
473.7105375365558
  0
LWPOLYLINE
  5
26FB
330
1B
100
AcDbEntity
  8
実線
100
AcDbPolyline
 90
        3
 70
     0
 43
0.0
 10
823.7225416319402
 20
473.5751608748558
 10
823.75203417564
 20
473.2917418760558
 10
823.7623313996401
 20
472.9774728654558
  0
LWPOLYLINE
  5
26FC
330
1B
100
AcDbEntity
  8
実線
100
AcDbPolyline
 90
        3
 70
     0
 43
0.0
 10
823.68373788614
 20
473.4049226223558
 10
823.7021707445402
 20
473.2354194095558
 10
823.7097529068401
 20
472.9774724058558
  0
ARC
  5
26FD
330
1B
100
AcDbEntity
  8
実線
100
AcDbCircle
 10
798.6449351784401
 20
502.6275569305558
 30
0.0
 40
1.0
100
AcDbArc
 50
270.0
 51
287.4448376256007
  0
LWPOLYLINE
  5
26FE
330
1B
100
AcDbEntity
  8
実線
100
AcDbPolyline
 90
        6
 70
     0
 43
0.0
 10
799.6631255134401
 20
502.5072839320558
 10
799.5861190029401
 20
502.2319173741558
 10
799.4322779529401
 20
501.9871973708558
 10
799.21684931984
 20
501.7980125619557
 10
798.9547515478401
 20
501.6772047238559
 10
798.6716147624401
 20
501.6362844630558
  0
LINE
  5
26FF
330
1B
100
AcDbEntity
  8
実線
100
AcDbLine
 10
799.6380752136401
 20
502.5100649369558
 30
0.0
 11
799.6365942198401
 21
502.4986680420558
 31
0.0
  0
LWPOLYLINE
  5
2700
330
1B
100
AcDbEntity
  8
実線
100
AcDbPolyline
 90
        4
 70
     0
 43
0.0
 10
785.28037473904
 20
518.5781370378558
 10
785.1950323889401
 20
518.4720704547557
 10
785.0731181708401
 20
518.3849661507558
 10
784.9140749403401
 20
518.3207550423558
  0
LWPOLYLINE
  5
2701
330
1B
100
AcDbEntity
  8
実線
100
AcDbPolyline
 90
        4
 70
     0
 43
0.0
 10
785.5950349345402
 20
518.3650823374558
 10
785.4731741869401
 20
518.1977243314559
 10
785.3071719146401
 20
518.0486525829557
 10
785.0968506981402
 20
517.9236324140559
  0
LINE
  5
2702
330
1B
100
AcDbEntity
  8
実線
100
AcDbLine
 10
784.50385452684
 20
519.3066246852558
 30
0.0
 11
785.28037473904
 21
518.5781370378558
 31
0.0
  0
ARC
  5
2703
330
1B
100
AcDbEntity
  8
実線
100
AcDbCircle
 10
783.5560770092402
 20
519.6255569305558
 30
0.0
 40
1.0
100
AcDbArc
 50
270.0
 51
0.0
  0
LWPOLYLINE
  5
2704
330
1B
100
AcDbEntity
  8
実線
100
AcDbPolyline
 90
        4
 70
     0
 43
0.0
 10
785.0968472881401
 20
517.9236744139558
 10
784.8489864499401
 20
517.8299179473558
 10
784.5655674510401
 20
517.7705171825558
 10
784.2512984404401
 20
517.7498539540558
  0
LINE
  5
2705
330
1B
100
AcDbEntity
  8
実線
100
AcDbLine
 10
784.2512984404401
 20
517.7498539540558
 30
0.0
 11
784.2512984404401
 21
518.2997449727558
 31
0.0
  0
LWPOLYLINE
  5
2706
330
1B
100
AcDbEntity
  8
実線
100
AcDbPolyline
 90
        4
 70
     0
 43
0.0
 10
785.09684883684
 20
517.9236738297559
 10
785.0277859041401
 20
518.0518079146558
 10
784.9649674833401
 20
518.1882825120558
 10
784.9140753358401
 20
518.3207546599557
  0
LINE
  5
2707
330
1B
100
AcDbEntity
  8
実線
100
AcDbLine
 10
783.8551999329402
 20
518.6713423443558
 30
0.0
 11
784.2512442877401
 21
518.2997449727558
 31
0.0
  0
LWPOLYLINE
  5
2708
330
1B
100
AcDbEntity
  8
実線
100
AcDbPolyline
 90
        4
 70
     0
 43
0.0
 10
784.9140749403401
 20
518.3207550423558
 10
784.7226827249401
 20
518.2837367947558
 10
784.5006702889401
 20
518.2759012573558
 10
784.2512355412401
 20
518.2997531799558
  0
LWPOLYLINE
  5
2709
330
1B
100
AcDbEntity
  8
実線
100
AcDbPolyline
 90
        4
 70
     0
 43
0.0
 10
785.5950349356401
 20
518.3650852995558
 10
785.4797002616401
 20
518.4273538556558
 10
785.3723386736401
 20
518.5000462909559
 10
785.2803731844401
 20
518.5781370383558
  0
LINE
  5
270A
330
1B
100
AcDbEntity
  8
実線
100
AcDbLine
 10
822.6576272115401
 20
488.2638272758558
 30
0.0
 11
821.3767177888401
 21
488.0899605654558
 31
0.0
  0
ARC
  5
270B
330
1B
100
AcDbEntity
  8
実線
100
AcDbCircle
 10
821.5142199486402
 20
487.0994590654558
 30
0.0
 40
1.0
100
AcDbArc
 50
97.91796442699874
 51
180.0000000011985
  0
ARC
  5
270C
330
1B
100
AcDbEntity
  8
実線
100
AcDbCircle
 10
847.7642199458401
 20
292.8352514341558
 30
0.0
 40
197.05
100
AcDbArc
 50
94.81944312839759
 51
97.29069690009772
  0
LINE
  5
270D
330
1B
100
AcDbEntity
  8
実線
100
AcDbLine
 10
822.7578747681402
 20
488.2921141964557
 30
0.0
 11
822.7623479458401
 21
488.2571505392558
 31
0.0
  0
LINE
  5
270E
330
1B
100
AcDbEntity
  8
実線
100
AcDbLine
 10
822.6576271876401
 20
488.2638271623558
 30
0.0
 11
822.6602410524401
 21
488.2440871953559
 31
0.0
  0
LINE
  5
270F
330
1B
100
AcDbEntity
  8
文字
 62
     0
100
AcDbLine
 10
824.7089318217401
 20
495.2047815853558
 30
0.0
 11
824.7089318217401
 21
492.4047858577558
 31
0.0
  0
LWPOLYLINE
  5
2710
330
1B
100
AcDbEntity
  8
文字
 62
     0
100
AcDbPolyline
 90
        4
 70
     0
 43
0.0
 10
829.6089403667401
 20
492.4047858577558
 10
829.6089403667401
 20
495.2047815853558
 10
828.6289360942401
 20
493.1047815853558
 10
829.88893609424
 20
493.1047815853558
  0
LINE
  5
2711
330
1B
100
AcDbEntity
  8
文字
 62
     0
100
AcDbLine
 10
826.5289360942402
 20
492.4047858577558
 30
0.0
 11
827.36893609424
 21
495.2047815853558
 31
0.0
  0
LINE
  5
2712
330
1B
100
AcDbEntity
  8
文字
 62
     0
100
AcDbLine
 10
831.0089318217402
 20
493.8047901302557
 30
0.0
 11
831.8489318217402
 21
493.8047901302557
 31
0.0
  0
LWPOLYLINE
  5
2713
330
1B
100
AcDbEntity
  8
文字
 62
     0
100
AcDbPolyline
 90
        4
 70
     0
 43
0.0
 10
833.5289318217402
 20
493.5714496761558
 10
833.2489360942402
 20
493.1047815853558
 10
833.1089318217401
 20
492.4047858577558
 10
834.2289403667402
 20
492.4047858577558
  0
LWPOLYLINE
  5
2714
330
1B
100
AcDbEntity
  8
文字
 62
     0
100
AcDbPolyline
 90
        9
 70
     0
 43
0.0
 10
833.1089318217401
 20
494.7381263118558
 10
833.2489360942402
 20
494.9714539486558
 10
833.5289318217402
 20
495.2047815853558
 10
833.8089403667401
 20
495.2047815853558
 10
834.0889360942401
 20
494.9714539486558
 10
834.2289403667402
 20
494.7381263118558
 10
834.2289403667402
 20
494.2714582210558
 10
834.0889360942401
 20
494.0381177669558
 10
833.5289318217402
 20
493.5714496761558
  0
LWPOLYLINE
  5
2715
330
1B
100
AcDbEntity
  8
文字
 62
     0
100
AcDbPolyline
 90
       15
 70
     0
 43
0.0
 10
835.90894036674
 20
492.4047858577558
 10
835.6289318217401
 20
492.6381263118558
 10
835.4889403667401
 20
492.8714539486557
 10
835.3489360942401
 20
493.3381220394558
 10
835.3489360942401
 20
494.2714582210558
 10
835.4889403667401
 20
494.7381263118558
 10
835.6289318217401
 20
494.9714539486558
 10
835.90894036674
 20
495.2047815853558
 10
836.18893609424
 20
494.9714539486558
 10
836.3289403667401
 20
494.7381263118558
 10
836.4689318217401
 20
494.2714582210558
 10
836.4689318217401
 20
493.3381220394558
 10
836.3289403667401
 20
492.8714539486557
 10
836.18893609424
 20
492.6381263118558
 10
835.90894036674
 20
492.4047858577558
  0
LWPOLYLINE
  5
2716
330
1B
100
AcDbEntity
  8
実線
100
AcDbPolyline
 90
        5
 70
     0
 43
0.0
 10
823.7359098131401
 20
517.9538460370558
 10
824.8269920118401
 20
515.7982927070559
 10
827.1247085138401
 20
512.4706672024558
 10
829.70807232074
 20
509.6342230611558
 10
831.9665349546401
 20
507.7166584330558
  0
LINE
  5
2717
330
1B
100
AcDbEntity
  8
実線
100
AcDbLine
 10
832.8513277308401
 20
507.0527645629558
 30
0.0
 11
834.98362893864
 21
505.6379143438558
 31
0.0
  0
LWPOLYLINE
  5
2718
330
1B
100
AcDbEntity
  8
実線
100
AcDbPolyline
 90
        4
 70
     0
 43
0.0
 10
831.9667102716401
 20
507.7164073171558
 10
831.98539767234
 20
507.6896403637558
 10
832.5604150679401
 20
507.1947277904558
 10
832.85180380644
 20
507.0525322415559
  0
LINE
  5
2719
330
1B
100
AcDbEntity
  8
実線
100
AcDbLine
 10
822.2446405542401
 20
521.3534301099558
 30
0.0
 11
823.46393236904
 21
518.3650823374558
 31
0.0
  0
LWPOLYLINE
  5
271A
330
1B
100
AcDbEntity
  8
実線
100
AcDbPolyline
 90
        3
 70
     0
 43
0.0
 10
823.46393236904
 20
518.3650823374558
 10
823.54338301754
 20
518.1977243314559
 10
823.6152087171401
 20
518.0486525829557
  0
LINE
  5
271B
330
1B
100
AcDbEntity
  8
実線
100
AcDbLine
 10
823.5428396649401
 20
518.1988688708559
 30
0.0
 11
823.46393236904
 21
518.3650823374558
 31
0.0
  0
LINE
  5
271C
330
1B
100
AcDbEntity
  8
実線
100
AcDbLine
 10
823.5874447696401
 20
518.1062756931558
 30
0.0
 11
823.5428396649401
 21
518.1988688708559
 31
0.0
  0
LINE
  5
271D
330
1B
100
AcDbEntity
  8
実線
100
AcDbLine
 10
823.6762196603402
 20
517.9236325126558
 30
0.0
 11
823.6148809907401
 21
518.0493327676559
 31
0.0
  0
LWPOLYLINE
  5
271E
330
1B
100
AcDbEntity
  8
実線
100
AcDbPolyline
 90
        4
 70
     0
 43
0.0
 10
823.6762196603402
 20
517.9236325126558
 10
823.8195330561401
 20
517.6355319350558
 10
823.96488309884
 20
517.3509251607558
 10
824.1141314300401
 20
517.0661688516559
  0
LINE
  5
271F
330
1B
100
AcDbEntity
  8
実線
100
AcDbLine
 10
823.1986449548401
 20
519.0152720742558
 30
0.0
 11
823.7176020722401
 21
517.9900150002558
 31
0.0
  0
LINE
  5
2720
330
1B
100
AcDbEntity
  8
文字
 62
     0
100
AcDbLine
 10
879.4452446492401
 20
457.6899160848558
 30
0.0
 11
872.6289347878401
 21
493.8047867384558
 31
0.0
  0
LINE
  5
2721
330
1B
100
AcDbEntity
  8
実線
100
AcDbLine
 10
866.0642199458401
 20
465.2822514341558
 30
0.0
 11
866.0642199458401
 21
468.5322514341558
 31
0.0
  0
LINE
  5
2722
330
1B
100
AcDbEntity
  8
実線
100
AcDbLine
 10
866.0642199458401
 20
468.5346574438558
 30
0.0
 11
866.0642199458401
 21
465.2837598876558
 31
0.0
  0
CIRCLE
  5
2723
330
1B
100
AcDbEntity
  8
実線
100
AcDbCircle
 10
881.5142199458401
 20
455.2822514341558
 30
0.0
 40
3.5
  0
CIRCLE
  5
2724
330
1B
100
AcDbEntity
  8
実線
100
AcDbCircle
 10
881.5142199458401
 20
455.2822514341558
 30
0.0
 40
3.174999999999999
  0
LINE
  5
2725
330
1B
100
AcDbEntity
  8
文字
 62
     0
100
AcDbLine
 10
881.5142199458401
 20
455.2822514341558
 30
0.0
 11
881.5142199458401
 21
462.4936946197558
 31
0.0
  0
LINE
  5
2726
330
1B
100
AcDbEntity
  8
文字
 62
     0
100
AcDbLine
 10
881.5142199458401
 20
455.2822514341558
 30
0.0
 11
888.72566313144
 21
455.2822514341558
 31
0.0
  0
LINE
  5
2727
330
1B
100
AcDbEntity
  8
文字
 62
     0
100
AcDbLine
 10
881.5142199458401
 20
455.2822514341558
 30
0.0
 11
874.30277676024
 21
455.2822514341558
 31
0.0
  0
LINE
  5
2728
330
1B
100
AcDbEntity
  8
文字
 62
     0
100
AcDbLine
 10
881.5142199458401
 20
455.2822514341558
 30
0.0
 11
881.5142199458401
 21
448.0708082486558
 31
0.0
  0
LWPOLYLINE
  5
2729
330
1B
100
AcDbEntity
  8
寸法
100
AcDbPolyline
 90
        3
 70
     0
 43
0.0
 10
878.46015743564
 20
459.5393019779558
 10
879.4452446492401
 20
457.6899160848558
 10
879.6884709715401
 20
459.7711335065558
  0
LINE
  5
272A
330
1B
100
AcDbEntity
  8
文字
 62
     0
100
AcDbLine
 10
872.6289347878401
 20
493.8047867384558
 30
0.0
 11
870.6289347878401
 21
493.8047867384558
 31
0.0
  0
LINE
  5
272B
330
1B
100
AcDbEntity
  8
実線
100
AcDbLine
 10
848.5143937141401
 20
489.9481478837558
 30
0.0
 11
865.0150243445402
 21
490.2361674627558
 31
0.0
  0
LINE
  5
272C
330
1B
100
AcDbEntity
  8
実線
100
AcDbLine
 10
866.01421994584
 20
501.6362844630558
 30
0.0
 11
848.5142155147402
 21
501.9417481765558
 31
0.0
  0
LINE
  5
272D
330
1B
100
AcDbEntity
  8
文字
 62
     0
100
AcDbLine
 10
846.2689360942402
 20
494.5922901302558
 30
0.0
 11
847.8789403667402
 21
494.5922901302558
 31
0.0
  0
LINE
  5
272E
330
1B
100
AcDbEntity
  8
文字
 62
     0
100
AcDbLine
 10
846.0589360942401
 20
492.7547901302558
 30
0.0
 11
848.0889403667401
 21
492.7547901302558
 31
0.0
  0
LWPOLYLINE
  5
272F
330
1B
100
AcDbEntity
  8
実線
100
AcDbPolyline
 90
        3
 70
     0
 43
0.0
 10
848.51421551334
 20
501.9417480992558
 10
846.9942006177401
 20
501.9855226170558
 10
845.38910509604
 20
502.1272266374558
  0
LWPOLYLINE
  5
2730
330
1B
100
AcDbEntity
  8
文字
 62
     0
100
AcDbPolyline
 90
        5
 70
     0
 43
0.0
 10
842.2089403667401
 20
494.9714539486558
 10
842.4889360942401
 20
495.2047815853558
 10
842.7689318217401
 20
495.2047815853558
 10
843.0489403667401
 20
494.9714539486558
 10
843.1889318217402
 20
494.7381263118558
  0
LWPOLYLINE
  5
2731
330
1B
100
AcDbEntity
  8
文字
 62
     0
100
AcDbPolyline
 90
        5
 70
     0
 43
0.0
 10
843.1889318217402
 20
492.8714539486557
 10
843.0489403667401
 20
492.6381263118558
 10
842.7689318217401
 20
492.4047858577558
 10
842.4889360942401
 20
492.4047858577558
 10
842.2089403667401
 20
492.6381263118558
  0
LWPOLYLINE
  5
2732
330
1B
100
AcDbEntity
  8
文字
 62
     0
100
AcDbPolyline
 90
        5
 70
     0
 43
0.0
 10
842.2089403667401
 20
492.6381263118558
 10
841.9289318217401
 20
493.1047815853558
 10
841.78894036674
 20
493.8047901302557
 10
841.9289318217401
 20
494.5047858577559
 10
842.2089403667401
 20
494.9714539486558
  0
LWPOLYLINE
  5
2733
330
1B
100
AcDbEntity
  8
文字
 62
     0
100
AcDbPolyline
 90
        4
 70
     0
 43
0.0
 10
839.82893182174
 20
492.4047858577558
 10
839.82893182174
 20
495.2047815853558
 10
840.94894036674
 20
492.4047858577558
 10
840.94894036674
 20
495.2047815853558
  0
LWPOLYLINE
  5
2734
330
1B
100
AcDbEntity
  8
文字
 62
     0
100
AcDbPolyline
 90
        3
 70
     0
 43
0.0
 10
844.0989403667401
 20
494.6797815853558
 10
845.5689403667403
 20
494.6797815853558
 10
845.3589403667402
 20
492.6672858577558
  0
LINE
  5
2735
330
1B
100
AcDbEntity
  8
文字
 62
     0
100
AcDbLine
 10
843.8889403667401
 20
492.6672858577558
 30
0.0
 11
845.8489360942401
 21
492.6672858577558
 31
0.0
  0
LINE
  5
2736
330
1B
100
AcDbEntity
  8
実線
100
AcDbLine
 10
841.7702625796401
 20
502.8156699178558
 30
0.0
 11
843.6590956082401
 21
502.3914300091558
 31
0.0
  0
LINE
  5
2737
330
1B
100
AcDbEntity
  8
実線
100
AcDbLine
 10
843.6586331831401
 20
502.3915163318558
 30
0.0
 11
841.76961061804
 21
502.8158414593558
 31
0.0
  0
LINE
  5
2738
330
1B
100
AcDbEntity
  8
実線
100
AcDbLine
 10
843.6586331831401
 20
502.3915163318558
 30
0.0
 11
845.3893985445402
 21
502.1271916967558
 31
0.0
  0
LWPOLYLINE
  5
273B
330
1B
100
AcDbEntity
  8
文字
 62
     0
100
AcDbPolyline
 90
        6
 70
     0
 43
0.0
 10
850.7489318217402
 20
494.1547815853558
 10
852.28894036674
 20
494.1547815853558
 10
852.2189318217401
 20
493.7172858577558
 10
852.0089318217401
 20
493.3672815853558
 10
851.79893182174
 20
493.1922858577558
 10
851.5889318217402
 20
493.1047815853558
  0
LWPOLYLINE
  5
273C
330
1B
100
AcDbEntity
  8
文字
 62
     0
100
AcDbPolyline
 90
        9
 70
     0
 43
0.0
 10
848.4389318217402
 20
494.6797815853558
 10
850.1889403667401
 20
494.6797815853558
 10
850.11893182174
 20
494.3297901302558
 10
849.9789403667401
 20
493.8922815853557
 10
849.7689403667401
 20
493.4547858577558
 10
849.55894036674
 20
493.1922858577558
 10
849.2789318217401
 20
492.9297858577558
 10
848.9989360942402
 20
492.7547901302558
 10
848.5789360942401
 20
492.5797815853558
  0
LWPOLYLINE
  5
273D
330
1B
100
AcDbEntity
  8
文字
 62
     0
100
AcDbPolyline
 90
        5
 70
     0
 43
0.0
 10
852.91894036674
 20
493.7172858577558
 10
853.4789318217402
 20
493.8922815853557
 10
853.96894036674
 20
494.1547815853558
 10
854.4589360942401
 20
494.5922901302558
 10
854.80894036674
 20
495.0297858577558
  0
LINE
  5
273E
330
1B
100
AcDbEntity
  8
文字
 62
     0
100
AcDbLine
 10
853.96894036674
 20
494.1547815853558
 30
0.0
 11
853.96894036674
 21
492.4922901302558
 31
0.0
  0
LWPOLYLINE
  5
273F
330
1B
100
AcDbEntity
  8
文字
 62
     0
100
AcDbPolyline
 90
        4
 70
     0
 43
0.0
 10
851.3089360942402
 20
493.8047901302557
 10
851.3089360942402
 20
493.2797901302558
 10
851.2389403667402
 20
493.0172901302558
 10
850.8889360942401
 20
492.4922901302558
  0
LINE
  5
2740
330
1B
100
AcDbEntity
  8
実線
100
AcDbLine
 10
866.5142199458401
 20
490.2822514341558
 30
0.0
 11
867.5142199458401
 21
490.2822514341558
 31
0.0
  0
LINE
  5
2741
330
1B
100
AcDbEntity
  8
実線
100
AcDbLine
 10
865.0146768255401
 20
490.2560768116559
 30
0.0
 11
866.0129029160401
 21
490.2735009128559
 31
0.0
  0
LINE
  5
2742
330
1B
100
AcDbEntity
  8
実線
100
AcDbLine
 10
866.5142199458401
 20
489.7822148357558
 30
0.0
 11
866.01421994584
 21
489.7822148357558
 31
0.0
  0
LINE
  5
2743
330
1B
100
AcDbEntity
  8
実線
100
AcDbLine
 10
865.0150243445402
 20
490.2361674627558
 30
0.0
 11
865.0146768274401
 21
490.2560767022558
 31
0.0
  0
LINE
  5
2744
330
1B
100
AcDbEntity
  8
実線
100
AcDbLine
 10
867.5142199458401
 20
490.2822514341558
 30
0.0
 11
867.5142199458401
 21
490.2298862394558
 31
0.0
  0
LWPOLYLINE
  5
2745
330
1B
100
AcDbEntity
  8
文字
 62
     0
100
AcDbPolyline
 90
        6
 70
     0
 43
0.0
 10
862.2989318217401
 20
494.1547815853558
 10
863.0689360942401
 20
494.1547815853558
 10
863.1389318217401
 20
494.0672901302558
 10
863.2789360942402
 20
493.5422901302558
 10
863.48893609424
 20
492.9297858577558
 10
863.76893182174
 20
492.4922901302558
  0
LWPOLYLINE
  5
2746
330
1B
100
AcDbEntity
  8
文字
 62
     0
100
AcDbPolyline
 90
        5
 70
     0
 43
0.0
 10
861.8789318217402
 20
493.9797858577557
 10
861.8789318217402
 20
494.6797815853558
 10
863.6289403667401
 20
494.6797815853558
 10
863.6989360942401
 20
494.5922901302558
 10
863.6289403667401
 20
493.9797858577557
  0
LWPOLYLINE
  5
2747
330
1B
100
AcDbEntity
  8
文字
 62
     0
100
AcDbPolyline
 90
        6
 70
     0
 43
0.0
 10
857.39893609424
 20
492.5797815853558
 10
857.95894036674
 20
492.5797815853558
 10
858.51893182174
 20
492.8422815853558
 10
858.8689360942401
 20
493.2797901302558
 10
859.0789360942402
 20
493.7172858577558
 10
859.2889360942402
 20
494.3297901302558
  0
LINE
  5
2748
330
1B
100
AcDbEntity
  8
文字
 62
     0
100
AcDbLine
 10
858.8689360942401
 20
494.8547901302559
 30
0.0
 11
859.1489318217401
 21
494.5922901302558
 31
0.0
  0
LINE
  5
2749
330
1B
100
AcDbEntity
  8
文字
 62
     0
100
AcDbLine
 10
858.9389318217401
 20
495.0297858577558
 30
0.0
 11
859.2189403667401
 21
494.7672858577558
 31
0.0
  0
LWPOLYLINE
  5
274A
330
1B
100
AcDbEntity
  8
文字
 62
     0
100
AcDbPolyline
 90
        6
 70
     0
 43
0.0
 10
855.2289403667401
 20
494.5047858577559
 10
856.7689360942402
 20
494.5047858577559
 10
856.4189318217401
 20
494.0672901302558
 10
855.9989318217402
 20
493.7172858577558
 10
855.64894036674
 20
493.5422901302558
 10
855.0189403667401
 20
493.2797901302558
  0
LWPOLYLINE
  5
274B
330
1B
100
AcDbEntity
  8
文字
 62
     0
100
AcDbPolyline
 90
        3
 70
     0
 43
0.0
 10
857.5389403667401
 20
494.8547901302559
 10
857.95894036674
 20
494.6797815853558
 10
858.3089318217401
 20
494.5047858577559
  0
LWPOLYLINE
  5
274C
330
1B
100
AcDbEntity
  8
文字
 62
     0
100
AcDbPolyline
 90
        3
 70
     0
 43
0.0
 10
857.39893609424
 20
494.0672901302558
 10
857.8189360942401
 20
493.8922815853557
 10
858.23893609424
 20
493.6297815853558
  0
LINE
  5
274D
330
1B
100
AcDbEntity
  8
文字
 62
     0
100
AcDbLine
 10
856.2789403667402
 20
493.6297815853558
 30
0.0
 11
857.0489318217401
 21
493.1047815853558
 31
0.0
  0
LINE
  5
274E
330
1B
100
AcDbEntity
  8
文字
 62
     0
100
AcDbLine
 10
855.9989318217402
 20
493.7172858577558
 30
0.0
 11
855.9989318217402
 21
492.4922901302558
 31
0.0
  0
LINE
  5
274F
330
1B
100
AcDbEntity
  8
文字
 62
     0
100
AcDbLine
 10
855.9989318217402
 20
495.0297858577558
 30
0.0
 11
855.9989318217402
 21
494.5047858577559
 31
0.0
  0
LWPOLYLINE
  5
2750
330
1B
100
AcDbEntity
  8
文字
 62
     0
100
AcDbPolyline
 90
        3
 70
     0
 43
0.0
 10
859.5689318217401
 20
493.0172901302558
 10
859.8489403667402
 20
492.7547901302558
 10
859.9189360942402
 20
492.5797815853558
  0
LINE
  5
2751
330
1B
100
AcDbEntity
  8
文字
 62
     0
100
AcDbLine
 10
862.7889403667401
 20
494.6797815853558
 30
0.0
 11
862.7889403667401
 21
495.0297858577558
 31
0.0
  0
LWPOLYLINE
  5
2752
330
1B
100
AcDbEntity
  8
文字
 62
     0
100
AcDbPolyline
 90
        3
 70
     0
 43
0.0
 10
862.2989318217401
 20
493.8047901302557
 10
862.0889318217402
 20
493.1047815853558
 10
861.7389403667401
 20
492.4922901302558
  0
LWPOLYLINE
  5
2753
330
1B
100
AcDbEntity
  8
文字
 62
     0
100
AcDbPolyline
 90
        3
 70
     0
 43
0.0
 10
866.28893182174
 20
494.2422858577558
 10
867.3389318217401
 20
494.3297901302558
 10
868.0389403667401
 20
494.5047858577559
  0
LWPOLYLINE
  5
2754
330
1B
100
AcDbEntity
  8
文字
 62
     0
100
AcDbPolyline
 90
       16
 70
     0
 43
0.0
 10
867.05893609424
 20
495.0297858577558
 10
867.3389318217401
 20
494.3297901302558
 10
868.1789318217402
 20
493.3672815853558
 10
867.6889360942402
 20
493.6297815853558
 10
867.3389318217401
 20
493.7172858577558
 10
866.9889403667401
 20
493.7172858577558
 10
866.6389360942401
 20
493.6297815853558
 10
866.4989318217401
 20
493.5422901302558
 10
866.4289360942401
 20
493.4547858577558
 10
866.4289360942401
 20
493.1922858577558
 10
866.4989318217401
 20
493.0172901302558
 10
866.6389360942401
 20
492.8422815853558
 10
866.84893609424
 20
492.6672858577558
 10
867.1989403667401
 20
492.4922901302558
 10
867.7589318217401
 20
492.4922901302558
 10
868.1789318217402
 20
492.6672858577558
  0
LINE
  5
2755
330
1B
100
AcDbEntity
  8
文字
 62
     0
100
AcDbLine
 10
864.5389360942401
 20
493.6297815853558
 30
0.0
 11
865.93894036674
 21
493.6297815853558
 31
0.0
  0
LINE
  5
2756
330
1B
100
AcDbEntity
  8
文字
 62
     0
100
AcDbLine
 10
864.04894036674
 20
495.0297858577558
 30
0.0
 11
864.3989318217402
 21
494.5922901302558
 31
0.0
  0
LINE
  5
2757
330
1B
100
AcDbEntity
  8
文字
 62
     0
100
AcDbLine
 10
863.9789318217401
 20
494.2422858577558
 30
0.0
 11
864.3289360942402
 21
493.8047901302557
 31
0.0
  0
LWPOLYLINE
  5
2758
330
1B
100
AcDbEntity
  8
文字
 62
     0
100
AcDbPolyline
 90
        6
 70
     0
 43
0.0
 10
865.4489318217402
 20
494.9422815853558
 10
865.4489318217402
 20
494.1547815853558
 10
865.5189403667401
 20
494.0672901302558
 10
865.93894036674
 20
494.0672901302558
 10
866.0089360942402
 20
494.1547815853558
 10
866.0089360942402
 20
494.4172815853558
  0
LINE
  5
2759
330
1B
100
AcDbEntity
  8
文字
 62
     0
100
AcDbLine
 10
865.2389318217402
 20
494.0672901302558
 30
0.0
 11
865.2389318217402
 21
492.4922901302558
 31
0.0
  0
LWPOLYLINE
  5
275A
330
1B
100
AcDbEntity
  8
文字
 62
     0
100
AcDbPolyline
 90
        4
 70
     0
 43
0.0
 10
864.9589360942401
 20
494.9422815853558
 10
864.9589360942401
 20
494.4172815853558
 10
864.8889403667402
 20
494.1547815853558
 10
864.4689403667401
 20
493.8922815853557
  0
LWPOLYLINE
  5
275B
330
1B
100
AcDbEntity
  8
文字
 62
     0
100
AcDbPolyline
 90
        5
 70
     0
 43
0.0
 10
864.5389360942401
 20
494.3297901302558
 10
864.5389360942401
 20
494.9422815853558
 10
865.8689318217401
 20
494.9422815853558
 10
865.93894036674
 20
494.8547901302559
 10
865.7989360942401
 20
494.3297901302558
  0
LWPOLYLINE
  5
275C
330
1B
100
AcDbEntity
  8
文字
 62
     0
100
AcDbPolyline
 90
        3
 70
     0
 43
0.0
 10
864.4689403667401
 20
492.6672858577558
 10
865.2389318217402
 20
493.6297815853558
 10
866.0089360942402
 20
492.6672858577558
  0
LWPOLYLINE
  5
275D
330
1B
100
AcDbEntity
  8
文字
 62
     0
100
AcDbPolyline
 90
        3
 70
     0
 43
0.0
 10
863.9789318217401
 20
492.4922901302558
 10
864.1889318217401
 20
493.1047815853558
 10
864.3289360942402
 20
493.5422901302558
  0
LWPOLYLINE
  5
275E
330
1B
100
AcDbEntity
  8
文字
 62
     0
100
AcDbPolyline
 90
       17
 70
     0
 43
0.0
 10
868.9489360942401
 20
493.3381220394558
 10
869.0889403667402
 20
493.8047901302557
 10
869.5089403667401
 20
494.0381177669558
 10
869.9289403667401
 20
493.8047901302557
 10
870.0689318217401
 20
493.3381220394558
 10
869.9289403667401
 20
492.8714539486557
 10
869.7889360942401
 20
492.6381263118558
 10
869.5089403667401
 20
492.4047858577558
 10
869.2289318217401
 20
492.6381263118558
 10
869.0889403667402
 20
492.8714539486557
 10
868.9489360942401
 20
493.3381220394558
 10
868.9489360942401
 20
494.2714582210558
 10
869.0889403667402
 20
494.7381263118558
 10
869.2289318217401
 20
494.9714539486558
 10
869.5089403667401
 20
495.2047815853558
 10
869.7889360942401
 20
494.9714539486558
 10
869.9289403667401
 20
494.7381263118558
  0
LINE
  5
275F
330
1B
100
AcDbEntity
  8
実線
100
AcDbLine
 10
866.01421994584
 20
503.0005921026558
 30
0.0
 11
866.5142199458401
 21
503.0005921026558
 31
0.0
  0
LINE
  5
2760
330
1B
100
AcDbEntity
  8
実線
100
AcDbLine
 10
866.01421994584
 20
502.1275569305558
 30
0.0
 11
866.5142199458401
 21
502.1275569305558
 31
0.0
  0
LINE
  5
2764
330
1B
100
AcDbEntity
  8
実線
100
AcDbLine
 10
734.4327927021402
 20
561.6275569305559
 30
0.0
 11
798.6793613163402
 21
561.6275569305559
 31
0.0
  0
LINE
  5
2765
330
1B
100
AcDbEntity
  8
実線
100
AcDbLine
 10
734.4405392560401
 20
561.6188293980558
 30
0.0
 11
798.6716147624401
 21
561.6188293980558
 31
0.0
  0
LINE
  5
2766
330
1B
100
AcDbEntity
  8
実線
100
AcDbLine
 10
748.8608555780402
 20
545.5052599070559
 30
0.0
 11
784.2512984404401
 21
545.5052599070559
 31
0.0
  0
LINE
  5
2767
330
1B
100
AcDbEntity
  8
実線
100
AcDbLine
 10
748.8609097305401
 20
544.9553688883558
 30
0.0
 11
784.2512441386401
 21
544.9553688883558
 31
0.0
  0
LINE
  5
2768
330
1B
100
AcDbEntity
  8
実線
100
AcDbLine
 10
783.5560770092402
 20
544.6295569305558
 30
0.0
 11
749.5560770092402
 21
544.6295569305558
 31
0.0
  0
LINE
  5
2769
330
1B
100
AcDbEntity
  8
文字
  6
CENTER
 62
     0
100
AcDbLine
 10
766.5560770092402
 20
531.6275569305558
 30
0.0
 11
806.3086237328402
 21
531.6275569305558
 31
0.0
  0
LINE
  5
276A
330
1B
100
AcDbEntity
  8
文字
  6
CENTER
 62
     0
100
AcDbLine
 10
766.5560770092402
 20
531.6275569305558
 30
0.0
 11
726.8035302855401
 21
531.6275569305558
 31
0.0
  0
ARC
  5
276B
330
1B
100
AcDbEntity
  8
実線
100
AcDbCircle
 10
957.5560770092401
 20
531.6275569305558
 30
0.0
 40
226.0
100
AcDbArc
 50
172.5946098177014
 51
179.239414217101
  0
LWPOLYLINE
  5
276C
330
1B
100
AcDbEntity
  8
実線
100
AcDbPolyline
 90
        3
 70
     0
 43
0.0
 10
733.4490285050401
 20
560.7478299289558
 10
732.24378091424
 20
549.1315481884559
 10
731.64028011754
 20
537.4674259000559
  0
LINE
  5
276D
330
1B
100
AcDbEntity
  8
実線
100
AcDbLine
 10
731.5560770092401
 20
534.6275569305557
 30
0.0
 11
733.5942412480401
 21
534.6275569305557
 31
0.0
  0
LINE
  5
276E
330
1B
100
AcDbEntity
  8
実線
100
AcDbLine
 10
731.6021609806401
 20
528.6275569305558
 30
0.0
 11
733.5942412480401
 21
528.6275569305558
 31
0.0
  0
LWPOLYLINE
  5
276F
330
1B
100
AcDbEntity
  8
実線
100
AcDbPolyline
 90
        4
 70
     0
 43
0.0
 10
731.6021609806401
 20
534.6275569305557
 10
731.5844638789401
 20
532.6275984946557
 10
731.5844638789401
 20
530.6275153664557
 10
731.6021609806401
 20
528.6275569305558
  0
LINE
  5
2770
330
1B
100
AcDbEntity
  8
実線
100
AcDbLine
 10
731.5560770092401
 20
534.6275569305557
 30
0.0
 11
731.5560770092401
 21
531.6275569305558
 31
0.0
  0
LINE
  5
2771
330
1B
100
AcDbEntity
  8
実線
100
AcDbLine
 10
733.5522142470401
 20
528.6275569305558
 30
0.0
 11
733.5522142470401
 21
534.6275569305557
 31
0.0
  0
LWPOLYLINE
  5
2772
330
1B
100
AcDbEntity
  8
実線
100
AcDbPolyline
 90
        4
 70
     0
 43
0.0
 10
733.5942412480401
 20
528.6275569305558
 10
733.57669461074
 20
530.6275153664557
 10
733.57669461074
 20
532.6275984946557
 10
733.5942412480401
 20
534.6275569305557
  0
LINE
  5
2773
330
1B
100
AcDbEntity
  8
実線
100
AcDbLine
 10
731.9590770092401
 20
528.6275569305558
 30
0.0
 11
731.9590770092401
 21
534.6275569305557
 31
0.0
  0
ARC
  5
2774
330
1B
100
AcDbEntity
  8
実線
100
AcDbCircle
 10
734.4327927021402
 20
560.6275569305559
 30
0.0
 40
1.0
100
AcDbArc
 50
90.0
 51
172.5946098177014
  0
LWPOLYLINE
  5
2775
330
1B
100
AcDbEntity
  8
実線
100
AcDbPolyline
 90
        6
 70
     0
 43
0.0
 10
733.4490285050401
 20
560.7478299289558
 10
733.5260350154401
 20
561.0231964869558
 10
733.6798760655401
 20
561.2679164901558
 10
733.8953046986402
 20
561.4571012991558
 10
734.1574024706401
 20
561.5779091372558
 10
734.4405392560401
 20
561.6188293980558
  0
LINE
  5
2776
330
1B
100
AcDbEntity
  8
文字
  6
CENTER
 62
     0
100
AcDbLine
 10
766.5560770092402
 20
531.6275569305558
 30
0.0
 11
766.5560770092402
 21
571.3801036541558
 31
0.0
  0
LWPOLYLINE
  5
2777
330
1B
100
AcDbEntity
  8
実線
100
AcDbPolyline
 90
        4
 70
     0
 43
0.0
 10
748.19807907674
 20
544.9343588183558
 10
748.3894712896401
 20
544.9713770661558
 10
748.6114837270402
 20
544.9792126034558
 10
748.8609184770401
 20
544.9553606811559
  0
LINE
  5
2778
330
1B
100
AcDbEntity
  8
実線
100
AcDbLine
 10
748.6082994916402
 20
543.9484891758559
 30
0.0
 11
747.8317792794402
 21
544.6769768232558
 31
0.0
  0
LWPOLYLINE
  5
2779
330
1B
100
AcDbEntity
  8
実線
100
AcDbPolyline
 90
        4
 70
     0
 43
0.0
 10
748.0153067284401
 20
545.3314394462559
 10
748.2631675641401
 20
545.4251959130558
 10
748.5465865666401
 20
545.4845966779557
 10
748.8608555780402
 20
545.5052599070559
  0
LWPOLYLINE
  5
277A
330
1B
100
AcDbEntity
  8
実線
100
AcDbPolyline
 90
        4
 70
     0
 43
0.0
 10
747.5171190827401
 20
544.8900285615557
 10
747.6324537569401
 20
544.8277600056558
 10
747.7398153448401
 20
544.7550675700559
 10
747.8317808340401
 20
544.6769768227558
  0
LWPOLYLINE
  5
277B
330
1B
100
AcDbEntity
  8
実線
100
AcDbPolyline
 90
        4
 70
     0
 43
0.0
 10
748.0153051798402
 20
545.3314400301557
 10
748.0843681126401
 20
545.2033059454558
 10
748.1471865336401
 20
545.0668313483559
 10
748.1980786812401
 20
544.9343592006559
  0
LWPOLYLINE
  5
277C
330
1B
100
AcDbEntity
  8
実線
100
AcDbPolyline
 90
        4
 70
     0
 43
0.0
 10
747.8317792794402
 20
544.6769768232558
 10
747.9171216293401
 20
544.7830434060558
 10
748.0390358469401
 20
544.8701477098558
 10
748.19807907674
 20
544.9343588183558
  0
LWPOLYLINE
  5
277D
330
1B
100
AcDbEntity
  8
実線
100
AcDbPolyline
 90
        4
 70
     0
 43
0.0
 10
747.51711908394
 20
544.8900315236557
 10
747.6389798311402
 20
545.0573895291559
 10
747.8049821029401
 20
545.2064612774559
 10
748.0153033184401
 20
545.3314814461558
  0
ARC
  5
277E
330
1B
100
AcDbEntity
  8
実線
100
AcDbCircle
 10
749.5560770092402
 20
543.6295569305558
 30
0.0
 40
1.0
100
AcDbArc
 50
90.0
 51
180.0
  0
LINE
  5
277F
330
1B
100
AcDbEntity
  8
実線
100
AcDbLine
 10
749.2569540855401
 20
544.5837715167558
 30
0.0
 11
748.8609097305401
 21
544.9553688883558
 31
0.0
  0
LINE
  5
2780
330
1B
100
AcDbEntity
  8
実線
100
AcDbLine
 10
748.8608555780402
 20
545.5052599070559
 30
0.0
 11
748.8608555780402
 21
544.9553688883558
 31
0.0
  0
LINE
  5
2781
330
1B
100
AcDbEntity
  8
実線
100
AcDbLine
 10
866.5142199458401
 20
575.5242341818558
 30
0.0
 11
866.5142199458401
 21
645.5242341818558
 31
0.0
  0
LINE
  5
2782
330
1B
100
AcDbEntity
  8
実線
100
AcDbLine
 10
866.01421994584
 20
575.5329996906558
 30
0.0
 11
866.01421994584
 21
645.5154686730558
 31
0.0
  0
LINE
  5
2783
330
1B
100
AcDbEntity
  8
実線
100
AcDbLine
 10
823.7623313996401
 20
628.2194556131558
 30
0.0
 11
823.7623313996401
 21
592.8290127506559
 31
0.0
  0
LINE
  5
2784
330
1B
100
AcDbEntity
  8
実線
100
AcDbLine
 10
823.7097577820401
 20
628.2194556132558
 30
0.0
 11
823.7097577820401
 21
592.8290131801559
 31
0.0
  0
DIMENSION
  5
2785
330
1B
100
AcDbEntity
  8
寸法
100
AcDbDimension
  2
*D17
 10
820.5142205551402
 20
652.3200007713557
 30
0.0
 11
848.7742202504401
 21
652.3200007713557
 31
0.0
 70
   160
  3
STANDARD
100
AcDbAlignedDimension
 13
881.5142199458401
 23
618.0372553910558
 33
0.0
 14
820.5142205551402
 24
642.8414418144559
 34
0.0
 50
180.0
100
AcDbRotatedDimension
  0
ARC
  5
2786
330
1B
100
AcDbEntity
  8
実線
100
AcDbCircle
 10
848.5142199458401
 20
772.8384253506558
 30
0.0
 40
196.9800876184
100
AcDbArc
 50
262.4580685407973
 51
270.0000505441984
  0
LINE
  5
2787
330
1B
100
AcDbEntity
  8
実線
100
AcDbLine
 10
822.6602410524401
 20
534.6275569305557
 30
0.0
 11
865.0150243445402
 21
534.6275569305557
 31
0.0
  0
LINE
  5
2788
330
1B
100
AcDbEntity
  8
実線
100
AcDbLine
 10
822.6602410524401
 20
528.6275569305558
 30
0.0
 11
865.0150243445402
 21
528.6275569305558
 31
0.0
  0
LINE
  5
2789
330
1B
100
AcDbEntity
  8
実線
100
AcDbLine
 10
837.4288586801402
 20
558.8877723548558
 30
0.0
 11
839.6961573521402
 21
559.8027924891558
 31
0.0
  0
LWPOLYLINE
  5
278A
330
1B
100
AcDbEntity
  8
文字
 62
     0
100
AcDbPolyline
 90
        8
 70
     0
 43
0.0
 10
832.35862786674
 20
572.6719794613558
 10
832.4986321391401
 20
572.9053070980557
 10
832.7786278667401
 20
573.1386603695558
 10
833.0586364116401
 20
573.1386603695558
 10
833.3386321391401
 20
572.9053070980557
 10
833.47863641164
 20
572.6719794613558
 10
833.47863641164
 20
572.2053241878559
 10
833.3386321391401
 20
571.9719965511558
  0
LINE
  5
278B
330
1B
100
AcDbEntity
  8
文字
 62
     0
100
AcDbLine
 10
825.7786321391401
 20
570.3386518245558
 30
0.0
 11
826.6186321391401
 21
573.1386603695558
 31
0.0
  0
LWPOLYLINE
  5
278C
330
1B
100
AcDbEntity
  8
文字
 62
     0
100
AcDbPolyline
 90
        8
 70
     0
 43
0.0
 10
837.9586321391402
 20
573.1386603695558
 10
837.9586321391402
 20
570.8053070980558
 10
837.8186278667401
 20
570.5719794613558
 10
837.5386321391401
 20
570.3386518245558
 10
837.2586364116401
 20
570.3386518245558
 10
836.9786278667401
 20
570.5719794613558
 10
836.83863641164
 20
570.8053070980558
 10
836.83863641164
 20
573.1386603695558
  0
LWPOLYLINE
  5
278D
330
1B
100
AcDbEntity
  8
文字
 62
     0
100
AcDbPolyline
 90
       15
 70
     0
 43
0.0
 10
835.1586364116402
 20
570.3386518245558
 10
834.87862786674
 20
570.5719794613558
 10
834.7386364116401
 20
570.8053070980558
 10
834.5986321391402
 20
571.2719880062559
 10
834.5986321391402
 20
572.2053241878559
 10
834.7386364116401
 20
572.6719794613558
 10
834.87862786674
 20
572.9053070980557
 10
835.1586364116402
 20
573.1386603695558
 10
835.4386321391402
 20
572.9053070980557
 10
835.5786364116401
 20
572.6719794613558
 10
835.71862786674
 20
572.2053241878559
 10
835.71862786674
 20
571.2719880062559
 10
835.5786364116401
 20
570.8053070980558
 10
835.4386321391402
 20
570.5719794613558
 10
835.1586364116402
 20
570.3386518245558
  0
LWPOLYLINE
  5
278E
330
1B
100
AcDbEntity
  8
文字
 62
     0
100
AcDbPolyline
 90
        4
 70
     0
 43
0.0
 10
828.8586364116401
 20
570.3386518245558
 10
828.8586364116401
 20
573.1386603695558
 10
827.87863213914
 20
571.0386603695558
 10
829.1386321391401
 20
571.0386603695558
  0
LINE
  5
278F
330
1B
100
AcDbEntity
  8
文字
 62
     0
100
AcDbLine
 10
823.9586278667401
 20
573.1386603695558
 30
0.0
 11
823.9586278667401
 21
570.3386518245558
 31
0.0
  0
ARC
  5
2790
330
1B
100
AcDbEntity
  8
実線
100
AcDbCircle
 10
575.5560770092402
 20
531.6275569305558
 30
0.0
 40
226.0
100
AcDbArc
 50
0.7605857828989345
 51
7.405390182298551
  0
LWPOLYLINE
  5
2791
330
1B
100
AcDbEntity
  8
実線
100
AcDbPolyline
 90
        3
 70
     0
 43
0.0
 10
799.6631255134401
 20
560.7478299289558
 10
800.8683731042401
 20
549.1315481884559
 10
801.4718739009401
 20
537.4674259000559
  0
ARC
  5
2792
330
1B
100
AcDbEntity
  8
実線
100
AcDbCircle
 10
783.5560770092402
 20
543.6295569305558
 30
0.0
 40
1.0
100
AcDbArc
 50
0.0
 51
90.0
  0
LWPOLYLINE
  5
2793
330
1B
100
AcDbEntity
  8
実線
100
AcDbPolyline
 90
        4
 70
     0
 43
0.0
 10
785.0968508984402
 20
545.3314813482559
 10
785.3091629809402
 20
545.2049823729558
 10
785.4753664460401
 20
545.0549736029558
 10
785.5950349345402
 20
544.8900315236557
  0
LWPOLYLINE
  5
2794
330
1B
100
AcDbEntity
  8
実線
100
AcDbPolyline
 90
        4
 70
     0
 43
0.0
 10
784.9140750915401
 20
544.9343587748558
 10
785.0745665499402
 20
544.8693526012558
 10
785.1966148497401
 20
544.7815563011558
 10
785.2804486048401
 20
544.6768767724559
  0
LINE
  5
2795
330
1B
100
AcDbEntity
  8
実線
100
AcDbLine
 10
785.2804326798401
 20
544.6768618304559
 30
0.0
 11
784.50385452684
 21
543.9484891758559
 31
0.0
  0
LINE
  5
2796
330
1B
100
AcDbEntity
  8
実線
100
AcDbLine
 10
784.2512984404401
 20
545.5052599070559
 30
0.0
 11
784.2512984406401
 21
544.9553688883558
 31
0.0
  0
LWPOLYLINE
  5
2797
330
1B
100
AcDbEntity
  8
実線
100
AcDbPolyline
 90
        4
 70
     0
 43
0.0
 10
784.2512984404401
 20
545.5052599070559
 10
784.5655315581401
 20
545.4846024288558
 10
784.8489698980402
 20
545.4251992750559
 10
785.09684748594
 20
545.3314393523558
  0
LWPOLYLINE
  5
2798
330
1B
100
AcDbEntity
  8
実線
100
AcDbPolyline
 90
        4
 70
     0
 43
0.0
 10
784.2512353675402
 20
544.9553606581559
 10
784.50063715714
 20
544.9792122234558
 10
784.7226690514401
 20
544.9713780048559
 10
784.9140750915401
 20
544.9343587748558
  0
LWPOLYLINE
  5
2799
330
1B
100
AcDbEntity
  8
実線
100
AcDbPolyline
 90
        4
 70
     0
 43
0.0
 10
785.0968490404401
 20
545.3314991358559
 10
785.0277813662401
 20
545.2033373677558
 10
784.9649644490401
 20
545.0668432675558
 10
784.9140795286402
 20
544.9343630672558
  0
LINE
  5
279A
330
1B
100
AcDbEntity
  8
実線
100
AcDbLine
 10
784.2512441386401
 20
544.9553688883558
 30
0.0
 11
783.8551999329402
 21
544.5837715167558
 31
0.0
  0
LWPOLYLINE
  5
279B
330
1B
100
AcDbEntity
  8
実線
100
AcDbPolyline
 90
        4
 70
     0
 43
0.0
 10
785.5950349342402
 20
544.8900274352559
 10
785.47970112464
 20
544.8277602868558
 10
785.3723402739401
 20
544.7550682406558
 10
785.2803747391401
 20
544.6769768232558
  0
LWPOLYLINE
  5
279C
330
1B
100
AcDbEntity
  8
実線
100
AcDbPolyline
 90
        4
 70
     0
 43
0.0
 10
801.5099930378401
 20
528.6275569305558
 10
801.5276901395401
 20
530.6275153664557
 10
801.5276901395401
 20
532.6275984946557
 10
801.5099930378401
 20
534.6275569305557
  0
LINE
  5
279D
330
1B
100
AcDbEntity
  8
実線
100
AcDbLine
 10
801.5560770092402
 20
534.6275569305557
 30
0.0
 11
801.5560770092402
 21
531.6275569305558
 31
0.0
  0
LINE
  5
279E
330
1B
100
AcDbEntity
  8
実線
100
AcDbLine
 10
801.1590770092402
 20
534.6275569305557
 30
0.0
 11
801.1590770092402
 21
528.6275569305558
 31
0.0
  0
LINE
  5
279F
330
1B
100
AcDbEntity
  8
実線
100
AcDbLine
 10
799.5659397714401
 20
534.6275569305557
 30
0.0
 11
799.5659397714401
 21
528.6275569305558
 31
0.0
  0
LWPOLYLINE
  5
27A0
330
1B
100
AcDbEntity
  8
実線
100
AcDbPolyline
 90
        4
 70
     0
 43
0.0
 10
799.5179127704401
 20
534.6275569305557
 10
799.5354594076401
 20
532.6275984946557
 10
799.5354594076401
 20
530.6275153664557
 10
799.5179127704401
 20
528.6275569305558
  0
LINE
  5
27A1
330
1B
100
AcDbEntity
  8
実線
100
AcDbLine
 10
799.5179127704401
 20
528.6275569305558
 30
0.0
 11
801.5099930378401
 21
528.6275569305558
 31
0.0
  0
LINE
  5
27A2
330
1B
100
AcDbEntity
  8
実線
100
AcDbLine
 10
799.5179127704401
 20
534.6275569305557
 30
0.0
 11
801.5560770092402
 21
534.6275569305557
 31
0.0
  0
ARC
  5
27A3
330
1B
100
AcDbEntity
  8
実線
100
AcDbCircle
 10
798.6793613163402
 20
560.6275569305559
 30
0.0
 40
1.0
100
AcDbArc
 50
7.405390182298551
 51
90.0
  0
LWPOLYLINE
  5
27A4
330
1B
100
AcDbEntity
  8
実線
100
AcDbPolyline
 90
        6
 70
     0
 43
0.0
 10
798.6716147624401
 20
561.6188293980558
 10
798.9547515478401
 20
561.5779091372558
 10
799.21684931984
 20
561.4571012991558
 10
799.4322779529401
 20
561.2679164901558
 10
799.5861190029401
 20
561.0231964869558
 10
799.6631255134401
 20
560.7478299289558
  0
LWPOLYLINE
  5
27A5
330
1B
100
AcDbEntity
  8
実線
100
AcDbPolyline
 90
        4
 70
     0
 43
0.0
 10
824.8207198757402
 20
547.4462662812558
 10
827.11882872424
 20
550.7770648507557
 10
829.7022039569402
 20
553.6152488272558
 10
832.3754197167401
 20
555.8861398312558
  0
LWPOLYLINE
  5
27A8
330
1B
100
AcDbEntity
  8
実線
100
AcDbPolyline
 90
        4
 70
     0
 43
0.0
 10
822.6602410524401
 20
534.6275569305557
 10
822.65791761704
 20
532.6275984946557
 10
822.65791761704
 20
530.6275153664557
 10
822.6602410524401
 20
528.6275569305558
  0
LINE
  5
27A9
330
1B
100
AcDbEntity
  8
実線
100
AcDbLine
 10
822.7578747681402
 20
534.6275569305557
 30
0.0
 11
822.7578747681402
 21
528.6275569305558
 31
0.0
  0
LINE
  5
27AA
330
1B
100
AcDbEntity
  8
実線
100
AcDbLine
 10
822.71329859024
 20
528.6275569305558
 30
0.0
 11
822.71329859024
 21
534.6275569305557
 31
0.0
  0
LWPOLYLINE
  5
27AB
330
1B
100
AcDbEntity
  8
実線
100
AcDbPolyline
 90
        3
 70
     0
 43
0.0
 10
824.1141314300401
 20
546.1889450094559
 10
823.9648678488402
 20
545.9041592243559
 10
823.8194967488402
 20
545.6195098981559
  0
LINE
  5
27AC
330
1B
100
AcDbEntity
  8
実線
100
AcDbLine
 10
823.6161589904401
 20
545.0641382603557
 30
0.0
 11
823.1957614989401
 21
544.2327642246558
 31
0.0
  0
LINE
  5
27AD
330
1B
100
AcDbEntity
  8
実線
100
AcDbLine
 10
824.8207198757402
 20
547.4462662812558
 30
0.0
 11
823.7360474794401
 21
545.3012285830558
 31
0.0
  0
LINE
  5
27AE
330
1B
100
AcDbEntity
  8
実線
100
AcDbLine
 10
823.8194967488402
 20
545.6195098981559
 30
0.0
 11
823.6762197082402
 21
545.3314814461558
 31
0.0
  0
LINE
  5
27AF
330
1B
100
AcDbEntity
  8
実線
100
AcDbLine
 10
823.67621966024
 20
545.3314813482559
 30
0.0
 11
823.61449123454
 21
545.2049823729558
 31
0.0
  0
LINE
  5
27B0
330
1B
100
AcDbEntity
  8
実線
100
AcDbLine
 10
823.5422271969401
 20
545.0549736029558
 30
0.0
 11
823.6148809905401
 21
545.2057810929558
 31
0.0
  0
LINE
  5
27B1
330
1B
100
AcDbEntity
  8
実線
100
AcDbLine
 10
823.46393236904
 20
544.8900315236557
 30
0.0
 11
823.5428396648401
 21
545.0562449899559
 31
0.0
  0
LINE
  5
27B2
330
1B
100
AcDbEntity
  8
実線
100
AcDbLine
 10
823.5422271969401
 20
545.0549736029558
 30
0.0
 11
823.46393236904
 21
544.8900315236557
 31
0.0
  0
LWPOLYLINE
  5
27B3
330
1B
100
AcDbEntity
  8
実線
100
AcDbPolyline
 90
        3
 70
     0
 43
0.0
 10
832.3739165495402
 20
555.8850156791558
 10
829.7007075745401
 20
553.6138096593559
 10
827.1174055112402
 20
550.7752773389559
  0
LWPOLYLINE
  5
27B4
330
1B
100
AcDbEntity
  8
実線
100
AcDbPolyline
 90
        3
 70
     0
 43
0.0
 10
832.3739165495402
 20
555.8850156791558
 10
834.9793750292402
 20
557.6147096540558
 10
837.4299597174401
 20
558.8882755989557
  0
LINE
  5
27B5
330
1B
100
AcDbEntity
  8
実線
100
AcDbLine
 10
837.4288586801402
 20
558.8877723548558
 30
0.0
 11
834.9780408113401
 21
557.6139285103558
 31
0.0
  0
LINE
  5
27B6
330
1B
100
AcDbEntity
  8
文字
 62
     0
100
AcDbLine
 10
830.2586278667401
 20
571.7386432796558
 30
0.0
 11
831.0986278667401
 21
571.7386432796558
 31
0.0
  0
LWPOLYLINE
  5
27B7
330
1B
100
AcDbEntity
  8
文字
 62
     0
100
AcDbPolyline
 90
        5
 70
     0
 43
0.0
 10
833.3386321391401
 20
571.9719965511558
 10
832.7786278667401
 20
571.5053156429558
 10
832.4986321391401
 20
571.0386603695558
 10
832.35862786674
 20
570.3386518245558
 10
833.47863641164
 20
570.3386518245558
  0
LINE
  5
27B8
330
1B
100
AcDbEntity
  8
実線
100
AcDbLine
 10
822.6576272115401
 20
577.5426583402559
 30
0.0
 11
821.3767177888401
 21
577.7165250506558
 31
0.0
  0
LWPOLYLINE
  5
27B9
330
1B
100
AcDbEntity
  8
実線
100
AcDbPolyline
 90
        3
 70
     0
 43
0.0
 10
823.46393236904
 20
591.4852762566559
 10
822.2445279879401
 20
590.0040116890559
 10
820.8191954676401
 20
588.2721679628558
  0
LINE
  5
27BA
330
1B
100
AcDbEntity
  8
実線
100
AcDbLine
 10
820.6253271280401
 20
588.2158103618557
 30
0.0
 11
823.5478103495402
 21
591.8247765819558
 31
0.0
  0
LINE
  5
27BB
330
1B
100
AcDbEntity
  8
実線
100
AcDbLine
 10
820.5142199458402
 20
587.9016084276559
 30
0.0
 11
820.5142199458402
 21
578.7070265507558
 31
0.0
  0
ARC
  5
27BC
330
1B
100
AcDbEntity
  8
実線
100
AcDbCircle
 10
821.5142199486402
 20
578.7070265506558
 30
0.0
 40
1.0
100
AcDbArc
 50
179.9999999987982
 51
262.0820355730013
  0
ARC
  5
27BD
330
1B
100
AcDbEntity
  8
実線
100
AcDbCircle
 10
821.01426666954
 20
587.9016028311558
 30
0.0
 40
0.5
100
AcDbArc
 50
141.0000000000017
 51
179.9993587298013
  0
LWPOLYLINE
  5
27BE
330
1B
100
AcDbEntity
  8
実線
100
AcDbPolyline
 90
        3
 70
     0
 43
0.0
 10
820.8191954676401
 20
588.2721679628558
 10
820.5478070462401
 20
587.9423638630559
 10
820.5142199458402
 20
587.9011500638559
  0
ARC
  5
27BF
330
1B
100
AcDbEntity
  8
実線
100
AcDbCircle
 10
847.7642199458401
 20
772.9712341818558
 30
0.0
 40
197.05
100
AcDbArc
 50
262.7093030999022
 51
265.1805568716024
  0
LINE
  5
27C0
330
1B
100
AcDbEntity
  8
実線
100
AcDbLine
 10
822.6602410524401
 20
577.5623984207558
 30
0.0
 11
822.6576271876401
 21
577.5426584537558
 31
0.0
  0
LINE
  5
27C1
330
1B
100
AcDbEntity
  8
実線
100
AcDbLine
 10
822.7623479458401
 20
577.5493350768559
 30
0.0
 11
822.7578747681402
 21
577.5143714196558
 31
0.0
  0
LINE
  5
27C2
330
1B
100
AcDbEntity
  8
実線
100
AcDbLine
 10
823.7623313996401
 20
592.8290127506559
 30
0.0
 11
823.7097577820401
 21
592.8290132120558
 31
0.0
  0
LINE
  5
27C3
330
1B
100
AcDbEntity
  8
実線
100
AcDbLine
 10
823.5277255971402
 20
591.7999739868557
 30
0.0
 11
823.5276854017401
 21
591.7999243411558
 31
0.0
  0
LWPOLYLINE
  5
27C4
330
1B
100
AcDbEntity
  8
実線
100
AcDbPolyline
 90
        3
 70
     0
 43
0.0
 10
823.5450309598402
 20
591.8270272873558
 10
823.52915843474
 20
591.8018403182558
 10
823.5276302730401
 20
591.7998604173558
  0
LINE
  5
27C5
330
1B
100
AcDbEntity
  8
実線
100
AcDbLine
 10
823.5428909894402
 20
591.8232626639557
 30
0.0
 11
823.5348290281402
 21
591.8100411235558
 31
0.0
  0
LINE
  5
27C6
330
1B
100
AcDbEntity
  8
実線
100
AcDbLine
 10
823.47546746384
 20
591.7079709172558
 30
0.0
 11
823.5276952091401
 21
591.7999364520558
 31
0.0
  0
LINE
  5
27C7
330
1B
100
AcDbEntity
  8
実線
100
AcDbLine
 10
823.5612691664401
 20
591.8589246961557
 30
0.0
 11
823.5450309598402
 21
591.8270272873558
 31
0.0
  0
LINE
  5
27C8
330
1B
100
AcDbEntity
  8
実線
100
AcDbLine
 10
823.5670054869402
 20
591.8742929766558
 30
0.0
 11
823.5428909894402
 21
591.8232626639557
 31
0.0
  0
LWPOLYLINE
  5
27C9
330
1B
100
AcDbEntity
  8
実線
100
AcDbPolyline
 90
        3
 70
     0
 43
0.0
 10
823.61449123454
 20
591.7711482101558
 10
823.5422271969401
 20
591.6049447451558
 10
823.46393236904
 20
591.4852762566559
  0
LINE
  5
27CA
330
1B
100
AcDbEntity
  8
実線
100
AcDbLine
 10
823.6086624599401
 20
591.9858969297559
 30
0.0
 11
823.5612691664401
 21
591.8589246961557
 31
0.0
  0
LINE
  5
27CB
330
1B
100
AcDbEntity
  8
実線
100
AcDbLine
 10
823.6162594434402
 20
592.0116584914558
 30
0.0
 11
823.6126899329402
 21
592.0010553964558
 31
0.0
  0
LINE
  5
27CC
330
1B
100
AcDbEntity
  8
実線
100
AcDbLine
 10
823.67621966024
 20
591.9834602926559
 30
0.0
 11
823.61449123454
 21
591.7711482101558
 31
0.0
  0
LINE
  5
27CD
330
1B
100
AcDbEntity
  8
実線
100
AcDbLine
 10
823.6378802763402
 20
592.0958659584559
 30
0.0
 11
823.6086624599401
 21
591.9858969297559
 31
0.0
  0
LINE
  5
27CE
330
1B
100
AcDbEntity
  8
実線
100
AcDbLine
 10
823.6379023428401
 20
592.0959606773558
 30
0.0
 11
823.6162594434402
 21
592.0116584914558
 31
0.0
  0
LINE
  5
27CF
330
1B
100
AcDbEntity
  8
実線
100
AcDbLine
 10
823.6378802763402
 20
592.0958659584559
 30
0.0
 11
823.6379692203401
 21
592.0962501992558
 31
0.0
  0
LWPOLYLINE
  5
27D0
330
1B
100
AcDbEntity
  8
実線
100
AcDbPolyline
 90
        3
 70
     0
 43
0.0
 10
823.6761861972402
 20
591.9834621506558
 10
823.6385069326402
 20
592.0525298248557
 10
823.6378802763402
 20
592.0958659584559
  0
LINE
  5
27D1
330
1B
100
AcDbEntity
  8
実線
100
AcDbLine
 10
823.72254329624
 20
592.2313412930558
 30
0.0
 11
823.6763193000401
 21
591.9834637051557
 31
0.0
  0
LINE
  5
27D2
330
1B
100
AcDbEntity
  8
実線
100
AcDbLine
 10
823.68373788614
 20
592.4015629937558
 30
0.0
 11
823.6648067075401
 21
592.2330106893558
 31
0.0
  0
LWPOLYLINE
  5
27D3
330
1B
100
AcDbEntity
  8
実線
100
AcDbPolyline
 90
        3
 70
     0
 43
0.0
 10
823.7623313996401
 20
592.8290127506559
 10
823.7520370385402
 20
592.5147796329558
 10
823.72254329624
 20
592.2313412930558
  0
LINE
  5
27D4
330
1B
100
AcDbEntity
  8
実線
100
AcDbLine
 10
823.70975319504
 20
592.8290127505558
 30
0.0
 11
823.7016454700402
 21
592.5662359344559
 31
0.0
  0
LWPOLYLINE
  5
27D5
330
1B
100
AcDbEntity
  8
実線
100
AcDbPolyline
 90
        4
 70
     0
 43
0.0
 10
823.7097529068401
 20
592.8290132102558
 10
823.7021707445402
 20
592.5710662065559
 10
823.6661599460401
 20
592.2399213623558
 10
823.6380239859402
 20
592.0962375921558
  0
LWPOLYLINE
  5
27D6
330
1B
100
AcDbEntity
  8
実線
100
AcDbPolyline
 90
        3
 70
     0
 43
0.0
 10
823.4639410493402
 20
591.4852762568558
 10
823.45371478814
 20
591.6006100665558
 10
823.47546746384
 20
591.7079709172558
  0
LWPOLYLINE
  5
27D7
330
1B
100
AcDbEntity
  8
文字
 62
     0
100
AcDbPolyline
 90
        5
 70
     0
 43
0.0
 10
852.1686364116401
 20
571.6511518245559
 10
852.72862786674
 20
571.8261603695558
 10
853.21863641164
 20
572.0886603695557
 10
853.7086321391401
 20
572.5261432796558
 10
854.0586364116402
 20
572.9636518245558
  0
LWPOLYLINE
  5
27D8
330
1B
100
AcDbEntity
  8
文字
 62
     0
100
AcDbPolyline
 90
       17
 70
     0
 43
0.0
 10
868.1986321391402
 20
571.2719880062559
 10
868.3386364116401
 20
571.7386432796558
 10
868.7586364116402
 20
571.9719965511558
 10
869.1786364116401
 20
571.7386432796558
 10
869.3186278667401
 20
571.2719880062559
 10
869.1786364116401
 20
570.8053070980558
 10
869.0386321391402
 20
570.5719794613558
 10
868.7586364116402
 20
570.3386518245558
 10
868.4786278667401
 20
570.5719794613558
 10
868.3386364116401
 20
570.8053070980558
 10
868.1986321391402
 20
571.2719880062559
 10
868.1986321391402
 20
572.2053241878559
 10
868.3386364116401
 20
572.6719794613558
 10
868.4786278667401
 20
572.9053070980557
 10
868.7586364116402
 20
573.1386603695558
 10
869.0386321391402
 20
572.9053070980557
 10
869.1786364116401
 20
572.6719794613558
  0
LWPOLYLINE
  5
27D9
330
1B
100
AcDbEntity
  8
文字
 62
     0
100
AcDbPolyline
 90
        6
 70
     0
 43
0.0
 10
841.1786278667401
 20
572.4386518245558
 10
841.45863641164
 20
572.9053070980557
 10
841.7386321391401
 20
573.1386603695558
 10
842.0186278667401
 20
573.1386603695558
 10
842.29863641164
 20
572.9053070980557
 10
842.4386278667402
 20
572.6719794613558
  0
LINE
  5
27DA
330
1B
100
AcDbEntity
  8
文字
 62
     0
100
AcDbLine
 10
862.03863641164
 20
572.6136603695558
 30
0.0
 11
862.03863641164
 21
572.9636518245558
 31
0.0
  0
LWPOLYLINE
  5
27DB
330
1B
100
AcDbEntity
  8
文字
 62
     0
100
AcDbPolyline
 90
       16
 70
     0
 43
0.0
 10
866.3086321391402
 20
572.9636518245558
 10
866.58862786674
 20
572.2636432796559
 10
867.4286278667402
 20
571.3011603695559
 10
866.9386321391401
 20
571.5636603695558
 10
866.58862786674
 20
571.6511518245559
 10
866.2386364116402
 20
571.6511518245559
 10
865.8886321391401
 20
571.5636603695558
 10
865.7486278667402
 20
571.4761432796558
 10
865.6786321391402
 20
571.3886518245558
 10
865.6786321391402
 20
571.1261518245557
 10
865.7486278667402
 20
570.9511432796558
 10
865.8886321391401
 20
570.7761603695558
 10
866.0986321391401
 20
570.6011518245558
 10
866.4486364116401
 20
570.4261432796559
 10
867.0086278667401
 20
570.4261432796559
 10
867.4286278667402
 20
570.6011518245558
  0
LINE
  5
27DC
330
1B
100
AcDbEntity
  8
文字
 62
     0
100
AcDbLine
 10
855.2486278667402
 20
572.9636518245558
 30
0.0
 11
855.2486278667402
 21
572.4386518245558
 31
0.0
  0
LINE
  5
27DD
330
1B
100
AcDbEntity
  8
文字
 62
     0
100
AcDbLine
 10
863.2986364116401
 20
572.9636518245558
 30
0.0
 11
863.6486278667401
 21
572.5261432796558
 31
0.0
  0
LINE
  5
27DE
330
1B
100
AcDbEntity
  8
文字
 62
     0
100
AcDbLine
 10
858.1886278667401
 20
572.9636518245558
 30
0.0
 11
858.46863641164
 21
572.7011518245558
 31
0.0
  0
LWPOLYLINE
  5
27DF
330
1B
100
AcDbEntity
  8
文字
 62
     0
100
AcDbPolyline
 90
        4
 70
     0
 43
0.0
 10
839.0786278667402
 20
570.3386518245558
 10
839.0786278667402
 20
573.1386603695558
 10
840.1986364116401
 20
570.3386518245558
 10
840.1986364116401
 20
573.1386603695558
  0
LINE
  5
27E0
330
1B
100
AcDbEntity
  8
文字
 62
     0
100
AcDbLine
 10
880.4417690159402
 20
607.5360703646558
 30
0.0
 11
871.8786320246401
 21
571.7386512160557
 31
0.0
  0
LINE
  5
27E1
330
1B
100
AcDbEntity
  8
文字
 62
     0
100
AcDbLine
 10
871.8786320246401
 20
571.7386512160557
 30
0.0
 11
869.8786320246401
 21
571.7386512160557
 31
0.0
  0
LINE
  5
27E2
330
1B
100
AcDbEntity
  8
実線
100
AcDbLine
 10
867.76421994584
 20
528.6275569305558
 30
0.0
 11
867.76421994584
 21
534.6275569305557
 31
0.0
  0
LINE
  5
27E3
330
1B
100
AcDbEntity
  8
実線
100
AcDbLine
 10
867.5142199458401
 20
528.6275569305558
 30
0.0
 11
867.5142199458401
 21
534.6275569305557
 31
0.0
  0
LINE
  5
27E4
330
1B
100
AcDbEntity
  8
実線
100
AcDbLine
 10
864.7642199458401
 20
534.6275569305557
 30
0.0
 11
864.7642199458401
 21
528.6275569305558
 31
0.0
  0
LWPOLYLINE
  5
27E5
330
1B
100
AcDbEntity
  8
実線
100
AcDbPolyline
 90
        4
 70
     0
 43
0.0
 10
865.0150243445402
 20
528.6275569305558
 10
865.01471544044
 20
530.6275153664557
 10
865.01471544044
 20
532.6275984946557
 10
865.0150243445402
 20
534.6275569305557
  0
LWPOLYLINE
  5
27E6
330
1B
100
AcDbEntity
  8
文字
 62
     0
100
AcDbPolyline
 90
        6
 70
     0
 43
0.0
 10
854.4786364116401
 20
572.4386518245558
 10
856.0186321391402
 20
572.4386518245558
 10
855.6686278667401
 20
572.0011432796559
 10
855.2486278667402
 20
571.6511518245559
 10
854.8986364116402
 20
571.4761432796558
 10
854.2686364116402
 20
571.2136432796557
  0
LINE
  5
27E7
330
1B
100
AcDbEntity
  8
実線
100
AcDbLine
 10
866.01421994584
 20
561.6188293980558
 30
0.0
 11
848.5142149643401
 21
561.3133656748558
 31
0.0
  0
LINE
  5
27E8
330
1B
100
AcDbEntity
  8
実線
100
AcDbLine
 10
846.9943012844401
 20
561.2695970462558
 30
0.0
 11
848.5142148977402
 21
561.3133657618558
 31
0.0
  0
LINE
  5
27E9
330
1B
100
AcDbEntity
  8
実線
100
AcDbLine
 10
846.9943012844401
 20
561.2695970462558
 30
0.0
 11
845.38883429444
 21
561.1278549764558
 31
0.0
  0
LWPOLYLINE
  5
27EA
330
1B
100
AcDbEntity
  8
実線
100
AcDbPolyline
 90
        3
 70
     0
 43
0.0
 10
845.3891310767401
 20
561.1278903172558
 10
843.65785939514
 20
560.8634530642558
 10
841.7681119986401
 20
560.4388780243558
  0
LWPOLYLINE
  5
27EB
330
1B
100
AcDbEntity
  8
実線
100
AcDbPolyline
 90
        3
 70
     0
 43
0.0
 10
839.69528583864
 20
559.8024858798558
 10
841.7687708946401
 20
560.4390514311558
 10
843.6583269080401
 20
560.8635403510559
  0
LINE
  5
27EC
330
1B
100
AcDbEntity
  8
文字
 62
     0
100
AcDbLine
 10
845.5186321391401
 20
572.5261432796558
 30
0.0
 11
847.1286364116402
 21
572.5261432796558
 31
0.0
  0
LINE
  5
27ED
330
1B
100
AcDbEntity
  8
文字
 62
     0
100
AcDbLine
 10
845.3086321391401
 20
570.6886432796559
 30
0.0
 11
847.33863641164
 21
570.6886432796559
 31
0.0
  0
LWPOLYLINE
  5
27EE
330
1B
100
AcDbEntity
  8
文字
 62
     0
100
AcDbPolyline
 90
        5
 70
     0
 43
0.0
 10
842.4386278667402
 20
570.8053070980558
 10
842.29863641164
 20
570.5719794613558
 10
842.0186278667401
 20
570.3386518245558
 10
841.7386321391401
 20
570.3386518245558
 10
841.45863641164
 20
570.5719794613558
  0
LWPOLYLINE
  5
27EF
330
1B
100
AcDbEntity
  8
文字
 62
     0
100
AcDbPolyline
 90
        4
 70
     0
 43
0.0
 10
841.45863641164
 20
570.5719794613558
 10
841.1786278667401
 20
571.0386603695558
 10
841.0386364116401
 20
571.7386432796558
 10
841.1786278667401
 20
572.4386518245558
  0
LWPOLYLINE
  5
27F0
330
1B
100
AcDbEntity
  8
文字
 62
     0
100
AcDbPolyline
 90
        3
 70
     0
 43
0.0
 10
843.3486364116401
 20
572.6136603695558
 10
844.81863641164
 20
572.6136603695558
 10
844.6086364116402
 20
570.6011518245558
  0
LINE
  5
27F1
330
1B
100
AcDbEntity
  8
文字
 62
     0
100
AcDbLine
 10
843.1386364116402
 20
570.6011518245558
 30
0.0
 11
845.09863213914
 21
570.6011518245558
 31
0.0
  0
LWPOLYLINE
  5
27F2
330
1B
100
AcDbEntity
  8
文字
 62
     0
100
AcDbPolyline
 90
        6
 70
     0
 43
0.0
 10
849.9986278667401
 20
572.0886603695557
 10
851.5386364116402
 20
572.0886603695557
 10
851.4686278667401
 20
571.6511518245559
 10
851.2586278667402
 20
571.3011603695559
 10
851.0486278667402
 20
571.1261518245557
 10
850.8386278667401
 20
571.0386603695558
  0
LWPOLYLINE
  5
27F3
330
1B
100
AcDbEntity
  8
文字
 62
     0
100
AcDbPolyline
 90
        9
 70
     0
 43
0.0
 10
847.6886278667402
 20
572.6136603695558
 10
849.4386364116401
 20
572.6136603695558
 10
849.36862786674
 20
572.2636432796559
 10
849.2286364116401
 20
571.8261603695558
 10
849.0186364116402
 20
571.3886518245558
 10
848.8086364116401
 20
571.1261518245557
 10
848.5286278667402
 20
570.8636518245558
 10
848.2486321391402
 20
570.6886432796559
 10
847.8286321391401
 20
570.5136603695558
  0
LWPOLYLINE
  5
27F4
330
1B
100
AcDbEntity
  8
文字
 62
     0
100
AcDbPolyline
 90
        4
 70
     0
 43
0.0
 10
850.5586321391401
 20
571.7386432796558
 10
850.5586321391401
 20
571.2136432796557
 10
850.48863641164
 20
570.9511432796558
 10
850.13863213914
 20
570.4261432796559
  0
LINE
  5
27F5
330
1B
100
AcDbEntity
  8
文字
 62
     0
100
AcDbLine
 10
853.21863641164
 20
572.0886603695557
 30
0.0
 11
853.21863641164
 21
570.4261432796559
 31
0.0
  0
LINE
  5
27F6
330
1B
100
AcDbEntity
  8
実線
100
AcDbLine
 10
866.01421994584
 20
561.1275569305559
 30
0.0
 11
866.5142199458401
 21
561.1275569305559
 31
0.0
  0
LINE
  5
27F7
330
1B
100
AcDbEntity
  8
実線
100
AcDbLine
 10
866.01421994584
 20
560.2545217583558
 30
0.0
 11
866.5142199458401
 21
560.2545217583558
 31
0.0
  0
LWPOLYLINE
  5
27F8
330
1B
100
AcDbEntity
  8
文字
 62
     0
100
AcDbPolyline
 90
        3
 70
     0
 43
0.0
 10
858.8186278667402
 20
570.9511432796558
 10
859.0986364116401
 20
570.6886432796559
 10
859.1686321391401
 20
570.5136603695558
  0
LWPOLYLINE
  5
27F9
330
1B
100
AcDbEntity
  8
文字
 62
     0
100
AcDbPolyline
 90
        6
 70
     0
 43
0.0
 10
856.6486321391401
 20
570.5136603695558
 10
857.2086364116401
 20
570.5136603695558
 10
857.7686278667401
 20
570.7761603695558
 10
858.1186321391401
 20
571.2136432796557
 10
858.3286321391401
 20
571.6511518245559
 10
858.5386321391402
 20
572.2636432796559
  0
LWPOLYLINE
  5
27FA
330
1B
100
AcDbEntity
  8
文字
 62
     0
100
AcDbPolyline
 90
        3
 70
     0
 43
0.0
 10
856.7886364116402
 20
572.7886432796558
 10
857.2086364116401
 20
572.6136603695558
 10
857.5586278667401
 20
572.4386518245558
  0
LINE
  5
27FB
330
1B
100
AcDbEntity
  8
文字
 62
     0
100
AcDbLine
 10
855.2486278667402
 20
571.6511518245559
 30
0.0
 11
855.2486278667402
 21
570.4261432796559
 31
0.0
  0
LINE
  5
27FC
330
1B
100
AcDbEntity
  8
文字
 62
     0
100
AcDbLine
 10
858.1186321391401
 20
572.7886432796558
 30
0.0
 11
858.3986278667401
 21
572.5261432796558
 31
0.0
  0
LINE
  5
27FD
330
1B
100
AcDbEntity
  8
文字
 62
     0
100
AcDbLine
 10
855.5286364116401
 20
571.5636603695558
 30
0.0
 11
856.2986278667402
 21
571.0386603695558
 31
0.0
  0
LWPOLYLINE
  5
27FE
330
1B
100
AcDbEntity
  8
文字
 62
     0
100
AcDbPolyline
 90
        3
 70
     0
 43
0.0
 10
856.6486321391401
 20
572.0011432796559
 10
857.0686321391402
 20
571.8261603695558
 10
857.4886321391401
 20
571.5636603695558
  0
LWPOLYLINE
  5
27FF
330
1B
100
AcDbEntity
  8
文字
 62
     0
100
AcDbPolyline
 90
        3
 70
     0
 43
0.0
 10
861.5486278667402
 20
571.7386432796558
 10
861.3386278667402
 20
571.0386603695558
 10
860.98863641164
 20
570.4261432796559
  0
LWPOLYLINE
  5
2800
330
1B
100
AcDbEntity
  8
文字
 62
     0
100
AcDbPolyline
 90
        6
 70
     0
 43
0.0
 10
861.5486278667402
 20
572.0886603695557
 10
862.3186321391401
 20
572.0886603695557
 10
862.38862786674
 20
572.0011432796559
 10
862.5286321391401
 20
571.4761432796558
 10
862.7386321391401
 20
570.8636518245558
 10
863.0186278667402
 20
570.4261432796559
  0
LWPOLYLINE
  5
2801
330
1B
100
AcDbEntity
  8
文字
 62
     0
100
AcDbPolyline
 90
        5
 70
     0
 43
0.0
 10
861.1286278667401
 20
571.9136518245558
 10
861.1286278667401
 20
572.6136603695558
 10
862.8786364116402
 20
572.6136603695558
 10
862.9486321391402
 20
572.5261432796558
 10
862.8786364116402
 20
571.9136518245558
  0
LWPOLYLINE
  5
2802
330
1B
100
AcDbEntity
  8
文字
 62
     0
100
AcDbPolyline
 90
        3
 70
     0
 43
0.0
 10
865.5386278667402
 20
572.1761518245558
 10
866.58862786674
 20
572.2636432796559
 10
867.2886364116401
 20
572.4386518245558
  0
LWPOLYLINE
  5
2803
330
1B
100
AcDbEntity
  8
文字
 62
     0
100
AcDbPolyline
 90
        3
 70
     0
 43
0.0
 10
863.71863641164
 20
570.6011518245558
 10
864.4886278667401
 20
571.5636603695558
 10
865.2586321391401
 20
570.6011518245558
  0
LWPOLYLINE
  5
2804
330
1B
100
AcDbEntity
  8
文字
 62
     0
100
AcDbPolyline
 90
        3
 70
     0
 43
0.0
 10
863.22862786674
 20
570.4261432796559
 10
863.4386278667401
 20
571.0386603695558
 10
863.5786321391401
 20
571.4761432796558
  0
LINE
  5
2805
330
1B
100
AcDbEntity
  8
文字
 62
     0
100
AcDbLine
 10
863.7886321391402
 20
571.5636603695558
 30
0.0
 11
865.1886364116402
 21
571.5636603695558
 31
0.0
  0
LWPOLYLINE
  5
2806
330
1B
100
AcDbEntity
  8
文字
 62
     0
100
AcDbPolyline
 90
        6
 70
     0
 43
0.0
 10
864.6986278667402
 20
572.8761603695557
 10
864.6986278667402
 20
572.0886603695557
 10
864.7686364116401
 20
572.0011432796559
 10
865.1886364116402
 20
572.0011432796559
 10
865.2586321391401
 20
572.0886603695557
 10
865.2586321391401
 20
572.3511603695558
  0
LINE
  5
2807
330
1B
100
AcDbEntity
  8
文字
 62
     0
100
AcDbLine
 10
864.4886278667401
 20
572.0011432796559
 30
0.0
 11
864.4886278667401
 21
570.4261432796559
 31
0.0
  0
LWPOLYLINE
  5
2808
330
1B
100
AcDbEntity
  8
文字
 62
     0
100
AcDbPolyline
 90
        4
 70
     0
 43
0.0
 10
864.2086321391401
 20
572.8761603695557
 10
864.2086321391401
 20
572.3511603695558
 10
864.1386364116401
 20
572.0886603695557
 10
863.71863641164
 20
571.8261603695558
  0
LWPOLYLINE
  5
2809
330
1B
100
AcDbEntity
  8
文字
 62
     0
100
AcDbPolyline
 90
        5
 70
     0
 43
0.0
 10
863.7886321391402
 20
572.2636432796559
 10
863.7886321391402
 20
572.8761603695557
 10
865.1186278667401
 20
572.8761603695557
 10
865.1886364116402
 20
572.7886432796558
 10
865.0486321391401
 20
572.2636432796559
  0
LINE
  5
280A
330
1B
100
AcDbEntity
  8
文字
 62
     0
100
AcDbLine
 10
863.22862786674
 20
572.1761518245558
 30
0.0
 11
863.5786321391401
 21
571.7386432796558
 31
0.0
  0
LINE
  5
280B
330
1B
100
AcDbEntity
  8
実線
100
AcDbLine
 10
848.5143937141401
 20
575.8583377323558
 30
0.0
 11
865.0150243445402
 21
575.5703181533558
 31
0.0
  0
LINE
  5
280C
330
1B
100
AcDbEntity
  8
実線
100
AcDbLine
 10
866.5142199458401
 20
575.5242341818558
 30
0.0
 11
867.5142199458401
 21
575.5242341818558
 31
0.0
  0
LINE
  5
280D
330
1B
100
AcDbEntity
  8
実線
100
AcDbLine
 10
865.0146768255401
 20
575.5504088044558
 30
0.0
 11
866.0129029160401
 21
575.5329847031559
 31
0.0
  0
LINE
  5
280E
330
1B
100
AcDbEntity
  8
実線
100
AcDbLine
 10
866.01421994584
 20
576.0242707803558
 30
0.0
 11
866.5142199458401
 21
576.0242707803558
 31
0.0
  0
LINE
  5
280F
330
1B
100
AcDbEntity
  8
実線
100
AcDbLine
 10
865.0146768274401
 20
575.5504089138558
 30
0.0
 11
865.0150243445402
 21
575.5703181533558
 31
0.0
  0
LINE
  5
2810
330
1B
100
AcDbEntity
  8
実線
100
AcDbLine
 10
867.5142199458401
 20
575.5242341818558
 30
0.0
 11
867.5142199458401
 21
575.5441465635558
 31
0.0
  0
LINE
  5
2811
330
1B
100
AcDbEntity
  8
文字
 62
     0
100
AcDbLine
 10
881.5142199458401
 20
610.5242341818558
 30
0.0
 11
888.5272411550401
 21
610.5242341818558
 31
0.0
  0
CIRCLE
  5
2812
330
1B
100
AcDbEntity
  8
実線
100
AcDbCircle
 10
881.5142199458401
 20
610.5242341818558
 30
0.0
 40
3.5
  0
CIRCLE
  5
2813
330
1B
100
AcDbEntity
  8
実線
100
AcDbCircle
 10
881.5142199458401
 20
610.5242341818558
 30
0.0
 40
3.174999999999999
  0
LINE
  5
2814
330
1B
100
AcDbEntity
  8
文字
 62
     0
100
AcDbLine
 10
881.5142199458401
 20
610.5242341818558
 30
0.0
 11
881.5142199458401
 21
603.5112129727558
 31
0.0
  0
LWPOLYLINE
  5
2815
330
1B
100
AcDbEntity
  8
寸法
100
AcDbPolyline
 90
        3
 70
     0
 43
0.0
 10
880.5843250555401
 20
605.4455434512558
 10
880.4417690159402
 20
607.5360703646558
 10
879.3686236032401
 20
605.7363526304558
  0
LINE
  5
2816
330
1B
100
AcDbEntity
  8
文字
 62
     0
100
AcDbLine
 10
881.5142199458401
 20
610.5242341818558
 30
0.0
 11
874.5011987366401
 21
610.5242341818558
 31
0.0
  0
LINE
  5
2817
330
1B
100
AcDbEntity
  8
文字
 62
     0
100
AcDbLine
 10
881.5142199458401
 20
610.5242341818558
 30
0.0
 11
881.5142199458401
 21
617.5372553910558
 31
0.0
  0
ARC
  5
2818
330
1B
100
AcDbEntity
  8
実線
100
AcDbCircle
 10
848.5142199458401
 20
448.2100430131558
 30
0.0
 40
196.9800876184
100
AcDbArc
 50
89.99994945580155
 51
97.54193145920259
  0
ARC
  5
2819
330
1B
100
AcDbEntity
  8
実線
100
AcDbCircle
 10
821.5142199478401
 20
642.3414418130558
 30
0.0
 40
1.0
100
AcDbArc
 50
97.91796442720276
 51
180.0000000008989
  0
LINE
  5
281A
330
1B
100
AcDbEntity
  8
実線
100
AcDbLine
 10
823.71613536164
 20
629.0158277029559
 30
0.0
 11
820.6253271291402
 21
632.8326580007558
 31
0.0
  0
LWPOLYLINE
  5
281B
330
1B
100
AcDbEntity
  8
実線
100
AcDbPolyline
 90
        3
 70
     0
 43
0.0
 10
820.8191954618401
 20
632.7763004181559
 10
821.3756668018401
 20
632.1001018995558
 10
823.46393236904
 20
629.5631921071558
  0
LINE
  5
281C
330
1B
100
AcDbEntity
  8
実線
100
AcDbLine
 10
820.5142199458402
 20
642.3414418130558
 30
0.0
 11
820.5142199458402
 21
633.1468599365559
 31
0.0
  0
ARC
  5
281D
330
1B
100
AcDbEntity
  8
実線
100
AcDbCircle
 10
821.0142666692402
 20
633.1468655330559
 30
0.0
 40
0.5
100
AcDbArc
 50
180.0006412688014
 51
218.9999999999982
  0
LINE
  5
281E
330
1B
100
AcDbEntity
  8
実線
100
AcDbLine
 10
820.5142199458402
 20
633.1473182980559
 30
0.0
 11
820.5478070464401
 21
633.1061044991558
 31
0.0
  0
LINE
  5
281F
330
1B
100
AcDbEntity
  8
実線
100
AcDbLine
 10
820.5478070464401
 20
633.1061044991558
 30
0.0
 11
820.8191954618401
 21
632.7763004181559
 31
0.0
  0
LINE
  5
2820
330
1B
100
AcDbEntity
  8
実線
100
AcDbLine
 10
823.7623313996401
 20
628.2194556131558
 30
0.0
 11
823.7097577820401
 21
628.2194556133559
 31
0.0
  0
LINE
  5
2821
330
1B
100
AcDbEntity
  8
実線
100
AcDbLine
 10
823.5517273246401
 20
629.2065065355558
 30
0.0
 11
823.5612691664401
 21
629.1895436675559
 31
0.0
  0
LWPOLYLINE
  5
2822
330
1B
100
AcDbEntity
  8
実線
100
AcDbPolyline
 90
        4
 70
     0
 43
0.0
 10
823.5277575983401
 20
629.2484506510559
 10
823.54289098934
 20
629.2252057000559
 10
823.5774720030402
 20
629.1520264872558
 10
823.6162594431402
 20
629.0368098733559
  0
LWPOLYLINE
  5
2823
330
1B
100
AcDbEntity
  8
実線
100
AcDbPolyline
 90
        3
 70
     0
 43
0.0
 10
823.46393236904
 20
629.5631921071558
 10
823.5433830173402
 20
629.4413313600558
 10
823.6152087167402
 20
629.2753290882558
  0
LINE
  5
2824
330
1B
100
AcDbEntity
  8
実線
100
AcDbLine
 10
823.63788027644
 20
628.9526024049559
 30
0.0
 11
823.6379692204401
 21
628.9522181641558
 31
0.0
  0
LINE
  5
2825
330
1B
100
AcDbEntity
  8
実線
100
AcDbLine
 10
823.6162594431402
 20
629.0368098733559
 30
0.0
 11
823.6379023425401
 21
628.9525076879558
 31
0.0
  0
LINE
  5
2826
330
1B
100
AcDbEntity
  8
実線
100
AcDbLine
 10
823.6152087167402
 20
629.2753290882558
 30
0.0
 11
823.6762197082402
 21
629.0650078726558
 31
0.0
  0
LWPOLYLINE
  5
2827
330
1B
100
AcDbEntity
  8
実線
100
AcDbPolyline
 90
        3
 70
     0
 43
0.0
 10
823.5612691664401
 20
629.1895436675559
 10
823.6086624600401
 20
629.0625714338558
 10
823.61268993284
 20
629.0474129678558
  0
LINE
  5
2828
330
1B
100
AcDbEntity
  8
実線
100
AcDbLine
 10
823.6763193461401
 20
629.0650044626559
 30
0.0
 11
823.72254163164
 21
628.8171436269558
 31
0.0
  0
LINE
  5
2829
330
1B
100
AcDbEntity
  8
実線
100
AcDbLine
 10
823.6380239859402
 20
628.9522307713558
 30
0.0
 11
823.6648067079402
 21
628.8154576720557
 31
0.0
  0
LWPOLYLINE
  5
282A
330
1B
100
AcDbEntity
  8
実線
100
AcDbPolyline
 90
        4
 70
     0
 43
0.0
 10
823.6380259717401
 20
628.9522228882558
 10
823.6643859246401
 20
628.8192040837558
 10
823.7014228097402
 20
628.4894490030558
 10
823.7097531951402
 20
628.2194556132558
  0
LWPOLYLINE
  5
282B
330
1B
100
AcDbEntity
  8
実線
100
AcDbPolyline
 90
        3
 70
     0
 43
0.0
 10
823.6763166745401
 20
629.0650060112558
 10
823.6385959726401
 20
628.9959430784558
 10
823.6379572120402
 20
628.9525202857557
  0
LWPOLYLINE
  5
282C
330
1B
100
AcDbEntity
  8
実線
100
AcDbPolyline
 90
        3
 70
     0
 43
0.0
 10
823.72254163164
 20
628.8171436269558
 10
823.7520341753402
 20
628.5337246244559
 10
823.7623313996401
 20
628.2194556131558
  0
LWPOLYLINE
  5
282D
330
1B
100
AcDbEntity
  8
実線
100
AcDbPolyline
 90
        3
 70
     0
 43
0.0
 10
823.6837378795401
 20
628.6469054294558
 10
823.7021707445402
 20
628.4774021575558
 10
823.7097529067401
 20
628.2194551535558
  0
LWPOLYLINE
  5
282E
330
1B
100
AcDbEntity
  8
実線
100
AcDbPolyline
 90
        4
 70
     0
 43
0.0
 10
823.4639386515402
 20
629.5631921083558
 10
823.4537104367401
 20
629.4478574341558
 10
823.4754633513402
 20
629.3404958463558
 10
823.5276932886401
 20
629.2485303571559
  0
LINE
  5
282F
330
1B
100
AcDbEntity
  8
実線
100
AcDbLine
 10
822.6576272115401
 20
643.5058100235558
 30
0.0
 11
821.3768552189401
 21
643.3319624268558
 31
0.0
  0
ARC
  5
2830
330
1B
100
AcDbEntity
  8
実線
100
AcDbCircle
 10
847.7642199458401
 20
448.0712341818558
 30
0.0
 40
197.05
100
AcDbArc
 50
94.85708863509668
 51
97.29069690009772
  0
LINE
  5
2831
330
1B
100
AcDbEntity
  8
実線
100
AcDbLine
 10
822.7578747681402
 20
643.5280969441557
 30
0.0
 11
822.7615926805402
 21
643.4990366599558
 31
0.0
  0
LINE
  5
2832
330
1B
100
AcDbEntity
  8
実線
100
AcDbLine
 10
822.6576271876401
 20
643.5058099100558
 30
0.0
 11
822.6602410524401
 21
643.4860699430559
 31
0.0
  0
LINE
  5
2833
330
1B
100
AcDbEntity
  8
実線
100
AcDbLine
 10
865.0150243445402
 20
645.4781502104558
 30
0.0
 11
848.5143937141401
 21
645.1901306314558
 31
0.0
  0
LINE
  5
2836
330
1B
100
AcDbEntity
  8
実線
100
AcDbLine
 10
866.5142199458401
 20
645.5242341818558
 30
0.0
 11
867.5142199458401
 21
645.5242341818558
 31
0.0
  0
LINE
  5
2837
330
1B
100
AcDbEntity
  8
実線
100
AcDbLine
 10
866.0129029160401
 20
645.5154836605559
 30
0.0
 11
865.0146768255401
 21
645.4980595593558
 31
0.0
  0
LINE
  5
2838
330
1B
100
AcDbEntity
  8
実線
100
AcDbLine
 10
866.5142199458401
 20
645.0241975834558
 30
0.0
 11
866.01421994584
 21
645.0241975834558
 31
0.0
  0
LINE
  5
2839
330
1B
100
AcDbEntity
  8
実線
100
AcDbLine
 10
865.0150243445402
 20
645.4781502104558
 30
0.0
 11
865.0146768274401
 21
645.4980594499559
 31
0.0
  0
LINE
  5
283A
330
1B
100
AcDbEntity
  8
実線
100
AcDbLine
 10
867.5142199458401
 20
645.5242341818558
 30
0.0
 11
867.5142199458401
 21
645.5043218002558
 31
0.0
  0
ARC
  5
283F
330
1B
100
AcDbEntity
  8
実線
100
AcDbCircle
 10
1235.85386192574
 20
531.6275569305558
 30
0.0
 40
226.0
100
AcDbArc
 50
180.9999999999985
 51
187.4051861769003
  0
ARC
  5
2840
330
1B
100
AcDbEntity
  8
実線
100
AcDbCircle
 10
853.7850096499401
 20
531.6275569305558
 30
0.0
 40
226.0
100
AcDbArc
 50
352.5948138333007
 51
358.9999999999982
  0
LWPOLYLINE
  5
2841
330
1B
100
AcDbEntity
  8
実線
100
AcDbPolyline
 90
        6
 70
     0
 43
0.0
 10
1071.76842846094
 20
531.0753255668557
 10
1071.72743631904
 20
527.7606747342558
 10
1071.62431510584
 20
524.4685464755558
 10
1071.46017797594
 20
521.2639436632558
 10
1071.23849273964
 20
518.2081200455558
 10
1070.96513224954
 20
515.3582025939559
  0
LWPOLYLINE
  5
2842
330
1B
100
AcDbEntity
  8
実線
100
AcDbPolyline
 90
        6
 70
     0
 43
0.0
 10
1072.26083468644
 20
531.0667929178558
 10
1072.21983852564
 20
527.6994260675557
 10
1072.11672498614
 20
524.3551350304557
 10
1071.95260134134
 20
521.0991686614558
 10
1071.73093436954
 20
517.9936065582558
 10
1071.45754778624
 20
515.0959812512557
  0
LINE
  5
2843
330
1B
100
AcDbEntity
  8
実線
100
AcDbLine
 10
1069.98033615664
 20
534.1275569305557
 30
0.0
 11
1069.98033615664
 21
513.2132130673558
 31
0.0
  0
LINE
  5
2844
330
1B
100
AcDbEntity
  8
実線
100
AcDbLine
 10
1063.61943578784
 20
534.1275569305557
 30
0.0
 11
1063.61943578784
 21
520.6275569305558
 31
0.0
  0
LINE
  5
2845
330
1B
100
AcDbEntity
  8
実線
100
AcDbLine
 10
1063.11943578784
 20
521.5275569305559
 30
0.0
 11
1063.11943578784
 21
528.8975569305558
 31
0.0
  0
LINE
  5
2846
330
1B
100
AcDbEntity
  8
実線
100
AcDbLine
 10
1050.51943578784
 20
528.8975569305558
 30
0.0
 11
1050.51943578784
 21
521.5275569305559
 31
0.0
  0
LINE
  5
2847
330
1B
100
AcDbEntity
  8
実線
100
AcDbLine
 10
1050.01943578784
 20
520.6275569305558
 30
0.0
 11
1050.01943578784
 21
534.1275569305557
 31
0.0
  0
LINE
  5
2848
330
1B
100
AcDbEntity
  8
文字
  6
CENTER
 62
     0
100
AcDbLine
 10
1044.81943578784
 20
531.6275569305558
 30
0.0
 11
1044.81943578784
 21
492.9610770422558
 31
0.0
  0
LINE
  5
2849
330
1B
100
AcDbEntity
  8
実線
100
AcDbLine
 10
1037.31943578784
 20
534.1275569305557
 30
0.0
 11
1037.31943578784
 21
520.1275569305558
 31
0.0
  0
LINE
  5
284A
330
1B
100
AcDbEntity
  8
実線
100
AcDbLine
 10
1037.21943578784
 20
522.6275569305557
 30
0.0
 11
1037.21943578784
 21
534.6275569305557
 31
0.0
  0
LINE
  5
284B
330
1B
100
AcDbEntity
  8
実線
100
AcDbLine
 10
1032.41943578784
 20
522.6275569305557
 30
0.0
 11
1032.41943578784
 21
534.6275569305557
 31
0.0
  0
LINE
  5
284C
330
1B
100
AcDbEntity
  8
実線
100
AcDbLine
 10
1032.31943578784
 20
534.1275569305557
 30
0.0
 11
1032.31943578784
 21
520.1275569305558
 31
0.0
  0
LINE
  5
284D
330
1B
100
AcDbEntity
  8
実線
100
AcDbLine
 10
1019.65853541904
 20
513.2132130673558
 30
0.0
 11
1019.65853541904
 21
534.1275569305557
 31
0.0
  0
LWPOLYLINE
  5
284E
330
1B
100
AcDbEntity
  8
実線
100
AcDbPolyline
 90
        6
 70
     0
 43
0.0
 10
1018.18132378954
 20
515.0959812512557
 10
1017.90790318584
 20
517.9940201000558
 10
1017.68624718654
 20
521.0995460151558
 10
1017.522132364039
 20
524.3554883441559
 10
1017.41902769984
 20
527.6996738192558
 10
1017.37803692234
 20
531.0667902024558
  0
LWPOLYLINE
  5
284F
330
1B
100
AcDbEntity
  8
実線
100
AcDbPolyline
 90
        6
 70
     0
 43
0.0
 10
1018.67371679524
 20
515.3584374925558
 10
1018.40033483824
 20
518.2086459968558
 10
1018.17866367034
 20
521.2644263328558
 10
1018.01453846014
 20
524.4689862836557
 10
1017.91142889844
 20
527.7609650414558
 10
1017.87044311474
 20
531.0753255668557
  0
LWPOLYLINE
  5
2850
330
1B
100
AcDbEntity
  8
実線
100
AcDbPolyline
 90
        4
 70
     0
 43
0.0
 10
990.0575106844401
 20
527.5745224954558
 10
989.3580169678401
 20
523.8544890254559
 10
988.23083796344
 20
520.2719854153558
 10
986.7038125336401
 20
516.8920921076558
  0
LINE
  5
2851
330
1B
100
AcDbEntity
  8
実線
100
AcDbLine
 10
989.4791430490402
 20
524.3554883441559
 30
0.0
 11
990.0731872589402
 21
527.6996738192558
 31
0.0
  0
ARC
  5
2852
330
1B
100
AcDbEntity
  8
実線
100
AcDbCircle
 10
1034.81943578784
 20
520.1275569305558
 30
0.0
 40
2.5
100
AcDbArc
 50
180.0
 51
0.0
  0
CIRCLE
  5
2853
330
1B
100
AcDbEntity
  8
実線
100
AcDbCircle
 10
1034.81943578784
 20
520.1275569305558
 30
0.0
 40
1.8
  0
CIRCLE
  5
2854
330
1B
100
AcDbEntity
  8
実線
100
AcDbCircle
 10
1034.81943578784
 20
520.1275569305558
 30
0.0
 40
1.5
  0
CIRCLE
  5
2855
330
1B
100
AcDbEntity
  8
実線
100
AcDbCircle
 10
1034.81943578784
 20
520.1275569305558
 30
0.0
 40
2.0
  0
CIRCLE
  5
2856
330
1B
100
AcDbEntity
  8
実線
100
AcDbCircle
 10
1034.81943578784
 20
520.1275569305558
 30
0.0
 40
1.3
  0
LINE
  5
2857
330
1B
100
AcDbEntity
  8
実線
100
AcDbLine
 10
1032.31943578784
 20
522.6275569305557
 30
0.0
 11
1037.31943578784
 21
522.6275569305557
 31
0.0
  0
LINE
  5
2858
330
1B
100
AcDbEntity
  8
実線
100
AcDbLine
 10
1069.98040647834
 20
513.5068774293558
 30
0.0
 11
1019.65853541904
 21
513.5068774293558
 31
0.0
  0
LINE
  5
2859
330
1B
100
AcDbEntity
  8
実線
100
AcDbLine
 10
1069.98033615664
 20
513.2132130673558
 30
0.0
 11
1019.65853541904
 21
513.2132130673558
 31
0.0
  0
LINE
  5
285A
330
1B
100
AcDbEntity
  8
実線
100
AcDbLine
 10
1076.90829395704
 20
501.6275569305558
 30
0.0
 11
1012.73057761864
 21
501.6275569305558
 31
0.0
  0
CIRCLE
  5
285B
330
1B
100
AcDbEntity
  8
実線
100
AcDbCircle
 10
908.01421994584
 20
433.7822514341558
 30
0.0
 40
0.5
  0
CIRCLE
  5
285C
330
1B
100
AcDbEntity
  8
実線
100
AcDbCircle
 10
911.0142199458401
 20
433.7822514341558
 30
0.0
 40
0.5
  0
LINE
  5
285D
330
1B
100
AcDbEntity
  8
実線
100
AcDbLine
 10
984.51421994584
 20
430.1212807437558
 30
0.0
 11
984.51421994584
 21
480.4431518030559
 31
0.0
  0
LINE
  5
285E
330
1B
100
AcDbEntity
  8
実線
100
AcDbLine
 10
984.41889418824
 20
430.1213510653558
 30
0.0
 11
984.41889418824
 21
480.4431518030559
 31
0.0
  0
LINE
  5
285F
330
1B
100
AcDbEntity
  8
実線
100
AcDbLine
 10
911.51421994584
 20
430.7822514341558
 30
0.0
 11
911.51421994584
 21
433.7822514341558
 31
0.0
  0
LINE
  5
2860
330
1B
100
AcDbEntity
  8
実線
100
AcDbLine
 10
910.51421994584
 20
430.7822514341558
 30
0.0
 11
910.51421994584
 21
433.7822514341558
 31
0.0
  0
LINE
  5
2861
330
1B
100
AcDbEntity
  8
実線
100
AcDbLine
 10
908.5142199458401
 20
430.7822514341558
 30
0.0
 11
908.5142199458401
 21
433.7822514341558
 31
0.0
  0
LINE
  5
2862
330
1B
100
AcDbEntity
  8
実線
100
AcDbLine
 10
907.5142199458401
 20
430.7822514341558
 30
0.0
 11
907.5142199458401
 21
433.7822514341558
 31
0.0
  0
ARC
  5
2863
330
1B
100
AcDbEntity
  8
実線
100
AcDbCircle
 10
962.51421994584
 20
617.2822514341557
 30
0.0
 40
196.9311529674
100
AcDbArc
 50
270.0
 51
277.7883093883998
  0
ARC
  5
2864
330
1B
100
AcDbEntity
  8
実線
100
AcDbCircle
 10
962.51421994584
 20
617.2822514341557
 30
0.0
 40
196.9476348052
100
AcDbArc
 50
270.0
 51
277.5936213146016
  0
ARC
  5
2865
330
1B
100
AcDbEntity
  8
実線
100
AcDbCircle
 10
962.51421994584
 20
617.2822514341557
 30
0.0
 40
196.9800876184
100
AcDbArc
 50
270.0
 51
277.5933327160018
  0
CIRCLE
  5
2866
330
1B
100
AcDbEntity
  8
実線
100
AcDbCircle
 10
908.01421994584
 20
430.7822514341558
 30
0.0
 40
0.5
  0
CIRCLE
  5
2867
330
1B
100
AcDbEntity
  8
実線
100
AcDbCircle
 10
911.0142199458401
 20
430.7822514341558
 30
0.0
 40
0.5
  0
LINE
  5
2868
330
1B
100
AcDbEntity
  8
実線
100
AcDbLine
 10
962.51421994584
 20
420.3510984667558
 30
0.0
 11
962.51421994584
 21
420.3346166289558
 31
0.0
  0
LINE
  5
2869
330
1B
100
AcDbEntity
  8
実線
100
AcDbLine
 10
989.9584623296401
 20
428.3802464966558
 30
0.0
 11
985.34057176814
 21
429.1945051966558
 31
0.0
  0
LINE
  5
286A
330
1B
100
AcDbEntity
  8
実線
100
AcDbLine
 10
989.9495017363401
 20
428.3238646067558
 30
0.0
 11
985.3405056400402
 21
429.1365549725559
 31
0.0
  0
ARC
  5
286B
330
1B
100
AcDbEntity
  8
実線
100
AcDbCircle
 10
985.51421994584
 20
430.1213510653558
 30
0.0
 40
1.0
100
AcDbArc
 50
180.0040291316014
 51
259.9961526817984
  0
ARC
  5
286C
330
1B
100
AcDbEntity
  8
実線
100
AcDbCircle
 10
985.51421994584
 20
430.1793129496558
 30
0.0
 40
1.0
100
AcDbArc
 50
183.3593005813005
 51
260.0000000000013
  0
LINE
  5
286D
330
1B
100
AcDbEntity
  8
実線
100
AcDbLine
 10
984.41889418824
 20
430.1213510653558
 30
0.0
 11
984.51421994584
 21
430.1213510653558
 31
0.0
  0
ARC
  5
286E
330
1B
100
AcDbEntity
  8
実線
100
AcDbCircle
 10
962.51421994584
 20
617.2822514341557
 30
0.0
 40
197.0
100
AcDbArc
 50
277.5932773945999
 51
277.8603407180019
  0
LINE
  5
286F
330
1B
100
AcDbEntity
  8
実線
100
AcDbLine
 10
988.5400696461401
 20
422.0617965562558
 30
0.0
 11
988.54581736924
 21
422.0097343315559
 31
0.0
  0
LINE
  5
2870
330
1B
100
AcDbEntity
  8
実線
100
AcDbLine
 10
990.3738681815401
 20
427.8870641053559
 30
0.0
 11
990.3544328751403
 21
428.0248597332558
 31
0.0
  0
LWPOLYLINE
  5
2871
330
1B
100
AcDbEntity
  8
実線
100
AcDbPolyline
 90
        5
 70
     0
 43
0.0
 10
990.3093245984402
 20
427.8408548845558
 10
990.2791834758401
 20
428.0118674716558
 10
990.1923774078401
 20
428.1622525190559
 10
990.0593770180401
 20
428.2738706824559
 10
989.8962248397401
 20
428.3332587610558
  0
LWPOLYLINE
  5
2872
330
1B
100
AcDbEntity
  8
実線
100
AcDbPolyline
 90
        5
 70
     0
 43
0.0
 10
990.3627538115401
 20
427.8314338727558
 10
990.3325990795401
 20
428.0024366188558
 10
990.2457657072401
 20
428.1528265535558
 10
990.1127179125401
 20
428.2644607934558
 10
989.9495017363401
 20
428.3238646067558
  0
LINE
  5
2873
330
1B
100
AcDbEntity
  8
実線
100
AcDbLine
 10
990.2249433849402
 20
422.6336348155558
 30
0.0
 11
990.3333571425401
 21
422.8698033924558
 31
0.0
  0
LWPOLYLINE
  5
2874
330
1B
100
AcDbEntity
  8
実線
100
AcDbPolyline
 90
        6
 70
     0
 43
0.0
 10
990.3093245984402
 20
423.1322174061558
 10
990.2684446177401
 20
422.8494838634558
 10
990.1492914892401
 20
422.5898276821558
 10
989.9615907649401
 20
422.3744425960559
 10
989.72066300924
 20
422.2209088306558
 10
989.44617329904
 20
422.1417581647558
  0
LWPOLYLINE
  5
2875
330
1B
100
AcDbEntity
  8
実線
100
AcDbPolyline
 90
        6
 70
     0
 43
0.0
 10
989.4560079701401
 20
422.1332313032558
 10
989.7302639915402
 20
422.2123251488558
 10
989.9711792720401
 20
422.3658403735558
 10
990.1589147424401
 20
422.5812552120558
 10
990.2780943287401
 20
422.8409900810558
 10
990.3189638443402
 20
423.1238173152558
  0
LWPOLYLINE
  5
2876
330
1B
100
AcDbEntity
  8
実線
100
AcDbPolyline
 90
        8
 70
     0
 43
0.0
 10
989.4995830219402
 20
422.1392521243558
 10
989.6980095537401
 20
422.1877459813558
 10
989.8827440550402
 20
422.2757174558558
 10
990.0457045241401
 20
422.3994330622558
 10
990.1800763510401
 20
422.5537175366558
 10
990.2802489913401
 20
422.7321453069558
 10
990.3419522159401
 20
422.9269765613558
 10
990.3627538115401
 20
423.1298678513558
  0
LINE
  5
2877
330
1B
100
AcDbEntity
  8
実線
100
AcDbLine
 10
989.44617329904
 20
422.1417581647558
 30
0.0
 11
989.4560079701401
 21
422.1332313032558
 31
0.0
  0
LWPOLYLINE
  5
2878
330
1B
100
AcDbEntity
  8
実線
100
AcDbPolyline
 90
        4
 70
     0
 43
0.0
 10
989.2010342010401
 20
422.1676828964558
 10
989.3240326629401
 20
422.1647217070558
 10
989.4057292695402
 20
422.1560892833558
 10
989.44617329904
 20
422.1417581647558
  0
LINE
  5
2879
330
1B
100
AcDbEntity
  8
実線
100
AcDbLine
 10
989.45572271854
 20
422.1331919223558
 30
0.0
 11
989.4995830219402
 21
422.1392521243558
 31
0.0
  0
LINE
  5
287A
330
1B
100
AcDbEntity
  8
実線
100
AcDbLine
 10
990.3333571425401
 20
422.8698033924558
 30
0.0
 11
990.3738681834402
 21
423.1509425917558
 31
0.0
  0
LINE
  5
287B
330
1B
100
AcDbEntity
  8
実線
100
AcDbLine
 10
990.3738681815401
 20
427.8870641053559
 30
0.0
 11
990.3738681834402
 21
423.1509425917558
 31
0.0
  0
LINE
  5
287C
330
1B
100
AcDbEntity
  8
実線
100
AcDbLine
 10
990.3627538115401
 20
423.1298678513558
 30
0.0
 11
990.3627538115401
 21
427.8314338727558
 31
0.0
  0
LINE
  5
287D
330
1B
100
AcDbEntity
  8
実線
100
AcDbLine
 10
990.3093248044401
 20
423.1322172266557
 30
0.0
 11
990.3093279769402
 21
427.8408542888558
 31
0.0
  0
LINE
  5
287E
330
1B
100
AcDbEntity
  8
実線
100
AcDbLine
 10
990.3093248044401
 20
423.1322172266557
 30
0.0
 11
990.3189638443402
 21
423.1238173152558
 31
0.0
  0
LINE
  5
287F
330
1B
100
AcDbEntity
  8
実線
100
AcDbLine
 10
990.3627538115401
 20
427.8314338727558
 30
0.0
 11
990.3093279769402
 21
427.8408542888558
 31
0.0
  0
LINE
  5
2880
330
1B
100
AcDbEntity
  8
実線
100
AcDbLine
 10
990.3189638443402
 20
423.1238173152558
 30
0.0
 11
990.3627538115401
 21
423.1298678513558
 31
0.0
  0
LWPOLYLINE
  5
2881
330
1B
100
AcDbEntity
  8
実線
100
AcDbPolyline
 90
        4
 70
     0
 43
0.0
 10
990.3544328751403
 20
428.0248597332558
 10
990.2977220796401
 20
428.1519108566558
 10
990.2080845572401
 20
428.2585965088558
 10
990.0919456604402
 20
428.3368887967558
  0
LINE
  5
2882
330
1B
100
AcDbEntity
  8
実線
100
AcDbLine
 10
990.0919456604402
 20
428.3368887967558
 30
0.0
 11
989.9584623296401
 21
428.3802464966558
 31
0.0
  0
ARC
  5
2883
330
1B
100
AcDbEntity
  8
実線
100
AcDbCircle
 10
962.51421994584
 20
293.2822514341558
 30
0.0
 40
196.9311529674
100
AcDbArc
 50
82.21169220999961
 51
90.0
  0
ARC
  5
2884
330
1B
100
AcDbEntity
  8
実線
100
AcDbCircle
 10
962.51421994584
 20
293.2822514341558
 30
0.0
 40
196.9476348052
100
AcDbArc
 50
82.40637868539842
 51
90.0
  0
ARC
  5
2885
330
1B
100
AcDbEntity
  8
実線
100
AcDbCircle
 10
962.51421994584
 20
293.2822514341558
 30
0.0
 40
196.9800876184
100
AcDbArc
 50
82.40666730379754
 51
90.0
  0
LWPOLYLINE
  5
2886
330
1B
100
AcDbEntity
  8
実線
100
AcDbPolyline
 90
        4
 70
     0
 43
0.0
 10
968.2574968082402
 20
502.3111593692558
 10
971.3944305819401
 20
503.2488588139558
 10
974.4752931108401
 20
504.6048560256558
 10
977.3810214073401
 20
506.3411277551558
  0
LINE
  5
2887
330
1B
100
AcDbEntity
  8
文字
 62
     0
100
AcDbLine
 10
912.8172474331401
 20
456.7991712192558
 30
0.0
 11
928.6270340105401
 21
493.4607264502558
 31
0.0
  0
CIRCLE
  5
2888
330
1B
100
AcDbEntity
  8
実線
100
AcDbCircle
 10
911.51421994584
 20
455.2822514341558
 30
0.0
 40
2.299999999999999
  0
CIRCLE
  5
2889
330
1B
100
AcDbEntity
  8
実線
100
AcDbCircle
 10
911.51421994584
 20
455.2822514341558
 30
0.0
 40
2.0
  0
LINE
  5
288A
330
1B
100
AcDbEntity
  8
文字
 62
     0
100
AcDbLine
 10
911.51421994584
 20
455.2822514341558
 30
0.0
 11
911.51421994584
 21
459.7822514341558
 31
0.0
  0
LWPOLYLINE
  5
288B
330
1B
100
AcDbEntity
  8
寸法
100
AcDbPolyline
 90
        3
 70
     0
 43
0.0
 10
913.0353079129402
 20
458.8831756883558
 10
912.8172474331401
 20
456.7991712192558
 10
914.1831288775401
 20
458.3881938370558
  0
LINE
  5
288C
330
1B
100
AcDbEntity
  8
文字
 62
     0
100
AcDbLine
 10
911.51421994584
 20
455.2822514341558
 30
0.0
 11
916.01421994584
 21
455.2822514341558
 31
0.0
  0
LINE
  5
288D
330
1B
100
AcDbEntity
  8
文字
 62
     0
100
AcDbLine
 10
911.51421994584
 20
455.2822514341558
 30
0.0
 11
911.51421994584
 21
450.7822514341558
 31
0.0
  0
LINE
  5
288E
330
1B
100
AcDbEntity
  8
文字
 62
     0
100
AcDbLine
 10
911.51421994584
 20
455.2822514341558
 30
0.0
 11
907.01421994584
 21
455.2822514341558
 31
0.0
  0
LINE
  5
288F
330
1B
100
AcDbEntity
  8
文字
 62
     0
100
AcDbLine
 10
936.4370452251401
 20
493.2857245784559
 30
0.0
 11
937.2070366801402
 21
492.7607245785558
 31
0.0
  0
LWPOLYLINE
  5
2890
330
1B
100
AcDbEntity
  8
文字
 62
     0
100
AcDbPolyline
 90
        6
 70
     0
 43
0.0
 10
935.3870452251401
 20
494.1607288509558
 10
936.9270281352401
 20
494.1607288509558
 10
936.5770366801401
 20
493.7232203060558
 10
936.1570366801402
 20
493.3732288509558
 10
935.8070452251402
 20
493.1982203060559
 10
935.17704522514
 20
492.9357203060558
  0
LINE
  5
2891
330
1B
100
AcDbEntity
  8
文字
 62
     0
100
AcDbLine
 10
928.6270340105401
 20
493.4607264502558
 30
0.0
 11
930.6270340105401
 21
493.4607264502558
 31
0.0
  0
LWPOLYLINE
  5
2892
330
1B
100
AcDbEntity
  8
文字
 62
     0
100
AcDbPolyline
 90
        5
 70
     0
 43
0.0
 10
931.0470281352403
 20
492.0607288509558
 10
931.0470281352403
 20
494.8607245785558
 10
931.7470366801401
 20
492.5273969417558
 10
932.44704522514
 20
494.8607245785558
 10
932.44704522514
 20
492.0607288509558
  0
LINE
  5
2893
330
1B
100
AcDbEntity
  8
文字
 62
     0
100
AcDbLine
 10
936.1570366801402
 20
493.3732288509558
 30
0.0
 11
936.1570366801402
 21
492.1482203060558
 31
0.0
  0
LINE
  5
2894
330
1B
100
AcDbEntity
  8
文字
 62
     0
100
AcDbLine
 10
936.1570366801402
 20
494.6857288509558
 30
0.0
 11
936.1570366801402
 21
494.1607288509558
 31
0.0
  0
LWPOLYLINE
  5
2895
330
1B
100
AcDbEntity
  8
文字
 62
     0
100
AcDbPolyline
 90
        4
 70
     0
 43
0.0
 10
934.4070281352401
 20
492.0607288509558
 10
934.4070281352401
 20
494.8607245785558
 10
933.4270366801401
 20
492.7607245785558
 10
934.6870366801402
 20
492.7607245785558
  0
LWPOLYLINE
  5
2896
330
1B
100
AcDbEntity
  8
文字
 62
     0
100
AcDbPolyline
 90
        4
 70
     0
 43
0.0
 10
945.1170281352402
 20
494.5982245784558
 10
945.1170281352402
 20
494.0732245785558
 10
945.0470452251401
 20
493.8107245784558
 10
944.62704522514
 20
493.5482245785558
  0
LWPOLYLINE
  5
2897
330
1B
100
AcDbEntity
  8
文字
 62
     0
100
AcDbPolyline
 90
        5
 70
     0
 43
0.0
 10
944.6970281352403
 20
493.9857203060558
 10
944.6970281352403
 20
494.5982245784558
 10
946.0270366801401
 20
494.5982245784558
 10
946.0970452251402
 20
494.5107203060558
 10
945.9570281352402
 20
493.9857203060558
  0
LINE
  5
2898
330
1B
100
AcDbEntity
  8
文字
 62
     0
100
AcDbLine
 10
944.6970281352403
 20
493.2857245784559
 30
0.0
 11
946.0970452251402
 21
493.2857245784559
 31
0.0
  0
LWPOLYLINE
  5
2899
330
1B
100
AcDbEntity
  8
文字
 62
     0
100
AcDbPolyline
 90
        3
 70
     0
 43
0.0
 10
944.62704522514
 20
492.3232288509558
 10
945.3970366801401
 20
493.2857245784559
 10
946.16702813524
 20
492.3232288509558
  0
LINE
  5
289A
330
1B
100
AcDbEntity
  8
文字
 62
     0
100
AcDbLine
 10
939.0970366801401
 20
494.6857288509558
 30
0.0
 11
939.37704522514
 21
494.4232288509558
 31
0.0
  0
LINE
  5
289B
330
1B
100
AcDbEntity
  8
文字
 62
     0
100
AcDbLine
 10
939.0270281352401
 20
494.5107203060558
 30
0.0
 11
939.3070366801401
 21
494.2482203060558
 31
0.0
  0
LWPOLYLINE
  5
289C
330
1B
100
AcDbEntity
  8
文字
 62
     0
100
AcDbPolyline
 90
        3
 70
     0
 43
0.0
 10
939.7270366801402
 20
492.6732203060558
 10
940.0070452251402
 20
492.4107203060558
 10
940.0770281352402
 20
492.2357245785558
  0
LWPOLYLINE
  5
289D
330
1B
100
AcDbEntity
  8
文字
 62
     0
100
AcDbPolyline
 90
        3
 70
     0
 43
0.0
 10
937.69704522514
 20
494.5107203060558
 10
938.1170452251401
 20
494.3357245785558
 10
938.4670366801401
 20
494.1607288509558
  0
LWPOLYLINE
  5
289E
330
1B
100
AcDbEntity
  8
文字
 62
     0
100
AcDbPolyline
 90
        3
 70
     0
 43
0.0
 10
937.5570281352402
 20
493.7232203060558
 10
937.9770281352401
 20
493.5482245785558
 10
938.3970281352402
 20
493.2857245784559
  0
LWPOLYLINE
  5
289F
330
1B
100
AcDbEntity
  8
文字
 62
     0
100
AcDbPolyline
 90
        6
 70
     0
 43
0.0
 10
937.5570281352402
 20
492.2357245785558
 10
938.1170452251401
 20
492.2357245785558
 10
938.6770366801401
 20
492.4982245784558
 10
939.0270281352401
 20
492.9357203060558
 10
939.2370281352402
 20
493.3732288509558
 10
939.4470281352402
 20
493.9857203060558
  0
LINE
  5
28A0
330
1B
100
AcDbEntity
  8
文字
 62
     0
100
AcDbLine
 10
944.2070452251401
 20
494.6857288509558
 30
0.0
 11
944.5570366801401
 21
494.2482203060558
 31
0.0
  0
LINE
  5
28A1
330
1B
100
AcDbEntity
  8
文字
 62
     0
100
AcDbLine
 10
944.13703668014
 20
493.8982288509558
 30
0.0
 11
944.4870281352402
 21
493.4607203060558
 31
0.0
  0
LWPOLYLINE
  5
28A2
330
1B
100
AcDbEntity
  8
文字
 62
     0
100
AcDbPolyline
 90
        6
 70
     0
 43
0.0
 10
942.4570366801402
 20
493.8107245784558
 10
943.2270281352401
 20
493.8107245784558
 10
943.29703668014
 20
493.7232203060558
 10
943.43702813524
 20
493.1982203060559
 10
943.64702813524
 20
492.5857288509559
 10
943.9270366801402
 20
492.1482203060558
  0
LINE
  5
28A3
330
1B
100
AcDbEntity
  8
文字
 62
     0
100
AcDbLine
 10
942.9470452251401
 20
494.3357245785558
 30
0.0
 11
942.9470452251401
 21
494.6857288509558
 31
0.0
  0
LWPOLYLINE
  5
28A4
330
1B
100
AcDbEntity
  8
文字
 62
     0
100
AcDbPolyline
 90
        5
 70
     0
 43
0.0
 10
942.0370366801401
 20
493.6357288509558
 10
942.0370366801401
 20
494.3357245785558
 10
943.78704522514
 20
494.3357245785558
 10
943.8570281352401
 20
494.2482203060558
 10
943.78704522514
 20
493.6357288509558
  0
LWPOLYLINE
  5
28A5
330
1B
100
AcDbEntity
  8
文字
 62
     0
100
AcDbPolyline
 90
        3
 70
     0
 43
0.0
 10
944.13703668014
 20
492.1482203060558
 10
944.3470366801401
 20
492.7607245785558
 10
944.4870281352402
 20
493.1982203060559
  0
LWPOLYLINE
  5
28A6
330
1B
100
AcDbEntity
  8
文字
 62
     0
100
AcDbPolyline
 90
        3
 70
     0
 43
0.0
 10
942.4570366801402
 20
493.4607203060558
 10
942.2470366801402
 20
492.7607245785558
 10
941.89704522514
 20
492.1482203060558
  0
LWPOLYLINE
  5
28A7
330
1B
100
AcDbEntity
  8
文字
 62
     0
100
AcDbPolyline
 90
       17
 70
     0
 43
0.0
 10
949.1070281352401
 20
492.9940650326558
 10
949.2470452251401
 20
493.4607203060558
 10
949.66704522514
 20
493.6940607601559
 10
950.0870452251401
 20
493.4607203060558
 10
950.2270366801401
 20
492.9940650326558
 10
950.0870452251401
 20
492.5273969417558
 10
949.9470281352401
 20
492.2940564876559
 10
949.66704522514
 20
492.0607288509558
 10
949.3870366801401
 20
492.2940564876559
 10
949.2470452251401
 20
492.5273969417558
 10
949.1070281352401
 20
492.9940650326558
 10
949.1070281352401
 20
493.9273883968558
 10
949.2470452251401
 20
494.3940564876558
 10
949.3870366801401
 20
494.6273969417559
 10
949.66704522514
 20
494.8607245785558
 10
949.9470281352401
 20
494.6273969417559
 10
950.0870452251401
 20
494.3940564876558
  0
LWPOLYLINE
  5
28A8
330
1B
100
AcDbEntity
  8
文字
 62
     0
100
AcDbPolyline
 90
       16
 70
     0
 43
0.0
 10
947.2170281352402
 20
494.6857288509558
 10
947.49703668014
 20
493.9857203060558
 10
948.3370366801402
 20
493.0232245785559
 10
947.8470281352402
 20
493.2857245784559
 10
947.49703668014
 20
493.3732288509558
 10
947.14704522514
 20
493.3732288509558
 10
946.7970281352402
 20
493.2857245784559
 10
946.6570366801402
 20
493.1982203060559
 10
946.5870281352401
 20
493.1107288509558
 10
946.5870281352401
 20
492.8482288509559
 10
946.6570366801402
 20
492.6732203060558
 10
946.7970281352402
 20
492.4982245784558
 10
947.0070281352402
 20
492.3232288509558
 10
947.3570452251401
 20
492.1482203060558
 10
947.9170366801401
 20
492.1482203060558
 10
948.3370366801402
 20
492.3232288509558
  0
LWPOLYLINE
  5
28A9
330
1B
100
AcDbEntity
  8
文字
 62
     0
100
AcDbPolyline
 90
        6
 70
     0
 43
0.0
 10
945.6070366801402
 20
494.5982245784558
 10
945.6070366801402
 20
493.8107245784558
 10
945.6770452251401
 20
493.7232203060558
 10
946.0970452251402
 20
493.7232203060558
 10
946.16702813524
 20
493.8107245784558
 10
946.16702813524
 20
494.0732245785558
  0
LINE
  5
28AA
330
1B
100
AcDbEntity
  8
文字
 62
     0
100
AcDbLine
 10
945.3970366801401
 20
493.7232203060558
 30
0.0
 11
945.3970366801401
 21
492.1482203060558
 31
0.0
  0
LWPOLYLINE
  5
28AB
330
1B
100
AcDbEntity
  8
文字
 62
     0
100
AcDbPolyline
 90
        3
 70
     0
 43
0.0
 10
946.4470366801402
 20
493.8982288509558
 10
947.49703668014
 20
493.9857203060558
 10
948.1970452251401
 20
494.1607288509558
  0
LINE
  5
28AC
330
1B
100
AcDbEntity
  8
実線
100
AcDbLine
 10
962.51421994584
 20
490.2134044016558
 30
0.0
 11
962.51421994584
 21
490.2298862394558
 31
0.0
  0
LWPOLYLINE
  5
28AD
330
1B
100
AcDbEntity
  8
実線
100
AcDbPolyline
 90
        3
 70
     0
 43
0.0
 10
968.2579045853401
 20
502.3112542722558
 10
965.24119608424
 20
501.7919202463558
 10
962.5221774717401
 20
501.6283843590558
  0
LINE
  5
28AE
330
1B
100
AcDbEntity
  8
実線
100
AcDbLine
 10
962.5221774717401
 20
501.6283843590558
 30
0.0
 11
962.41820000004
 21
501.6277637906559
 31
0.0
  0
LINE
  5
28AF
330
1B
100
AcDbEntity
  8
実線
100
AcDbLine
 10
984.7142199458401
 20
437.3655848072558
 30
0.0
 11
984.7142199458401
 21
435.6989181803558
 31
0.0
  0
LINE
  5
28B0
330
1B
100
AcDbEntity
  8
実線
100
AcDbLine
 10
984.7142199458401
 20
439.2822514341558
 30
0.0
 11
984.7142199458401
 21
437.6989180611558
 31
0.0
  0
LINE
  5
28B1
330
1B
100
AcDbEntity
  8
実線
100
AcDbLine
 10
984.51421994584
 20
439.2822514341558
 30
0.0
 11
984.7142199458401
 21
439.2822514341558
 31
0.0
  0
LINE
  5
28B2
330
1B
100
AcDbEntity
  8
実線
100
AcDbLine
 10
984.51421994584
 20
439.0322514341558
 30
0.0
 11
984.7142199458401
 21
439.0322514341558
 31
0.0
  0
LINE
  5
28B3
330
1B
100
AcDbEntity
  8
実線
100
AcDbLine
 10
984.51421994584
 20
438.3239181207558
 30
0.0
 11
984.7142199458401
 21
438.3239181207558
 31
0.0
  0
LINE
  5
28B4
330
1B
100
AcDbEntity
  8
実線
100
AcDbLine
 10
984.51421994584
 20
437.9905848072558
 30
0.0
 11
984.7142199458401
 21
437.9905848072558
 31
0.0
  0
LINE
  5
28B5
330
1B
100
AcDbEntity
  8
実線
100
AcDbLine
 10
984.51421994584
 20
437.6989180611558
 30
0.0
 11
984.7142199458401
 21
437.6989180611558
 31
0.0
  0
LINE
  5
28B6
330
1B
100
AcDbEntity
  8
実線
100
AcDbLine
 10
984.51421994584
 20
437.3655848072558
 30
0.0
 11
984.7142199458401
 21
437.3655848072558
 31
0.0
  0
LINE
  5
28B7
330
1B
100
AcDbEntity
  8
実線
100
AcDbLine
 10
984.51421994584
 20
437.1155846880558
 30
0.0
 11
984.7142199458401
 21
437.1155846880558
 31
0.0
  0
LINE
  5
28B8
330
1B
100
AcDbEntity
  8
実線
100
AcDbLine
 10
984.51421994584
 20
436.5322514341558
 30
0.0
 11
984.7142199458401
 21
436.5322514341558
 31
0.0
  0
LINE
  5
28B9
330
1B
100
AcDbEntity
  8
実線
100
AcDbLine
 10
984.51421994584
 20
435.9489181803558
 30
0.0
 11
984.7142199458401
 21
435.9489181803558
 31
0.0
  0
LINE
  5
28BA
330
1B
100
AcDbEntity
  8
実線
100
AcDbLine
 10
984.51421994584
 20
435.6989181803558
 30
0.0
 11
984.7142199458401
 21
435.6989181803558
 31
0.0
  0
LINE
  5
28BB
330
1B
100
AcDbEntity
  8
実線
100
AcDbLine
 10
984.7142199458401
 20
449.0655848072558
 30
0.0
 11
984.7142199458401
 21
447.3989181803558
 31
0.0
  0
LINE
  5
28BC
330
1B
100
AcDbEntity
  8
実線
100
AcDbLine
 10
984.7142199458401
 20
450.9822514341558
 30
0.0
 11
984.7142199458401
 21
449.3989180611558
 31
0.0
  0
LINE
  5
28BD
330
1B
100
AcDbEntity
  8
実線
100
AcDbLine
 10
984.51421994584
 20
450.9822514341558
 30
0.0
 11
984.7142199458401
 21
450.9822514341558
 31
0.0
  0
LINE
  5
28BE
330
1B
100
AcDbEntity
  8
実線
100
AcDbLine
 10
984.51421994584
 20
450.3155847476558
 30
0.0
 11
984.7142199458401
 21
450.3155847476558
 31
0.0
  0
LINE
  5
28BF
330
1B
100
AcDbEntity
  8
実線
100
AcDbLine
 10
984.51421994584
 20
450.0655847476558
 30
0.0
 11
984.7142199458401
 21
450.0655847476558
 31
0.0
  0
LINE
  5
28C0
330
1B
100
AcDbEntity
  8
実線
100
AcDbLine
 10
984.51421994584
 20
449.3989180611558
 30
0.0
 11
984.7142199458401
 21
449.3989180611558
 31
0.0
  0
LINE
  5
28C1
330
1B
100
AcDbEntity
  8
実線
100
AcDbLine
 10
984.51421994584
 20
449.0655848072558
 30
0.0
 11
984.7142199458401
 21
449.0655848072558
 31
0.0
  0
LINE
  5
28C2
330
1B
100
AcDbEntity
  8
実線
100
AcDbLine
 10
984.51421994584
 20
448.8155846880558
 30
0.0
 11
984.7142199458401
 21
448.8155846880558
 31
0.0
  0
LINE
  5
28C3
330
1B
100
AcDbEntity
  8
実線
100
AcDbLine
 10
984.51421994584
 20
448.2322514341558
 30
0.0
 11
984.7142199458401
 21
448.2322514341558
 31
0.0
  0
LINE
  5
28C4
330
1B
100
AcDbEntity
  8
実線
100
AcDbLine
 10
984.51421994584
 20
447.6489181803558
 30
0.0
 11
984.7142199458401
 21
447.6489181803558
 31
0.0
  0
LINE
  5
28C5
330
1B
100
AcDbEntity
  8
実線
100
AcDbLine
 10
984.51421994584
 20
447.3989181803558
 30
0.0
 11
984.7142199458401
 21
447.3989181803558
 31
0.0
  0
LINE
  5
28C6
330
1B
100
AcDbEntity
  8
実線
100
AcDbLine
 10
985.3406334192401
 20
481.4279704267558
 30
0.0
 11
989.9495017363401
 21
482.2406382616558
 31
0.0
  0
LINE
  5
28C7
330
1B
100
AcDbEntity
  8
実線
100
AcDbLine
 10
985.34057176814
 20
481.3699976717559
 30
0.0
 11
989.9584623296401
 21
482.1842563717559
 31
0.0
  0
ARC
  5
28C8
330
1B
100
AcDbEntity
  8
実線
100
AcDbCircle
 10
985.51421994584
 20
480.4431518030559
 30
0.0
 40
1.0
100
AcDbArc
 50
99.99641316690055
 51
180.0
  0
ARC
  5
28C9
330
1B
100
AcDbEntity
  8
実線
100
AcDbCircle
 10
985.51421994584
 20
480.3851899187558
 30
0.0
 40
1.0
100
AcDbArc
 50
99.99999999999861
 51
176.6406994186994
  0
LINE
  5
28CA
330
1B
100
AcDbEntity
  8
実線
100
AcDbLine
 10
984.41889418824
 20
480.4431518030559
 30
0.0
 11
984.51421994584
 21
480.4431517976558
 31
0.0
  0
LINE
  5
28CB
330
1B
100
AcDbEntity
  8
実線
100
AcDbLine
 10
990.3738681802401
 20
487.4135602983558
 30
0.0
 11
990.3738681816401
 21
482.6774387636558
 31
0.0
  0
LINE
  5
28CC
330
1B
100
AcDbEntity
  8
実線
100
AcDbLine
 10
990.3627538115401
 20
487.4346350170558
 30
0.0
 11
990.3627538115401
 21
482.7330689956558
 31
0.0
  0
LINE
  5
28CD
330
1B
100
AcDbEntity
  8
実線
100
AcDbLine
 10
990.3093279295401
 20
482.7236485711559
 30
0.0
 11
990.3093248184401
 21
487.4322856539558
 31
0.0
  0
LWPOLYLINE
  5
28CE
330
1B
100
AcDbEntity
  8
実線
100
AcDbPolyline
 90
        5
 70
     0
 43
0.0
 10
990.3627538115401
 20
482.7330689956558
 10
990.3325990795401
 20
482.5620662495558
 10
990.2457657072401
 20
482.4116763148558
 10
990.1127179125401
 20
482.3000420749558
 10
989.9495017363401
 20
482.2406382616558
  0
LWPOLYLINE
  5
28CF
330
1B
100
AcDbEntity
  8
実線
100
AcDbPolyline
 90
        5
 70
     0
 43
0.0
 10
990.3093245984402
 20
482.7236479837559
 10
990.2791835379401
 20
482.5526355673559
 10
990.19237758254
 20
482.4022505576558
 10
990.0593772103402
 20
482.2906322969558
 10
989.8962248397401
 20
482.2312441072559
  0
LWPOLYLINE
  5
28D0
330
1B
100
AcDbEntity
  8
実線
100
AcDbPolyline
 90
        4
 70
     0
 43
0.0
 10
990.0919456610402
 20
482.2276140528559
 10
990.2080845703402
 20
482.3059063317558
 10
990.2977221051401
 20
482.4125919821558
 10
990.3544329123402
 20
482.5396431135557
  0
LINE
  5
28D1
330
1B
100
AcDbEntity
  8
実線
100
AcDbLine
 10
989.9584623296401
 20
482.1842563717559
 30
0.0
 11
990.0919456610402
 21
482.2276140528559
 31
0.0
  0
LINE
  5
28D2
330
1B
100
AcDbEntity
  8
実線
100
AcDbLine
 10
990.3544329123402
 20
482.5396431135557
 30
0.0
 11
990.3738681816401
 21
482.6774387636558
 31
0.0
  0
LINE
  5
28D3
330
1B
100
AcDbEntity
  8
実線
100
AcDbLine
 10
990.3093279295401
 20
482.7236485711559
 30
0.0
 11
990.3627538115401
 21
482.7330689956558
 31
0.0
  0
LWPOLYLINE
  5
28D4
330
1B
100
AcDbEntity
  8
実線
100
AcDbPolyline
 90
        6
 70
     0
 43
0.0
 10
990.3093245225402
 20
487.4322854622558
 10
990.2684445528402
 20
487.7150189963558
 10
990.1492914398401
 20
487.9746751739558
 10
989.9615907337402
 20
488.1900602626558
 10
989.7206629963401
 20
488.3435940381558
 10
989.44617330154
 20
488.4227447217559
  0
LWPOLYLINE
  5
28D5
330
1B
100
AcDbEntity
  8
実線
100
AcDbPolyline
 90
        8
 70
     0
 43
0.0
 10
990.3627538115401
 20
487.4346350170558
 10
990.3419510811401
 20
487.6375317831558
 10
990.2802440183402
 20
487.8323690319558
 10
990.1800664885401
 20
488.0107993214558
 10
990.0456921225401
 20
488.1650814011558
 10
989.8827336532402
 20
488.2887917453558
 10
989.6980045417402
 20
488.3767586710558
 10
989.4995830219402
 20
488.4252507440558
  0
LWPOLYLINE
  5
28D6
330
1B
100
AcDbEntity
  8
実線
100
AcDbPolyline
 90
        6
 70
     0
 43
0.0
 10
989.45572271854
 20
488.4313109460558
 10
989.7303226489402
 20
488.3521747804558
 10
989.97126678394
 20
488.1986486165557
 10
990.1589864827402
 20
487.9832223372558
 10
990.2781300854401
 20
487.7234904811558
 10
990.3189638443402
 20
487.4406855531558
  0
ARC
  5
28D7
330
1B
100
AcDbEntity
  8
実線
100
AcDbCircle
 10
962.51421994584
 20
293.2822514341558
 30
0.0
 40
197.0
100
AcDbArc
 50
82.13965928199801
 51
82.4067226054001
  0
LINE
  5
28D8
330
1B
100
AcDbEntity
  8
実線
100
AcDbLine
 10
988.5400696461401
 20
488.5027063121558
 30
0.0
 11
988.54581736924
 21
488.5547685367559
 31
0.0
  0
LINE
  5
28D9
330
1B
100
AcDbEntity
  8
実線
100
AcDbLine
 10
989.4560079701401
 20
488.4312715651558
 30
0.0
 11
989.44617329904
 21
488.4227447036558
 31
0.0
  0
LWPOLYLINE
  5
28DA
330
1B
100
AcDbEntity
  8
実線
100
AcDbPolyline
 90
        4
 70
     0
 43
0.0
 10
989.44617329904
 20
488.4227447036558
 10
989.4057271946401
 20
488.4084132023558
 10
989.3240282237401
 20
488.3997809006558
 10
989.2010286373402
 20
488.3968198361558
  0
LWPOLYLINE
  5
28DB
330
1B
100
AcDbEntity
  8
実線
100
AcDbPolyline
 90
        3
 70
     0
 43
0.0
 10
990.3738681802401
 20
487.4135602983558
 10
990.3333558447402
 20
487.6946989661558
 10
990.3026852003401
 20
487.7615120189558
  0
LINE
  5
28DC
330
1B
100
AcDbEntity
  8
実線
100
AcDbLine
 10
990.3627538115401
 20
487.4346350170558
 30
0.0
 11
990.3189638443402
 21
487.4406855531558
 31
0.0
  0
LINE
  5
28DD
330
1B
100
AcDbEntity
  8
実線
100
AcDbLine
 10
990.3189638443402
 20
487.4406855531558
 30
0.0
 11
990.3093248184401
 21
487.4322856539558
 31
0.0
  0
LINE
  5
28DE
330
1B
100
AcDbEntity
  8
実線
100
AcDbLine
 10
985.6793956557401
 20
515.0959812512557
 30
0.0
 11
987.2558253476402
 21
517.9940201000558
 31
0.0
  0
LINE
  5
28DF
330
1B
100
AcDbEntity
  8
実線
100
AcDbLine
 10
984.81287200134
 20
513.7693573148558
 30
0.0
 11
986.7040951652402
 21
516.8926291374559
 31
0.0
  0
LWPOLYLINE
  5
28E0
330
1B
100
AcDbEntity
  8
実線
100
AcDbPolyline
 90
        5
 70
     0
 43
0.0
 10
984.7608742315401
 20
513.6943994266558
 10
984.9458660063401
 20
513.9633225950558
 10
985.16245119444
 20
514.2863496687558
 10
985.4077864778401
 20
514.6635168440558
 10
985.6793956557401
 20
515.0959812512557
  0
LINE
  5
28E1
330
1B
100
AcDbEntity
  8
実線
100
AcDbLine
 10
980.1066974807401
 20
508.4631883772558
 30
0.0
 11
977.3810499219401
 21
506.3411472593558
 31
0.0
  0
LINE
  5
28E2
330
1B
100
AcDbEntity
  8
実線
100
AcDbLine
 10
980.1066974807401
 20
508.4631883772558
 30
0.0
 11
982.5994454923401
 21
510.9484407868558
 31
0.0
  0
LINE
  5
28E3
330
1B
100
AcDbEntity
  8
実線
100
AcDbLine
 10
984.81287200134
 20
513.7693573148558
 30
0.0
 11
982.5992342937402
 21
510.9482029601558
 31
0.0
  0
LINE
  5
28E4
330
1B
100
AcDbEntity
  8
実線
100
AcDbLine
 10
984.41889418824
 20
513.2132130673558
 30
0.0
 11
984.5037579807401
 21
513.3307563844558
 31
0.0
  0
LINE
  5
28E5
330
1B
100
AcDbEntity
  8
実線
100
AcDbLine
 10
984.5024711145402
 20
513.3289649574558
 30
0.0
 11
984.61138861754
 21
513.4815841137558
 31
0.0
  0
LINE
  5
28E6
330
1B
100
AcDbEntity
  8
実線
100
AcDbLine
 10
984.61138861754
 20
513.4815841137558
 30
0.0
 11
984.7608742315401
 21
513.6943994266558
 31
0.0
  0
LINE
  5
28E7
330
1B
100
AcDbEntity
  8
実線
100
AcDbLine
 10
987.2557154414401
 20
517.9938180533558
 30
0.0
 11
986.93603763794
 21
517.4060953852558
 31
0.0
  0
LINE
  5
28E8
330
1B
100
AcDbEntity
  8
実線
100
AcDbLine
 10
987.2558253476402
 20
517.9940201000558
 30
0.0
 11
988.3539608948401
 21
520.6633059993558
 31
0.0
  0
LINE
  5
28E9
330
1B
100
AcDbEntity
  8
実線
100
AcDbLine
 10
989.3581215670401
 20
523.8550453030557
 30
0.0
 11
989.35829136154
 21
523.8555850207558
 31
0.0
  0
LINE
  5
28EA
330
1B
100
AcDbEntity
  8
実線
100
AcDbLine
 10
989.4790925093401
 20
524.3553143441558
 30
0.0
 11
989.40276825854
 21
524.0924844432559
 31
0.0
  0
LINE
  5
28EB
330
1B
100
AcDbEntity
  8
実線
100
AcDbLine
 10
989.0405622356402
 20
522.8455253032558
 30
0.0
 11
989.4791430490402
 21
524.3554883441559
 31
0.0
  0
LINE
  5
28EC
330
1B
100
AcDbEntity
  8
文字
 62
     0
100
AcDbLine
 10
1033.81631877194
 20
518.3973094764557
 30
0.0
 11
1019.59355479604
 21
493.8799772140558
 31
0.0
  0
LINE
  5
28ED
330
1B
100
AcDbEntity
  8
文字
 62
     0
100
AcDbLine
 10
1019.59355479604
 20
493.8799772140558
 30
0.0
 11
1017.59355479604
 21
493.8799772140558
 31
0.0
  0
LINE
  5
28EE
330
1B
100
AcDbEntity
  8
文字
 62
     0
100
AcDbLine
 10
1006.53354302784
 20
493.9674811702558
 30
0.0
 11
1008.49355157274
 21
493.9674811702558
 31
0.0
  0
LINE
  5
28EF
330
1B
100
AcDbEntity
  8
文字
 62
     0
100
AcDbLine
 10
1006.67356011764
 20
494.8424726253558
 30
0.0
 11
1008.35356011764
 21
494.8424726253558
 31
0.0
  0
LINE
  5
28F0
330
1B
100
AcDbEntity
  8
文字
 62
     0
100
AcDbLine
 10
1008.91355157274
 20
494.6674768978558
 30
0.0
 11
1010.52354302784
 21
494.6674768978558
 31
0.0
  0
LINE
  5
28F1
330
1B
100
AcDbEntity
  8
文字
 62
     0
100
AcDbLine
 10
1008.70355157274
 20
492.8299768978558
 30
0.0
 11
1010.73354302784
 21
492.8299768978558
 31
0.0
  0
LINE
  5
28F2
330
1B
100
AcDbEntity
  8
文字
 62
     0
100
AcDbLine
 10
1007.30356011764
 20
492.7424726253558
 30
0.0
 11
1008.42354302784
 21
492.7424726253558
 31
0.0
  0
LWPOLYLINE
  5
28F3
330
1B
100
AcDbEntity
  8
文字
 62
     0
100
AcDbPolyline
 90
        3
 70
     0
 43
0.0
 10
1007.23355157274
 20
494.8424726253558
 10
1007.23355157274
 20
492.8299768978558
 10
1007.30356011764
 20
492.7424726253558
  0
LWPOLYLINE
  5
28F4
330
1B
100
AcDbEntity
  8
文字
 62
     0
100
AcDbPolyline
 90
        4
 70
     0
 43
0.0
 10
1013.39356011764
 20
494.9299768978558
 10
1013.39356011764
 20
494.0549726253558
 10
1014.93354302784
 20
494.0549726253558
 10
1014.93354302784
 20
494.9299768978558
  0
LWPOLYLINE
  5
28F5
330
1B
100
AcDbEntity
  8
文字
 62
     0
100
AcDbPolyline
 90
        4
 70
     0
 43
0.0
 10
1013.25354302784
 20
493.4424811702558
 10
1013.25354302784
 20
492.5674768978558
 10
1015.07356011764
 20
492.5674768978558
 10
1015.07356011764
 20
493.4424811702558
  0
LWPOLYLINE
  5
28F6
330
1B
100
AcDbEntity
  8
文字
 62
     0
100
AcDbPolyline
 90
       10
 70
     0
 43
0.0
 10
1011.01355157274
 20
493.7924726253558
 10
1011.43355157274
 20
494.2299811702558
 10
1011.64355157274
 20
494.9299768978558
 10
1012.90355157274
 20
494.9299768978558
 10
1012.83354302784
 20
494.2299811702558
 10
1012.69355157274
 20
493.6174768978558
 10
1012.48355157274
 20
493.1799811702558
 10
1012.20354302784
 20
492.9174811702558
 10
1011.92356011764
 20
492.7424726253558
 10
1011.43355157274
 20
492.5674768978558
  0
LINE
  5
28F7
330
1B
100
AcDbEntity
  8
文字
 62
     0
100
AcDbLine
 10
1014.16355157274
 20
495.1049726253558
 30
0.0
 11
1014.16355157274
 21
492.5674768978558
 31
0.0
  0
LINE
  5
28F8
330
1B
100
AcDbEntity
  8
文字
 62
     0
100
AcDbLine
 10
1011.43355157274
 20
494.2299811702558
 30
0.0
 11
1012.55356011764
 21
493.3549768978558
 31
0.0
  0
LWPOLYLINE
  5
28F9
330
1B
100
AcDbEntity
  8
文字
 62
     0
100
AcDbPolyline
 90
        6
 70
     0
 43
0.0
 10
1015.56354302784
 20
492.5674768978558
 10
1015.91356011764
 20
493.0049726253558
 10
1016.12356011764
 20
493.4424811702558
 10
1016.26355157274
 20
493.8799768978558
 10
1016.40354302784
 20
494.6674768978558
 10
1016.40354302784
 20
495.1049726253558
  0
LWPOLYLINE
  5
28FA
330
1B
100
AcDbEntity
  8
文字
 62
     0
100
AcDbPolyline
 90
        8
 70
     0
 43
0.0
 10
1015.49356011764
 20
494.6674768978558
 10
1017.31355157274
 20
494.6674768978558
 10
1017.38356011764
 20
494.5799726253558
 10
1017.38356011764
 20
493.6174768978558
 10
1017.31355157274
 20
492.6549811702558
 10
1017.24354302784
 20
492.5674768978558
 10
1017.17356011764
 20
492.5674768978558
 10
1016.54356011764
 20
492.8299768978558
  0
ARC
  5
28FB
330
1B
100
AcDbEntity
  8
実線
100
AcDbCircle
 10
1012.73057761864
 20
502.6275569305558
 30
0.0
 40
1.0
100
AcDbArc
 50
187.4053901822985
 51
270.0
  0
LINE
  5
28FC
330
1B
100
AcDbEntity
  8
実線
100
AcDbLine
 10
1012.73047419194
 20
501.6283843590558
 30
0.0
 11
1012.73057761864
 21
501.6275569305558
 31
0.0
  0
LWPOLYLINE
  5
28FD
330
1B
100
AcDbEntity
  8
実線
100
AcDbPolyline
 90
        6
 70
     0
 43
0.0
 10
1012.73047419194
 20
501.6283843589558
 10
1012.44614089104
 20
501.6696552625559
 10
1012.18527904864
 20
501.7900657774559
 10
1011.96942257504
 20
501.9796761239558
 10
1011.81639022824
 20
502.2228341383558
 10
1011.73881469084
 20
502.4994673452558
  0
LWPOLYLINE
  5
28FE
330
1B
100
AcDbEntity
  8
実線
100
AcDbPolyline
 90
        6
 70
     0
 43
0.0
 10
1011.71238728364
 20
502.5072839320558
 10
1011.78939379414
 20
502.2319173741558
 10
1011.94323484414
 20
501.9871973708558
 10
1012.15866347724
 20
501.7980125619557
 10
1012.420761249239
 20
501.6772047238559
 10
1012.43145277814
 20
501.6756595337558
  0
LWPOLYLINE
  5
28FF
330
1B
100
AcDbEntity
  8
文字
 62
     0
100
AcDbPolyline
 90
        4
 70
     0
 43
0.0
 10
1026.94322564504
 20
483.1847809749558
 10
1026.94322564504
 20
485.9847767025558
 10
1028.06323418994
 20
483.1847809749558
 10
1028.06323418994
 20
485.9847767025558
  0
LWPOLYLINE
  5
2900
330
1B
100
AcDbEntity
  8
文字
 62
     0
100
AcDbPolyline
 90
        3
 70
     0
 43
0.0
 10
1024.56321710014
 20
483.1847809749558
 10
1025.26322564504
 20
485.9847767025558
 10
1025.96323418994
 20
483.1847809749558
  0
LWPOLYLINE
  5
2901
330
1B
100
AcDbEntity
  8
文字
 62
     0
100
AcDbPolyline
 90
        3
 70
     0
 43
0.0
 10
1022.46321710014
 20
485.9847767025558
 10
1022.46321710014
 20
483.1847809749558
 10
1023.58322564504
 20
483.1847809749558
  0
LINE
  5
2902
330
1B
100
AcDbEntity
  8
文字
 62
     0
100
AcDbLine
 10
1024.84322564504
 20
484.1181171566558
 30
0.0
 11
1025.68322564504
 21
484.1181171566558
 31
0.0
  0
LWPOLYLINE
  5
2903
330
1B
100
AcDbEntity
  8
文字
 62
     0
100
AcDbPolyline
 90
        6
 70
     0
 43
0.0
 10
1031.14322564504
 20
485.2847809749558
 10
1032.68323418994
 20
485.2847809749558
 10
1032.33321710014
 20
484.8472724300558
 10
1031.91321710014
 20
484.4972809749558
 10
1031.56322564504
 20
484.3222724300559
 10
1030.93322564504
 20
484.0597724300558
  0
LWPOLYLINE
  5
2904
330
1B
100
AcDbEntity
  8
文字
 62
     0
100
AcDbPolyline
 90
        4
 70
     0
 43
0.0
 10
1028.83322564504
 20
485.4597767025558
 10
1030.44321710014
 20
485.4597767025558
 10
1030.44321710014
 20
483.4472809749558
 10
1028.83322564504
 20
483.4472809749558
  0
LWPOLYLINE
  5
2905
330
1B
100
AcDbEntity
  8
文字
 62
     0
100
AcDbPolyline
 90
       10
 70
     0
 43
0.0
 10
1033.31323418994
 20
484.6722767025558
 10
1033.66322564504
 20
485.1097724300558
 10
1033.87322564504
 20
485.6347724300558
 10
1035.13322564504
 20
485.6347724300558
 10
1035.06321710014
 20
485.0222809749558
 10
1034.92322564504
 20
484.4972809749558
 10
1034.71322564504
 20
484.0597724300558
 10
1034.36323418994
 20
483.7097809749558
 10
1034.01321710014
 20
483.4472809749558
 10
1033.59321710014
 20
483.2722724300558
  0
LINE
  5
2906
330
1B
100
AcDbEntity
  8
文字
 62
     0
100
AcDbLine
 10
1031.91321710014
 20
484.4972809749558
 30
0.0
 11
1031.91321710014
 21
483.2722724300558
 31
0.0
  0
LINE
  5
2907
330
1B
100
AcDbEntity
  8
文字
 62
     0
100
AcDbLine
 10
1031.91321710014
 20
485.8097809749558
 30
0.0
 11
1031.91321710014
 21
485.2847809749558
 31
0.0
  0
LINE
  5
2908
330
1B
100
AcDbEntity
  8
文字
 62
     0
100
AcDbLine
 10
1032.19322564504
 20
484.4097767025558
 30
0.0
 11
1032.96321710014
 21
483.8847767025558
 31
0.0
  0
LWPOLYLINE
  5
2909
330
1B
100
AcDbEntity
  8
実線
100
AcDbPolyline
 90
        9
 70
     0
 43
0.0
 10
1019.65853541904
 20
513.5068774293558
 10
1019.49752480084
 20
513.5338832995557
 10
1019.33208653964
 20
513.6206760822558
 10
1019.17234512954
 20
513.7706827411558
 10
1019.02763433984
 20
513.9799429948558
 10
1018.90254584764
 20
514.2443998068558
 10
1018.79990049754
 20
514.5620692613558
 10
1018.72243692524
 20
514.9329920325558
 10
1018.67371679724
 20
515.3584681672558
  0
LWPOLYLINE
  5
290A
330
1B
100
AcDbEntity
  8
実線
100
AcDbPolyline
 90
        9
 70
     0
 43
0.0
 10
1019.65853541904
 20
513.2132130673558
 10
1019.41694491874
 20
513.2407209521558
 10
1019.16870486934
 20
513.3289649574558
 10
1018.92908196424
 20
513.4815841137558
 10
1018.71208086284
 20
513.6943994266558
 10
1018.52449564874
 20
513.9633225950558
 10
1018.37055444254
 20
514.2863496687558
 10
1018.25437231414
 20
514.6635168440558
 10
1018.18132378954
 20
515.0959812512557
  0
LWPOLYLINE
  5
290B
330
1B
100
AcDbEntity
  8
実線
100
AcDbPolyline
 90
        5
 70
     0
 43
0.0
 10
1018.18132378954
 20
515.0959832091558
 10
1018.35466238634
 20
515.1260482492558
 10
1018.506311544639
 20
515.1851777557558
 10
1018.61729571264
 20
515.2659729724558
 10
1018.67372766604
 20
515.3583241569558
  0
CIRCLE
  5
290C
330
1B
100
AcDbEntity
  8
実線
100
AcDbCircle
 10
1027.81943578784
 20
518.5275569305558
 30
0.0
 40
0.75
  0
LINE
  5
290D
330
1B
100
AcDbEntity
  8
文字
100
AcDbLine
 10
1027.36110229554
 20
520.5275569305558
 30
0.0
 11
1027.02776928014
 21
520.5275569305558
 31
0.0
  0
LINE
  5
290E
330
1B
100
AcDbEntity
  8
文字
100
AcDbLine
 10
1026.86110229554
 20
522.5275569305559
 30
0.0
 11
1027.19443578784
 21
520.9956420407559
 31
0.0
  0
LINE
  5
290F
330
1B
100
AcDbEntity
  8
文字
100
AcDbLine
 10
1025.23610253404
 20
520.8254292652558
 30
0.0
 11
1025.06943578784
 21
520.6552165046558
 31
0.0
  0
LINE
  5
2910
330
1B
100
AcDbEntity
  8
文字
100
AcDbLine
 10
1026.69443578784
 20
522.1445782527559
 30
0.0
 11
1026.36110229554
 21
520.5275569305558
 31
0.0
  0
LINE
  5
2911
330
1B
100
AcDbEntity
  8
文字
100
AcDbLine
 10
1026.02776928014
 20
520.5275569305558
 30
0.0
 11
1025.69443578784
 21
522.5275569305559
 31
0.0
  0
LINE
  5
2912
330
1B
100
AcDbEntity
  8
文字
100
AcDbLine
 10
1027.02776928014
 20
520.5275569305558
 30
0.0
 11
1026.69443578784
 21
522.1445782527559
 31
0.0
  0
LINE
  5
2913
330
1B
100
AcDbEntity
  8
文字
100
AcDbLine
 10
1023.98610253404
 20
520.6552165046558
 30
0.0
 11
1023.81943578784
 21
520.8254292652558
 31
0.0
  0
LINE
  5
2914
330
1B
100
AcDbEntity
  8
文字
100
AcDbLine
 10
1022.06943578784
 20
521.4211739644558
 30
0.0
 11
1022.06943578784
 21
520.5275569305558
 31
0.0
  0
LINE
  5
2915
330
1B
100
AcDbEntity
  8
文字
100
AcDbLine
 10
1021.81943578784
 20
520.5275569305558
 30
0.0
 11
1021.81943578784
 21
522.5275569305559
 31
0.0
  0
LINE
  5
2916
330
1B
100
AcDbEntity
  8
文字
100
AcDbLine
 10
1022.06943578784
 20
520.5275569305558
 30
0.0
 11
1021.81943578784
 21
520.5275569305558
 31
0.0
  0
LINE
  5
2917
330
1B
100
AcDbEntity
  8
文字
100
AcDbLine
 10
1025.06943578784
 20
520.6552165046558
 30
0.0
 11
1024.90276904174
 21
520.5701101206558
 31
0.0
  0
LINE
  5
2918
330
1B
100
AcDbEntity
  8
文字
100
AcDbLine
 10
1024.90276904174
 20
520.5701101206558
 30
0.0
 11
1024.69443578784
 21
520.5275569305558
 31
0.0
  0
LINE
  5
2919
330
1B
100
AcDbEntity
  8
文字
100
AcDbLine
 10
1024.69443578784
 20
520.5275569305558
 30
0.0
 11
1024.36110253404
 21
520.5275569305558
 31
0.0
  0
LINE
  5
291A
330
1B
100
AcDbEntity
  8
文字
100
AcDbLine
 10
1026.36110229554
 20
520.5275569305558
 30
0.0
 11
1026.02776928014
 21
520.5275569305558
 31
0.0
  0
LINE
  5
291B
330
1B
100
AcDbEntity
  8
文字
100
AcDbLine
 10
1024.36110253404
 20
520.5275569305558
 30
0.0
 11
1024.15276904174
 21
520.5701101206558
 31
0.0
  0
LINE
  5
291C
330
1B
100
AcDbEntity
  8
文字
100
AcDbLine
 10
1024.15276904174
 20
520.5701101206558
 30
0.0
 11
1023.98610253404
 21
520.6552165046558
 31
0.0
  0
LINE
  5
291D
330
1B
100
AcDbEntity
  8
文字
100
AcDbLine
 10
1023.19443578784
 20
521.5913867101558
 30
0.0
 11
1023.02776916094
 21
521.4637271509558
 31
0.0
  0
LINE
  5
291E
330
1B
100
AcDbEntity
  8
文字
100
AcDbLine
 10
1022.98610241474
 20
521.7190462694558
 30
0.0
 11
1023.06943578784
 21
521.8041526422559
 31
0.0
  0
LINE
  5
291F
330
1B
100
AcDbEntity
  8
文字
100
AcDbLine
 10
1023.02776916094
 20
522.4850037441558
 30
0.0
 11
1023.19443578784
 21
522.3573441848558
 31
0.0
  0
LINE
  5
2920
330
1B
100
AcDbEntity
  8
文字
100
AcDbLine
 10
1023.06943578784
 20
522.1871314392558
 30
0.0
 11
1022.98610241474
 21
522.2722378120558
 31
0.0
  0
LINE
  5
2921
330
1B
100
AcDbEntity
  8
文字
100
AcDbLine
 10
1022.86110241474
 20
521.6764930829558
 30
0.0
 11
1022.98610241474
 21
521.7190462694558
 31
0.0
  0
LINE
  5
2922
330
1B
100
AcDbEntity
  8
文字
100
AcDbLine
 10
1023.02776916094
 20
521.4637271509558
 30
0.0
 11
1022.81943578784
 21
521.4211739644558
 31
0.0
  0
LINE
  5
2923
330
1B
100
AcDbEntity
  8
文字
100
AcDbLine
 10
1021.81943578784
 20
522.5275569305559
 30
0.0
 11
1022.81943578784
 21
522.5275569305559
 31
0.0
  0
LINE
  5
2924
330
1B
100
AcDbEntity
  8
文字
100
AcDbLine
 10
1022.86110241474
 20
522.3147909984559
 30
0.0
 11
1022.06943578784
 21
522.3147909984559
 31
0.0
  0
LINE
  5
2925
330
1B
100
AcDbEntity
  8
文字
100
AcDbLine
 10
1022.06943578784
 20
521.6764930829558
 30
0.0
 11
1022.86110241474
 21
521.6764930829558
 31
0.0
  0
LINE
  5
2926
330
1B
100
AcDbEntity
  8
文字
100
AcDbLine
 10
1022.81943578784
 20
521.4211739644558
 30
0.0
 11
1022.06943578784
 21
521.4211739644558
 31
0.0
  0
LINE
  5
2927
330
1B
100
AcDbEntity
  8
文字
100
AcDbLine
 10
1022.81943578784
 20
522.5275569305559
 30
0.0
 11
1023.02776916094
 21
522.4850037441558
 31
0.0
  0
LINE
  5
2928
330
1B
100
AcDbEntity
  8
文字
100
AcDbLine
 10
1022.98610241474
 20
522.2722378120558
 30
0.0
 11
1022.86110241474
 21
522.3147909984559
 31
0.0
  0
LINE
  5
2929
330
1B
100
AcDbEntity
  8
文字
100
AcDbLine
 10
1022.06943578784
 20
522.3147909984559
 30
0.0
 11
1022.06943578784
 21
521.6764930829558
 31
0.0
  0
LINE
  5
292A
330
1B
100
AcDbEntity
  8
文字
100
AcDbLine
 10
1023.98610253404
 20
522.3998973712558
 30
0.0
 11
1024.15276904174
 21
522.4850037441558
 31
0.0
  0
LINE
  5
292B
330
1B
100
AcDbEntity
  8
文字
100
AcDbLine
 10
1024.98610253404
 20
520.9105356678557
 30
0.0
 11
1024.86110253404
 21
520.8254292652558
 31
0.0
  0
LINE
  5
292C
330
1B
100
AcDbEntity
  8
文字
100
AcDbLine
 10
1024.15276904174
 20
522.4850037441558
 30
0.0
 11
1024.36110253404
 21
522.5275569305559
 31
0.0
  0
LINE
  5
292D
330
1B
100
AcDbEntity
  8
文字
100
AcDbLine
 10
1024.19443578784
 20
522.2296846256559
 30
0.0
 11
1024.36110253404
 21
522.2722378120558
 31
0.0
  0
LINE
  5
292E
330
1B
100
AcDbEntity
  8
文字
100
AcDbLine
 10
1024.86110253404
 20
520.8254292652558
 30
0.0
 11
1024.69443578784
 21
520.7828760788559
 31
0.0
  0
LINE
  5
292F
330
1B
100
AcDbEntity
  8
文字
100
AcDbLine
 10
1024.06943578784
 20
522.1445782527559
 30
0.0
 11
1024.19443578784
 21
522.2296846256559
 31
0.0
  0
LINE
  5
2930
330
1B
100
AcDbEntity
  8
文字
100
AcDbLine
 10
1023.81943578784
 20
522.2296846256559
 30
0.0
 11
1023.98610253404
 21
522.3998973712558
 31
0.0
  0
LINE
  5
2931
330
1B
100
AcDbEntity
  8
文字
100
AcDbLine
 10
1026.52776928014
 20
522.5275569305559
 30
0.0
 11
1026.86110229554
 21
522.5275569305559
 31
0.0
  0
LINE
  5
2932
330
1B
100
AcDbEntity
  8
文字
100
AcDbLine
 10
1025.69443578784
 20
522.5275569305559
 30
0.0
 11
1025.94443578784
 21
522.5275569305559
 31
0.0
  0
LINE
  5
2933
330
1B
100
AcDbEntity
  8
文字
100
AcDbLine
 10
1024.36110253404
 20
522.5275569305559
 30
0.0
 11
1024.69443578784
 21
522.5275569305559
 31
0.0
  0
LINE
  5
2934
330
1B
100
AcDbEntity
  8
文字
100
AcDbLine
 10
1024.36110253404
 20
522.2722378120558
 30
0.0
 11
1024.69443578784
 21
522.2722378120558
 31
0.0
  0
LINE
  5
2935
330
1B
100
AcDbEntity
  8
文字
100
AcDbLine
 10
1024.69443578784
 20
520.7828760788559
 30
0.0
 11
1024.36110253404
 21
520.7828760788559
 31
0.0
  0
LINE
  5
2936
330
1B
100
AcDbEntity
  8
文字
100
AcDbLine
 10
1023.31943578784
 20
521.7615994558558
 30
0.0
 11
1023.19443578784
 21
521.5913867101558
 31
0.0
  0
LINE
  5
2937
330
1B
100
AcDbEntity
  8
文字
100
AcDbLine
 10
1025.06943578784
 20
521.0381952271558
 30
0.0
 11
1024.98610253404
 21
520.9105356678557
 31
0.0
  0
LINE
  5
2938
330
1B
100
AcDbEntity
  8
文字
100
AcDbLine
 10
1024.69443578784
 20
522.2722378120558
 30
0.0
 11
1024.86110253404
 21
522.2296846256559
 31
0.0
  0
LINE
  5
2939
330
1B
100
AcDbEntity
  8
文字
100
AcDbLine
 10
1024.69443578784
 20
522.5275569305559
 30
0.0
 11
1024.90276904174
 21
522.4850037441558
 31
0.0
  0
LINE
  5
293A
330
1B
100
AcDbEntity
  8
文字
100
AcDbLine
 10
1023.98610253404
 20
522.0169185743558
 30
0.0
 11
1024.06943578784
 21
522.1445782527559
 31
0.0
  0
LINE
  5
293B
330
1B
100
AcDbEntity
  8
文字
100
AcDbLine
 10
1025.31943578784
 20
520.9956420407559
 30
0.0
 11
1025.23610253404
 21
520.8254292652558
 31
0.0
  0
LINE
  5
293C
330
1B
100
AcDbEntity
  8
文字
100
AcDbLine
 10
1023.73610241474
 20
522.0594718799558
 30
0.0
 11
1023.81943578784
 21
522.2296846256559
 31
0.0
  0
LINE
  5
293D
330
1B
100
AcDbEntity
  8
文字
100
AcDbLine
 10
1024.90276904174
 20
522.4850037441558
 30
0.0
 11
1025.06943578784
 21
522.3998973712558
 31
0.0
  0
LINE
  5
293E
330
1B
100
AcDbEntity
  8
文字
100
AcDbLine
 10
1024.36110253404
 20
520.7828760788559
 30
0.0
 11
1024.19443578784
 21
520.8254292652558
 31
0.0
  0
LINE
  5
293F
330
1B
100
AcDbEntity
  8
文字
100
AcDbLine
 10
1023.36110241474
 20
521.8892590150558
 30
0.0
 11
1023.31943578784
 21
521.7615994558558
 31
0.0
  0
LINE
  5
2940
330
1B
100
AcDbEntity
  8
文字
100
AcDbLine
 10
1023.06943578784
 20
521.8041526422559
 30
0.0
 11
1023.11110241474
 21
521.9318122014558
 31
0.0
  0
LINE
  5
2941
330
1B
100
AcDbEntity
  8
文字
100
AcDbLine
 10
1025.11110253404
 20
521.2084079728558
 30
0.0
 11
1025.06943578784
 21
521.0381952271558
 31
0.0
  0
LINE
  5
2942
330
1B
100
AcDbEntity
  8
文字
100
AcDbLine
 10
1023.94443578784
 20
521.8467058286558
 30
0.0
 11
1023.98610253404
 21
522.0169185743558
 31
0.0
  0
LINE
  5
2943
330
1B
100
AcDbEntity
  8
文字
100
AcDbLine
 10
1026.19443578784
 20
520.9956420407559
 30
0.0
 11
1026.52776928014
 21
522.5275569305559
 31
0.0
  0
LINE
  5
2944
330
1B
100
AcDbEntity
  8
文字
100
AcDbLine
 10
1025.36110253404
 20
521.2084079728558
 30
0.0
 11
1025.31943578784
 21
520.9956420407559
 31
0.0
  0
LINE
  5
2945
330
1B
100
AcDbEntity
  8
文字
100
AcDbLine
 10
1025.94443578784
 20
522.5275569305559
 30
0.0
 11
1026.19443578784
 21
520.9956420407559
 31
0.0
  0
LINE
  5
2946
330
1B
100
AcDbEntity
  8
文字
100
AcDbLine
 10
1025.31943578784
 20
522.0594718799558
 30
0.0
 11
1025.36110253404
 21
521.8467058286558
 31
0.0
  0
LINE
  5
2947
330
1B
100
AcDbEntity
  8
文字
100
AcDbLine
 10
1025.06943578784
 20
522.3998973712558
 30
0.0
 11
1025.23610253404
 21
522.2296846256559
 31
0.0
  0
LINE
  5
2948
330
1B
100
AcDbEntity
  8
文字
100
AcDbLine
 10
1024.86110253404
 20
522.2296846256559
 30
0.0
 11
1024.98610253404
 21
522.1445782527559
 31
0.0
  0
LINE
  5
2949
330
1B
100
AcDbEntity
  8
文字
100
AcDbLine
 10
1024.19443578784
 20
520.8254292652558
 30
0.0
 11
1024.06943578784
 21
520.9105356678557
 31
0.0
  0
LINE
  5
294A
330
1B
100
AcDbEntity
  8
文字
100
AcDbLine
 10
1023.69443578784
 20
521.8467058286558
 30
0.0
 11
1023.73610241474
 21
522.0594718799558
 31
0.0
  0
LINE
  5
294B
330
1B
100
AcDbEntity
  8
文字
100
AcDbLine
 10
1025.36110253404
 20
521.8467058286558
 30
0.0
 11
1025.36110253404
 21
521.2084079728558
 31
0.0
  0
LINE
  5
294C
330
1B
100
AcDbEntity
  8
文字
100
AcDbLine
 10
1025.11110253404
 20
521.8467058286558
 30
0.0
 11
1025.11110253404
 21
521.2084079728558
 31
0.0
  0
LINE
  5
294D
330
1B
100
AcDbEntity
  8
文字
100
AcDbLine
 10
1023.94443578784
 20
521.2084079728558
 30
0.0
 11
1023.94443578784
 21
521.8467058286558
 31
0.0
  0
LINE
  5
294E
330
1B
100
AcDbEntity
  8
文字
100
AcDbLine
 10
1023.73610241474
 20
520.9956420407559
 30
0.0
 11
1023.69443578784
 21
521.2084079728558
 31
0.0
  0
LINE
  5
294F
330
1B
100
AcDbEntity
  8
文字
100
AcDbLine
 10
1025.06943578784
 20
522.0169185743558
 30
0.0
 11
1025.11110253404
 21
521.8467058286558
 31
0.0
  0
LINE
  5
2950
330
1B
100
AcDbEntity
  8
文字
100
AcDbLine
 10
1023.98610253404
 20
521.0381952271558
 30
0.0
 11
1023.94443578784
 21
521.2084079728558
 31
0.0
  0
LINE
  5
2951
330
1B
100
AcDbEntity
  8
文字
100
AcDbLine
 10
1023.31943578784
 20
522.1871314392558
 30
0.0
 11
1023.36110241474
 21
522.0594718799558
 31
0.0
  0
LINE
  5
2952
330
1B
100
AcDbEntity
  8
文字
100
AcDbLine
 10
1023.11110241474
 20
522.0594718799558
 30
0.0
 11
1023.06943578784
 21
522.1871314392558
 31
0.0
  0
LINE
  5
2953
330
1B
100
AcDbEntity
  8
文字
100
AcDbLine
 10
1025.23610253404
 20
522.2296846256559
 30
0.0
 11
1025.31943578784
 21
522.0594718799558
 31
0.0
  0
LINE
  5
2954
330
1B
100
AcDbEntity
  8
文字
100
AcDbLine
 10
1023.81943578784
 20
520.8254292652558
 30
0.0
 11
1023.73610241474
 21
520.9956420407559
 31
0.0
  0
LINE
  5
2955
330
1B
100
AcDbEntity
  8
文字
100
AcDbLine
 10
1024.98610253404
 20
522.1445782527559
 30
0.0
 11
1025.06943578784
 21
522.0169185743558
 31
0.0
  0
LINE
  5
2956
330
1B
100
AcDbEntity
  8
文字
100
AcDbLine
 10
1024.06943578784
 20
520.9105356678557
 30
0.0
 11
1023.98610253404
 21
521.0381952271558
 31
0.0
  0
LINE
  5
2957
330
1B
100
AcDbEntity
  8
文字
100
AcDbLine
 10
1023.19443578784
 20
522.3573441848558
 30
0.0
 11
1023.31943578784
 21
522.1871314392558
 31
0.0
  0
LINE
  5
2958
330
1B
100
AcDbEntity
  8
文字
100
AcDbLine
 10
1023.69443578784
 20
521.2084079728558
 30
0.0
 11
1023.69443578784
 21
521.8467058286558
 31
0.0
  0
LINE
  5
2959
330
1B
100
AcDbEntity
  8
文字
100
AcDbLine
 10
1023.36110241474
 20
522.0594718799558
 30
0.0
 11
1023.36110241474
 21
521.8892590150558
 31
0.0
  0
LINE
  5
295A
330
1B
100
AcDbEntity
  8
文字
100
AcDbLine
 10
1023.11110241474
 20
521.9318122014558
 30
0.0
 11
1023.11110241474
 21
522.0594718799558
 31
0.0
  0
LINE
  5
295B
330
1B
100
AcDbEntity
  8
文字
100
AcDbLine
 10
1030.11110277244
 20
520.5275569305558
 30
0.0
 11
1030.11110277244
 21
521.4211739644558
 31
0.0
  0
LINE
  5
295C
330
1B
100
AcDbEntity
  8
文字
100
AcDbLine
 10
1030.81943578784
 20
521.4211739644558
 30
0.0
 11
1031.15276880334
 21
520.5275569305558
 31
0.0
  0
LINE
  5
295D
330
1B
100
AcDbEntity
  8
文字
100
AcDbLine
 10
1031.44443578784
 20
520.5275569305558
 30
0.0
 11
1031.06943578784
 21
521.5062803373558
 31
0.0
  0
LINE
  5
295E
330
1B
100
AcDbEntity
  8
文字
100
AcDbLine
 10
1027.69443578784
 20
522.5275569305559
 30
0.0
 11
1027.36110229554
 21
520.5275569305558
 31
0.0
  0
LINE
  5
295F
330
1B
100
AcDbEntity
  8
文字
100
AcDbLine
 10
1029.86110277244
 20
522.5275569305559
 30
0.0
 11
1029.86110277244
 21
520.5275569305558
 31
0.0
  0
LINE
  5
2960
330
1B
100
AcDbEntity
  8
文字
100
AcDbLine
 10
1029.52776928014
 20
520.7828760788559
 30
0.0
 11
1029.52776928014
 21
520.5275569305558
 31
0.0
  0
LINE
  5
2961
330
1B
100
AcDbEntity
  8
文字
100
AcDbLine
 10
1028.02776928014
 20
520.5275569305558
 30
0.0
 11
1028.02776928014
 21
522.5275569305559
 31
0.0
  0
LINE
  5
2962
330
1B
100
AcDbEntity
  8
文字
100
AcDbLine
 10
1031.24443578784
 20
516.9998973712559
 30
0.0
 11
1031.41110253404
 21
517.0850037441558
 31
0.0
  0
LINE
  5
2963
330
1B
100
AcDbEntity
  8
文字
100
AcDbLine
 10
1031.24443578784
 20
516.6169185743558
 30
0.0
 11
1031.32776904174
 21
516.7445782527559
 31
0.0
  0
LINE
  5
2964
330
1B
100
AcDbEntity
  8
文字
100
AcDbLine
 10
1031.15276880334
 20
520.5275569305558
 30
0.0
 11
1031.44443578784
 21
520.5275569305558
 31
0.0
  0
LINE
  5
2965
330
1B
100
AcDbEntity
  8
文字
100
AcDbLine
 10
1031.32776904174
 20
515.5105356678558
 30
0.0
 11
1031.24443578784
 21
515.6381952271558
 31
0.0
  0
LINE
  5
2966
330
1B
100
AcDbEntity
  8
文字
100
AcDbLine
 10
1031.41110253404
 20
515.1701101206558
 30
0.0
 11
1031.24443578784
 21
515.2552165046558
 31
0.0
  0
LINE
  5
2967
330
1B
100
AcDbEntity
  8
文字
100
AcDbLine
 10
1031.07776904174
 20
516.8296846256558
 30
0.0
 11
1031.24443578784
 21
516.9998973712559
 31
0.0
  0
LINE
  5
2968
330
1B
100
AcDbEntity
  8
文字
100
AcDbLine
 10
1030.99443578784
 20
516.6594718799558
 30
0.0
 11
1031.07776904174
 21
516.8296846256558
 31
0.0
  0
LINE
  5
2969
330
1B
100
AcDbEntity
  8
文字
100
AcDbLine
 10
1030.36943578784
 20
516.7020250663559
 30
0.0
 11
1029.78610241474
 21
515.1275569305558
 31
0.0
  0
LINE
  5
296A
330
1B
100
AcDbEntity
  8
文字
100
AcDbLine
 10
1029.86110277244
 20
520.5275569305558
 30
0.0
 11
1030.11110277244
 21
520.5275569305558
 31
0.0
  0
LINE
  5
296B
330
1B
100
AcDbEntity
  8
文字
100
AcDbLine
 10
1029.52776928014
 20
520.5275569305558
 30
0.0
 11
1028.02776928014
 21
520.5275569305558
 31
0.0
  0
LINE
  5
296C
330
1B
100
AcDbEntity
  8
文字
100
AcDbLine
 10
1029.61943578784
 20
515.3403228924558
 30
0.0
 11
1030.244435787839
 21
517.1275569305557
 31
0.0
  0
LINE
  5
296D
330
1B
100
AcDbEntity
  8
文字
100
AcDbLine
 10
1031.20276904174
 20
516.4467058286557
 30
0.0
 11
1031.24443578784
 21
516.6169185743558
 31
0.0
  0
LINE
  5
296E
330
1B
100
AcDbEntity
  8
文字
100
AcDbLine
 10
1030.95276904174
 20
516.4467058286557
 30
0.0
 11
1030.99443578784
 21
516.6594718799558
 31
0.0
  0
LINE
  5
296F
330
1B
100
AcDbEntity
  8
文字
100
AcDbLine
 10
1030.244435787839
 20
517.1275569305557
 30
0.0
 11
1030.619435787839
 21
517.1275569305557
 31
0.0
  0
LINE
  5
2970
330
1B
100
AcDbEntity
  8
文字
100
AcDbLine
 10
1028.61943578784
 20
517.1275569305557
 30
0.0
 11
1028.99443578784
 21
517.1275569305557
 31
0.0
  0
LINE
  5
2971
330
1B
100
AcDbEntity
  8
文字
100
AcDbLine
 10
1031.20276904174
 20
515.8084079728557
 30
0.0
 11
1031.20276904174
 21
516.4467058286557
 31
0.0
  0
LINE
  5
2972
330
1B
100
AcDbEntity
  8
文字
100
AcDbLine
 10
1030.95276904174
 20
515.8084079728557
 30
0.0
 11
1030.95276904174
 21
516.4467058286557
 31
0.0
  0
LINE
  5
2973
330
1B
100
AcDbEntity
  8
文字
100
AcDbLine
 10
1030.619435787839
 20
517.1275569305557
 30
0.0
 11
1030.619435787839
 21
515.1275569305558
 31
0.0
  0
LINE
  5
2974
330
1B
100
AcDbEntity
  8
文字
100
AcDbLine
 10
1030.36943578784
 20
515.1275569305558
 30
0.0
 11
1030.36943578784
 21
516.7020250663559
 31
0.0
  0
LINE
  5
2975
330
1B
100
AcDbEntity
  8
文字
100
AcDbLine
 10
1030.99443578784
 20
515.5956420407558
 30
0.0
 11
1030.95276904174
 21
515.8084079728557
 31
0.0
  0
LINE
  5
2976
330
1B
100
AcDbEntity
  8
文字
100
AcDbLine
 10
1031.24443578784
 20
515.6381952271558
 30
0.0
 11
1031.20276904174
 21
515.8084079728557
 31
0.0
  0
LINE
  5
2977
330
1B
100
AcDbEntity
  8
文字
100
AcDbLine
 10
1028.86943578784
 20
515.1275569305558
 30
0.0
 11
1028.61943578784
 21
515.1275569305558
 31
0.0
  0
LINE
  5
2978
330
1B
100
AcDbEntity
  8
文字
100
AcDbLine
 10
1029.78610241474
 20
515.1275569305558
 30
0.0
 11
1029.45276910134
 21
515.1275569305558
 31
0.0
  0
LINE
  5
2979
330
1B
100
AcDbEntity
  8
文字
100
AcDbLine
 10
1030.619435787839
 20
515.1275569305558
 30
0.0
 11
1030.36943578784
 21
515.1275569305558
 31
0.0
  0
LINE
  5
297A
330
1B
100
AcDbEntity
  8
文字
100
AcDbLine
 10
1028.86943578784
 20
516.7020250663559
 30
0.0
 11
1028.86943578784
 21
515.1275569305558
 31
0.0
  0
LINE
  5
297B
330
1B
100
AcDbEntity
  8
文字
100
AcDbLine
 10
1028.61943578784
 20
515.1275569305558
 30
0.0
 11
1028.61943578784
 21
517.1275569305557
 31
0.0
  0
LINE
  5
297C
330
1B
100
AcDbEntity
  8
文字
100
AcDbLine
 10
1028.99443578784
 20
517.1275569305557
 30
0.0
 11
1029.61943578784
 21
515.3403228924558
 31
0.0
  0
LINE
  5
297D
330
1B
100
AcDbEntity
  8
文字
100
AcDbLine
 10
1029.45276910134
 20
515.1275569305558
 30
0.0
 11
1028.86943578784
 21
516.7020250663559
 31
0.0
  0
LINE
  5
297E
330
1B
100
AcDbEntity
  8
文字
100
AcDbLine
 10
1031.07776904174
 20
515.4254292652558
 30
0.0
 11
1030.99443578784
 21
515.5956420407558
 31
0.0
  0
LINE
  5
297F
330
1B
100
AcDbEntity
  8
文字
100
AcDbLine
 10
1031.24443578784
 20
515.2552165046558
 30
0.0
 11
1031.07776904174
 21
515.4254292652558
 31
0.0
  0
LINE
  5
2980
330
1B
100
AcDbEntity
  8
文字
100
AcDbLine
 10
1032.32776904174
 20
515.2552165046558
 30
0.0
 11
1032.16110253404
 21
515.1701101206558
 31
0.0
  0
LINE
  5
2981
330
1B
100
AcDbEntity
  8
文字
100
AcDbLine
 10
1032.24443578784
 20
515.5105356678558
 30
0.0
 11
1032.11943578784
 21
515.4254292652558
 31
0.0
  0
LINE
  5
2982
330
1B
100
AcDbEntity
  8
文字
100
AcDbLine
 10
1031.32776904174
 20
516.7445782527559
 30
0.0
 11
1031.45276904174
 21
516.8296846256558
 31
0.0
  0
LINE
  5
2983
330
1B
100
AcDbEntity
  8
文字
100
AcDbLine
 10
1032.49443578784
 20
515.4254292652558
 30
0.0
 11
1032.32776904174
 21
515.2552165046558
 31
0.0
  0
LINE
  5
2984
330
1B
100
AcDbEntity
  8
文字
100
AcDbLine
 10
1032.32776904174
 20
515.6381952271558
 30
0.0
 11
1032.24443578784
 21
515.5105356678558
 31
0.0
  0
LINE
  5
2985
330
1B
100
AcDbEntity
  8
文字
100
AcDbLine
 10
1032.57776904174
 20
515.5956420407558
 30
0.0
 11
1032.49443578784
 21
515.4254292652558
 31
0.0
  0
LINE
  5
2986
330
1B
100
AcDbEntity
  8
文字
100
AcDbLine
 10
1032.36943578784
 20
515.8084079728557
 30
0.0
 11
1032.32776904174
 21
515.6381952271558
 31
0.0
  0
LINE
  5
2987
330
1B
100
AcDbEntity
  8
文字
100
AcDbLine
 10
1031.41110253404
 20
517.0850037441558
 30
0.0
 11
1031.61943578784
 21
517.1275569305557
 31
0.0
  0
LINE
  5
2988
330
1B
100
AcDbEntity
  8
文字
100
AcDbLine
 10
1031.45276904174
 20
516.8296846256558
 30
0.0
 11
1031.61943578784
 21
516.8722378120557
 31
0.0
  0
LINE
  5
2989
330
1B
100
AcDbEntity
  8
文字
100
AcDbLine
 10
1032.61943578784
 20
515.8084079728557
 30
0.0
 11
1032.57776904174
 21
515.5956420407558
 31
0.0
  0
LINE
  5
298A
330
1B
100
AcDbEntity
  8
文字
100
AcDbLine
 10
1035.20276928014
 20
517.1275569305557
 30
0.0
 11
1035.20276928014
 21
515.1275569305558
 31
0.0
  0
LINE
  5
298B
330
1B
100
AcDbEntity
  8
文字
100
AcDbLine
 10
1034.95276928014
 20
515.1275569305558
 30
0.0
 11
1034.95276928014
 21
517.1275569305557
 31
0.0
  0
LINE
  5
298C
330
1B
100
AcDbEntity
  8
文字
100
AcDbLine
 10
1034.61943578784
 20
517.1275569305557
 30
0.0
 11
1034.61943578784
 21
515.1275569305558
 31
0.0
  0
LINE
  5
298D
330
1B
100
AcDbEntity
  8
文字
100
AcDbLine
 10
1034.36943578784
 20
515.4254292652558
 30
0.0
 11
1034.36943578784
 21
517.1275569305557
 31
0.0
  0
LINE
  5
298E
330
1B
100
AcDbEntity
  8
文字
100
AcDbLine
 10
1033.20276928014
 20
516.8722378120557
 30
0.0
 11
1033.20276928014
 21
515.1275569305558
 31
0.0
  0
LINE
  5
298F
330
1B
100
AcDbEntity
  8
文字
100
AcDbLine
 10
1032.95276928014
 20
515.1275569305558
 30
0.0
 11
1032.95276928014
 21
517.1275569305557
 31
0.0
  0
LINE
  5
2990
330
1B
100
AcDbEntity
  8
文字
100
AcDbLine
 10
1032.57776904174
 20
516.6594718799558
 30
0.0
 11
1032.61943578784
 21
516.4467058286557
 31
0.0
  0
LINE
  5
2991
330
1B
100
AcDbEntity
  8
文字
100
AcDbLine
 10
1034.95276928014
 20
517.1275569305557
 30
0.0
 11
1035.20276928014
 21
517.1275569305557
 31
0.0
  0
LINE
  5
2992
330
1B
100
AcDbEntity
  8
文字
100
AcDbLine
 10
1034.36943578784
 20
517.1275569305557
 30
0.0
 11
1034.61943578784
 21
517.1275569305557
 31
0.0
  0
LINE
  5
2993
330
1B
100
AcDbEntity
  8
文字
100
AcDbLine
 10
1032.95276928014
 20
517.1275569305557
 30
0.0
 11
1033.32776928014
 21
517.1275569305557
 31
0.0
  0
LINE
  5
2994
330
1B
100
AcDbEntity
  8
文字
100
AcDbLine
 10
1031.61943578784
 20
517.1275569305557
 30
0.0
 11
1031.95276904174
 21
517.1275569305557
 31
0.0
  0
LINE
  5
2995
330
1B
100
AcDbEntity
  8
文字
100
AcDbLine
 10
1031.61943578784
 20
516.8722378120557
 30
0.0
 11
1031.95276904174
 21
516.8722378120557
 31
0.0
  0
LINE
  5
2996
330
1B
100
AcDbEntity
  8
文字
100
AcDbLine
 10
1032.16110253404
 20
515.1701101206558
 30
0.0
 11
1031.95276904174
 21
515.1275569305558
 31
0.0
  0
LINE
  5
2997
330
1B
100
AcDbEntity
  8
文字
100
AcDbLine
 10
1032.11943578784
 20
515.4254292652558
 30
0.0
 11
1031.95276904174
 21
515.3828760788558
 31
0.0
  0
LINE
  5
2998
330
1B
100
AcDbEntity
  8
文字
100
AcDbLine
 10
1032.61943578784
 20
516.4467058286557
 30
0.0
 11
1032.61943578784
 21
515.8084079728557
 31
0.0
  0
LINE
  5
2999
330
1B
100
AcDbEntity
  8
文字
100
AcDbLine
 10
1032.36943578784
 20
516.4467058286557
 30
0.0
 11
1032.36943578784
 21
515.8084079728557
 31
0.0
  0
LINE
  5
299A
330
1B
100
AcDbEntity
  8
文字
100
AcDbLine
 10
1032.32776904174
 20
516.6169185743558
 30
0.0
 11
1032.36943578784
 21
516.4467058286557
 31
0.0
  0
LINE
  5
299B
330
1B
100
AcDbEntity
  8
文字
100
AcDbLine
 10
1032.49443578784
 20
516.8296846256558
 30
0.0
 11
1032.57776904174
 21
516.6594718799558
 31
0.0
  0
LINE
  5
299C
330
1B
100
AcDbEntity
  8
文字
100
AcDbLine
 10
1034.24443578784
 20
515.1275569305558
 30
0.0
 11
1033.20276928014
 21
516.8722378120557
 31
0.0
  0
LINE
  5
299D
330
1B
100
AcDbEntity
  8
文字
100
AcDbLine
 10
1033.32776928014
 20
517.1275569305557
 30
0.0
 11
1034.36943578784
 21
515.4254292652558
 31
0.0
  0
LINE
  5
299E
330
1B
100
AcDbEntity
  8
文字
100
AcDbLine
 10
1031.95276904174
 20
516.8722378120557
 30
0.0
 11
1032.11943578784
 21
516.8296846256558
 31
0.0
  0
LINE
  5
299F
330
1B
100
AcDbEntity
  8
文字
100
AcDbLine
 10
1031.95276904174
 20
517.1275569305557
 30
0.0
 11
1032.16110253404
 21
517.0850037441558
 31
0.0
  0
LINE
  5
29A0
330
1B
100
AcDbEntity
  8
文字
100
AcDbLine
 10
1031.95276904174
 20
515.3828760788558
 30
0.0
 11
1031.61943578784
 21
515.3828760788558
 31
0.0
  0
LINE
  5
29A1
330
1B
100
AcDbEntity
  8
文字
100
AcDbLine
 10
1031.95276904174
 20
515.1275569305558
 30
0.0
 11
1031.61943578784
 21
515.1275569305558
 31
0.0
  0
LINE
  5
29A2
330
1B
100
AcDbEntity
  8
文字
100
AcDbLine
 10
1033.20276928014
 20
515.1275569305558
 30
0.0
 11
1032.95276928014
 21
515.1275569305558
 31
0.0
  0
LINE
  5
29A3
330
1B
100
AcDbEntity
  8
文字
100
AcDbLine
 10
1034.61943578784
 20
515.1275569305558
 30
0.0
 11
1034.24443578784
 21
515.1275569305558
 31
0.0
  0
LINE
  5
29A4
330
1B
100
AcDbEntity
  8
文字
100
AcDbLine
 10
1035.20276928014
 20
515.1275569305558
 30
0.0
 11
1034.95276928014
 21
515.1275569305558
 31
0.0
  0
LINE
  5
29A5
330
1B
100
AcDbEntity
  8
文字
100
AcDbLine
 10
1032.24443578784
 20
516.7445782527559
 30
0.0
 11
1032.32776904174
 21
516.6169185743558
 31
0.0
  0
LINE
  5
29A6
330
1B
100
AcDbEntity
  8
文字
100
AcDbLine
 10
1032.32776904174
 20
516.9998973712559
 30
0.0
 11
1032.49443578784
 21
516.8296846256558
 31
0.0
  0
LINE
  5
29A7
330
1B
100
AcDbEntity
  8
文字
100
AcDbLine
 10
1032.11943578784
 20
516.8296846256558
 30
0.0
 11
1032.24443578784
 21
516.7445782527559
 31
0.0
  0
LINE
  5
29A8
330
1B
100
AcDbEntity
  8
文字
100
AcDbLine
 10
1031.45276904174
 20
515.4254292652558
 30
0.0
 11
1031.32776904174
 21
515.5105356678558
 31
0.0
  0
LINE
  5
29A9
330
1B
100
AcDbEntity
  8
文字
100
AcDbLine
 10
1032.16110253404
 20
517.0850037441558
 30
0.0
 11
1032.32776904174
 21
516.9998973712559
 31
0.0
  0
LINE
  5
29AA
330
1B
100
AcDbEntity
  8
文字
100
AcDbLine
 10
1031.61943578784
 20
515.3828760788558
 30
0.0
 11
1031.45276904174
 21
515.4254292652558
 31
0.0
  0
LINE
  5
29AB
330
1B
100
AcDbEntity
  8
文字
100
AcDbLine
 10
1031.61943578784
 20
515.1275569305558
 30
0.0
 11
1031.41110253404
 21
515.1701101206558
 31
0.0
  0
LWPOLYLINE
  5
29AC
330
1B
100
AcDbEntity
  8
寸法
100
AcDbPolyline
 90
        3
 70
     0
 43
0.0
 10
1033.35335798674
 20
516.3537115924558
 10
1033.81631877194
 20
518.3973094764557
 10
1032.27212089714
 20
516.9809486737558
  0
LINE
  5
29AD
330
1B
100
AcDbEntity
  8
文字
100
AcDbLine
 10
1031.23610277244
 20
521.5913867101558
 30
0.0
 11
1031.36110277244
 21
521.7615994558558
 31
0.0
  0
LINE
  5
29AE
330
1B
100
AcDbEntity
  8
文字
100
AcDbLine
 10
1031.36110277244
 20
522.1871314392558
 30
0.0
 11
1031.23610277244
 21
522.3573441848558
 31
0.0
  0
LINE
  5
29AF
330
1B
100
AcDbEntity
  8
文字
100
AcDbLine
 10
1030.90276880334
 20
521.6764930829558
 30
0.0
 11
1031.02776880334
 21
521.7190462694558
 31
0.0
  0
LINE
  5
29B0
330
1B
100
AcDbEntity
  8
文字
100
AcDbLine
 10
1031.06943578784
 20
521.5062803373558
 30
0.0
 11
1031.23610277244
 21
521.5913867101558
 31
0.0
  0
LINE
  5
29B1
330
1B
100
AcDbEntity
  8
文字
100
AcDbLine
 10
1031.02776880334
 20
521.7190462694558
 30
0.0
 11
1031.11110277244
 21
521.8041526422559
 31
0.0
  0
LINE
  5
29B2
330
1B
100
AcDbEntity
  8
文字
100
AcDbLine
 10
1031.06943578784
 20
522.4850037441558
 30
0.0
 11
1030.86110277244
 21
522.5275569305559
 31
0.0
  0
LINE
  5
29B3
330
1B
100
AcDbEntity
  8
文字
100
AcDbLine
 10
1028.02776928014
 20
522.5275569305559
 30
0.0
 11
1029.52776928014
 21
522.5275569305559
 31
0.0
  0
LINE
  5
29B4
330
1B
100
AcDbEntity
  8
文字
100
AcDbLine
 10
1027.44443578784
 20
522.5275569305559
 30
0.0
 11
1027.69443578784
 21
522.5275569305559
 31
0.0
  0
LINE
  5
29B5
330
1B
100
AcDbEntity
  8
文字
100
AcDbLine
 10
1030.86110277244
 20
522.5275569305559
 30
0.0
 11
1029.86110277244
 21
522.5275569305559
 31
0.0
  0
LINE
  5
29B6
330
1B
100
AcDbEntity
  8
文字
100
AcDbLine
 10
1030.90276880334
 20
522.3147909984559
 30
0.0
 11
1030.11110277244
 21
522.3147909984559
 31
0.0
  0
LINE
  5
29B7
330
1B
100
AcDbEntity
  8
文字
100
AcDbLine
 10
1029.52776928014
 20
522.2722378120558
 30
0.0
 11
1028.27776928014
 21
522.2722378120558
 31
0.0
  0
LINE
  5
29B8
330
1B
100
AcDbEntity
  8
文字
100
AcDbLine
 10
1028.27776928014
 20
521.7190462694558
 30
0.0
 11
1029.36110229554
 21
521.7190462694558
 31
0.0
  0
LINE
  5
29B9
330
1B
100
AcDbEntity
  8
文字
100
AcDbLine
 10
1030.11110277244
 20
521.6764930829558
 30
0.0
 11
1030.90276880334
 21
521.6764930829558
 31
0.0
  0
LINE
  5
29BA
330
1B
100
AcDbEntity
  8
文字
100
AcDbLine
 10
1029.36110229554
 20
521.4637271509558
 30
0.0
 11
1028.27776928014
 21
521.4637271509558
 31
0.0
  0
LINE
  5
29BB
330
1B
100
AcDbEntity
  8
文字
100
AcDbLine
 10
1030.11110277244
 20
521.4211739644558
 30
0.0
 11
1030.81943578784
 21
521.4211739644558
 31
0.0
  0
LINE
  5
29BC
330
1B
100
AcDbEntity
  8
文字
100
AcDbLine
 10
1028.27776928014
 20
520.7828760788559
 30
0.0
 11
1029.52776928014
 21
520.7828760788559
 31
0.0
  0
LINE
  5
29BD
330
1B
100
AcDbEntity
  8
文字
100
AcDbLine
 10
1031.11110277244
 20
521.8041526422559
 30
0.0
 11
1031.15276880334
 21
521.9318122014558
 31
0.0
  0
LINE
  5
29BE
330
1B
100
AcDbEntity
  8
文字
100
AcDbLine
 10
1031.02776880334
 20
522.2722378120558
 30
0.0
 11
1030.90276880334
 21
522.3147909984559
 31
0.0
  0
LINE
  5
29BF
330
1B
100
AcDbEntity
  8
文字
100
AcDbLine
 10
1031.15276880334
 20
521.9318122014558
 30
0.0
 11
1031.15276880334
 21
522.0594718799558
 31
0.0
  0
LINE
  5
29C0
330
1B
100
AcDbEntity
  8
文字
100
AcDbLine
 10
1030.11110277244
 20
522.3147909984559
 30
0.0
 11
1030.11110277244
 21
521.6764930829558
 31
0.0
  0
LINE
  5
29C1
330
1B
100
AcDbEntity
  8
文字
100
AcDbLine
 10
1031.15276880334
 20
522.0594718799558
 30
0.0
 11
1031.11110277244
 21
522.1871314392558
 31
0.0
  0
LINE
  5
29C2
330
1B
100
AcDbEntity
  8
文字
100
AcDbLine
 10
1031.11110277244
 20
522.1871314392558
 30
0.0
 11
1031.02776880334
 21
522.2722378120558
 31
0.0
  0
LINE
  5
29C3
330
1B
100
AcDbEntity
  8
文字
100
AcDbLine
 10
1031.23610277244
 20
522.3573441848558
 30
0.0
 11
1031.06943578784
 21
522.4850037441558
 31
0.0
  0
LINE
  5
29C4
330
1B
100
AcDbEntity
  8
文字
100
AcDbLine
 10
1027.19443578784
 20
520.9956420407559
 30
0.0
 11
1027.44443578784
 21
522.5275569305559
 31
0.0
  0
LINE
  5
29C5
330
1B
100
AcDbEntity
  8
文字
100
AcDbLine
 10
1029.52776928014
 20
522.5275569305559
 30
0.0
 11
1029.52776928014
 21
522.2722378120558
 31
0.0
  0
LINE
  5
29C6
330
1B
100
AcDbEntity
  8
文字
100
AcDbLine
 10
1029.36110229554
 20
521.7190462694558
 30
0.0
 11
1029.36110229554
 21
521.4637271509558
 31
0.0
  0
LINE
  5
29C7
330
1B
100
AcDbEntity
  8
文字
100
AcDbLine
 10
1028.27776928014
 20
521.4637271509558
 30
0.0
 11
1028.27776928014
 21
520.7828760788559
 31
0.0
  0
LINE
  5
29C8
330
1B
100
AcDbEntity
  8
文字
100
AcDbLine
 10
1028.27776928014
 20
522.2722378120558
 30
0.0
 11
1028.27776928014
 21
521.7190462694558
 31
0.0
  0
LINE
  5
29C9
330
1B
100
AcDbEntity
  8
文字
100
AcDbLine
 10
1031.36110277244
 20
521.7615994558558
 30
0.0
 11
1031.40276880334
 21
521.8892590150558
 31
0.0
  0
LINE
  5
29CA
330
1B
100
AcDbEntity
  8
文字
100
AcDbLine
 10
1031.40276880334
 20
521.8892590150558
 30
0.0
 11
1031.40276880334
 21
522.0594718799558
 31
0.0
  0
LINE
  5
29CB
330
1B
100
AcDbEntity
  8
文字
100
AcDbLine
 10
1031.40276880334
 20
522.0594718799558
 30
0.0
 11
1031.36110277244
 21
522.1871314392558
 31
0.0
  0
LINE
  5
29CC
330
1B
100
AcDbEntity
  8
文字
 62
     0
100
AcDbLine
 10
1055.77486665804
 20
521.5275569305559
 30
0.0
 11
1039.58322985794
 21
484.5847783102558
 31
0.0
  0
LINE
  5
29CD
330
1B
100
AcDbEntity
  8
文字
 62
     0
100
AcDbLine
 10
1039.58322985794
 20
484.5847783102558
 30
0.0
 11
1037.58322985794
 21
484.5847783102558
 31
0.0
  0
LWPOLYLINE
  5
29CE
330
1B
100
AcDbEntity
  8
文字
 62
     0
100
AcDbPolyline
 90
       10
 70
     0
 43
0.0
 10
1035.48321710014
 20
484.4972809749558
 10
1035.90321710014
 20
484.9347767025558
 10
1036.11321710014
 20
485.6347724300558
 10
1037.37321710014
 20
485.6347724300558
 10
1037.30323418994
 20
484.9347767025558
 10
1037.16321710014
 20
484.3222724300559
 10
1036.95321710014
 20
483.8847767025558
 10
1036.67323418994
 20
483.6222767025558
 10
1036.39322564504
 20
483.4472809749558
 10
1035.90321710014
 20
483.2722724300558
  0
LINE
  5
29CF
330
1B
100
AcDbEntity
  8
文字
 62
     0
100
AcDbLine
 10
1035.90321710014
 20
484.9347767025558
 30
0.0
 11
1037.02322564504
 21
484.0597724300558
 31
0.0
  0
LINE
  5
29D0
330
1B
100
AcDbEntity
  8
実線
100
AcDbLine
 10
1050.51943578784
 20
521.5275569305559
 30
0.0
 11
1063.11943578784
 21
521.5275569305559
 31
0.0
  0
LINE
  5
29D1
330
1B
100
AcDbEntity
  8
実線
100
AcDbLine
 10
1050.01943578784
 20
520.6275569305558
 30
0.0
 11
1063.61943578784
 21
520.6275569305558
 31
0.0
  0
LINE
  5
29D2
330
1B
100
AcDbEntity
  8
文字
100
AcDbLine
 10
1043.77776928014
 20
521.5062803373558
 30
0.0
 11
1043.48610229554
 21
521.2084079728558
 31
0.0
  0
LINE
  5
29D3
330
1B
100
AcDbEntity
  8
文字
100
AcDbLine
 10
1043.48610229554
 20
521.5488335237559
 30
0.0
 11
1044.40276928014
 21
522.5275569305559
 31
0.0
  0
LINE
  5
29D4
330
1B
100
AcDbEntity
  8
文字
100
AcDbLine
 10
1043.48610229554
 20
521.2084079728558
 30
0.0
 11
1043.48610229554
 21
520.5275569305558
 31
0.0
  0
LINE
  5
29D5
330
1B
100
AcDbEntity
  8
文字
100
AcDbLine
 10
1043.23610229554
 20
520.5275569305558
 30
0.0
 11
1043.23610229554
 21
522.5275569305559
 31
0.0
  0
LINE
  5
29D6
330
1B
100
AcDbEntity
  8
文字
100
AcDbLine
 10
1042.90276928014
 20
522.5275569305559
 30
0.0
 11
1042.90276928014
 21
520.5275569305558
 31
0.0
  0
LINE
  5
29D7
330
1B
100
AcDbEntity
  8
文字
100
AcDbLine
 10
1041.48610253404
 20
522.2722378120558
 30
0.0
 11
1041.48610253404
 21
520.5275569305558
 31
0.0
  0
LINE
  5
29D8
330
1B
100
AcDbEntity
  8
文字
100
AcDbLine
 10
1041.23610253404
 20
520.5275569305558
 30
0.0
 11
1041.23610253404
 21
522.5275569305559
 31
0.0
  0
LINE
  5
29D9
330
1B
100
AcDbEntity
  8
文字
100
AcDbLine
 10
1040.90276904174
 20
522.5275569305559
 30
0.0
 11
1040.90276904174
 21
520.5275569305558
 31
0.0
  0
LINE
  5
29DA
330
1B
100
AcDbEntity
  8
文字
100
AcDbLine
 10
1040.65276916094
 20
520.5275569305558
 30
0.0
 11
1040.65276916094
 21
522.5275569305559
 31
0.0
  0
LINE
  5
29DB
330
1B
100
AcDbEntity
  8
文字
100
AcDbLine
 10
1040.31943578784
 20
520.7828760788559
 30
0.0
 11
1040.31943578784
 21
520.5275569305558
 31
0.0
  0
LINE
  5
29DC
330
1B
100
AcDbEntity
  8
文字
100
AcDbLine
 10
1042.52776904174
 20
520.5275569305558
 30
0.0
 11
1041.48610253404
 21
522.2722378120558
 31
0.0
  0
LINE
  5
29DD
330
1B
100
AcDbEntity
  8
文字
100
AcDbLine
 10
1038.81943578784
 20
520.5275569305558
 30
0.0
 11
1038.81943578784
 21
522.5275569305559
 31
0.0
  0
LINE
  5
29DE
330
1B
100
AcDbEntity
  8
文字
100
AcDbLine
 10
1040.31943578784
 20
520.5275569305558
 30
0.0
 11
1038.81943578784
 21
520.5275569305558
 31
0.0
  0
LINE
  5
29DF
330
1B
100
AcDbEntity
  8
文字
100
AcDbLine
 10
1038.82776880334
 20
515.2552165046558
 30
0.0
 11
1038.66110277244
 21
515.1701101206558
 31
0.0
  0
LINE
  5
29E0
330
1B
100
AcDbEntity
  8
文字
100
AcDbLine
 10
1037.74443578784
 20
516.9998973712559
 30
0.0
 11
1037.91110277244
 21
517.0850037441558
 31
0.0
  0
LINE
  5
29E1
330
1B
100
AcDbEntity
  8
文字
100
AcDbLine
 10
1038.74443578784
 20
515.5105356678558
 30
0.0
 11
1038.619435787839
 21
515.4254292652558
 31
0.0
  0
LINE
  5
29E2
330
1B
100
AcDbEntity
  8
文字
100
AcDbLine
 10
1037.82776880334
 20
516.7445782527559
 30
0.0
 11
1037.95276880334
 21
516.8296846256558
 31
0.0
  0
LINE
  5
29E3
330
1B
100
AcDbEntity
  8
文字
100
AcDbLine
 10
1038.99443578784
 20
515.4254292652558
 30
0.0
 11
1038.82776880334
 21
515.2552165046558
 31
0.0
  0
LINE
  5
29E4
330
1B
100
AcDbEntity
  8
文字
100
AcDbLine
 10
1037.57776880334
 20
516.8296846256558
 30
0.0
 11
1037.74443578784
 21
516.9998973712559
 31
0.0
  0
LINE
  5
29E5
330
1B
100
AcDbEntity
  8
文字
100
AcDbLine
 10
1038.82776880334
 20
515.6381952271558
 30
0.0
 11
1038.74443578784
 21
515.5105356678558
 31
0.0
  0
LINE
  5
29E6
330
1B
100
AcDbEntity
  8
文字
100
AcDbLine
 10
1037.74443578784
 20
516.6169185743558
 30
0.0
 11
1037.82776880334
 21
516.7445782527559
 31
0.0
  0
LINE
  5
29E7
330
1B
100
AcDbEntity
  8
文字
100
AcDbLine
 10
1039.07776880334
 20
515.5956420407558
 30
0.0
 11
1038.99443578784
 21
515.4254292652558
 31
0.0
  0
LINE
  5
29E8
330
1B
100
AcDbEntity
  8
文字
100
AcDbLine
 10
1037.49443578784
 20
516.6594718799558
 30
0.0
 11
1037.57776880334
 21
516.8296846256558
 31
0.0
  0
LINE
  5
29E9
330
1B
100
AcDbEntity
  8
文字
100
AcDbLine
 10
1038.86943578784
 20
515.8084079728557
 30
0.0
 11
1038.82776880334
 21
515.6381952271558
 31
0.0
  0
LINE
  5
29EA
330
1B
100
AcDbEntity
  8
文字
100
AcDbLine
 10
1039.11943578784
 20
515.8084079728557
 30
0.0
 11
1039.07776880334
 21
515.5956420407558
 31
0.0
  0
LINE
  5
29EB
330
1B
100
AcDbEntity
  8
文字
100
AcDbLine
 10
1037.70276880334
 20
516.4467058286557
 30
0.0
 11
1037.74443578784
 21
516.6169185743558
 31
0.0
  0
LINE
  5
29EC
330
1B
100
AcDbEntity
  8
文字
100
AcDbLine
 10
1037.45276880334
 20
516.4467058286557
 30
0.0
 11
1037.49443578784
 21
516.6594718799558
 31
0.0
  0
LINE
  5
29ED
330
1B
100
AcDbEntity
  8
文字
100
AcDbLine
 10
1039.11943578784
 20
516.4467058286557
 30
0.0
 11
1039.11943578784
 21
515.8084079728557
 31
0.0
  0
LINE
  5
29EE
330
1B
100
AcDbEntity
  8
文字
100
AcDbLine
 10
1039.07776880334
 20
516.6594718799558
 30
0.0
 11
1039.11943578784
 21
516.4467058286557
 31
0.0
  0
LINE
  5
29EF
330
1B
100
AcDbEntity
  8
文字
100
AcDbLine
 10
1038.86943578784
 20
516.4467058286557
 30
0.0
 11
1038.86943578784
 21
515.8084079728557
 31
0.0
  0
LINE
  5
29F0
330
1B
100
AcDbEntity
  8
文字
100
AcDbLine
 10
1037.70276880334
 20
515.8084079728557
 30
0.0
 11
1037.70276880334
 21
516.4467058286557
 31
0.0
  0
LINE
  5
29F1
330
1B
100
AcDbEntity
  8
文字
100
AcDbLine
 10
1037.45276880334
 20
515.8084079728557
 30
0.0
 11
1037.45276880334
 21
516.4467058286557
 31
0.0
  0
LINE
  5
29F2
330
1B
100
AcDbEntity
  8
文字
100
AcDbLine
 10
1037.11943578784
 20
517.1275569305557
 30
0.0
 11
1037.11943578784
 21
516.9147909984558
 31
0.0
  0
LINE
  5
29F3
330
1B
100
AcDbEntity
  8
文字
100
AcDbLine
 10
1036.45276928014
 20
516.9147909984558
 30
0.0
 11
1036.45276928014
 21
515.1275569305558
 31
0.0
  0
LINE
  5
29F4
330
1B
100
AcDbEntity
  8
文字
100
AcDbLine
 10
1036.20276928014
 20
515.1275569305558
 30
0.0
 11
1036.20276928014
 21
516.9147909984558
 31
0.0
  0
LINE
  5
29F5
330
1B
100
AcDbEntity
  8
文字
100
AcDbLine
 10
1037.49443578784
 20
515.5956420407558
 30
0.0
 11
1037.45276880334
 21
515.8084079728557
 31
0.0
  0
LINE
  5
29F6
330
1B
100
AcDbEntity
  8
文字
100
AcDbLine
 10
1038.82776880334
 20
516.6169185743558
 30
0.0
 11
1038.86943578784
 21
516.4467058286557
 31
0.0
  0
LINE
  5
29F7
330
1B
100
AcDbEntity
  8
文字
100
AcDbLine
 10
1037.74443578784
 20
515.6381952271558
 30
0.0
 11
1037.70276880334
 21
515.8084079728557
 31
0.0
  0
LINE
  5
29F8
330
1B
100
AcDbEntity
  8
文字
100
AcDbLine
 10
1038.99443578784
 20
516.8296846256558
 30
0.0
 11
1039.07776880334
 21
516.6594718799558
 31
0.0
  0
LINE
  5
29F9
330
1B
100
AcDbEntity
  8
文字
100
AcDbLine
 10
1035.53610229554
 20
516.9147909984558
 30
0.0
 11
1035.53610229554
 21
517.1275569305557
 31
0.0
  0
LINE
  5
29FA
330
1B
100
AcDbEntity
  8
文字
100
AcDbLine
 10
1037.57776880334
 20
515.4254292652558
 30
0.0
 11
1037.49443578784
 21
515.5956420407558
 31
0.0
  0
LINE
  5
29FB
330
1B
100
AcDbEntity
  8
文字
100
AcDbLine
 10
1038.74443578784
 20
516.7445782527559
 30
0.0
 11
1038.82776880334
 21
516.6169185743558
 31
0.0
  0
LINE
  5
29FC
330
1B
100
AcDbEntity
  8
文字
100
AcDbLine
 10
1037.82776880334
 20
515.5105356678558
 30
0.0
 11
1037.74443578784
 21
515.6381952271558
 31
0.0
  0
LINE
  5
29FD
330
1B
100
AcDbEntity
  8
文字
100
AcDbLine
 10
1038.82776880334
 20
516.9998973712559
 30
0.0
 11
1038.99443578784
 21
516.8296846256558
 31
0.0
  0
LINE
  5
29FE
330
1B
100
AcDbEntity
  8
文字
100
AcDbLine
 10
1038.11943578784
 20
517.1275569305557
 30
0.0
 11
1038.45276880334
 21
517.1275569305557
 31
0.0
  0
LINE
  5
29FF
330
1B
100
AcDbEntity
  8
文字
100
AcDbLine
 10
1035.53610229554
 20
517.1275569305557
 30
0.0
 11
1037.11943578784
 21
517.1275569305557
 31
0.0
  0
LINE
  5
2A00
330
1B
100
AcDbEntity
  8
文字
100
AcDbLine
 10
1036.20276928014
 20
516.9147909984558
 30
0.0
 11
1035.53610229554
 21
516.9147909984558
 31
0.0
  0
LINE
  5
2A01
330
1B
100
AcDbEntity
  8
文字
100
AcDbLine
 10
1037.11943578784
 20
516.9147909984558
 30
0.0
 11
1036.45276928014
 21
516.9147909984558
 31
0.0
  0
LINE
  5
2A02
330
1B
100
AcDbEntity
  8
文字
100
AcDbLine
 10
1038.11943578784
 20
516.8722378120557
 30
0.0
 11
1038.45276880334
 21
516.8722378120557
 31
0.0
  0
LINE
  5
2A03
330
1B
100
AcDbEntity
  8
文字
100
AcDbLine
 10
1037.91110277244
 20
517.0850037441558
 30
0.0
 11
1038.11943578784
 21
517.1275569305557
 31
0.0
  0
LINE
  5
2A04
330
1B
100
AcDbEntity
  8
文字
100
AcDbLine
 10
1038.66110277244
 20
515.1701101206558
 30
0.0
 11
1038.45276880334
 21
515.1275569305558
 31
0.0
  0
LINE
  5
2A05
330
1B
100
AcDbEntity
  8
文字
100
AcDbLine
 10
1037.95276880334
 20
516.8296846256558
 30
0.0
 11
1038.11943578784
 21
516.8722378120557
 31
0.0
  0
LINE
  5
2A06
330
1B
100
AcDbEntity
  8
文字
100
AcDbLine
 10
1038.619435787839
 20
515.4254292652558
 30
0.0
 11
1038.45276880334
 21
515.3828760788558
 31
0.0
  0
LINE
  5
2A07
330
1B
100
AcDbEntity
  8
文字
100
AcDbLine
 10
1037.74443578784
 20
515.2552165046558
 30
0.0
 11
1037.57776880334
 21
515.4254292652558
 31
0.0
  0
LINE
  5
2A08
330
1B
100
AcDbEntity
  8
文字
100
AcDbLine
 10
1038.619435787839
 20
516.8296846256558
 30
0.0
 11
1038.74443578784
 21
516.7445782527559
 31
0.0
  0
LINE
  5
2A09
330
1B
100
AcDbEntity
  8
文字
100
AcDbLine
 10
1037.95276880334
 20
515.4254292652558
 30
0.0
 11
1037.82776880334
 21
515.5105356678558
 31
0.0
  0
LINE
  5
2A0A
330
1B
100
AcDbEntity
  8
文字
100
AcDbLine
 10
1038.66110277244
 20
517.0850037441558
 30
0.0
 11
1038.82776880334
 21
516.9998973712559
 31
0.0
  0
LINE
  5
2A0B
330
1B
100
AcDbEntity
  8
文字
100
AcDbLine
 10
1037.91110277244
 20
515.1701101206558
 30
0.0
 11
1037.74443578784
 21
515.2552165046558
 31
0.0
  0
LINE
  5
2A0C
330
1B
100
AcDbEntity
  8
文字
100
AcDbLine
 10
1038.45276880334
 20
516.8722378120557
 30
0.0
 11
1038.619435787839
 21
516.8296846256558
 31
0.0
  0
LINE
  5
2A0D
330
1B
100
AcDbEntity
  8
文字
100
AcDbLine
 10
1038.11943578784
 20
515.3828760788558
 30
0.0
 11
1037.95276880334
 21
515.4254292652558
 31
0.0
  0
LINE
  5
2A0E
330
1B
100
AcDbEntity
  8
文字
100
AcDbLine
 10
1038.45276880334
 20
517.1275569305557
 30
0.0
 11
1038.66110277244
 21
517.0850037441558
 31
0.0
  0
LINE
  5
2A0F
330
1B
100
AcDbEntity
  8
文字
100
AcDbLine
 10
1038.11943578784
 20
515.1275569305558
 30
0.0
 11
1037.91110277244
 21
515.1701101206558
 31
0.0
  0
LINE
  5
2A10
330
1B
100
AcDbEntity
  8
文字
100
AcDbLine
 10
1038.45276880334
 20
515.3828760788558
 30
0.0
 11
1038.11943578784
 21
515.3828760788558
 31
0.0
  0
LINE
  5
2A11
330
1B
100
AcDbEntity
  8
文字
100
AcDbLine
 10
1036.45276928014
 20
515.1275569305558
 30
0.0
 11
1036.20276928014
 21
515.1275569305558
 31
0.0
  0
LINE
  5
2A12
330
1B
100
AcDbEntity
  8
文字
100
AcDbLine
 10
1038.45276880334
 20
515.1275569305558
 30
0.0
 11
1038.11943578784
 21
515.1275569305558
 31
0.0
  0
CIRCLE
  5
2A13
330
1B
100
AcDbEntity
  8
実線
100
AcDbCircle
 10
1041.81943578784
 20
518.5275569305558
 30
0.0
 40
0.75
  0
LINE
  5
2A14
330
1B
100
AcDbEntity
  8
文字
100
AcDbLine
 10
1040.49443578784
 20
516.2764930829559
 30
0.0
 11
1040.61943578784
 21
516.3190462694558
 31
0.0
  0
LINE
  5
2A15
330
1B
100
AcDbEntity
  8
文字
100
AcDbLine
 10
1040.66110277244
 20
516.1062803373559
 30
0.0
 11
1040.82776880334
 21
516.1913867101558
 31
0.0
  0
LINE
  5
2A16
330
1B
100
AcDbEntity
  8
文字
100
AcDbLine
 10
1040.61943578784
 20
516.3190462694558
 30
0.0
 11
1040.70276880334
 21
516.4041526422558
 31
0.0
  0
LINE
  5
2A17
330
1B
100
AcDbEntity
  8
文字
100
AcDbLine
 10
1040.82776880334
 20
516.1913867101558
 30
0.0
 11
1040.95276880334
 21
516.3615994558559
 31
0.0
  0
LINE
  5
2A18
330
1B
100
AcDbEntity
  8
文字
100
AcDbLine
 10
1040.95276880334
 20
516.3615994558559
 30
0.0
 11
1040.99443578784
 21
516.4892590150558
 31
0.0
  0
LINE
  5
2A19
330
1B
100
AcDbEntity
  8
文字
100
AcDbLine
 10
1040.70276880334
 20
516.4041526422558
 30
0.0
 11
1040.74443578784
 21
516.5318122014558
 31
0.0
  0
LINE
  5
2A1A
330
1B
100
AcDbEntity
  8
文字
100
AcDbLine
 10
1040.99443578784
 20
516.4892590150558
 30
0.0
 11
1040.99443578784
 21
516.6594718799558
 31
0.0
  0
LINE
  5
2A1B
330
1B
100
AcDbEntity
  8
文字
100
AcDbLine
 10
1040.74443578784
 20
516.5318122014558
 30
0.0
 11
1040.74443578784
 21
516.6594718799558
 31
0.0
  0
LINE
  5
2A1C
330
1B
100
AcDbEntity
  8
文字
100
AcDbLine
 10
1039.70276880334
 20
515.1275569305558
 30
0.0
 11
1039.70276880334
 21
516.0211739644558
 31
0.0
  0
LINE
  5
2A1D
330
1B
100
AcDbEntity
  8
文字
100
AcDbLine
 10
1039.70276880334
 20
516.9147909984558
 30
0.0
 11
1039.70276880334
 21
516.2764930829559
 31
0.0
  0
LINE
  5
2A1E
330
1B
100
AcDbEntity
  8
文字
100
AcDbLine
 10
1039.45276880334
 20
517.1275569305557
 30
0.0
 11
1039.45276880334
 21
515.1275569305558
 31
0.0
  0
LINE
  5
2A1F
330
1B
100
AcDbEntity
  8
文字
100
AcDbLine
 10
1040.99443578784
 20
516.6594718799558
 30
0.0
 11
1040.95276880334
 21
516.7871314392558
 31
0.0
  0
LINE
  5
2A20
330
1B
100
AcDbEntity
  8
文字
100
AcDbLine
 10
1040.74443578784
 20
516.6594718799558
 30
0.0
 11
1040.70276880334
 21
516.7871314392558
 31
0.0
  0
LINE
  5
2A21
330
1B
100
AcDbEntity
  8
文字
100
AcDbLine
 10
1040.41110277244
 20
516.0211739644558
 30
0.0
 11
1040.74443578784
 21
515.1275569305558
 31
0.0
  0
LINE
  5
2A22
330
1B
100
AcDbEntity
  8
文字
100
AcDbLine
 10
1041.03610277244
 20
515.1275569305558
 30
0.0
 11
1040.66110277244
 21
516.1062803373559
 31
0.0
  0
LINE
  5
2A23
330
1B
100
AcDbEntity
  8
文字
100
AcDbLine
 10
1040.90276904174
 20
520.5275569305558
 30
0.0
 11
1040.65276916094
 21
520.5275569305558
 31
0.0
  0
LINE
  5
2A24
330
1B
100
AcDbEntity
  8
文字
100
AcDbLine
 10
1041.48610253404
 20
520.5275569305558
 30
0.0
 11
1041.23610253404
 21
520.5275569305558
 31
0.0
  0
LINE
  5
2A25
330
1B
100
AcDbEntity
  8
文字
100
AcDbLine
 10
1042.90276928014
 20
520.5275569305558
 30
0.0
 11
1042.52776904174
 21
520.5275569305558
 31
0.0
  0
LINE
  5
2A26
330
1B
100
AcDbEntity
  8
文字
100
AcDbLine
 10
1043.48610229554
 20
520.5275569305558
 30
0.0
 11
1043.23610229554
 21
520.5275569305558
 31
0.0
  0
LINE
  5
2A27
330
1B
100
AcDbEntity
  8
文字
100
AcDbLine
 10
1040.95276880334
 20
516.7871314392558
 30
0.0
 11
1040.82776880334
 21
516.9573441848558
 31
0.0
  0
LINE
  5
2A28
330
1B
100
AcDbEntity
  8
文字
100
AcDbLine
 10
1040.70276880334
 20
516.7871314392558
 30
0.0
 11
1040.61943578784
 21
516.8722378120557
 31
0.0
  0
LINE
  5
2A29
330
1B
100
AcDbEntity
  8
文字
100
AcDbLine
 10
1040.82776880334
 20
516.9573441848558
 30
0.0
 11
1040.66110277244
 21
517.0850037441558
 31
0.0
  0
LINE
  5
2A2A
330
1B
100
AcDbEntity
  8
文字
100
AcDbLine
 10
1040.45276880334
 20
517.1275569305557
 30
0.0
 11
1039.45276880334
 21
517.1275569305557
 31
0.0
  0
LINE
  5
2A2B
330
1B
100
AcDbEntity
  8
文字
100
AcDbLine
 10
1040.49443578784
 20
516.9147909984558
 30
0.0
 11
1039.70276880334
 21
516.9147909984558
 31
0.0
  0
LINE
  5
2A2C
330
1B
100
AcDbEntity
  8
文字
100
AcDbLine
 10
1040.61943578784
 20
516.8722378120557
 30
0.0
 11
1040.49443578784
 21
516.9147909984558
 31
0.0
  0
LINE
  5
2A2D
330
1B
100
AcDbEntity
  8
文字
100
AcDbLine
 10
1040.66110277244
 20
517.0850037441558
 30
0.0
 11
1040.45276880334
 21
517.1275569305557
 31
0.0
  0
LINE
  5
2A2E
330
1B
100
AcDbEntity
  8
文字
100
AcDbLine
 10
1039.70276880334
 20
516.2764930829559
 30
0.0
 11
1040.49443578784
 21
516.2764930829559
 31
0.0
  0
LINE
  5
2A2F
330
1B
100
AcDbEntity
  8
文字
100
AcDbLine
 10
1039.70276880334
 20
516.0211739644558
 30
0.0
 11
1040.41110277244
 21
516.0211739644558
 31
0.0
  0
LINE
  5
2A30
330
1B
100
AcDbEntity
  8
文字
100
AcDbLine
 10
1040.74443578784
 20
515.1275569305558
 30
0.0
 11
1041.03610277244
 21
515.1275569305558
 31
0.0
  0
LINE
  5
2A31
330
1B
100
AcDbEntity
  8
文字
100
AcDbLine
 10
1039.45276880334
 20
515.1275569305558
 30
0.0
 11
1039.70276880334
 21
515.1275569305558
 31
0.0
  0
LINE
  5
2A32
330
1B
100
AcDbEntity
  8
文字
100
AcDbLine
 10
1039.06943578784
 20
520.7828760788559
 30
0.0
 11
1040.31943578784
 21
520.7828760788559
 31
0.0
  0
LINE
  5
2A33
330
1B
100
AcDbEntity
  8
文字
100
AcDbLine
 10
1039.06943578784
 20
522.5275569305559
 30
0.0
 11
1039.06943578784
 21
520.7828760788559
 31
0.0
  0
LINE
  5
2A34
330
1B
100
AcDbEntity
  8
文字
100
AcDbLine
 10
1038.81943578784
 20
522.5275569305559
 30
0.0
 11
1039.06943578784
 21
522.5275569305559
 31
0.0
  0
LINE
  5
2A35
330
1B
100
AcDbEntity
  8
文字
100
AcDbLine
 10
1043.48610229554
 20
522.5275569305559
 30
0.0
 11
1043.48610229554
 21
521.5488335237559
 31
0.0
  0
LINE
  5
2A36
330
1B
100
AcDbEntity
  8
文字
100
AcDbLine
 10
1042.65276904174
 20
520.8254292652558
 30
0.0
 11
1042.65276904174
 21
522.5275569305559
 31
0.0
  0
LINE
  5
2A37
330
1B
100
AcDbEntity
  8
文字
100
AcDbLine
 10
1041.61110253404
 20
522.5275569305559
 30
0.0
 11
1042.65276904174
 21
520.8254292652558
 31
0.0
  0
LINE
  5
2A38
330
1B
100
AcDbEntity
  8
文字
100
AcDbLine
 10
1043.23610229554
 20
522.5275569305559
 30
0.0
 11
1043.48610229554
 21
522.5275569305559
 31
0.0
  0
LINE
  5
2A39
330
1B
100
AcDbEntity
  8
文字
100
AcDbLine
 10
1042.65276904174
 20
522.5275569305559
 30
0.0
 11
1042.90276928014
 21
522.5275569305559
 31
0.0
  0
LINE
  5
2A3A
330
1B
100
AcDbEntity
  8
文字
100
AcDbLine
 10
1041.23610253404
 20
522.5275569305559
 30
0.0
 11
1041.61110253404
 21
522.5275569305559
 31
0.0
  0
LINE
  5
2A3B
330
1B
100
AcDbEntity
  8
文字
100
AcDbLine
 10
1040.65276916094
 20
522.5275569305559
 30
0.0
 11
1040.90276904174
 21
522.5275569305559
 31
0.0
  0
LINE
  5
2A3C
330
1B
100
AcDbEntity
  8
文字
100
AcDbLine
 10
1043.98610229554
 20
521.7190462694558
 30
0.0
 11
1044.73610229554
 21
520.5275569305558
 31
0.0
  0
LINE
  5
2A3D
330
1B
100
AcDbEntity
  8
文字
100
AcDbLine
 10
1044.40276928014
 20
520.5275569305558
 30
0.0
 11
1043.77776928014
 21
521.5062803373558
 31
0.0
  0
LINE
  5
2A3E
330
1B
100
AcDbEntity
  8
文字
100
AcDbLine
 10
1044.73610229554
 20
520.5275569305558
 30
0.0
 11
1044.40276928014
 21
520.5275569305558
 31
0.0
  0
LINE
  5
2A3F
330
1B
100
AcDbEntity
  8
文字
100
AcDbLine
 10
1044.73610229554
 20
522.5275569305559
 30
0.0
 11
1043.98610229554
 21
521.7190462694558
 31
0.0
  0
LINE
  5
2A40
330
1B
100
AcDbEntity
  8
文字
100
AcDbLine
 10
1044.40276928014
 20
522.5275569305559
 30
0.0
 11
1044.73610229554
 21
522.5275569305559
 31
0.0
  0
LWPOLYLINE
  5
2A41
330
1B
100
AcDbEntity
  8
寸法
100
AcDbPolyline
 90
        3
 70
     0
 43
0.0
 10
1055.54444733594
 20
519.4448827034558
 10
1055.77486665804
 20
521.5275569305559
 10
1054.39958288674
 20
519.9466649201558
  0
ARC
  5
2A42
330
1B
100
AcDbEntity
  8
実線
100
AcDbCircle
 10
1076.90829395704
 20
502.6275569305558
 30
0.0
 40
1.0
100
AcDbArc
 50
269.9999999994984
 51
352.5946098146005
  0
LINE
  5
2A43
330
1B
100
AcDbEntity
  8
実線
100
AcDbLine
 10
1077.84947778164
 20
502.2319173741558
 30
0.0
 11
1077.92648429204
 21
502.5072839320558
 31
0.0
  0
LINE
  5
2A44
330
1B
100
AcDbEntity
  8
実線
100
AcDbLine
 10
1076.90829395704
 20
501.6275569305558
 30
0.0
 11
1076.90839738384
 21
501.6283843590558
 31
0.0
  0
LWPOLYLINE
  5
2A45
330
1B
100
AcDbEntity
  8
実線
100
AcDbPolyline
 90
        5
 70
     0
 43
0.0
 10
1077.20741879764
 20
501.6756595337558
 10
1077.21811032644
 20
501.6772047238559
 10
1077.48020809844
 20
501.7980125619557
 10
1077.69563673154
 20
501.9871973708558
 10
1077.84947778164
 20
502.2319173741558
  0
LWPOLYLINE
  5
2A46
330
1B
100
AcDbEntity
  8
実線
100
AcDbPolyline
 90
        6
 70
     0
 43
0.0
 10
1076.90839738384
 20
501.6283872351558
 10
1077.19273015464
 20
501.6696579721558
 10
1077.45359160014
 20
501.7900680264558
 10
1077.66944792464
 20
501.9796776943557
 10
1077.82248045014
 20
502.2228349276558
 10
1077.900056527439
 20
502.4994673917558
  0
LWPOLYLINE
  5
2A47
330
1B
100
AcDbEntity
  8
実線
100
AcDbPolyline
 90
        9
 70
     0
 43
0.0
 10
1071.45754778624
 20
515.0959812512557
 10
1071.38449608884
 20
514.6635243711558
 10
1071.26854631364
 20
514.2869572630559
 10
1071.11504832194
 20
513.9645076360558
 10
1070.92812541654
 20
513.6960216765557
 10
1070.71206629944
 20
513.4834619947558
 10
1070.47363495914
 20
513.3307563844558
 10
1070.22595906724
 20
513.2416371565558
 10
1069.98033615664
 20
513.2132130673558
  0
LWPOLYLINE
  5
2A48
330
1B
100
AcDbEntity
  8
実線
100
AcDbPolyline
 90
        9
 70
     0
 43
0.0
 10
1070.965132247239
 20
515.3581696811559
 10
1070.91644423054
 20
514.9330349322558
 10
1070.83914782074
 20
514.5627207015559
 10
1070.73682220264
 20
514.2456428142558
 10
1070.61221803194
 20
513.9816438996558
 10
1070.46819413154
 20
513.7726467126558
 10
1070.30924698054
 20
513.6225009776558
 10
1070.14413406474
 20
513.5348516078559
 10
1069.98040647834
 20
513.5068893850558
  0
LWPOLYLINE
  5
2A49
330
1B
100
AcDbEntity
  8
実線
100
AcDbPolyline
 90
        5
 70
     0
 43
0.0
 10
1071.45754778624
 20
515.0959800957558
 10
1071.28420893634
 20
515.1260459358559
 10
1071.13255999554
 20
515.1851763053558
 10
1071.02157651944
 20
515.2659723314558
 10
1070.96514566834
 20
515.3583241570559
  0
LINE
  5
2A4A
330
1B
100
AcDbEntity
  8
実線
100
AcDbLine
 10
1076.94272009494
 20
561.6275569305559
 30
0.0
 11
1012.69615148074
 21
561.6275569305559
 31
0.0
  0
LINE
  5
2A4B
330
1B
100
AcDbEntity
  8
実線
100
AcDbLine
 10
1019.71649730324
 20
550.3188357172558
 30
0.0
 11
1069.92237427244
 21
550.3188357172558
 31
0.0
  0
LINE
  5
2A4C
330
1B
100
AcDbEntity
  8
実線
100
AcDbLine
 10
1019.71649730324
 20
550.0205241210558
 30
0.0
 11
1069.92247628764
 21
550.0205241210558
 31
0.0
  0
LINE
  5
2A4D
330
1B
100
AcDbEntity
  8
文字
  6
CENTER
 62
     0
100
AcDbLine
 10
1044.81943578784
 20
531.6275569305558
 30
0.0
 11
1021.91943578784
 21
531.6275569305558
 31
0.0
  0
LINE
  5
2A4E
330
1B
100
AcDbEntity
  8
実線
100
AcDbLine
 10
984.51421994584
 20
585.4212956973558
 30
0.0
 11
984.51421994584
 21
635.6272746816557
 31
0.0
  0
LINE
  5
2A4F
330
1B
100
AcDbEntity
  8
実線
100
AcDbLine
 10
984.4154806984402
 20
585.4212956973558
 30
0.0
 11
984.4154806984402
 21
635.6271726664559
 31
0.0
  0
LINE
  5
2A50
330
1B
100
AcDbEntity
  8
実線
100
AcDbLine
 10
962.0142199458401
 20
585.0242341818558
 30
0.0
 11
962.0142199458401
 21
636.0242341818558
 31
0.0
  0
LINE
  5
2A51
330
1B
100
AcDbEntity
  8
実線
100
AcDbLine
 10
961.2142199458402
 20
585.5242341818558
 30
0.0
 11
961.2142199458402
 21
635.5242341818558
 31
0.0
  0
LINE
  5
2A52
330
1B
100
AcDbEntity
  8
実線
100
AcDbLine
 10
929.71421994584
 20
635.5242341818558
 30
0.0
 11
929.71421994584
 21
585.5242341818558
 31
0.0
  0
LINE
  5
2A53
330
1B
100
AcDbEntity
  8
実線
100
AcDbLine
 10
929.51421994584
 20
636.0242341818558
 30
0.0
 11
929.51421994584
 21
585.0242341818558
 31
0.0
  0
ARC
  5
2A54
330
1B
100
AcDbEntity
  8
実線
100
AcDbCircle
 10
962.51421994584
 20
772.5242341818558
 30
0.0
 40
196.9800876184
100
AcDbArc
 50
270.0
 51
277.876385855201
  0
LINE
  5
2A55
330
1B
100
AcDbEntity
  8
実線
100
AcDbLine
 10
968.11415644834
 20
561.0214477310559
 30
0.0
 11
970.3248297528402
 21
560.4367226922558
 31
0.0
  0
LINE
  5
2A56
330
1B
100
AcDbEntity
  8
文字
 62
     0
100
AcDbLine
 10
912.6205220530401
 20
608.8581911369558
 30
0.0
 11
926.22956606174
 21
570.7895898565558
 31
0.0
  0
LINE
  5
2A57
330
1B
100
AcDbEntity
  8
文字
 62
     0
100
AcDbLine
 10
936.6995708598402
 20
572.0146015316559
 30
0.0
 11
936.9795537700401
 21
571.7521015316558
 31
0.0
  0
LWPOLYLINE
  5
2A58
330
1B
100
AcDbEntity
  8
文字
 62
     0
100
AcDbPolyline
 90
        6
 70
     0
 43
0.0
 10
935.1595623149401
 20
569.5645844417558
 10
935.7195537700402
 20
569.5645844417558
 10
936.2795708598401
 20
569.8270844417558
 10
936.6295623149401
 20
570.2645929867558
 10
936.8395623149401
 20
570.7021015316558
 10
937.0495623149402
 20
571.3145929867558
  0
LINE
  5
2A59
330
1B
100
AcDbEntity
  8
文字
100
AcDbLine
 10
936.0517199458401
 20
531.9147909388558
 30
0.0
 11
937.80172042264
 21
531.9147909388558
 31
0.0
  0
LINE
  5
2A5A
330
1B
100
AcDbEntity
  8
文字
100
AcDbLine
 10
937.80172042264
 20
531.5318122611558
 30
0.0
 11
936.0517199458401
 21
531.5318122611558
 31
0.0
  0
LINE
  5
2A5B
330
1B
100
AcDbEntity
  8
文字
100
AcDbLine
 10
916.9267199458401
 20
533.1275569305558
 30
0.0
 11
917.8642199458401
 21
530.4467058733559
 31
0.0
  0
LINE
  5
2A5C
330
1B
100
AcDbEntity
  8
文字
100
AcDbLine
 10
918.9892199458402
 20
532.4892591342559
 30
0.0
 11
918.1142198862401
 21
530.1275569305557
 31
0.0
  0
LINE
  5
2A5D
330
1B
100
AcDbEntity
  8
文字
100
AcDbLine
 10
917.8642199458401
 20
530.4467058733559
 30
0.0
 11
918.8017199458402
 21
533.1275569305558
 31
0.0
  0
LINE
  5
2A5E
330
1B
100
AcDbEntity
  8
文字
100
AcDbLine
 10
920.2392198266402
 20
533.1275569305558
 30
0.0
 11
920.2392198266402
 21
530.1275569305557
 31
0.0
  0
LINE
  5
2A5F
330
1B
100
AcDbEntity
  8
文字
100
AcDbLine
 10
919.8642198266401
 20
530.1275569305557
 30
0.0
 11
919.8642198266401
 21
533.1275569305558
 31
0.0
  0
LINE
  5
2A60
330
1B
100
AcDbEntity
  8
文字
100
AcDbLine
 10
919.3642199458402
 20
533.1275569305558
 30
0.0
 11
919.3642199458402
 21
530.1275569305557
 31
0.0
  0
LINE
  5
2A61
330
1B
100
AcDbEntity
  8
文字
100
AcDbLine
 10
918.9892199458402
 20
530.1275569305557
 30
0.0
 11
918.9892199458402
 21
532.4892591342559
 31
0.0
  0
LINE
  5
2A62
330
1B
100
AcDbEntity
  8
文字
100
AcDbLine
 10
916.7392199458403
 20
532.4892591342559
 30
0.0
 11
916.7392199458403
 21
530.1275569305557
 31
0.0
  0
LINE
  5
2A63
330
1B
100
AcDbEntity
  8
文字
100
AcDbLine
 10
916.3642199458402
 20
530.1275569305557
 30
0.0
 11
916.3642199458402
 21
533.1275569305558
 31
0.0
  0
LINE
  5
2A64
330
1B
100
AcDbEntity
  8
文字
100
AcDbLine
 10
917.6142199160402
 20
530.1275569305557
 30
0.0
 11
916.7392199458403
 21
532.4892591342559
 31
0.0
  0
LINE
  5
2A65
330
1B
100
AcDbEntity
  8
文字
100
AcDbLine
 10
916.7392199458403
 20
530.1275569305557
 30
0.0
 11
916.3642199458402
 21
530.1275569305557
 31
0.0
  0
LINE
  5
2A66
330
1B
100
AcDbEntity
  8
文字
100
AcDbLine
 10
918.1142198862401
 20
530.1275569305557
 30
0.0
 11
917.6142199160402
 21
530.1275569305557
 31
0.0
  0
LINE
  5
2A67
330
1B
100
AcDbEntity
  8
文字
100
AcDbLine
 10
919.3642199458402
 20
530.1275569305557
 30
0.0
 11
918.9892199458402
 21
530.1275569305557
 31
0.0
  0
LINE
  5
2A68
330
1B
100
AcDbEntity
  8
文字
100
AcDbLine
 10
920.2392198266402
 20
530.1275569305557
 30
0.0
 11
919.8642198266401
 21
530.1275569305557
 31
0.0
  0
LINE
  5
2A69
330
1B
100
AcDbEntity
  8
文字
100
AcDbLine
 10
916.3642199458402
 20
533.1275569305558
 30
0.0
 11
916.9267199458401
 21
533.1275569305558
 31
0.0
  0
LINE
  5
2A6A
330
1B
100
AcDbEntity
  8
文字
100
AcDbLine
 10
919.8642198266401
 20
533.1275569305558
 30
0.0
 11
920.2392198266402
 21
533.1275569305558
 31
0.0
  0
LINE
  5
2A6B
330
1B
100
AcDbEntity
  8
文字
100
AcDbLine
 10
918.8017199458402
 20
533.1275569305558
 30
0.0
 11
919.3642199458402
 21
533.1275569305558
 31
0.0
  0
LINE
  5
2A6C
330
1B
100
AcDbEntity
  8
文字
100
AcDbLine
 10
928.6767194690401
 20
531.1488334939558
 30
0.0
 11
928.6767194690401
 21
533.1275569305558
 31
0.0
  0
LINE
  5
2A6D
330
1B
100
AcDbEntity
  8
文字
100
AcDbLine
 10
928.3017201842401
 20
533.1275569305558
 30
0.0
 11
928.3017201842401
 21
531.1488334939558
 31
0.0
  0
LINE
  5
2A6E
330
1B
100
AcDbEntity
  8
文字
100
AcDbLine
 10
926.80172018424
 20
531.1488334939558
 30
0.0
 11
926.80172018424
 21
533.1275569305558
 31
0.0
  0
LINE
  5
2A6F
330
1B
100
AcDbEntity
  8
文字
100
AcDbLine
 10
926.42672018424
 20
533.1275569305558
 30
0.0
 11
926.42672018424
 21
531.1488334939558
 31
0.0
  0
LINE
  5
2A70
330
1B
100
AcDbEntity
  8
文字
100
AcDbLine
 10
924.1767201842401
 20
532.2339398369559
 30
0.0
 11
924.1767201842401
 21
532.3615993962558
 31
0.0
  0
LINE
  5
2A71
330
1B
100
AcDbEntity
  8
文字
100
AcDbLine
 10
923.8017201842401
 20
532.4254293546558
 30
0.0
 11
923.8017201842401
 21
532.1701100573558
 31
0.0
  0
LINE
  5
2A72
330
1B
100
AcDbEntity
  8
文字
100
AcDbLine
 10
922.1142198266401
 20
532.8084080324559
 30
0.0
 11
922.1142198266401
 21
530.1275569305557
 31
0.0
  0
LINE
  5
2A73
330
1B
100
AcDbEntity
  8
文字
100
AcDbLine
 10
921.73921982664
 20
530.1275569305557
 30
0.0
 11
921.73921982664
 21
532.8084080324559
 31
0.0
  0
LINE
  5
2A74
330
1B
100
AcDbEntity
  8
文字
100
AcDbLine
 10
924.6142199458402
 20
531.8509611592558
 30
0.0
 11
924.4267199458402
 21
531.9147909388558
 31
0.0
  0
LINE
  5
2A75
330
1B
100
AcDbEntity
  8
文字
100
AcDbLine
 10
924.3642201842401
 20
531.5318122611558
 30
0.0
 11
924.6142199458402
 21
531.4679824814559
 31
0.0
  0
LINE
  5
2A76
330
1B
100
AcDbEntity
  8
文字
100
AcDbLine
 10
924.9892199458402
 20
530.5105356529558
 30
0.0
 11
924.4892197074401
 21
530.5105356529558
 31
0.0
  0
LINE
  5
2A77
330
1B
100
AcDbEntity
  8
文字
100
AcDbLine
 10
924.4892197074401
 20
530.1275569305557
 30
0.0
 11
924.9892199458402
 21
530.1275569305557
 31
0.0
  0
LINE
  5
2A78
330
1B
100
AcDbEntity
  8
文字
100
AcDbLine
 10
923.8017201842401
 20
532.1701100573558
 30
0.0
 11
923.8642199458402
 21
531.9147909388558
 31
0.0
  0
LINE
  5
2A79
330
1B
100
AcDbEntity
  8
文字
100
AcDbLine
 10
923.6142201842401
 20
530.9573441550558
 30
0.0
 11
923.6767199458402
 21
530.7020250365558
 31
0.0
  0
LINE
  5
2A7A
330
1B
100
AcDbEntity
  8
文字
100
AcDbLine
 10
924.2392199458402
 20
532.0424504980557
 30
0.0
 11
924.1767201842401
 21
532.2339398369559
 31
0.0
  0
LINE
  5
2A7B
330
1B
100
AcDbEntity
  8
文字
100
AcDbLine
 10
924.0517199458402
 20
530.7658548161558
 30
0.0
 11
923.9892201842401
 21
530.9573441550558
 31
0.0
  0
LINE
  5
2A7C
330
1B
100
AcDbEntity
  8
文字
100
AcDbLine
 10
923.6767199458402
 20
530.7020250365558
 30
0.0
 11
923.8642199458402
 21
530.3828760713559
 31
0.0
  0
LINE
  5
2A7D
330
1B
100
AcDbEntity
  8
文字
100
AcDbLine
 10
923.8642199458402
 20
531.9147909388558
 30
0.0
 11
924.1142197074401
 21
531.6594718203559
 31
0.0
  0
LINE
  5
2A7E
330
1B
100
AcDbEntity
  8
文字
100
AcDbLine
 10
924.2392199458402
 20
530.5743654326558
 30
0.0
 11
924.0517199458402
 21
530.7658548161558
 31
0.0
  0
LINE
  5
2A7F
330
1B
100
AcDbEntity
  8
文字
100
AcDbLine
 10
924.4267199458402
 20
531.9147909388558
 30
0.0
 11
924.2392199458402
 21
532.0424504980557
 31
0.0
  0
LINE
  5
2A80
330
1B
100
AcDbEntity
  8
文字
100
AcDbLine
 10
923.8642199458402
 20
530.3828760713559
 30
0.0
 11
924.1767201842401
 21
530.1913867157558
 31
0.0
  0
LINE
  5
2A81
330
1B
100
AcDbEntity
  8
文字
100
AcDbLine
 10
924.1142197074401
 20
531.6594718203559
 30
0.0
 11
924.3642201842401
 21
531.5318122611558
 31
0.0
  0
LINE
  5
2A82
330
1B
100
AcDbEntity
  8
文字
100
AcDbLine
 10
924.4892197074401
 20
530.5105356529558
 30
0.0
 11
924.2392199458402
 21
530.5743654326558
 31
0.0
  0
LINE
  5
2A83
330
1B
100
AcDbEntity
  8
文字
100
AcDbLine
 10
924.1767201842401
 20
530.1913867157558
 30
0.0
 11
924.4892197074401
 21
530.1275569305557
 31
0.0
  0
LINE
  5
2A84
330
1B
100
AcDbEntity
  8
文字
100
AcDbLine
 10
923.9892201842401
 20
530.9573441550558
 30
0.0
 11
923.6142201842401
 21
530.9573441550558
 31
0.0
  0
LINE
  5
2A85
330
1B
100
AcDbEntity
  8
文字
100
AcDbLine
 10
922.1142198266401
 20
530.1275569305557
 30
0.0
 11
921.73921982664
 21
530.1275569305557
 31
0.0
  0
LINE
  5
2A86
330
1B
100
AcDbEntity
  8
文字
100
AcDbLine
 10
926.42672018424
 20
531.1488334939558
 30
0.0
 11
926.4892199458401
 21
530.8296845958558
 31
0.0
  0
LINE
  5
2A87
330
1B
100
AcDbEntity
  8
文字
100
AcDbLine
 10
926.8642199458401
 20
530.8935143754559
 30
0.0
 11
926.80172018424
 21
531.1488334939558
 31
0.0
  0
LINE
  5
2A88
330
1B
100
AcDbEntity
  8
文字
100
AcDbLine
 10
926.4892199458401
 20
530.8296845958558
 30
0.0
 11
926.61422018424
 21
530.5743654326558
 31
0.0
  0
LINE
  5
2A89
330
1B
100
AcDbEntity
  8
文字
100
AcDbLine
 10
925.9267199458403
 20
531.1488334939558
 30
0.0
 11
925.8017197074401
 21
531.4041527018559
 31
0.0
  0
LINE
  5
2A8A
330
1B
100
AcDbEntity
  8
文字
100
AcDbLine
 10
928.23921970744
 20
530.8935143754559
 30
0.0
 11
928.1142201842401
 21
530.7020250365558
 31
0.0
  0
LINE
  5
2A8B
330
1B
100
AcDbEntity
  8
文字
100
AcDbLine
 10
928.4892194690401
 20
530.5743654326558
 30
0.0
 11
928.6142204226401
 21
530.8296845958558
 31
0.0
  0
LINE
  5
2A8C
330
1B
100
AcDbEntity
  8
文字
100
AcDbLine
 10
925.8017197074401
 20
530.5743654326558
 30
0.0
 11
925.9267199458403
 21
530.8296845958558
 31
0.0
  0
LINE
  5
2A8D
330
1B
100
AcDbEntity
  8
文字
100
AcDbLine
 10
928.3017201842401
 20
531.1488334939558
 30
0.0
 11
928.23921970744
 21
530.8935143754559
 31
0.0
  0
LINE
  5
2A8E
330
1B
100
AcDbEntity
  8
文字
100
AcDbLine
 10
928.6142204226401
 20
530.8296845958558
 30
0.0
 11
928.6767194690401
 21
531.1488334939558
 31
0.0
  0
LINE
  5
2A8F
330
1B
100
AcDbEntity
  8
文字
100
AcDbLine
 10
925.9267199458403
 20
530.8296845958558
 30
0.0
 11
925.9267199458403
 21
531.1488334939558
 31
0.0
  0
LINE
  5
2A90
330
1B
100
AcDbEntity
  8
文字
100
AcDbLine
 10
925.5517199458402
 20
531.0850037143558
 30
0.0
 11
925.5517199458402
 21
530.8935143754559
 31
0.0
  0
LINE
  5
2A91
330
1B
100
AcDbEntity
  8
文字
100
AcDbLine
 10
926.9892201842401
 20
530.7020250365558
 30
0.0
 11
926.8642199458401
 21
530.8935143754559
 31
0.0
  0
LINE
  5
2A92
330
1B
100
AcDbEntity
  8
文字
100
AcDbLine
 10
925.4267197074401
 20
531.2764931426559
 30
0.0
 11
925.5517199458402
 21
531.0850037143558
 31
0.0
  0
LINE
  5
2A93
330
1B
100
AcDbEntity
  8
文字
100
AcDbLine
 10
926.61422018424
 20
530.5743654326558
 30
0.0
 11
926.8642199458401
 21
530.3190462917558
 31
0.0
  0
LINE
  5
2A94
330
1B
100
AcDbEntity
  8
文字
100
AcDbLine
 10
925.8017197074401
 20
531.4041527018559
 30
0.0
 11
925.5517199458402
 21
531.6594718203559
 31
0.0
  0
LINE
  5
2A95
330
1B
100
AcDbEntity
  8
文字
100
AcDbLine
 10
928.1142201842401
 20
530.7020250365558
 30
0.0
 11
927.9267201842401
 21
530.5743654326558
 31
0.0
  0
LINE
  5
2A96
330
1B
100
AcDbEntity
  8
文字
100
AcDbLine
 10
928.23921970744
 20
530.3190462917558
 30
0.0
 11
928.4892194690401
 21
530.5743654326558
 31
0.0
  0
LINE
  5
2A97
330
1B
100
AcDbEntity
  8
文字
100
AcDbLine
 10
925.5517199458402
 20
530.3190462917558
 30
0.0
 11
925.8017197074401
 21
530.5743654326558
 31
0.0
  0
LINE
  5
2A98
330
1B
100
AcDbEntity
  8
文字
100
AcDbLine
 10
925.5517199458402
 20
530.8935143754559
 30
0.0
 11
925.4267197074401
 21
530.7020250365558
 31
0.0
  0
LINE
  5
2A99
330
1B
100
AcDbEntity
  8
文字
100
AcDbLine
 10
927.1767201842401
 20
530.5743654326558
 30
0.0
 11
926.9892201842401
 21
530.7020250365558
 31
0.0
  0
LINE
  5
2A9A
330
1B
100
AcDbEntity
  8
文字
100
AcDbLine
 10
925.2392197074401
 20
531.4041527018559
 30
0.0
 11
925.4267197074401
 21
531.2764931426559
 31
0.0
  0
LINE
  5
2A9B
330
1B
100
AcDbEntity
  8
文字
100
AcDbLine
 10
925.5517199458402
 20
531.6594718203559
 30
0.0
 11
925.3017201842402
 21
531.7871313795558
 31
0.0
  0
LINE
  5
2A9C
330
1B
100
AcDbEntity
  8
文字
100
AcDbLine
 10
926.8642199458401
 20
530.3190462917558
 30
0.0
 11
927.1142197074402
 21
530.1913867157558
 31
0.0
  0
LINE
  5
2A9D
330
1B
100
AcDbEntity
  8
文字
100
AcDbLine
 10
927.9892199458402
 20
530.1913867157558
 30
0.0
 11
928.23921970744
 21
530.3190462917558
 31
0.0
  0
LINE
  5
2A9E
330
1B
100
AcDbEntity
  8
文字
100
AcDbLine
 10
925.3017201842402
 20
530.1913867157558
 30
0.0
 11
925.5517199458402
 21
530.3190462917558
 31
0.0
  0
LINE
  5
2A9F
330
1B
100
AcDbEntity
  8
文字
100
AcDbLine
 10
925.4267197074401
 20
530.7020250365558
 30
0.0
 11
925.2392197074401
 21
530.5743654326558
 31
0.0
  0
LINE
  5
2AA0
330
1B
100
AcDbEntity
  8
文字
100
AcDbLine
 10
924.9892199458402
 20
531.4679824814559
 30
0.0
 11
925.2392197074401
 21
531.4041527018559
 31
0.0
  0
LINE
  5
2AA1
330
1B
100
AcDbEntity
  8
文字
100
AcDbLine
 10
927.4267199458401
 20
530.5105356529558
 30
0.0
 11
927.1767201842401
 21
530.5743654326558
 31
0.0
  0
LINE
  5
2AA2
330
1B
100
AcDbEntity
  8
文字
100
AcDbLine
 10
925.3017201842402
 20
531.7871313795558
 30
0.0
 11
924.9892199458402
 21
531.8509611592558
 31
0.0
  0
LINE
  5
2AA3
330
1B
100
AcDbEntity
  8
文字
100
AcDbLine
 10
927.1142197074402
 20
530.1913867157558
 30
0.0
 11
927.4267199458401
 21
530.1275569305557
 31
0.0
  0
LINE
  5
2AA4
330
1B
100
AcDbEntity
  8
文字
100
AcDbLine
 10
924.9892199458402
 20
531.8509611592558
 30
0.0
 11
924.6142199458402
 21
531.8509611592558
 31
0.0
  0
LINE
  5
2AA5
330
1B
100
AcDbEntity
  8
文字
100
AcDbLine
 10
924.6142199458402
 20
531.4679824814559
 30
0.0
 11
924.9892199458402
 21
531.4679824814559
 31
0.0
  0
LINE
  5
2AA6
330
1B
100
AcDbEntity
  8
文字
100
AcDbLine
 10
927.6767197074402
 20
530.5105356529558
 30
0.0
 11
927.4267199458401
 21
530.5105356529558
 31
0.0
  0
LINE
  5
2AA7
330
1B
100
AcDbEntity
  8
文字
100
AcDbLine
 10
927.4267199458401
 20
530.1275569305557
 30
0.0
 11
927.6767197074402
 21
530.1275569305557
 31
0.0
  0
LINE
  5
2AA8
330
1B
100
AcDbEntity
  8
文字
100
AcDbLine
 10
924.9892199458402
 20
530.1275569305557
 30
0.0
 11
925.3017201842402
 21
530.1913867157558
 31
0.0
  0
LINE
  5
2AA9
330
1B
100
AcDbEntity
  8
文字
100
AcDbLine
 10
927.6767197074402
 20
530.1275569305557
 30
0.0
 11
927.9892199458402
 21
530.1913867157558
 31
0.0
  0
LINE
  5
2AAA
330
1B
100
AcDbEntity
  8
文字
100
AcDbLine
 10
925.2392197074401
 20
530.5743654326558
 30
0.0
 11
924.9892199458402
 21
530.5105356529558
 31
0.0
  0
LINE
  5
2AAB
330
1B
100
AcDbEntity
  8
文字
100
AcDbLine
 10
927.9267201842401
 20
530.5743654326558
 30
0.0
 11
927.6767197074402
 21
530.5105356529558
 31
0.0
  0
LINE
  5
2AAC
330
1B
100
AcDbEntity
  8
文字
100
AcDbLine
 10
924.4267199458402
 20
532.6807484731558
 30
0.0
 11
924.6142199458402
 21
532.7445782527559
 31
0.0
  0
LINE
  5
2AAD
330
1B
100
AcDbEntity
  8
文字
100
AcDbLine
 10
924.6142199458402
 20
533.1275569305558
 30
0.0
 11
924.3642201842401
 21
533.0637271509558
 31
0.0
  0
LINE
  5
2AAE
330
1B
100
AcDbEntity
  8
文字
100
AcDbLine
 10
924.1767201842401
 20
532.3615993962558
 30
0.0
 11
924.2392199458402
 21
532.5530889139558
 31
0.0
  0
LINE
  5
2AAF
330
1B
100
AcDbEntity
  8
文字
100
AcDbLine
 10
923.8642199458402
 20
532.6807484731558
 30
0.0
 11
923.8017201842401
 21
532.4254293546558
 31
0.0
  0
LINE
  5
2AB0
330
1B
100
AcDbEntity
  8
文字
100
AcDbLine
 10
923.1142199458401
 20
533.1275569305558
 30
0.0
 11
923.1142199458401
 21
532.8084080324559
 31
0.0
  0
LINE
  5
2AB1
330
1B
100
AcDbEntity
  8
文字
100
AcDbLine
 10
924.1142197074401
 20
532.9360675916558
 30
0.0
 11
923.8642199458402
 21
532.6807484731558
 31
0.0
  0
LINE
  5
2AB2
330
1B
100
AcDbEntity
  8
文字
100
AcDbLine
 10
920.7392200650401
 20
532.8084080324559
 30
0.0
 11
920.7392200650401
 21
533.1275569305558
 31
0.0
  0
LINE
  5
2AB3
330
1B
100
AcDbEntity
  8
文字
100
AcDbLine
 10
924.3642201842401
 20
533.0637271509558
 30
0.0
 11
924.1142197074401
 21
532.9360675916558
 31
0.0
  0
LINE
  5
2AB4
330
1B
100
AcDbEntity
  8
文字
100
AcDbLine
 10
924.2392199458402
 20
532.5530889139558
 30
0.0
 11
924.4267199458402
 21
532.6807484731558
 31
0.0
  0
LINE
  5
2AB5
330
1B
100
AcDbEntity
  8
文字
100
AcDbLine
 10
920.7392200650401
 20
533.1275569305558
 30
0.0
 11
923.1142199458401
 21
533.1275569305558
 31
0.0
  0
LINE
  5
2AB6
330
1B
100
AcDbEntity
  8
文字
100
AcDbLine
 10
921.73921982664
 20
532.8084080324559
 30
0.0
 11
920.7392200650401
 21
532.8084080324559
 31
0.0
  0
LINE
  5
2AB7
330
1B
100
AcDbEntity
  8
文字
100
AcDbLine
 10
923.1142199458401
 20
532.8084080324559
 30
0.0
 11
922.1142198266401
 21
532.8084080324559
 31
0.0
  0
LINE
  5
2AB8
330
1B
100
AcDbEntity
  8
文字
100
AcDbLine
 10
925.7392199458402
 20
532.4254293546558
 30
0.0
 11
925.6767201842402
 21
532.6169186935557
 31
0.0
  0
LINE
  5
2AB9
330
1B
100
AcDbEntity
  8
文字
100
AcDbLine
 10
925.3017201842402
 20
532.5530889139558
 30
0.0
 11
925.3642199458402
 21
532.4254293546558
 31
0.0
  0
LINE
  5
2ABA
330
1B
100
AcDbEntity
  8
文字
100
AcDbLine
 10
925.6767201842402
 20
532.6169186935557
 30
0.0
 11
925.4892201842402
 21
532.8722378120557
 31
0.0
  0
LINE
  5
2ABB
330
1B
100
AcDbEntity
  8
文字
100
AcDbLine
 10
925.1767199458402
 20
532.6807484731558
 30
0.0
 11
925.3017201842402
 21
532.5530889139558
 31
0.0
  0
LINE
  5
2ABC
330
1B
100
AcDbEntity
  8
文字
100
AcDbLine
 10
925.4892201842402
 20
532.8722378120557
 30
0.0
 11
925.2392197074401
 21
533.0637271509558
 31
0.0
  0
LINE
  5
2ABD
330
1B
100
AcDbEntity
  8
文字
100
AcDbLine
 10
924.9892199458402
 20
532.7445782527559
 30
0.0
 11
925.1767199458402
 21
532.6807484731558
 31
0.0
  0
LINE
  5
2ABE
330
1B
100
AcDbEntity
  8
文字
100
AcDbLine
 10
925.2392197074401
 20
533.0637271509558
 30
0.0
 11
924.9267201842402
 21
533.1275569305558
 31
0.0
  0
LINE
  5
2ABF
330
1B
100
AcDbEntity
  8
文字
100
AcDbLine
 10
924.9267201842402
 20
533.1275569305558
 30
0.0
 11
924.6142199458402
 21
533.1275569305558
 31
0.0
  0
LINE
  5
2AC0
330
1B
100
AcDbEntity
  8
文字
100
AcDbLine
 10
926.80172018424
 20
533.1275569305558
 30
0.0
 11
926.42672018424
 21
533.1275569305558
 31
0.0
  0
LINE
  5
2AC1
330
1B
100
AcDbEntity
  8
文字
100
AcDbLine
 10
928.6767194690401
 20
533.1275569305558
 30
0.0
 11
928.3017201842401
 21
533.1275569305558
 31
0.0
  0
LINE
  5
2AC2
330
1B
100
AcDbEntity
  8
文字
100
AcDbLine
 10
924.6142199458402
 20
532.7445782527559
 30
0.0
 11
924.9892199458402
 21
532.7445782527559
 31
0.0
  0
LINE
  5
2AC3
330
1B
100
AcDbEntity
  8
文字
100
AcDbLine
 10
925.3642199458402
 20
532.4254293546558
 30
0.0
 11
925.7392199458402
 21
532.4254293546558
 31
0.0
  0
LINE
  5
2AC4
330
1B
100
AcDbEntity
  8
文字
100
AcDbLine
 10
936.0517199458401
 20
533.1275569305558
 30
0.0
 11
936.0517199458401
 21
531.9147909388558
 31
0.0
  0
LINE
  5
2AC5
330
1B
100
AcDbEntity
  8
文字
100
AcDbLine
 10
935.6767199458401
 20
530.1275569305557
 30
0.0
 11
935.6767199458401
 21
533.1275569305558
 31
0.0
  0
LINE
  5
2AC6
330
1B
100
AcDbEntity
  8
文字
100
AcDbLine
 10
933.4267199458402
 20
532.2339398369559
 30
0.0
 11
933.4267199458402
 21
532.3615993962558
 31
0.0
  0
LINE
  5
2AC7
330
1B
100
AcDbEntity
  8
文字
100
AcDbLine
 10
933.0517199458402
 20
532.4254293546558
 30
0.0
 11
933.0517199458402
 21
532.1701100573558
 31
0.0
  0
LINE
  5
2AC8
330
1B
100
AcDbEntity
  8
文字
100
AcDbLine
 10
932.36422042264
 20
533.1275569305558
 30
0.0
 11
932.36422042264
 21
530.1275569305557
 31
0.0
  0
LINE
  5
2AC9
330
1B
100
AcDbEntity
  8
文字
100
AcDbLine
 10
931.98922042264
 20
530.1275569305557
 30
0.0
 11
931.98922042264
 21
533.1275569305558
 31
0.0
  0
LINE
  5
2ACA
330
1B
100
AcDbEntity
  8
文字
100
AcDbLine
 10
931.4892194690401
 20
532.4254293546558
 30
0.0
 11
931.4892194690401
 21
532.1701100573558
 31
0.0
  0
LINE
  5
2ACB
330
1B
100
AcDbEntity
  8
文字
100
AcDbLine
 10
931.11421946904
 20
532.2339398369559
 30
0.0
 11
931.11421946904
 21
532.3615993962558
 31
0.0
  0
LINE
  5
2ACC
330
1B
100
AcDbEntity
  8
文字
100
AcDbLine
 10
929.5517204226401
 20
532.7445782527559
 30
0.0
 11
929.5517204226401
 21
531.8509611592558
 31
0.0
  0
LINE
  5
2ACD
330
1B
100
AcDbEntity
  8
文字
100
AcDbLine
 10
929.1767204226401
 20
530.1275569305557
 30
0.0
 11
929.1767204226401
 21
533.1275569305558
 31
0.0
  0
LINE
  5
2ACE
330
1B
100
AcDbEntity
  8
文字
100
AcDbLine
 10
931.42672042264
 20
531.3403229222558
 30
0.0
 11
931.4892194690401
 21
531.1488334939558
 31
0.0
  0
LINE
  5
2ACF
330
1B
100
AcDbEntity
  8
文字
100
AcDbLine
 10
931.05172042264
 20
531.2764931426559
 30
0.0
 11
931.11421946904
 21
531.0850037143558
 31
0.0
  0
LINE
  5
2AD0
330
1B
100
AcDbEntity
  8
文字
100
AcDbLine
 10
931.4892194690401
 20
530.8296845958558
 30
0.0
 11
931.42672042264
 21
530.6381952122558
 31
0.0
  0
LINE
  5
2AD1
330
1B
100
AcDbEntity
  8
文字
100
AcDbLine
 10
931.11421946904
 20
530.8935143754559
 30
0.0
 11
931.05172042264
 21
530.7020250365558
 31
0.0
  0
LINE
  5
2AD2
330
1B
100
AcDbEntity
  8
文字
100
AcDbLine
 10
931.4892194690401
 20
532.1701100573558
 30
0.0
 11
931.42672042264
 21
531.9786207184558
 31
0.0
  0
LINE
  5
2AD3
330
1B
100
AcDbEntity
  8
文字
100
AcDbLine
 10
931.05172042264
 20
532.0424504980557
 30
0.0
 11
931.11421946904
 21
532.2339398369559
 31
0.0
  0
LINE
  5
2AD4
330
1B
100
AcDbEntity
  8
文字
100
AcDbLine
 10
931.4892194690401
 20
531.1488334939558
 30
0.0
 11
931.4892194690401
 21
530.8296845958558
 31
0.0
  0
LINE
  5
2AD5
330
1B
100
AcDbEntity
  8
文字
100
AcDbLine
 10
931.11421946904
 20
531.0850037143558
 30
0.0
 11
931.11421946904
 21
530.8935143754559
 31
0.0
  0
LINE
  5
2AD6
330
1B
100
AcDbEntity
  8
文字
100
AcDbLine
 10
929.5517204226401
 20
530.5105356529558
 30
0.0
 11
929.5517204226401
 21
531.4679824814559
 31
0.0
  0
LINE
  5
2AD7
330
1B
100
AcDbEntity
  8
文字
100
AcDbLine
 10
931.23922042264
 20
531.5956420407558
 30
0.0
 11
931.42672042264
 21
531.3403229222558
 31
0.0
  0
LINE
  5
2AD8
330
1B
100
AcDbEntity
  8
文字
100
AcDbLine
 10
931.05172042264
 20
530.7020250365558
 30
0.0
 11
930.92671946904
 21
530.5743654326558
 31
0.0
  0
LINE
  5
2AD9
330
1B
100
AcDbEntity
  8
文字
100
AcDbLine
 10
931.42672042264
 20
530.6381952122558
 30
0.0
 11
931.23922042264
 21
530.3828760713559
 31
0.0
  0
LINE
  5
2ADA
330
1B
100
AcDbEntity
  8
文字
100
AcDbLine
 10
931.42672042264
 20
531.9786207184558
 30
0.0
 11
931.23922042264
 21
531.7233015999558
 31
0.0
  0
LINE
  5
2ADB
330
1B
100
AcDbEntity
  8
文字
100
AcDbLine
 10
930.92671946904
 20
531.4041527018559
 30
0.0
 11
931.05172042264
 21
531.2764931426559
 31
0.0
  0
LINE
  5
2ADC
330
1B
100
AcDbEntity
  8
文字
100
AcDbLine
 10
931.23922042264
 20
530.3828760713559
 30
0.0
 11
930.9892199458401
 21
530.1913867157558
 31
0.0
  0
LINE
  5
2ADD
330
1B
100
AcDbEntity
  8
文字
100
AcDbLine
 10
930.92671946904
 20
531.9147909388558
 30
0.0
 11
931.05172042264
 21
532.0424504980557
 31
0.0
  0
LINE
  5
2ADE
330
1B
100
AcDbEntity
  8
文字
100
AcDbLine
 10
931.11421946904
 20
531.6594718203559
 30
0.0
 11
931.23922042264
 21
531.5956420407558
 31
0.0
  0
LINE
  5
2ADF
330
1B
100
AcDbEntity
  8
文字
100
AcDbLine
 10
930.73921946904
 20
531.4679824814559
 30
0.0
 11
930.92671946904
 21
531.4041527018559
 31
0.0
  0
LINE
  5
2AE0
330
1B
100
AcDbEntity
  8
文字
100
AcDbLine
 10
930.92671946904
 20
530.5743654326558
 30
0.0
 11
930.73921946904
 21
530.5105356529558
 31
0.0
  0
LINE
  5
2AE1
330
1B
100
AcDbEntity
  8
文字
100
AcDbLine
 10
930.73921946904
 20
531.8509611592558
 30
0.0
 11
930.92671946904
 21
531.9147909388558
 31
0.0
  0
LINE
  5
2AE2
330
1B
100
AcDbEntity
  8
文字
100
AcDbLine
 10
931.23922042264
 20
531.7233015999558
 30
0.0
 11
931.11421946904
 21
531.6594718203559
 31
0.0
  0
LINE
  5
2AE3
330
1B
100
AcDbEntity
  8
文字
100
AcDbLine
 10
929.5517204226401
 20
531.8509611592558
 30
0.0
 11
930.73921946904
 21
531.8509611592558
 31
0.0
  0
LINE
  5
2AE4
330
1B
100
AcDbEntity
  8
文字
100
AcDbLine
 10
929.5517204226401
 20
531.4679824814559
 30
0.0
 11
930.73921946904
 21
531.4679824814559
 31
0.0
  0
LINE
  5
2AE5
330
1B
100
AcDbEntity
  8
文字
100
AcDbLine
 10
930.73921946904
 20
530.5105356529558
 30
0.0
 11
929.5517204226401
 21
530.5105356529558
 31
0.0
  0
LINE
  5
2AE6
330
1B
100
AcDbEntity
  8
文字
100
AcDbLine
 10
930.6767204226401
 20
530.1275569305557
 30
0.0
 11
929.1767204226401
 21
530.1275569305557
 31
0.0
  0
LINE
  5
2AE7
330
1B
100
AcDbEntity
  8
文字
100
AcDbLine
 10
932.36422042264
 20
530.1275569305557
 30
0.0
 11
931.98922042264
 21
530.1275569305557
 31
0.0
  0
LINE
  5
2AE8
330
1B
100
AcDbEntity
  8
文字
100
AcDbLine
 10
930.9892199458401
 20
530.1913867157558
 30
0.0
 11
930.6767204226401
 21
530.1275569305557
 31
0.0
  0
LINE
  5
2AE9
330
1B
100
AcDbEntity
  8
文字
100
AcDbLine
 10
936.0517199458401
 20
531.5318122611558
 30
0.0
 11
936.0517199458401
 21
530.1275569305557
 31
0.0
  0
LINE
  5
2AEA
330
1B
100
AcDbEntity
  8
文字
100
AcDbLine
 10
933.0517199458402
 20
532.1701100573558
 30
0.0
 11
933.11422042264
 21
531.9147909388558
 31
0.0
  0
LINE
  5
2AEB
330
1B
100
AcDbEntity
  8
文字
100
AcDbLine
 10
932.8642199458402
 20
530.9573441550558
 30
0.0
 11
932.92672042264
 21
530.7020250365558
 31
0.0
  0
LINE
  5
2AEC
330
1B
100
AcDbEntity
  8
文字
100
AcDbLine
 10
933.4892204226401
 20
532.0424504980557
 30
0.0
 11
933.4267199458402
 21
532.2339398369559
 31
0.0
  0
LINE
  5
2AED
330
1B
100
AcDbEntity
  8
文字
100
AcDbLine
 10
933.3017204226401
 20
530.7658548161558
 30
0.0
 11
933.2392199458402
 21
530.9573441550558
 31
0.0
  0
LINE
  5
2AEE
330
1B
100
AcDbEntity
  8
文字
100
AcDbLine
 10
935.1767204226401
 20
531.1488334939558
 30
0.0
 11
935.05171946904
 21
531.4041527018559
 31
0.0
  0
LINE
  5
2AEF
330
1B
100
AcDbEntity
  8
文字
100
AcDbLine
 10
934.8017204226401
 20
530.8935143754559
 30
0.0
 11
934.67671946904
 21
530.7020250365558
 31
0.0
  0
LINE
  5
2AF0
330
1B
100
AcDbEntity
  8
文字
100
AcDbLine
 10
935.05171946904
 20
530.5743654326558
 30
0.0
 11
935.1767204226401
 21
530.8296845958558
 31
0.0
  0
LINE
  5
2AF1
330
1B
100
AcDbEntity
  8
文字
100
AcDbLine
 10
935.1767204226401
 20
530.8296845958558
 30
0.0
 11
935.1767204226401
 21
531.1488334939558
 31
0.0
  0
LINE
  5
2AF2
330
1B
100
AcDbEntity
  8
文字
100
AcDbLine
 10
934.8017204226401
 20
531.0850037143558
 30
0.0
 11
934.8017204226401
 21
530.8935143754559
 31
0.0
  0
LINE
  5
2AF3
330
1B
100
AcDbEntity
  8
文字
100
AcDbLine
 10
932.92672042264
 20
530.7020250365558
 30
0.0
 11
933.11422042264
 21
530.3828760713559
 31
0.0
  0
LINE
  5
2AF4
330
1B
100
AcDbEntity
  8
文字
100
AcDbLine
 10
934.67671946904
 20
531.2764931426559
 30
0.0
 11
934.8017204226401
 21
531.0850037143558
 31
0.0
  0
LINE
  5
2AF5
330
1B
100
AcDbEntity
  8
文字
100
AcDbLine
 10
935.05171946904
 20
531.4041527018559
 30
0.0
 11
934.8017204226401
 21
531.6594718203559
 31
0.0
  0
LINE
  5
2AF6
330
1B
100
AcDbEntity
  8
文字
100
AcDbLine
 10
933.11422042264
 20
531.9147909388558
 30
0.0
 11
933.3642194690401
 21
531.6594718203559
 31
0.0
  0
LINE
  5
2AF7
330
1B
100
AcDbEntity
  8
文字
100
AcDbLine
 10
933.4892204226401
 20
530.5743654326558
 30
0.0
 11
933.3017204226401
 21
530.7658548161558
 31
0.0
  0
LINE
  5
2AF8
330
1B
100
AcDbEntity
  8
文字
100
AcDbLine
 10
934.8017204226401
 20
530.3190462917558
 30
0.0
 11
935.05171946904
 21
530.5743654326558
 31
0.0
  0
LINE
  5
2AF9
330
1B
100
AcDbEntity
  8
文字
100
AcDbLine
 10
934.48921946904
 20
531.4041527018559
 30
0.0
 11
934.67671946904
 21
531.2764931426559
 31
0.0
  0
LINE
  5
2AFA
330
1B
100
AcDbEntity
  8
文字
100
AcDbLine
 10
933.6767204226401
 20
531.9147909388558
 30
0.0
 11
933.4892204226401
 21
532.0424504980557
 31
0.0
  0
LINE
  5
2AFB
330
1B
100
AcDbEntity
  8
文字
100
AcDbLine
 10
933.11422042264
 20
530.3828760713559
 30
0.0
 11
933.4267199458402
 21
530.1913867157558
 31
0.0
  0
LINE
  5
2AFC
330
1B
100
AcDbEntity
  8
文字
100
AcDbLine
 10
934.8017204226401
 20
531.6594718203559
 30
0.0
 11
934.5517199458402
 21
531.7871313795558
 31
0.0
  0
LINE
  5
2AFD
330
1B
100
AcDbEntity
  8
文字
100
AcDbLine
 10
933.3642194690401
 20
531.6594718203559
 30
0.0
 11
933.6142199458402
 21
531.5318122611558
 31
0.0
  0
LINE
  5
2AFE
330
1B
100
AcDbEntity
  8
文字
100
AcDbLine
 10
934.5517199458402
 20
530.1913867157558
 30
0.0
 11
934.8017204226401
 21
530.3190462917558
 31
0.0
  0
LINE
  5
2AFF
330
1B
100
AcDbEntity
  8
文字
100
AcDbLine
 10
934.67671946904
 20
530.7020250365558
 30
0.0
 11
934.48921946904
 21
530.5743654326558
 31
0.0
  0
LINE
  5
2B00
330
1B
100
AcDbEntity
  8
文字
100
AcDbLine
 10
933.8642204226401
 20
531.8509611592558
 30
0.0
 11
933.6767204226401
 21
531.9147909388558
 31
0.0
  0
LINE
  5
2B01
330
1B
100
AcDbEntity
  8
文字
100
AcDbLine
 10
934.2392204226401
 20
531.4679824814559
 30
0.0
 11
934.48921946904
 21
531.4041527018559
 31
0.0
  0
LINE
  5
2B02
330
1B
100
AcDbEntity
  8
文字
100
AcDbLine
 10
933.6142199458402
 20
531.5318122611558
 30
0.0
 11
933.8642204226401
 21
531.4679824814559
 31
0.0
  0
LINE
  5
2B03
330
1B
100
AcDbEntity
  8
文字
100
AcDbLine
 10
933.7392194690401
 20
530.5105356529558
 30
0.0
 11
933.4892204226401
 21
530.5743654326558
 31
0.0
  0
LINE
  5
2B04
330
1B
100
AcDbEntity
  8
文字
100
AcDbLine
 10
934.5517199458402
 20
531.7871313795558
 30
0.0
 11
934.2392204226401
 21
531.8509611592558
 31
0.0
  0
LINE
  5
2B05
330
1B
100
AcDbEntity
  8
文字
100
AcDbLine
 10
933.4267199458402
 20
530.1913867157558
 30
0.0
 11
933.7392194690401
 21
530.1275569305557
 31
0.0
  0
LINE
  5
2B06
330
1B
100
AcDbEntity
  8
文字
100
AcDbLine
 10
934.2392204226401
 20
531.8509611592558
 30
0.0
 11
933.8642204226401
 21
531.8509611592558
 31
0.0
  0
LINE
  5
2B07
330
1B
100
AcDbEntity
  8
文字
100
AcDbLine
 10
933.8642204226401
 20
531.4679824814559
 30
0.0
 11
934.2392204226401
 21
531.4679824814559
 31
0.0
  0
LINE
  5
2B08
330
1B
100
AcDbEntity
  8
文字
100
AcDbLine
 10
933.2392199458402
 20
530.9573441550558
 30
0.0
 11
932.8642199458402
 21
530.9573441550558
 31
0.0
  0
LINE
  5
2B09
330
1B
100
AcDbEntity
  8
文字
100
AcDbLine
 10
934.2392204226401
 20
530.5105356529558
 30
0.0
 11
933.7392194690401
 21
530.5105356529558
 31
0.0
  0
LINE
  5
2B0A
330
1B
100
AcDbEntity
  8
文字
100
AcDbLine
 10
933.7392194690401
 20
530.1275569305557
 30
0.0
 11
934.2392204226401
 21
530.1275569305557
 31
0.0
  0
LINE
  5
2B0B
330
1B
100
AcDbEntity
  8
文字
100
AcDbLine
 10
936.0517199458401
 20
530.1275569305557
 30
0.0
 11
935.6767199458401
 21
530.1275569305557
 31
0.0
  0
LINE
  5
2B0C
330
1B
100
AcDbEntity
  8
文字
100
AcDbLine
 10
934.2392204226401
 20
530.1275569305557
 30
0.0
 11
934.5517199458402
 21
530.1913867157558
 31
0.0
  0
LINE
  5
2B0D
330
1B
100
AcDbEntity
  8
文字
100
AcDbLine
 10
934.48921946904
 20
530.5743654326558
 30
0.0
 11
934.2392204226401
 21
530.5105356529558
 31
0.0
  0
LINE
  5
2B0E
330
1B
100
AcDbEntity
  8
文字
100
AcDbLine
 10
931.42672042264
 20
532.6169186935557
 30
0.0
 11
931.4892194690401
 21
532.4254293546558
 31
0.0
  0
LINE
  5
2B0F
330
1B
100
AcDbEntity
  8
文字
100
AcDbLine
 10
931.11421946904
 20
532.3615993962558
 30
0.0
 11
931.05172042264
 21
532.5530889139558
 31
0.0
  0
LINE
  5
2B10
330
1B
100
AcDbEntity
  8
文字
100
AcDbLine
 10
931.23922042264
 20
532.8722378120557
 30
0.0
 11
931.42672042264
 21
532.6169186935557
 31
0.0
  0
LINE
  5
2B11
330
1B
100
AcDbEntity
  8
文字
100
AcDbLine
 10
931.05172042264
 20
532.5530889139558
 30
0.0
 11
930.92671946904
 21
532.6807484731558
 31
0.0
  0
LINE
  5
2B12
330
1B
100
AcDbEntity
  8
文字
100
AcDbLine
 10
930.9892199458401
 20
533.0637271509558
 30
0.0
 11
931.23922042264
 21
532.8722378120557
 31
0.0
  0
LINE
  5
2B13
330
1B
100
AcDbEntity
  8
文字
100
AcDbLine
 10
930.92671946904
 20
532.6807484731558
 30
0.0
 11
930.73921946904
 21
532.7445782527559
 31
0.0
  0
LINE
  5
2B14
330
1B
100
AcDbEntity
  8
文字
100
AcDbLine
 10
930.6767204226401
 20
533.1275569305558
 30
0.0
 11
930.9892199458401
 21
533.0637271509558
 31
0.0
  0
LINE
  5
2B15
330
1B
100
AcDbEntity
  8
文字
100
AcDbLine
 10
931.98922042264
 20
533.1275569305558
 30
0.0
 11
932.36422042264
 21
533.1275569305558
 31
0.0
  0
LINE
  5
2B16
330
1B
100
AcDbEntity
  8
文字
100
AcDbLine
 10
929.1767204226401
 20
533.1275569305558
 30
0.0
 11
930.6767204226401
 21
533.1275569305558
 31
0.0
  0
LINE
  5
2B17
330
1B
100
AcDbEntity
  8
文字
100
AcDbLine
 10
930.73921946904
 20
532.7445782527559
 30
0.0
 11
929.5517204226401
 21
532.7445782527559
 31
0.0
  0
LINE
  5
2B18
330
1B
100
AcDbEntity
  8
文字
100
AcDbLine
 10
934.9892204226401
 20
532.4254293546558
 30
0.0
 11
934.9267199458402
 21
532.6169186935557
 31
0.0
  0
LINE
  5
2B19
330
1B
100
AcDbEntity
  8
文字
100
AcDbLine
 10
934.5517199458402
 20
532.5530889139558
 30
0.0
 11
934.6142204226401
 21
532.4254293546558
 31
0.0
  0
LINE
  5
2B1A
330
1B
100
AcDbEntity
  8
文字
100
AcDbLine
 10
933.4267199458402
 20
532.3615993962558
 30
0.0
 11
933.4892204226401
 21
532.5530889139558
 31
0.0
  0
LINE
  5
2B1B
330
1B
100
AcDbEntity
  8
文字
100
AcDbLine
 10
933.11422042264
 20
532.6807484731558
 30
0.0
 11
933.0517199458402
 21
532.4254293546558
 31
0.0
  0
LINE
  5
2B1C
330
1B
100
AcDbEntity
  8
文字
100
AcDbLine
 10
934.9267199458402
 20
532.6169186935557
 30
0.0
 11
934.7392199458402
 21
532.8722378120557
 31
0.0
  0
LINE
  5
2B1D
330
1B
100
AcDbEntity
  8
文字
100
AcDbLine
 10
934.4267204226401
 20
532.6807484731558
 30
0.0
 11
934.5517199458402
 21
532.5530889139558
 31
0.0
  0
LINE
  5
2B1E
330
1B
100
AcDbEntity
  8
文字
100
AcDbLine
 10
934.7392199458402
 20
532.8722378120557
 30
0.0
 11
934.48921946904
 21
533.0637271509558
 31
0.0
  0
LINE
  5
2B1F
330
1B
100
AcDbEntity
  8
文字
100
AcDbLine
 10
933.3642194690401
 20
532.9360675916558
 30
0.0
 11
933.11422042264
 21
532.6807484731558
 31
0.0
  0
LINE
  5
2B20
330
1B
100
AcDbEntity
  8
文字
100
AcDbLine
 10
933.4892204226401
 20
532.5530889139558
 30
0.0
 11
933.6767204226401
 21
532.6807484731558
 31
0.0
  0
LINE
  5
2B21
330
1B
100
AcDbEntity
  8
文字
100
AcDbLine
 10
934.2392204226401
 20
532.7445782527559
 30
0.0
 11
934.4267204226401
 21
532.6807484731558
 31
0.0
  0
LINE
  5
2B22
330
1B
100
AcDbEntity
  8
文字
100
AcDbLine
 10
934.48921946904
 20
533.0637271509558
 30
0.0
 11
934.1767199458402
 21
533.1275569305558
 31
0.0
  0
LINE
  5
2B23
330
1B
100
AcDbEntity
  8
文字
100
AcDbLine
 10
933.6767204226401
 20
532.6807484731558
 30
0.0
 11
933.8642204226401
 21
532.7445782527559
 31
0.0
  0
LINE
  5
2B24
330
1B
100
AcDbEntity
  8
文字
100
AcDbLine
 10
933.6142199458402
 20
533.0637271509558
 30
0.0
 11
933.3642194690401
 21
532.9360675916558
 31
0.0
  0
LINE
  5
2B25
330
1B
100
AcDbEntity
  8
文字
100
AcDbLine
 10
935.6767199458401
 20
533.1275569305558
 30
0.0
 11
936.0517199458401
 21
533.1275569305558
 31
0.0
  0
LINE
  5
2B26
330
1B
100
AcDbEntity
  8
文字
100
AcDbLine
 10
934.1767199458402
 20
533.1275569305558
 30
0.0
 11
933.8642204226401
 21
533.1275569305558
 31
0.0
  0
LINE
  5
2B27
330
1B
100
AcDbEntity
  8
文字
100
AcDbLine
 10
933.8642204226401
 20
532.7445782527559
 30
0.0
 11
934.2392204226401
 21
532.7445782527559
 31
0.0
  0
LINE
  5
2B28
330
1B
100
AcDbEntity
  8
文字
100
AcDbLine
 10
934.6142204226401
 20
532.4254293546558
 30
0.0
 11
934.9892204226401
 21
532.4254293546558
 31
0.0
  0
LINE
  5
2B29
330
1B
100
AcDbEntity
  8
文字
100
AcDbLine
 10
933.8642204226401
 20
533.1275569305558
 30
0.0
 11
933.6142199458402
 21
533.0637271509558
 31
0.0
  0
LWPOLYLINE
  5
2B2E
330
1B
100
AcDbEntity
  8
文字
 62
     0
100
AcDbPolyline
 90
        5
 70
     0
 43
0.0
 10
928.64956231494
 20
569.3896015316559
 10
928.64956231494
 20
572.1895844417558
 10
929.3495708598401
 20
569.8562568050558
 10
930.0495537700401
 20
572.1895844417558
 10
930.0495537700401
 20
569.3896015316559
  0
LINE
  5
2B2F
330
1B
100
AcDbEntity
  8
文字
 62
     0
100
AcDbLine
 10
926.22956606174
 20
570.7895898565558
 30
0.0
 11
928.2295660617402
 21
570.7895898565558
 31
0.0
  0
LWPOLYLINE
  5
2B30
330
1B
100
AcDbEntity
  8
文字
 62
     0
100
AcDbPolyline
 90
        6
 70
     0
 43
0.0
 10
932.9895537700402
 20
571.4896015316558
 10
934.52956231494
 20
571.4896015316558
 10
934.1795708598402
 20
571.0520929867558
 10
933.7595708598401
 20
570.7021015316558
 10
933.4095537700401
 20
570.5270929867558
 10
932.7795537700401
 20
570.2645929867558
  0
LWPOLYLINE
  5
2B31
330
1B
100
AcDbEntity
  8
文字
 62
     0
100
AcDbPolyline
 90
        4
 70
     0
 43
0.0
 10
932.00956231494
 20
569.3896015316559
 10
932.00956231494
 20
572.1895844417558
 10
931.0295708598401
 20
570.0895844417558
 10
932.2895708598402
 20
570.0895844417558
  0
LINE
  5
2B32
330
1B
100
AcDbEntity
  8
文字
 62
     0
100
AcDbLine
 10
933.7595708598401
 20
570.7021015316558
 30
0.0
 11
933.7595708598401
 21
569.4770929867559
 31
0.0
  0
LINE
  5
2B33
330
1B
100
AcDbEntity
  8
文字
 62
     0
100
AcDbLine
 10
933.7595708598401
 20
572.0146015316559
 30
0.0
 11
933.7595708598401
 21
571.4896015316558
 31
0.0
  0
LINE
  5
2B34
330
1B
100
AcDbEntity
  8
文字
 62
     0
100
AcDbLine
 10
936.6295623149401
 20
571.8395929867559
 30
0.0
 11
936.9095708598402
 21
571.5770929867558
 31
0.0
  0
LINE
  5
2B35
330
1B
100
AcDbEntity
  8
文字
 62
     0
100
AcDbLine
 10
934.03955377004
 20
570.6145844417558
 30
0.0
 11
934.8095708598401
 21
570.0895844417558
 31
0.0
  0
LWPOLYLINE
  5
2B36
330
1B
100
AcDbEntity
  8
文字
 62
     0
100
AcDbPolyline
 90
        3
 70
     0
 43
0.0
 10
935.2995537700401
 20
571.8395929867559
 10
935.7195537700402
 20
571.6645844417558
 10
936.0695708598401
 20
571.4896015316558
  0
LWPOLYLINE
  5
2B37
330
1B
100
AcDbEntity
  8
文字
 62
     0
100
AcDbPolyline
 90
        3
 70
     0
 43
0.0
 10
935.1595623149401
 20
571.0520929867558
 10
935.5795623149402
 20
570.8770844417558
 10
935.9995623149401
 20
570.6145844417558
  0
LINE
  5
2B38
330
1B
100
AcDbEntity
  8
文字
100
AcDbLine
 10
939.0517199458402
 20
533.1275569305558
 30
0.0
 11
939.0517199458402
 21
530.1275569305557
 31
0.0
  0
LINE
  5
2B39
330
1B
100
AcDbEntity
  8
文字
100
AcDbLine
 10
938.6767199458402
 20
530.1275569305557
 30
0.0
 11
938.6767199458402
 21
533.1275569305558
 31
0.0
  0
LINE
  5
2B3A
330
1B
100
AcDbEntity
  8
文字
100
AcDbLine
 10
938.1767204226401
 20
533.1275569305558
 30
0.0
 11
938.1767204226401
 21
530.1275569305557
 31
0.0
  0
LINE
  5
2B3B
330
1B
100
AcDbEntity
  8
文字
100
AcDbLine
 10
937.80172042264
 20
531.9147909388558
 30
0.0
 11
937.80172042264
 21
533.1275569305558
 31
0.0
  0
LINE
  5
2B3C
330
1B
100
AcDbEntity
  8
文字
100
AcDbLine
 10
937.80172042264
 20
530.1275569305557
 30
0.0
 11
937.80172042264
 21
531.5318122611558
 31
0.0
  0
LINE
  5
2B3D
330
1B
100
AcDbEntity
  8
文字
100
AcDbLine
 10
938.1767204226401
 20
530.1275569305557
 30
0.0
 11
937.80172042264
 21
530.1275569305557
 31
0.0
  0
LINE
  5
2B3E
330
1B
100
AcDbEntity
  8
文字
100
AcDbLine
 10
939.0517199458402
 20
530.1275569305557
 30
0.0
 11
938.6767199458402
 21
530.1275569305557
 31
0.0
  0
LINE
  5
2B3F
330
1B
100
AcDbEntity
  8
文字
100
AcDbLine
 10
938.6767199458402
 20
533.1275569305558
 30
0.0
 11
939.0517199458402
 21
533.1275569305558
 31
0.0
  0
LINE
  5
2B40
330
1B
100
AcDbEntity
  8
文字
100
AcDbLine
 10
937.80172042264
 20
533.1275569305558
 30
0.0
 11
938.1767204226401
 21
533.1275569305558
 31
0.0
  0
LWPOLYLINE
  5
2B41
330
1B
100
AcDbEntity
  8
文字
 62
     0
100
AcDbPolyline
 90
       16
 70
     0
 43
0.0
 10
944.8195623149402
 20
572.0146015316559
 10
945.0995708598401
 20
571.3145929867558
 10
945.9395708598401
 20
570.3520844417559
 10
945.44956231494
 20
570.6145844417558
 10
945.0995708598401
 20
570.7021015316558
 10
944.7495537700401
 20
570.7021015316558
 10
944.3995623149401
 20
570.6145844417558
 10
944.2595708598402
 20
570.5270929867558
 10
944.1895623149401
 20
570.4396015316558
 10
944.1895623149401
 20
570.1771015316558
 10
944.2595708598402
 20
570.0020929867559
 10
944.3995623149401
 20
569.8270844417558
 10
944.6095623149401
 20
569.6521015316558
 10
944.9595537700401
 20
569.4770929867559
 10
945.5195708598401
 20
569.4770929867559
 10
945.9395708598401
 20
569.6521015316558
  0
LWPOLYLINE
  5
2B42
330
1B
100
AcDbEntity
  8
文字
 62
     0
100
AcDbPolyline
 90
        3
 70
     0
 43
0.0
 10
944.0495708598401
 20
571.2271015316559
 10
945.0995708598401
 20
571.3145929867558
 10
945.7995537700401
 20
571.4896015316558
  0
LWPOLYLINE
  5
2B43
330
1B
100
AcDbEntity
  8
文字
 62
     0
100
AcDbPolyline
 90
        5
 70
     0
 43
0.0
 10
939.6395708598403
 20
570.9646015316558
 10
939.6395708598403
 20
571.6645844417558
 10
941.3895537700401
 20
571.6645844417558
 10
941.4595623149402
 20
571.5770929867558
 10
941.3895537700401
 20
570.9646015316558
  0
LWPOLYLINE
  5
2B44
330
1B
100
AcDbEntity
  8
文字
 62
     0
100
AcDbPolyline
 90
        6
 70
     0
 43
0.0
 10
940.0595708598402
 20
571.1395844417559
 10
940.8295623149401
 20
571.1395844417559
 10
940.8995708598402
 20
571.0520929867558
 10
941.0395623149401
 20
570.5270929867558
 10
941.2495623149402
 20
569.9146015316558
 10
941.5295708598401
 20
569.4770929867559
  0
LWPOLYLINE
  5
2B45
330
1B
100
AcDbEntity
  8
文字
 62
     0
100
AcDbPolyline
 90
        3
 70
     0
 43
0.0
 10
940.0595708598402
 20
570.7895929867559
 10
939.8495708598401
 20
570.0895844417558
 10
939.4995537700401
 20
569.4770929867559
  0
LINE
  5
2B46
330
1B
100
AcDbEntity
  8
文字
 62
     0
100
AcDbLine
 10
940.5495537700401
 20
571.6645844417558
 30
0.0
 11
940.5495537700401
 21
572.0146015316559
 31
0.0
  0
LWPOLYLINE
  5
2B47
330
1B
100
AcDbEntity
  8
文字
 62
     0
100
AcDbPolyline
 90
        3
 70
     0
 43
0.0
 10
937.3295708598401
 20
570.0020929867559
 10
937.6095537700402
 20
569.7395929867558
 10
937.6795623149401
 20
569.5645844417558
  0
LWPOLYLINE
  5
2B48
330
1B
100
AcDbEntity
  8
文字
 62
     0
100
AcDbPolyline
 90
        3
 70
     0
 43
0.0
 10
942.2295537700401
 20
569.6521015316558
 10
942.9995708598401
 20
570.6145844417558
 10
943.7695623149402
 20
569.6521015316558
  0
LWPOLYLINE
  5
2B49
330
1B
100
AcDbEntity
  8
文字
 62
     0
100
AcDbPolyline
 90
        3
 70
     0
 43
0.0
 10
941.7395708598402
 20
569.4770929867559
 10
941.9495708598402
 20
570.0895844417558
 10
942.0895623149402
 20
570.5270929867558
  0
LWPOLYLINE
  5
2B4A
330
1B
100
AcDbEntity
  8
文字
 62
     0
100
AcDbPolyline
 90
        6
 70
     0
 43
0.0
 10
943.2095708598401
 20
571.9270844417557
 10
943.2095708598401
 20
571.1395844417559
 10
943.2795537700402
 20
571.0520929867558
 10
943.6995537700402
 20
571.0520929867558
 10
943.7695623149402
 20
571.1395844417559
 10
943.7695623149402
 20
571.4020844417558
  0
LINE
  5
2B4B
330
1B
100
AcDbEntity
  8
文字
 62
     0
100
AcDbLine
 10
942.9995708598401
 20
571.0520929867558
 30
0.0
 11
942.9995708598401
 21
569.4770929867559
 31
0.0
  0
LWPOLYLINE
  5
2B4C
330
1B
100
AcDbEntity
  8
文字
 62
     0
100
AcDbPolyline
 90
        4
 70
     0
 43
0.0
 10
942.7195623149401
 20
571.9270844417557
 10
942.7195623149401
 20
571.4020844417558
 10
942.6495537700402
 20
571.1395844417559
 10
942.2295537700401
 20
570.8770844417558
  0
LWPOLYLINE
  5
2B4D
330
1B
100
AcDbEntity
  8
文字
 62
     0
100
AcDbPolyline
 90
        5
 70
     0
 43
0.0
 10
942.2995623149402
 20
571.3145929867558
 10
942.2995623149402
 20
571.9270844417557
 10
943.6295708598402
 20
571.9270844417557
 10
943.6995537700402
 20
571.8395929867559
 10
943.5595623149401
 20
571.3145929867558
  0
LINE
  5
2B4E
330
1B
100
AcDbEntity
  8
文字
 62
     0
100
AcDbLine
 10
941.80955377004
 20
572.0146015316559
 30
0.0
 11
942.1595708598401
 21
571.5770929867558
 31
0.0
  0
LINE
  5
2B4F
330
1B
100
AcDbEntity
  8
文字
 62
     0
100
AcDbLine
 10
941.7395708598402
 20
571.2271015316559
 30
0.0
 11
942.0895623149402
 21
570.7895929867559
 31
0.0
  0
LINE
  5
2B50
330
1B
100
AcDbEntity
  8
文字
 62
     0
100
AcDbLine
 10
942.2995623149402
 20
570.6145844417558
 30
0.0
 11
943.6995537700402
 21
570.6145844417558
 31
0.0
  0
LWPOLYLINE
  5
2B51
330
1B
100
AcDbEntity
  8
文字
 62
     0
100
AcDbPolyline
 90
       17
 70
     0
 43
0.0
 10
946.7095623149402
 20
570.3229120785558
 10
946.8495537700402
 20
570.7895929867559
 10
947.2695537700401
 20
571.0229206234557
 10
947.6895537700402
 20
570.7895929867559
 10
947.8295708598402
 20
570.3229120785558
 10
947.6895537700402
 20
569.8562568050558
 10
947.5495623149402
 20
569.6229291683558
 10
947.2695537700401
 20
569.3896015316559
 10
946.98957085984
 20
569.6229291683558
 10
946.8495537700402
 20
569.8562568050558
 10
946.7095623149402
 20
570.3229120785558
 10
946.7095623149402
 20
571.2562482601558
 10
946.8495537700402
 20
571.7229291683558
 10
946.98957085984
 20
571.9562568050557
 10
947.2695537700401
 20
572.1895844417558
 10
947.5495623149402
 20
571.9562568050557
 10
947.6895537700402
 20
571.7229291683558
  0
LWPOLYLINE
  5
2B52
330
1B
100
AcDbEntity
  8
実線
100
AcDbPolyline
 90
        3
 70
     0
 43
0.0
 10
968.11415644834
 20
561.0214477310559
 10
966.10626917144
 20
561.3796676455558
 10
964.25725388884
 20
561.5693723049559
  0
LWPOLYLINE
  5
2B53
330
1B
100
AcDbEntity
  8
実線
100
AcDbPolyline
 90
        4
 70
     0
 43
0.0
 10
962.5141593557401
 20
561.6275569304558
 10
964.2579210747401
 20
561.5693277101558
 10
966.1076178894401
 20
561.3794806827558
 10
968.1162303611401
 20
561.0209940749558
  0
LINE
  5
2B54
330
1B
100
AcDbEntity
  8
実線
100
AcDbLine
 10
929.71421994584
 20
585.5242341818558
 30
0.0
 11
961.2142199458402
 21
585.5242341818558
 31
0.0
  0
LINE
  5
2B55
330
1B
100
AcDbEntity
  8
実線
100
AcDbLine
 10
962.0142199458401
 20
585.0242341818558
 30
0.0
 11
929.51421994584
 21
585.0242341818558
 31
0.0
  0
LINE
  5
2B56
330
1B
100
AcDbEntity
  8
文字
100
AcDbLine
 10
935.5823050292402
 20
596.0679841818558
 30
0.0
 11
935.9333688909401
 21
596.2742341818558
 31
0.0
  0
LINE
  5
2B57
330
1B
100
AcDbEntity
  8
文字
100
AcDbLine
 10
935.30145399884
 20
596.4117344441558
 30
0.0
 11
935.30145399884
 21
595.9992344441558
 31
0.0
  0
LINE
  5
2B58
330
1B
100
AcDbEntity
  8
文字
100
AcDbLine
 10
933.6163475217402
 20
590.9117341818558
 30
0.0
 11
936.2142199458402
 21
589.9492341163559
 31
0.0
  0
LINE
  5
2B59
330
1B
100
AcDbEntity
  8
文字
100
AcDbLine
 10
935.8631561087403
 20
589.6742341818558
 30
0.0
 11
932.91421994584
 21
590.7054841818558
 31
0.0
  0
LINE
  5
2B5A
330
1B
100
AcDbEntity
  8
文字
100
AcDbLine
 10
932.91421994584
 20
588.6429841818558
 30
0.0
 11
935.8631561087403
 21
589.6742341818558
 31
0.0
  0
LINE
  5
2B5B
330
1B
100
AcDbEntity
  8
文字
100
AcDbLine
 10
936.2142199458402
 20
589.3992341491558
 30
0.0
 11
933.6163475217402
 21
588.4367341818558
 31
0.0
  0
LINE
  5
2B5C
330
1B
100
AcDbEntity
  8
文字
100
AcDbLine
 10
936.2142199458402
 20
588.4367341818558
 30
0.0
 11
936.2142199458402
 21
588.0242341818558
 31
0.0
  0
LINE
  5
2B5D
330
1B
100
AcDbEntity
  8
文字
100
AcDbLine
 10
936.2142199458402
 20
589.9492341163559
 30
0.0
 11
936.2142199458402
 21
589.3992341491558
 31
0.0
  0
LINE
  5
2B5E
330
1B
100
AcDbEntity
  8
文字
100
AcDbLine
 10
932.91421994584
 20
588.0242341818558
 30
0.0
 11
932.91421994584
 21
588.6429841818558
 31
0.0
  0
LINE
  5
2B5F
330
1B
100
AcDbEntity
  8
文字
100
AcDbLine
 10
933.6163475217402
 20
588.4367341818558
 30
0.0
 11
936.2142199458402
 21
588.4367341818558
 31
0.0
  0
LINE
  5
2B60
330
1B
100
AcDbEntity
  8
文字
100
AcDbLine
 10
936.2142199458402
 20
588.0242341818558
 30
0.0
 11
932.91421994584
 21
588.0242341818558
 31
0.0
  0
LINE
  5
2B61
330
1B
100
AcDbEntity
  8
文字
100
AcDbLine
 10
936.2142199458402
 20
591.3242341818558
 30
0.0
 11
936.2142199458402
 21
590.9117341818558
 31
0.0
  0
LINE
  5
2B62
330
1B
100
AcDbEntity
  8
文字
100
AcDbLine
 10
936.2142199458402
 20
592.2867340507558
 30
0.0
 11
936.2142199458402
 21
591.8742340507558
 31
0.0
  0
LINE
  5
2B63
330
1B
100
AcDbEntity
  8
文字
100
AcDbLine
 10
936.2142199458402
 20
594.3492340507559
 30
0.0
 11
936.2142199458402
 21
593.9367340507557
 31
0.0
  0
LINE
  5
2B64
330
1B
100
AcDbEntity
  8
文字
100
AcDbLine
 10
933.2652837337402
 20
593.9367340507557
 30
0.0
 11
933.2652837337402
 21
592.8367343130559
 31
0.0
  0
LINE
  5
2B65
330
1B
100
AcDbEntity
  8
文字
100
AcDbLine
 10
933.2652837337402
 20
595.4492341818559
 30
0.0
 11
933.2652837337402
 21
594.3492340507559
 31
0.0
  0
LINE
  5
2B66
330
1B
100
AcDbEntity
  8
文字
100
AcDbLine
 10
932.91421994584
 20
592.8367343130559
 30
0.0
 11
932.91421994584
 21
595.4492341818559
 31
0.0
  0
LINE
  5
2B67
330
1B
100
AcDbEntity
  8
文字
100
AcDbLine
 10
932.91421994584
 20
591.8742340507558
 30
0.0
 11
932.91421994584
 21
592.2867340507558
 31
0.0
  0
LINE
  5
2B68
330
1B
100
AcDbEntity
  8
文字
100
AcDbLine
 10
932.91421994584
 20
590.7054841818558
 30
0.0
 11
932.91421994584
 21
591.3242341818558
 31
0.0
  0
LINE
  5
2B69
330
1B
100
AcDbEntity
  8
文字
100
AcDbLine
 10
932.91421994584
 20
595.4492341818559
 30
0.0
 11
933.2652837337402
 21
595.4492341818559
 31
0.0
  0
LINE
  5
2B6A
330
1B
100
AcDbEntity
  8
文字
100
AcDbLine
 10
933.2652837337402
 20
594.3492340507559
 30
0.0
 11
936.2142199458402
 21
594.3492340507559
 31
0.0
  0
LINE
  5
2B6B
330
1B
100
AcDbEntity
  8
文字
100
AcDbLine
 10
936.2142199458402
 20
593.9367340507557
 30
0.0
 11
933.2652837337402
 21
593.9367340507557
 31
0.0
  0
LINE
  5
2B6C
330
1B
100
AcDbEntity
  8
文字
100
AcDbLine
 10
933.2652837337402
 20
592.8367343130559
 30
0.0
 11
932.91421994584
 21
592.8367343130559
 31
0.0
  0
LINE
  5
2B6D
330
1B
100
AcDbEntity
  8
文字
100
AcDbLine
 10
932.91421994584
 20
592.2867340507558
 30
0.0
 11
936.2142199458402
 21
592.2867340507558
 31
0.0
  0
LINE
  5
2B6E
330
1B
100
AcDbEntity
  8
文字
100
AcDbLine
 10
936.2142199458402
 20
591.8742340507558
 30
0.0
 11
932.91421994584
 21
591.8742340507558
 31
0.0
  0
LINE
  5
2B6F
330
1B
100
AcDbEntity
  8
文字
100
AcDbLine
 10
932.91421994584
 20
591.3242341818558
 30
0.0
 11
936.2142199458402
 21
591.3242341818558
 31
0.0
  0
LINE
  5
2B70
330
1B
100
AcDbEntity
  8
文字
100
AcDbLine
 10
936.2142199458402
 20
590.9117341818558
 30
0.0
 11
933.6163475217402
 21
590.9117341818558
 31
0.0
  0
LINE
  5
2B71
330
1B
100
AcDbEntity
  8
文字
100
AcDbLine
 10
935.30145399884
 20
595.9992344441558
 30
0.0
 11
935.5823050292402
 21
596.0679841818558
 31
0.0
  0
LINE
  5
2B72
330
1B
100
AcDbEntity
  8
文字
 62
     0
100
AcDbLine
 10
911.51421994584
 20
610.5242341818558
 30
0.0
 11
911.51421994584
 21
606.0242341818558
 31
0.0
  0
LWPOLYLINE
  5
2B73
330
1B
100
AcDbEntity
  8
寸法
100
AcDbPolyline
 90
        3
 70
     0
 43
0.0
 10
913.8822946749401
 20
607.1853029605558
 10
912.6205220530401
 20
608.8581911369558
 10
912.7052457805401
 20
606.7645228513558
  0
CIRCLE
  5
2B74
330
1B
100
AcDbEntity
  8
実線
100
AcDbCircle
 10
911.51421994584
 20
610.5242341818558
 30
0.0
 40
2.299999999999999
  0
CIRCLE
  5
2B75
330
1B
100
AcDbEntity
  8
実線
100
AcDbCircle
 10
911.51421994584
 20
610.5242341818558
 30
0.0
 40
2.0
  0
LINE
  5
2B76
330
1B
100
AcDbEntity
  8
文字
100
AcDbLine
 10
911.51421994584
 20
610.5242341818558
 30
0.0
 11
916.01421994584
 21
610.5242341818558
 31
0.0
  0
LINE
  5
2B77
330
1B
100
AcDbEntity
  8
文字
 62
     0
100
AcDbLine
 10
911.51421994584
 20
610.5242341818558
 30
0.0
 11
911.51421994584
 21
615.0242341818558
 31
0.0
  0
LINE
  5
2B78
330
1B
100
AcDbEntity
  8
文字
 62
     0
100
AcDbLine
 10
911.51421994584
 20
610.5242341818558
 30
0.0
 11
907.01421994584
 21
610.5242341818558
 31
0.0
  0
LINE
  5
2B79
330
1B
100
AcDbEntity
  8
文字
100
AcDbLine
 10
936.2142199458402
 20
607.6867347064558
 30
0.0
 11
936.1440071821402
 21
608.0304841818558
 31
0.0
  0
LINE
  5
2B7A
330
1B
100
AcDbEntity
  8
文字
100
AcDbLine
 10
935.7227305935401
 20
607.9617336573558
 30
0.0
 11
935.7929433511401
 21
607.6867347064558
 31
0.0
  0
LINE
  5
2B7B
330
1B
100
AcDbEntity
  8
文字
100
AcDbLine
 10
933.33549649134
 20
607.6867347064558
 30
0.0
 11
933.4057092489402
 21
607.8929847064557
 31
0.0
  0
LINE
  5
2B7C
330
1B
100
AcDbEntity
  8
文字
100
AcDbLine
 10
934.7397518398402
 20
607.6867347064558
 30
0.0
 11
934.8099645973402
 21
607.9617336573558
 31
0.0
  0
LINE
  5
2B7D
330
1B
100
AcDbEntity
  8
文字
100
AcDbLine
 10
934.3886880518402
 20
608.0304841818558
 30
0.0
 11
934.31847529424
 21
607.6867347064558
 31
0.0
  0
LINE
  5
2B7E
330
1B
100
AcDbEntity
  8
文字
100
AcDbLine
 10
932.98443270344
 20
607.9617336573558
 30
0.0
 11
932.91421994584
 21
607.6179841818558
 31
0.0
  0
LINE
  5
2B7F
330
1B
100
AcDbEntity
  8
文字
100
AcDbLine
 10
935.9333688909401
 20
596.2742341818558
 30
0.0
 11
936.1440071821402
 21
596.6179844441557
 31
0.0
  0
LINE
  5
2B80
330
1B
100
AcDbEntity
  8
文字
100
AcDbLine
 10
934.52911356704
 20
596.5492339196559
 30
0.0
 11
934.6695390822402
 21
596.8242344441558
 31
0.0
  0
LINE
  5
2B81
330
1B
100
AcDbEntity
  8
文字
100
AcDbLine
 10
936.0035816484401
 20
599.5742341818559
 30
0.0
 11
936.1440071821402
 21
599.8492339196558
 31
0.0
  0
LINE
  5
2B82
330
1B
100
AcDbEntity
  8
文字
100
AcDbLine
 10
934.52911356704
 20
598.1304841818558
 30
0.0
 11
934.3886880518402
 21
597.8554844441559
 31
0.0
  0
LINE
  5
2B83
330
1B
100
AcDbEntity
  8
文字
100
AcDbLine
 10
934.31847529424
 20
597.0992341818559
 30
0.0
 11
934.24826253664
 21
596.8929841818558
 31
0.0
  0
LINE
  5
2B84
330
1B
100
AcDbEntity
  8
文字
100
AcDbLine
 10
935.7929433511401
 20
596.9617339196559
 30
0.0
 11
935.7227305935401
 21
596.6867341818558
 31
0.0
  0
LINE
  5
2B85
330
1B
100
AcDbEntity
  8
文字
100
AcDbLine
 10
935.7929433511401
 20
600.1929841818558
 30
0.0
 11
935.7227305935401
 21
599.9179844441559
 31
0.0
  0
LINE
  5
2B86
330
1B
100
AcDbEntity
  8
文字
100
AcDbLine
 10
934.6695390822402
 20
596.8242344441558
 30
0.0
 11
934.7397518398402
 21
597.0992341818559
 31
0.0
  0
LINE
  5
2B87
330
1B
100
AcDbEntity
  8
文字
100
AcDbLine
 10
934.7397518398402
 20
597.5117341818559
 30
0.0
 11
934.8099645973402
 21
597.7867339196558
 31
0.0
  0
LINE
  5
2B88
330
1B
100
AcDbEntity
  8
文字
100
AcDbLine
 10
936.1440071821402
 20
596.6179844441557
 30
0.0
 11
936.2142199458402
 21
596.9617339196559
 31
0.0
  0
LINE
  5
2B89
330
1B
100
AcDbEntity
  8
文字
100
AcDbLine
 10
936.1440071821402
 20
599.8492339196558
 30
0.0
 11
936.2142199458402
 21
600.1929841818558
 31
0.0
  0
LINE
  5
2B8A
330
1B
100
AcDbEntity
  8
文字
100
AcDbLine
 10
936.2142199458402
 20
600.4679839196557
 30
0.0
 11
936.1440071821402
 21
600.8117341818558
 31
0.0
  0
LINE
  5
2B8B
330
1B
100
AcDbEntity
  8
文字
100
AcDbLine
 10
936.2142199458402
 20
597.5117341818559
 30
0.0
 11
936.1440071821402
 21
597.8554844441559
 31
0.0
  0
LINE
  5
2B8C
330
1B
100
AcDbEntity
  8
文字
100
AcDbLine
 10
935.7227305935401
 20
600.7429844441558
 30
0.0
 11
935.7929433511401
 21
600.4679839196557
 31
0.0
  0
LINE
  5
2B8D
330
1B
100
AcDbEntity
  8
文字
100
AcDbLine
 10
935.7227305935401
 20
597.7867339196558
 30
0.0
 11
935.7929433511401
 21
597.5117341818559
 31
0.0
  0
LINE
  5
2B8E
330
1B
100
AcDbEntity
  8
文字
100
AcDbLine
 10
934.9503901125402
 20
597.9929839196558
 30
0.0
 11
935.1610284836402
 21
598.1304841818558
 31
0.0
  0
LINE
  5
2B8F
330
1B
100
AcDbEntity
  8
文字
100
AcDbLine
 10
933.4759220065402
 20
598.2679844441559
 30
0.0
 11
933.1950709761402
 21
598.0617344441558
 31
0.0
  0
LINE
  5
2B90
330
1B
100
AcDbEntity
  8
文字
100
AcDbLine
 10
935.7227305935401
 20
596.6867341818558
 30
0.0
 11
935.5120922716402
 21
596.4804841818558
 31
0.0
  0
LINE
  5
2B91
330
1B
100
AcDbEntity
  8
文字
100
AcDbLine
 10
934.24826253664
 20
596.2742341818558
 30
0.0
 11
934.52911356704
 21
596.5492339196559
 31
0.0
  0
LINE
  5
2B92
330
1B
100
AcDbEntity
  8
文字
100
AcDbLine
 10
935.7227305935401
 20
599.2992344441558
 30
0.0
 11
936.0035816484401
 21
599.5742341818559
 31
0.0
  0
LINE
  5
2B93
330
1B
100
AcDbEntity
  8
文字
100
AcDbLine
 10
934.8099645973402
 20
598.4054839196558
 30
0.0
 11
934.52911356704
 21
598.1304841818558
 31
0.0
  0
LINE
  5
2B94
330
1B
100
AcDbEntity
  8
文字
100
AcDbLine
 10
933.4057092489402
 20
597.7179841818558
 30
0.0
 11
933.54613476414
 21
597.8554844441559
 31
0.0
  0
LINE
  5
2B95
330
1B
100
AcDbEntity
  8
文字
100
AcDbLine
 10
933.1950709761402
 20
598.0617344441558
 30
0.0
 11
932.98443270344
 21
597.7867339196558
 31
0.0
  0
LINE
  5
2B96
330
1B
100
AcDbEntity
  8
文字
100
AcDbLine
 10
934.24826253664
 20
596.8929841818558
 30
0.0
 11
934.10783702154
 21
596.6867341818558
 31
0.0
  0
LINE
  5
2B97
330
1B
100
AcDbEntity
  8
文字
100
AcDbLine
 10
934.8099645973402
 20
597.7867339196558
 30
0.0
 11
934.9503901125402
 21
597.9929839196558
 31
0.0
  0
LINE
  5
2B98
330
1B
100
AcDbEntity
  8
文字
100
AcDbLine
 10
935.7227305935401
 20
599.9179844441559
 30
0.0
 11
935.5823050292402
 21
599.7117344441558
 31
0.0
  0
LINE
  5
2B99
330
1B
100
AcDbEntity
  8
文字
100
AcDbLine
 10
933.33549649134
 20
597.5117341818559
 30
0.0
 11
933.4057092489402
 21
597.7179841818558
 31
0.0
  0
LINE
  5
2B9A
330
1B
100
AcDbEntity
  8
文字
100
AcDbLine
 10
934.3886880518402
 20
597.8554844441559
 30
0.0
 11
934.31847529424
 21
597.5117341818559
 31
0.0
  0
LINE
  5
2B9B
330
1B
100
AcDbEntity
  8
文字
100
AcDbLine
 10
932.98443270344
 20
597.7867339196558
 30
0.0
 11
932.91421994584
 21
597.4429844441559
 31
0.0
  0
LINE
  5
2B9C
330
1B
100
AcDbEntity
  8
文字
100
AcDbLine
 10
936.2142199458402
 20
600.1929841818558
 30
0.0
 11
936.2142199458402
 21
600.4679839196557
 31
0.0
  0
LINE
  5
2B9D
330
1B
100
AcDbEntity
  8
文字
100
AcDbLine
 10
936.2142199458402
 20
596.9617339196559
 30
0.0
 11
936.2142199458402
 21
597.5117341818559
 31
0.0
  0
LINE
  5
2B9E
330
1B
100
AcDbEntity
  8
文字
100
AcDbLine
 10
935.7929433511401
 20
597.5117341818559
 30
0.0
 11
935.7929433511401
 21
596.9617339196559
 31
0.0
  0
LINE
  5
2B9F
330
1B
100
AcDbEntity
  8
文字
100
AcDbLine
 10
935.7929433511401
 20
600.4679839196557
 30
0.0
 11
935.7929433511401
 21
600.1929841818558
 31
0.0
  0
LINE
  5
2BA0
330
1B
100
AcDbEntity
  8
文字
100
AcDbLine
 10
934.7397518398402
 20
597.0992341818559
 30
0.0
 11
934.7397518398402
 21
597.5117341818559
 31
0.0
  0
LINE
  5
2BA1
330
1B
100
AcDbEntity
  8
文字
100
AcDbLine
 10
934.31847529424
 20
597.5117341818559
 30
0.0
 11
934.31847529424
 21
597.0992341818559
 31
0.0
  0
LINE
  5
2BA2
330
1B
100
AcDbEntity
  8
文字
100
AcDbLine
 10
933.68656027924
 20
597.9242341818558
 30
0.0
 11
933.68656027924
 21
598.3367341818558
 31
0.0
  0
LINE
  5
2BA3
330
1B
100
AcDbEntity
  8
文字
100
AcDbLine
 10
933.33549649134
 20
597.0992341818559
 30
0.0
 11
933.33549649134
 21
597.5117341818559
 31
0.0
  0
LINE
  5
2BA4
330
1B
100
AcDbEntity
  8
文字
100
AcDbLine
 10
932.91421994584
 20
597.4429844441559
 30
0.0
 11
932.91421994584
 21
597.0992341818559
 31
0.0
  0
LINE
  5
2BA5
330
1B
100
AcDbEntity
  8
文字
100
AcDbLine
 10
932.91421994584
 20
599.5054844441559
 30
0.0
 11
932.91421994584
 21
599.0929844441558
 31
0.0
  0
LINE
  5
2BA6
330
1B
100
AcDbEntity
  8
文字
100
AcDbLine
 10
932.91421994584
 20
601.5679836573558
 30
0.0
 11
932.91421994584
 21
601.1554844441558
 31
0.0
  0
LINE
  5
2BA7
330
1B
100
AcDbEntity
  8
文字
100
AcDbLine
 10
932.91421994584
 20
597.0992341818559
 30
0.0
 11
932.98443270344
 21
596.8242344441558
 31
0.0
  0
LINE
  5
2BA8
330
1B
100
AcDbEntity
  8
文字
100
AcDbLine
 10
933.4057092489402
 20
596.8929841818558
 30
0.0
 11
933.33549649134
 21
597.0992341818559
 31
0.0
  0
LINE
  5
2BA9
330
1B
100
AcDbEntity
  8
文字
100
AcDbLine
 10
936.1440071821402
 20
600.8117341818558
 30
0.0
 11
936.0035816484401
 21
601.0867339196559
 31
0.0
  0
LINE
  5
2BAA
330
1B
100
AcDbEntity
  8
文字
100
AcDbLine
 10
936.1440071821402
 20
597.8554844441559
 30
0.0
 11
936.0035816484401
 21
598.1304841818558
 31
0.0
  0
LINE
  5
2BAB
330
1B
100
AcDbEntity
  8
文字
100
AcDbLine
 10
932.98443270344
 20
596.8242344441558
 30
0.0
 11
933.12485821854
 21
596.5492339196559
 31
0.0
  0
LINE
  5
2BAC
330
1B
100
AcDbEntity
  8
文字
100
AcDbLine
 10
935.5823050292402
 20
600.9492344441558
 30
0.0
 11
935.7227305935401
 21
600.7429844441558
 31
0.0
  0
LINE
  5
2BAD
330
1B
100
AcDbEntity
  8
文字
100
AcDbLine
 10
935.5120922716402
 20
596.4804841818558
 30
0.0
 11
935.30145399884
 21
596.4117344441558
 31
0.0
  0
LINE
  5
2BAE
330
1B
100
AcDbEntity
  8
文字
100
AcDbLine
 10
934.10783702154
 20
596.6867341818558
 30
0.0
 11
933.8971987487401
 21
596.6179844441557
 31
0.0
  0
LINE
  5
2BAF
330
1B
100
AcDbEntity
  8
文字
100
AcDbLine
 10
933.68656027924
 20
598.3367341818558
 30
0.0
 11
933.4759220065402
 21
598.2679844441559
 31
0.0
  0
LINE
  5
2BB0
330
1B
100
AcDbEntity
  8
文字
100
AcDbLine
 10
935.09081572604
 20
598.5429841818558
 30
0.0
 11
934.8099645973402
 21
598.4054839196558
 31
0.0
  0
LINE
  5
2BB1
330
1B
100
AcDbEntity
  8
文字
100
AcDbLine
 10
933.54613476414
 20
597.8554844441559
 30
0.0
 11
933.68656027924
 21
597.9242341818558
 31
0.0
  0
LINE
  5
2BB2
330
1B
100
AcDbEntity
  8
文字
100
AcDbLine
 10
935.4418795140402
 20
599.1617341818558
 30
0.0
 11
935.7227305935401
 21
599.2992344441558
 31
0.0
  0
LINE
  5
2BB3
330
1B
100
AcDbEntity
  8
文字
100
AcDbLine
 10
935.5823050292402
 20
599.7117344441558
 30
0.0
 11
935.3716667564402
 21
599.5742341818559
 31
0.0
  0
LINE
  5
2BB4
330
1B
100
AcDbEntity
  8
文字
100
AcDbLine
 10
935.5823050292402
 20
597.9929839196558
 30
0.0
 11
935.7227305935401
 21
597.7867339196558
 31
0.0
  0
LINE
  5
2BB5
330
1B
100
AcDbEntity
  8
文字
100
AcDbLine
 10
933.54613476414
 20
596.6867341818558
 30
0.0
 11
933.4057092489402
 21
596.8929841818558
 31
0.0
  0
LINE
  5
2BB6
330
1B
100
AcDbEntity
  8
文字
100
AcDbLine
 10
936.0035816484401
 20
601.0867339196559
 30
0.0
 11
935.7227305935401
 21
601.3617336573559
 31
0.0
  0
LINE
  5
2BB7
330
1B
100
AcDbEntity
  8
文字
100
AcDbLine
 10
936.0035816484401
 20
598.1304841818558
 30
0.0
 11
935.7227305935401
 21
598.4054839196558
 31
0.0
  0
LINE
  5
2BB8
330
1B
100
AcDbEntity
  8
文字
100
AcDbLine
 10
933.12485821854
 20
596.5492339196559
 30
0.0
 11
933.4057092489402
 21
596.2742341818558
 31
0.0
  0
LINE
  5
2BB9
330
1B
100
AcDbEntity
  8
文字
100
AcDbLine
 10
935.3716667564402
 20
601.0867339196559
 30
0.0
 11
935.5823050292402
 21
600.9492344441558
 31
0.0
  0
LINE
  5
2BBA
330
1B
100
AcDbEntity
  8
文字
100
AcDbLine
 10
935.3716667564402
 20
598.1304841818558
 30
0.0
 11
935.5823050292402
 21
597.9929839196558
 31
0.0
  0
LINE
  5
2BBB
330
1B
100
AcDbEntity
  8
文字
100
AcDbLine
 10
935.7227305935401
 20
601.3617336573559
 30
0.0
 11
935.4418795140402
 21
601.4992347064557
 31
0.0
  0
LINE
  5
2BBC
330
1B
100
AcDbEntity
  8
文字
100
AcDbLine
 10
935.7227305935401
 20
598.4054839196558
 30
0.0
 11
935.4418795140402
 21
598.5429841818558
 31
0.0
  0
LINE
  5
2BBD
330
1B
100
AcDbEntity
  8
文字
100
AcDbLine
 10
933.7567732335401
 20
596.6179844441557
 30
0.0
 11
933.54613476414
 21
596.6867341818558
 31
0.0
  0
LINE
  5
2BBE
330
1B
100
AcDbEntity
  8
文字
100
AcDbLine
 10
935.09081572604
 20
601.1554844441558
 30
0.0
 11
935.3716667564402
 21
601.0867339196559
 31
0.0
  0
LINE
  5
2BBF
330
1B
100
AcDbEntity
  8
文字
100
AcDbLine
 10
935.4418795140402
 20
601.4992347064557
 30
0.0
 11
935.09081572604
 21
601.5679836573558
 31
0.0
  0
LINE
  5
2BC0
330
1B
100
AcDbEntity
  8
文字
100
AcDbLine
 10
933.4057092489402
 20
596.2742341818558
 30
0.0
 11
933.68656027924
 21
596.2054844441559
 31
0.0
  0
LINE
  5
2BC1
330
1B
100
AcDbEntity
  8
文字
100
AcDbLine
 10
935.09081572604
 20
601.5679836573558
 30
0.0
 11
932.91421994584
 21
601.5679836573558
 31
0.0
  0
LINE
  5
2BC2
330
1B
100
AcDbEntity
  8
文字
100
AcDbLine
 10
932.91421994584
 20
601.1554844441558
 30
0.0
 11
935.09081572604
 21
601.1554844441558
 31
0.0
  0
LINE
  5
2BC3
330
1B
100
AcDbEntity
  8
文字
100
AcDbLine
 10
935.09081572604
 20
599.5054844441559
 30
0.0
 11
932.91421994584
 21
599.5054844441559
 31
0.0
  0
LINE
  5
2BC4
330
1B
100
AcDbEntity
  8
文字
100
AcDbLine
 10
932.91421994584
 20
599.0929844441558
 30
0.0
 11
935.09081572604
 21
599.0929844441558
 31
0.0
  0
LINE
  5
2BC5
330
1B
100
AcDbEntity
  8
文字
100
AcDbLine
 10
935.4418795140402
 20
598.5429841818558
 30
0.0
 11
935.09081572604
 21
598.5429841818558
 31
0.0
  0
LINE
  5
2BC6
330
1B
100
AcDbEntity
  8
文字
100
AcDbLine
 10
935.1610284836402
 20
598.1304841818558
 30
0.0
 11
935.3716667564402
 21
598.1304841818558
 31
0.0
  0
LINE
  5
2BC7
330
1B
100
AcDbEntity
  8
文字
100
AcDbLine
 10
933.8971987487401
 20
596.6179844441557
 30
0.0
 11
933.7567732335401
 21
596.6179844441557
 31
0.0
  0
LINE
  5
2BC8
330
1B
100
AcDbEntity
  8
文字
100
AcDbLine
 10
933.68656027924
 20
596.2054844441559
 30
0.0
 11
933.9674115063401
 21
596.2054844441559
 31
0.0
  0
LINE
  5
2BC9
330
1B
100
AcDbEntity
  8
文字
100
AcDbLine
 10
935.09081572604
 20
599.0929844441558
 30
0.0
 11
935.4418795140402
 21
599.1617341818558
 31
0.0
  0
LINE
  5
2BCA
330
1B
100
AcDbEntity
  8
文字
100
AcDbLine
 10
935.3716667564402
 20
599.5742341818559
 30
0.0
 11
935.09081572604
 21
599.5054844441559
 31
0.0
  0
LINE
  5
2BCB
330
1B
100
AcDbEntity
  8
文字
100
AcDbLine
 10
933.9674115063401
 20
596.2054844441559
 30
0.0
 11
934.24826253664
 21
596.2742341818558
 31
0.0
  0
LINE
  5
2BCC
330
1B
100
AcDbEntity
  8
文字
100
AcDbLine
 10
936.1440071821402
 20
604.1117341818558
 30
0.0
 11
936.2142199458402
 21
603.7679847064557
 31
0.0
  0
LINE
  5
2BCD
330
1B
100
AcDbEntity
  8
文字
100
AcDbLine
 10
932.91421994584
 20
607.2742347064559
 30
0.0
 11
932.98443270344
 21
606.9992341818558
 31
0.0
  0
LINE
  5
2BCE
330
1B
100
AcDbEntity
  8
文字
100
AcDbLine
 10
935.7227305935401
 20
604.0429836573558
 30
0.0
 11
935.7929433511401
 21
603.8367336573558
 31
0.0
  0
LINE
  5
2BCF
330
1B
100
AcDbEntity
  8
文字
100
AcDbLine
 10
933.4057092489402
 20
607.0679847064558
 30
0.0
 11
933.33549649134
 21
607.2742347064559
 31
0.0
  0
LINE
  5
2BD0
330
1B
100
AcDbEntity
  8
文字
100
AcDbLine
 10
934.31847529424
 20
603.8367336573558
 30
0.0
 11
934.24826253664
 21
604.0429836573558
 31
0.0
  0
LINE
  5
2BD1
330
1B
100
AcDbEntity
  8
文字
100
AcDbLine
 10
932.98443270344
 20
604.1117341818558
 30
0.0
 11
933.1950709761402
 21
604.3867347064558
 31
0.0
  0
LINE
  5
2BD2
330
1B
100
AcDbEntity
  8
文字
100
AcDbLine
 10
934.24826253664
 20
607.0679847064558
 30
0.0
 11
934.10783702154
 21
606.8617347064558
 31
0.0
  0
LINE
  5
2BD3
330
1B
100
AcDbEntity
  8
文字
100
AcDbLine
 10
935.9333688909401
 20
606.4492347064558
 30
0.0
 11
936.1440071821402
 21
606.7929841818559
 31
0.0
  0
LINE
  5
2BD4
330
1B
100
AcDbEntity
  8
文字
100
AcDbLine
 10
934.52911356704
 20
604.2492336573558
 30
0.0
 11
934.5993263246402
 21
604.3867347064558
 31
0.0
  0
LINE
  5
2BD5
330
1B
100
AcDbEntity
  8
文字
100
AcDbLine
 10
934.52911356704
 20
606.7242336573558
 30
0.0
 11
934.6695390822402
 21
606.9992341818558
 31
0.0
  0
LINE
  5
2BD6
330
1B
100
AcDbEntity
  8
文字
100
AcDbLine
 10
934.7397518398402
 20
603.8367336573558
 30
0.0
 11
934.8099645973402
 21
604.0429836573558
 31
0.0
  0
LINE
  5
2BD7
330
1B
100
AcDbEntity
  8
文字
100
AcDbLine
 10
933.4057092489402
 20
604.0429836573558
 30
0.0
 11
933.33549649134
 21
603.8367336573558
 31
0.0
  0
LINE
  5
2BD8
330
1B
100
AcDbEntity
  8
文字
100
AcDbLine
 10
934.31847529424
 20
607.2742347064559
 30
0.0
 11
934.24826253664
 21
607.0679847064558
 31
0.0
  0
LINE
  5
2BD9
330
1B
100
AcDbEntity
  8
文字
100
AcDbLine
 10
935.7929433511401
 20
607.1367336573558
 30
0.0
 11
935.7227305935401
 21
606.8617347064558
 31
0.0
  0
LINE
  5
2BDA
330
1B
100
AcDbEntity
  8
文字
100
AcDbLine
 10
934.6695390822402
 20
606.9992341818558
 30
0.0
 11
934.7397518398402
 21
607.2742347064559
 31
0.0
  0
LINE
  5
2BDB
330
1B
100
AcDbEntity
  8
文字
100
AcDbLine
 10
936.1440071821402
 20
606.7929841818559
 30
0.0
 11
936.2142199458402
 21
607.1367336573558
 31
0.0
  0
LINE
  5
2BDC
330
1B
100
AcDbEntity
  8
文字
100
AcDbLine
 10
932.91421994584
 20
603.7679847064557
 30
0.0
 11
932.98443270344
 21
604.1117341818558
 31
0.0
  0
LINE
  5
2BDD
330
1B
100
AcDbEntity
  8
文字
100
AcDbLine
 10
936.2142199458402
 20
607.1367336573558
 30
0.0
 11
936.2142199458402
 21
607.6867347064558
 31
0.0
  0
LINE
  5
2BDE
330
1B
100
AcDbEntity
  8
文字
100
AcDbLine
 10
936.2142199458402
 20
603.7679847064557
 30
0.0
 11
936.2142199458402
 21
602.1179847064558
 31
0.0
  0
LINE
  5
2BDF
330
1B
100
AcDbEntity
  8
文字
100
AcDbLine
 10
936.2142199458402
 20
605.6242347064558
 30
0.0
 11
936.2142199458402
 21
605.2117347064559
 31
0.0
  0
LINE
  5
2BE0
330
1B
100
AcDbEntity
  8
文字
100
AcDbLine
 10
935.7929433511401
 20
603.8367336573558
 30
0.0
 11
935.7929433511401
 21
602.5304847064558
 31
0.0
  0
LINE
  5
2BE1
330
1B
100
AcDbEntity
  8
文字
100
AcDbLine
 10
935.7929433511401
 20
607.6867347064558
 30
0.0
 11
935.7929433511401
 21
607.1367336573558
 31
0.0
  0
LINE
  5
2BE2
330
1B
100
AcDbEntity
  8
文字
100
AcDbLine
 10
935.30145399884
 20
606.5867341818558
 30
0.0
 11
935.30145399884
 21
606.1742341818558
 31
0.0
  0
LINE
  5
2BE3
330
1B
100
AcDbEntity
  8
文字
100
AcDbLine
 10
934.7397518398402
 20
607.2742347064559
 30
0.0
 11
934.7397518398402
 21
607.6867347064558
 31
0.0
  0
LINE
  5
2BE4
330
1B
100
AcDbEntity
  8
文字
100
AcDbLine
 10
934.7397518398402
 20
602.5304847064558
 30
0.0
 11
934.7397518398402
 21
603.8367336573558
 31
0.0
  0
LINE
  5
2BE5
330
1B
100
AcDbEntity
  8
文字
100
AcDbLine
 10
934.31847529424
 20
602.5304847064558
 30
0.0
 11
934.31847529424
 21
603.8367336573558
 31
0.0
  0
LINE
  5
2BE6
330
1B
100
AcDbEntity
  8
文字
100
AcDbLine
 10
934.31847529424
 20
607.6867347064558
 30
0.0
 11
934.31847529424
 21
607.2742347064559
 31
0.0
  0
LINE
  5
2BE7
330
1B
100
AcDbEntity
  8
文字
100
AcDbLine
 10
933.33549649134
 20
607.2742347064559
 30
0.0
 11
933.33549649134
 21
607.6867347064558
 31
0.0
  0
LINE
  5
2BE8
330
1B
100
AcDbEntity
  8
文字
100
AcDbLine
 10
933.33549649134
 20
603.8367336573558
 30
0.0
 11
933.33549649134
 21
602.5304847064558
 31
0.0
  0
LINE
  5
2BE9
330
1B
100
AcDbEntity
  8
文字
100
AcDbLine
 10
932.91421994584
 20
605.2117347064559
 30
0.0
 11
932.91421994584
 21
605.6242347064558
 31
0.0
  0
LINE
  5
2BEA
330
1B
100
AcDbEntity
  8
文字
100
AcDbLine
 10
932.91421994584
 20
602.1179847064558
 30
0.0
 11
932.91421994584
 21
603.7679847064557
 31
0.0
  0
LINE
  5
2BEB
330
1B
100
AcDbEntity
  8
文字
100
AcDbLine
 10
932.91421994584
 20
607.6179841818558
 30
0.0
 11
932.91421994584
 21
607.2742347064559
 31
0.0
  0
LINE
  5
2BEC
330
1B
100
AcDbEntity
  8
文字
100
AcDbLine
 10
934.45890080944
 20
604.3867347064558
 30
0.0
 11
934.52911356704
 21
604.2492336573558
 31
0.0
  0
LINE
  5
2BED
330
1B
100
AcDbEntity
  8
文字
100
AcDbLine
 10
932.98443270344
 20
606.9992341818558
 30
0.0
 11
933.12485821854
 21
606.7242336573558
 31
0.0
  0
LINE
  5
2BEE
330
1B
100
AcDbEntity
  8
文字
100
AcDbLine
 10
933.54613476414
 20
606.8617347064558
 30
0.0
 11
933.4057092489402
 21
607.0679847064558
 31
0.0
  0
LINE
  5
2BEF
330
1B
100
AcDbEntity
  8
文字
100
AcDbLine
 10
935.9333688909401
 20
604.3867347064558
 30
0.0
 11
936.1440071821402
 21
604.1117341818558
 31
0.0
  0
LINE
  5
2BF0
330
1B
100
AcDbEntity
  8
文字
100
AcDbLine
 10
934.5993263246402
 20
604.3867347064558
 30
0.0
 11
934.88017735494
 21
604.5929847064558
 31
0.0
  0
LINE
  5
2BF1
330
1B
100
AcDbEntity
  8
文字
100
AcDbLine
 10
933.1950709761402
 20
604.3867347064558
 30
0.0
 11
933.4759220065402
 21
604.5929847064558
 31
0.0
  0
LINE
  5
2BF2
330
1B
100
AcDbEntity
  8
文字
100
AcDbLine
 10
934.8099645973402
 20
604.0429836573558
 30
0.0
 11
934.9503901125402
 21
604.1804847064558
 31
0.0
  0
LINE
  5
2BF3
330
1B
100
AcDbEntity
  8
文字
100
AcDbLine
 10
933.54613476414
 20
604.1804847064558
 30
0.0
 11
933.4057092489402
 21
604.0429836573558
 31
0.0
  0
LINE
  5
2BF4
330
1B
100
AcDbEntity
  8
文字
100
AcDbLine
 10
935.7227305935401
 20
606.8617347064558
 30
0.0
 11
935.5120922716402
 21
606.6554847064558
 31
0.0
  0
LINE
  5
2BF5
330
1B
100
AcDbEntity
  8
文字
100
AcDbLine
 10
934.24826253664
 20
606.4492347064558
 30
0.0
 11
934.52911356704
 21
606.7242336573558
 31
0.0
  0
LINE
  5
2BF6
330
1B
100
AcDbEntity
  8
文字
100
AcDbLine
 10
933.12485821854
 20
606.7242336573558
 30
0.0
 11
933.4057092489402
 21
606.4492347064558
 31
0.0
  0
LINE
  5
2BF7
330
1B
100
AcDbEntity
  8
文字
100
AcDbLine
 10
935.5823050292402
 20
604.1804847064558
 30
0.0
 11
935.7227305935401
 21
604.0429836573558
 31
0.0
  0
LINE
  5
2BF8
330
1B
100
AcDbEntity
  8
文字
100
AcDbLine
 10
934.24826253664
 20
604.0429836573558
 30
0.0
 11
934.10783702154
 21
604.1804847064558
 31
0.0
  0
LINE
  5
2BF9
330
1B
100
AcDbEntity
  8
文字
100
AcDbLine
 10
935.6525178359403
 20
604.5929847064558
 30
0.0
 11
935.9333688909401
 21
604.3867347064558
 31
0.0
  0
LINE
  5
2BFA
330
1B
100
AcDbEntity
  8
文字
100
AcDbLine
 10
934.9503901125402
 20
604.1804847064558
 30
0.0
 11
935.1610284836402
 21
604.2492336573558
 31
0.0
  0
LINE
  5
2BFB
330
1B
100
AcDbEntity
  8
文字
100
AcDbLine
 10
934.88017735494
 20
604.5929847064558
 30
0.0
 11
935.09081572604
 21
604.6617336573558
 31
0.0
  0
LINE
  5
2BFC
330
1B
100
AcDbEntity
  8
文字
100
AcDbLine
 10
933.7567732335401
 20
604.2492336573558
 30
0.0
 11
933.54613476414
 21
604.1804847064558
 31
0.0
  0
LINE
  5
2BFD
330
1B
100
AcDbEntity
  8
文字
100
AcDbLine
 10
933.4759220065402
 20
604.5929847064558
 30
0.0
 11
933.68656027924
 21
604.6617336573558
 31
0.0
  0
LINE
  5
2BFE
330
1B
100
AcDbEntity
  8
文字
100
AcDbLine
 10
935.5823050292402
 20
606.2429847064558
 30
0.0
 11
935.9333688909401
 21
606.4492347064558
 31
0.0
  0
LINE
  5
2BFF
330
1B
100
AcDbEntity
  8
文字
100
AcDbLine
 10
934.17804977914
 20
604.5929847064558
 30
0.0
 11
934.45890080944
 21
604.3867347064558
 31
0.0
  0
LINE
  5
2C00
330
1B
100
AcDbEntity
  8
文字
100
AcDbLine
 10
935.5120922716402
 20
606.6554847064558
 30
0.0
 11
935.30145399884
 21
606.5867341818558
 31
0.0
  0
LINE
  5
2C01
330
1B
100
AcDbEntity
  8
文字
100
AcDbLine
 10
934.10783702154
 20
606.8617347064558
 30
0.0
 11
933.8971987487401
 21
606.7929841818559
 31
0.0
  0
LINE
  5
2C02
330
1B
100
AcDbEntity
  8
文字
100
AcDbLine
 10
933.7567732335401
 20
606.7929841818559
 30
0.0
 11
933.54613476414
 21
606.8617347064558
 31
0.0
  0
LINE
  5
2C03
330
1B
100
AcDbEntity
  8
文字
100
AcDbLine
 10
935.4418795140402
 20
604.6617336573558
 30
0.0
 11
935.6525178359403
 21
604.5929847064558
 31
0.0
  0
LINE
  5
2C04
330
1B
100
AcDbEntity
  8
文字
100
AcDbLine
 10
935.3716667564402
 20
604.2492336573558
 30
0.0
 11
935.5823050292402
 21
604.1804847064558
 31
0.0
  0
LINE
  5
2C05
330
1B
100
AcDbEntity
  8
文字
100
AcDbLine
 10
933.9674115063401
 20
604.6617336573558
 30
0.0
 11
934.17804977914
 21
604.5929847064558
 31
0.0
  0
LINE
  5
2C06
330
1B
100
AcDbEntity
  8
文字
100
AcDbLine
 10
934.10783702154
 20
604.1804847064558
 30
0.0
 11
933.8971987487401
 21
604.2492336573558
 31
0.0
  0
LINE
  5
2C07
330
1B
100
AcDbEntity
  8
文字
100
AcDbLine
 10
933.4057092489402
 20
606.4492347064558
 30
0.0
 11
933.68656027924
 21
606.3804841818559
 31
0.0
  0
LINE
  5
2C08
330
1B
100
AcDbEntity
  8
文字
100
AcDbLine
 10
933.8971987487401
 20
606.7929841818559
 30
0.0
 11
933.7567732335401
 21
606.7929841818559
 31
0.0
  0
LINE
  5
2C09
330
1B
100
AcDbEntity
  8
文字
100
AcDbLine
 10
933.68656027924
 20
606.3804841818559
 30
0.0
 11
933.9674115063401
 21
606.3804841818559
 31
0.0
  0
LINE
  5
2C0A
330
1B
100
AcDbEntity
  8
文字
100
AcDbLine
 10
932.91421994584
 20
605.6242347064558
 30
0.0
 11
936.2142199458402
 21
605.6242347064558
 31
0.0
  0
LINE
  5
2C0B
330
1B
100
AcDbEntity
  8
文字
100
AcDbLine
 10
936.2142199458402
 20
605.2117347064559
 30
0.0
 11
932.91421994584
 21
605.2117347064559
 31
0.0
  0
LINE
  5
2C0C
330
1B
100
AcDbEntity
  8
文字
100
AcDbLine
 10
935.09081572604
 20
604.6617336573558
 30
0.0
 11
935.4418795140402
 21
604.6617336573558
 31
0.0
  0
LINE
  5
2C0D
330
1B
100
AcDbEntity
  8
文字
100
AcDbLine
 10
933.68656027924
 20
604.6617336573558
 30
0.0
 11
933.9674115063401
 21
604.6617336573558
 31
0.0
  0
LINE
  5
2C0E
330
1B
100
AcDbEntity
  8
文字
100
AcDbLine
 10
935.1610284836402
 20
604.2492336573558
 30
0.0
 11
935.3716667564402
 21
604.2492336573558
 31
0.0
  0
LINE
  5
2C0F
330
1B
100
AcDbEntity
  8
文字
100
AcDbLine
 10
933.8971987487401
 20
604.2492336573558
 30
0.0
 11
933.7567732335401
 21
604.2492336573558
 31
0.0
  0
LINE
  5
2C10
330
1B
100
AcDbEntity
  8
文字
100
AcDbLine
 10
933.33549649134
 20
602.5304847064558
 30
0.0
 11
934.31847529424
 21
602.5304847064558
 31
0.0
  0
LINE
  5
2C11
330
1B
100
AcDbEntity
  8
文字
100
AcDbLine
 10
935.7929433511401
 20
602.5304847064558
 30
0.0
 11
934.7397518398402
 21
602.5304847064558
 31
0.0
  0
LINE
  5
2C12
330
1B
100
AcDbEntity
  8
文字
100
AcDbLine
 10
936.2142199458402
 20
602.1179847064558
 30
0.0
 11
932.91421994584
 21
602.1179847064558
 31
0.0
  0
LINE
  5
2C13
330
1B
100
AcDbEntity
  8
文字
100
AcDbLine
 10
933.9674115063401
 20
606.3804841818559
 30
0.0
 11
934.24826253664
 21
606.4492347064558
 31
0.0
  0
LINE
  5
2C14
330
1B
100
AcDbEntity
  8
文字
100
AcDbLine
 10
935.30145399884
 20
606.1742341818558
 30
0.0
 11
935.5823050292402
 21
606.2429847064558
 31
0.0
  0
LINE
  5
2C15
330
1B
100
AcDbEntity
  8
文字
100
AcDbLine
 10
936.1440071821402
 20
608.0304841818558
 30
0.0
 11
936.0035816484401
 21
608.3054847064559
 31
0.0
  0
LINE
  5
2C16
330
1B
100
AcDbEntity
  8
文字
100
AcDbLine
 10
934.8099645973402
 20
607.9617336573558
 30
0.0
 11
934.9503901125402
 21
608.1679836573559
 31
0.0
  0
LINE
  5
2C17
330
1B
100
AcDbEntity
  8
文字
100
AcDbLine
 10
934.52911356704
 20
608.3054847064559
 30
0.0
 11
934.3886880518402
 21
608.0304841818558
 31
0.0
  0
LINE
  5
2C18
330
1B
100
AcDbEntity
  8
文字
100
AcDbLine
 10
936.2142199458402
 20
609.6804841818558
 30
0.0
 11
936.2142199458402
 21
609.2679841818558
 31
0.0
  0
LINE
  5
2C19
330
1B
100
AcDbEntity
  8
文字
100
AcDbLine
 10
936.2142199458402
 20
612.0179847064557
 30
0.0
 11
936.2142199458402
 21
611.6054847064559
 31
0.0
  0
LINE
  5
2C1A
330
1B
100
AcDbEntity
  8
文字
100
AcDbLine
 10
936.2142199458402
 20
612.9804841818558
 30
0.0
 11
936.2142199458402
 21
612.5679841818558
 31
0.0
  0
LINE
  5
2C1B
330
1B
100
AcDbEntity
  8
文字
100
AcDbLine
 10
934.6695390822402
 20
611.6054847064559
 30
0.0
 11
934.6695390822402
 21
609.6804841818558
 31
0.0
  0
LINE
  5
2C1C
330
1B
100
AcDbEntity
  8
文字
100
AcDbLine
 10
934.24826253664
 20
609.6804841818558
 30
0.0
 11
934.24826253664
 21
611.6054847064559
 31
0.0
  0
LINE
  5
2C1D
330
1B
100
AcDbEntity
  8
文字
100
AcDbLine
 10
933.68656027924
 20
608.0992347064558
 30
0.0
 11
933.68656027924
 21
608.5117347064558
 31
0.0
  0
LINE
  5
2C1E
330
1B
100
AcDbEntity
  8
文字
100
AcDbLine
 10
932.91421994584
 20
612.5679841818558
 30
0.0
 11
932.91421994584
 21
612.9804841818558
 31
0.0
  0
LINE
  5
2C1F
330
1B
100
AcDbEntity
  8
文字
100
AcDbLine
 10
932.91421994584
 20
611.6054847064559
 30
0.0
 11
932.91421994584
 21
612.0179847064557
 31
0.0
  0
LINE
  5
2C20
330
1B
100
AcDbEntity
  8
文字
100
AcDbLine
 10
932.91421994584
 20
609.2679841818558
 30
0.0
 11
932.91421994584
 21
609.6804841818558
 31
0.0
  0
LINE
  5
2C21
330
1B
100
AcDbEntity
  8
文字
100
AcDbLine
 10
935.5823050292402
 20
608.1679836573559
 30
0.0
 11
935.7227305935401
 21
607.9617336573558
 31
0.0
  0
LINE
  5
2C22
330
1B
100
AcDbEntity
  8
文字
100
AcDbLine
 10
936.0035816484401
 20
608.3054847064559
 30
0.0
 11
935.7227305935401
 21
608.5804836573559
 31
0.0
  0
LINE
  5
2C23
330
1B
100
AcDbEntity
  8
文字
100
AcDbLine
 10
934.8099645973402
 20
608.5804836573559
 30
0.0
 11
934.52911356704
 21
608.3054847064559
 31
0.0
  0
LINE
  5
2C24
330
1B
100
AcDbEntity
  8
文字
100
AcDbLine
 10
933.4057092489402
 20
607.8929847064557
 30
0.0
 11
933.54613476414
 21
608.0304841818558
 31
0.0
  0
LINE
  5
2C25
330
1B
100
AcDbEntity
  8
文字
100
AcDbLine
 10
933.1950709761402
 20
608.2367341818557
 30
0.0
 11
932.98443270344
 21
607.9617336573558
 31
0.0
  0
LINE
  5
2C26
330
1B
100
AcDbEntity
  8
文字
100
AcDbLine
 10
935.3716667564402
 20
608.3054847064559
 30
0.0
 11
935.5823050292402
 21
608.1679836573559
 31
0.0
  0
LINE
  5
2C27
330
1B
100
AcDbEntity
  8
文字
100
AcDbLine
 10
935.09081572604
 20
608.7179847064557
 30
0.0
 11
934.8099645973402
 21
608.5804836573559
 31
0.0
  0
LINE
  5
2C28
330
1B
100
AcDbEntity
  8
文字
100
AcDbLine
 10
933.54613476414
 20
608.0304841818558
 30
0.0
 11
933.68656027924
 21
608.0992347064558
 31
0.0
  0
LINE
  5
2C29
330
1B
100
AcDbEntity
  8
文字
100
AcDbLine
 10
934.9503901125402
 20
608.1679836573559
 30
0.0
 11
935.1610284836402
 21
608.3054847064559
 31
0.0
  0
LINE
  5
2C2A
330
1B
100
AcDbEntity
  8
文字
100
AcDbLine
 10
933.4759220065402
 20
608.4429841818558
 30
0.0
 11
933.1950709761402
 21
608.2367341818557
 31
0.0
  0
LINE
  5
2C2B
330
1B
100
AcDbEntity
  8
文字
100
AcDbLine
 10
935.7227305935401
 20
608.5804836573559
 30
0.0
 11
935.4418795140402
 21
608.7179847064557
 31
0.0
  0
LINE
  5
2C2C
330
1B
100
AcDbEntity
  8
文字
100
AcDbLine
 10
933.68656027924
 20
608.5117347064558
 30
0.0
 11
933.4759220065402
 21
608.4429841818558
 31
0.0
  0
LINE
  5
2C2D
330
1B
100
AcDbEntity
  8
文字
100
AcDbLine
 10
932.91421994584
 20
612.9804841818558
 30
0.0
 11
936.2142199458402
 21
612.9804841818558
 31
0.0
  0
LINE
  5
2C2E
330
1B
100
AcDbEntity
  8
文字
100
AcDbLine
 10
936.2142199458402
 20
612.5679841818558
 30
0.0
 11
932.91421994584
 21
612.5679841818558
 31
0.0
  0
LINE
  5
2C2F
330
1B
100
AcDbEntity
  8
文字
100
AcDbLine
 10
932.91421994584
 20
612.0179847064557
 30
0.0
 11
936.2142199458402
 21
612.0179847064557
 31
0.0
  0
LINE
  5
2C30
330
1B
100
AcDbEntity
  8
文字
100
AcDbLine
 10
934.24826253664
 20
611.6054847064559
 30
0.0
 11
932.91421994584
 21
611.6054847064559
 31
0.0
  0
LINE
  5
2C31
330
1B
100
AcDbEntity
  8
文字
100
AcDbLine
 10
936.2142199458402
 20
611.6054847064559
 30
0.0
 11
934.6695390822402
 21
611.6054847064559
 31
0.0
  0
LINE
  5
2C32
330
1B
100
AcDbEntity
  8
文字
100
AcDbLine
 10
934.6695390822402
 20
609.6804841818558
 30
0.0
 11
936.2142199458402
 21
609.6804841818558
 31
0.0
  0
LINE
  5
2C33
330
1B
100
AcDbEntity
  8
文字
100
AcDbLine
 10
932.91421994584
 20
609.6804841818558
 30
0.0
 11
934.24826253664
 21
609.6804841818558
 31
0.0
  0
LINE
  5
2C34
330
1B
100
AcDbEntity
  8
文字
100
AcDbLine
 10
936.2142199458402
 20
609.2679841818558
 30
0.0
 11
932.91421994584
 21
609.2679841818558
 31
0.0
  0
LINE
  5
2C35
330
1B
100
AcDbEntity
  8
文字
100
AcDbLine
 10
935.4418795140402
 20
608.7179847064557
 30
0.0
 11
935.09081572604
 21
608.7179847064557
 31
0.0
  0
LINE
  5
2C36
330
1B
100
AcDbEntity
  8
文字
100
AcDbLine
 10
935.1610284836402
 20
608.3054847064559
 30
0.0
 11
935.3716667564402
 21
608.3054847064559
 31
0.0
  0
LWPOLYLINE
  5
2C37
330
1B
100
AcDbEntity
  8
実線
100
AcDbPolyline
 90
        6
 70
     0
 43
0.0
 10
985.6760329099401
 20
548.4844492634558
 10
985.4062519586401
 20
548.9023240991558
 10
985.1615406406402
 20
549.2687142666558
 10
984.9442469365401
 20
549.5845811756558
 10
984.7586071417401
 20
549.8477420554559
 10
984.60858396424
 20
550.0560996616558
  0
LWPOLYLINE
  5
2C38
330
1B
100
AcDbEntity
  8
実線
100
AcDbPolyline
 90
        8
 70
     0
 43
0.0
 10
970.3219698728402
 20
560.4376125944559
 10
972.7582430861401
 20
559.5476778412558
 10
975.4148123087402
 20
558.2536825898557
 10
978.2055239025401
 20
556.4741444401558
 10
980.8929382631403
 20
554.2603972597557
 10
983.3528506743402
 20
551.6650321022559
 10
985.5186034133401
 20
548.7301326387558
 10
987.3434234869401
 20
545.4946182907558
  0
LINE
  5
2C39
330
1B
100
AcDbEntity
  8
実線
100
AcDbLine
 10
987.4423604575401
 20
545.2893346467558
 30
0.0
 11
985.6760329099401
 21
548.4844492634558
 31
0.0
  0
LINE
  5
2C3A
330
1B
100
AcDbEntity
  8
実線
100
AcDbLine
 10
989.8180555823401
 20
538.2756386282558
 30
0.0
 11
990.3738681815401
 21
534.6275569653557
 31
0.0
  0
LINE
  5
2C3B
330
1B
100
AcDbEntity
  8
実線
100
AcDbLine
 10
990.3738681834402
 20
534.6275569454558
 30
0.0
 11
989.7990253036402
 21
538.3645954889558
 31
0.0
  0
LINE
  5
2C3C
330
1B
100
AcDbEntity
  8
実線
100
AcDbLine
 10
990.3627538115401
 20
534.1275569305557
 30
0.0
 11
990.3093248184401
 21
531.0666119678558
 31
0.0
  0
LINE
  5
2C3D
330
1B
100
AcDbEntity
  8
実線
100
AcDbLine
 10
988.54581736924
 20
534.1275569305557
 30
0.0
 11
988.54581736924
 21
531.6275569305558
 31
0.0
  0
LINE
  5
2C3E
330
1B
100
AcDbEntity
  8
実線
100
AcDbLine
 10
988.5141520226401
 20
534.1275569305557
 30
0.0
 11
988.5141520226401
 21
528.6275569305558
 31
0.0
  0
LINE
  5
2C3F
330
1B
100
AcDbEntity
  8
実線
100
AcDbLine
 10
988.3416018036401
 20
528.6275569305558
 30
0.0
 11
988.3416018036401
 21
534.6275569305557
 31
0.0
  0
LWPOLYLINE
  5
2C40
330
1B
100
AcDbEntity
  8
実線
100
AcDbPolyline
 90
        4
 70
     0
 43
0.0
 10
990.3093248184401
 20
531.0666119678558
 10
990.2677767216401
 20
529.9003743338557
 10
990.1838675350402
 20
528.7361399769558
 10
990.0575106844401
 20
527.5745224954558
  0
LINE
  5
2C41
330
1B
100
AcDbEntity
  8
実線
100
AcDbLine
 10
990.0731872589402
 20
527.6996738192558
 30
0.0
 11
990.07693115004
 21
527.7530577493557
 31
0.0
  0
LINE
  5
2C42
330
1B
100
AcDbEntity
  8
実線
100
AcDbLine
 10
988.5400696461401
 20
528.6275569305558
 30
0.0
 11
988.54581736924
 21
531.6275569305558
 31
0.0
  0
LINE
  5
2C43
330
1B
100
AcDbEntity
  8
実線
100
AcDbLine
 10
988.4877199458401
 20
534.1275569305557
 30
0.0
 11
990.3627538115401
 21
534.1275569305557
 31
0.0
  0
LINE
  5
2C44
330
1B
100
AcDbEntity
  8
実線
100
AcDbLine
 10
988.8738681848401
 20
534.6275569305557
 30
0.0
 11
988.8738681848401
 21
534.1275569305557
 31
0.0
  0
LINE
  5
2C45
330
1B
100
AcDbEntity
  8
実線
100
AcDbLine
 10
988.4877199458401
 20
534.6275569305557
 30
0.0
 11
988.4877199458401
 21
534.1275569305557
 31
0.0
  0
LINE
  5
2C46
330
1B
100
AcDbEntity
  8
実線
100
AcDbLine
 10
987.4422305761402
 20
545.2895695895558
 30
0.0
 11
988.8044161425401
 21
541.9355410484558
 31
0.0
  0
LINE
  5
2C47
330
1B
100
AcDbEntity
  8
実線
100
AcDbLine
 10
987.3420308284401
 20
545.4974804411558
 30
0.0
 11
988.7825430724401
 21
542.0140719384558
 31
0.0
  0
LINE
  5
2C48
330
1B
100
AcDbEntity
  8
実線
100
AcDbLine
 10
989.8060125400402
 20
538.3195596003559
 30
0.0
 11
989.8180555823401
 21
538.2756386282558
 31
0.0
  0
LINE
  5
2C49
330
1B
100
AcDbEntity
  8
実線
100
AcDbLine
 10
988.7818823745401
 20
542.0159899282558
 30
0.0
 11
989.7991601983401
 21
538.3641111763559
 31
0.0
  0
LWPOLYLINE
  5
2C4A
330
1B
100
AcDbEntity
  8
実線
100
AcDbPolyline
 90
        6
 70
     0
 43
0.0
 10
984.50537996884
 20
550.1031772639557
 10
983.3495738112402
 20
551.6689435216558
 10
980.8885920397401
 20
554.2644479071558
 10
978.2004228690402
 20
556.4778416491558
 10
975.4099604340401
 20
558.2563805406558
 10
972.7545305326401
 20
559.5492412105559
  0
LWPOLYLINE
  5
2C4B
330
1B
100
AcDbEntity
  8
実線
100
AcDbPolyline
 90
        3
 70
     0
 43
0.0
 10
984.60858396424
 20
550.0560996616558
 10
984.4994382733402
 20
550.2053428473558
 10
984.4358664892402
 20
550.2913817410558
  0
LINE
  5
2C4C
330
1B
100
AcDbEntity
  8
実線
100
AcDbLine
 10
984.4154806984402
 20
550.3188357172558
 30
0.0
 11
984.49860952184
 21
550.2064686603558
 31
0.0
  0
ARC
  5
2C4D
330
1B
100
AcDbEntity
  8
実線
100
AcDbCircle
 10
1235.81943578784
 20
531.6275569305558
 30
0.0
 40
226.0
100
AcDbArc
 50
172.5946098177014
 51
179.239414217101
  0
LINE
  5
2C4E
330
1B
100
AcDbEntity
  8
実線
100
AcDbLine
 10
1019.71649730324
 20
550.3188357172558
 30
0.0
 11
1019.71649730324
 21
534.6275569305557
 31
0.0
  0
LWPOLYLINE
  5
2C4F
330
1B
100
AcDbEntity
  8
実線
100
AcDbPolyline
 90
        9
 70
     0
 43
0.0
 10
1018.23928567374
 20
548.4844492634558
 10
1018.31165639214
 20
548.9023240991558
 10
1018.42706813964
 20
549.2687142666558
 10
1018.58094970114
 20
549.5845811756558
 10
1018.76867556714
 20
549.8477420554559
 10
1018.98598054014
 20
550.0560996616558
 10
1019.225617679839
 20
550.2053428473558
 10
1019.47221542044
 20
550.2913817410558
 10
1019.71649730324
 20
550.3188357172558
  0
LWPOLYLINE
  5
2C50
330
1B
100
AcDbEntity
  8
実線
100
AcDbPolyline
 90
        9
 70
     0
 43
0.0
 10
1018.73167913964
 20
548.2165928347558
 10
1018.77994701994
 20
548.6276961160558
 10
1018.85689728264
 20
548.9880060518557
 10
1018.95950218624
 20
549.2986177461558
 10
1019.08468447954
 20
549.5573997338558
 10
1019.22959308154
 20
549.7622616688558
 10
1019.38933115704
 20
549.9089477170558
 10
1019.55371371194
 20
549.9935767903558
 10
1019.71649730324
 20
550.0205241210558
  0
LINE
  5
2C51
330
1B
100
AcDbEntity
  8
実線
100
AcDbLine
 10
1009.81943578784
 20
534.6275569305557
 30
0.0
 11
1032.41943578784
 21
534.6275569305557
 31
0.0
  0
LINE
  5
2C52
330
1B
100
AcDbEntity
  8
実線
100
AcDbLine
 10
1011.54691868524
 20
534.1275569305557
 30
0.0
 11
1032.31943578784
 21
534.1275569305557
 31
0.0
  0
LINE
  5
2C53
330
1B
100
AcDbEntity
  8
文字
 62
     0
100
AcDbLine
 10
1020.51943578784
 20
531.6275569305558
 30
0.0
 11
1006.15295589964
 21
531.6275569305558
 31
0.0
  0
LWPOLYLINE
  5
2C54
330
1B
100
AcDbEntity
  8
実線
100
AcDbPolyline
 90
        5
 70
     0
 43
0.0
 10
1017.91743085034
 20
534.6275569305557
 10
1018.01440465904
 20
538.2060579348558
 10
1018.18495310254
 20
541.7206803865558
 10
1018.42624729884
 20
545.0847014618558
 10
1018.73167913784
 20
548.2166202795558
  0
LWPOLYLINE
  5
2C55
330
1B
100
AcDbEntity
  8
実線
100
AcDbPolyline
 90
        5
 70
     0
 43
0.0
 10
1017.42424843674
 20
534.6275569643558
 10
1017.52072048314
 20
538.2756601583558
 10
1017.69121939254
 20
541.8587939010558
 10
1017.93293539874
 20
545.2893346467558
 10
1018.23928567374
 20
548.4844492634558
  0
LINE
  5
2C56
330
1B
100
AcDbEntity
  8
実線
100
AcDbLine
 10
1011.59898090994
 20
528.6275569305558
 30
0.0
 11
1009.87180098264
 21
528.6275569305558
 31
0.0
  0
LINE
  5
2C57
330
1B
100
AcDbEntity
  8
実線
100
AcDbLine
 10
1009.81943578784
 20
531.6275569305558
 30
0.0
 11
1009.81943578784
 21
534.6275569305557
 31
0.0
  0
LINE
  5
2C58
330
1B
100
AcDbEntity
  8
実線
100
AcDbLine
 10
1009.88828282044
 20
527.6833130757559
 30
0.0
 11
1009.81943578784
 21
531.6275569305558
 31
0.0
  0
LINE
  5
2C59
330
1B
100
AcDbEntity
  8
実線
100
AcDbLine
 10
1017.87044311474
 20
531.0753255668557
 30
0.0
 11
1017.86104896044
 21
534.1275569305557
 31
0.0
  0
LINE
  5
2C5A
330
1B
100
AcDbEntity
  8
実線
100
AcDbLine
 10
1017.37803865094
 20
531.0667902024558
 30
0.0
 11
1017.36861822644
 21
534.1275569305557
 31
0.0
  0
LINE
  5
2C5B
330
1B
100
AcDbEntity
  8
実線
100
AcDbLine
 10
1011.54691868524
 20
534.1275569305557
 30
0.0
 11
1011.54691868524
 21
531.6275569305558
 31
0.0
  0
LINE
  5
2C5C
330
1B
100
AcDbEntity
  8
実線
100
AcDbLine
 10
1011.59898090994
 20
528.6275569305558
 30
0.0
 11
1011.54691868524
 21
531.6275569305558
 31
0.0
  0
LINE
  5
2C5D
330
1B
100
AcDbEntity
  8
実線
100
AcDbLine
 10
1011.81469008454
 20
534.1275569305557
 30
0.0
 11
1011.81469008454
 21
534.6275569305557
 31
0.0
  0
LINE
  5
2C5E
330
1B
100
AcDbEntity
  8
実線
100
AcDbLine
 10
1017.53058473494
 20
534.6275569305557
 30
0.0
 11
1017.53058473494
 21
534.1275569305557
 31
0.0
  0
LINE
  5
2C5F
330
1B
100
AcDbEntity
  8
実線
100
AcDbLine
 10
1016.58553414334
 20
534.6275569305557
 30
0.0
 11
1016.58553414334
 21
534.1275569305557
 31
0.0
  0
LWPOLYLINE
  5
2C60
330
1B
100
AcDbEntity
  8
実線
100
AcDbPolyline
 90
        5
 70
     0
 43
0.0
 10
1018.23928567384
 20
548.4844505286559
 10
1018.41273149374
 20
548.4538419847559
 10
1018.56443827654
 20
548.3935150703558
 10
1018.67539212144
 20
548.3110307506558
 10
1018.73168682484
 20
548.2167270493558
  0
LINE
  5
2C61
330
1B
100
AcDbEntity
  8
実線
100
AcDbLine
 10
1021.91943578784
 20
531.6275569305558
 30
0.0
 11
1020.51943578784
 21
531.6275569305558
 31
0.0
  0
LINE
  5
2C62
330
1B
100
AcDbEntity
  8
実線
100
AcDbLine
 10
1020.61943578784
 20
531.1275569305557
 30
0.0
 11
1021.91943578784
 21
531.1275569305557
 31
0.0
  0
LINE
  5
2C63
330
1B
100
AcDbEntity
  8
実線
100
AcDbLine
 10
1020.61943578784
 20
527.1275569305557
 30
0.0
 11
1021.81943578784
 21
527.1275569305557
 31
0.0
  0
LINE
  5
2C64
330
1B
100
AcDbEntity
  8
実線
100
AcDbLine
 10
1020.61943578784
 20
526.6275569305557
 30
0.0
 11
1021.81943578784
 21
526.6275569305557
 31
0.0
  0
LINE
  5
2C65
330
1B
100
AcDbEntity
  8
実線
100
AcDbLine
 10
1020.51943578784
 20
526.5275569305559
 30
0.0
 11
1021.91943578784
 21
526.5275569305559
 31
0.0
  0
LINE
  5
2C66
330
1B
100
AcDbEntity
  8
実線
100
AcDbLine
 10
1021.91943578784
 20
526.5275569305559
 30
0.0
 11
1021.91943578784
 21
531.6275569305558
 31
0.0
  0
LINE
  5
2C67
330
1B
100
AcDbEntity
  8
実線
100
AcDbLine
 10
1021.81943578784
 20
526.5275569305559
 30
0.0
 11
1021.81943578784
 21
531.6275569305558
 31
0.0
  0
LINE
  5
2C68
330
1B
100
AcDbEntity
  8
実線
100
AcDbLine
 10
1020.61943578784
 20
526.6275569305557
 30
0.0
 11
1020.61943578784
 21
531.6275569305558
 31
0.0
  0
LINE
  5
2C69
330
1B
100
AcDbEntity
  8
実線
100
AcDbLine
 10
1020.51943578784
 20
531.6275569305558
 30
0.0
 11
1020.51943578784
 21
526.5275569305559
 31
0.0
  0
ARC
  5
2C6A
330
1B
100
AcDbEntity
  8
実線
100
AcDbCircle
 10
1012.69615148044
 20
560.6275564587559
 30
0.0
 40
0.9999999996999999
100
AcDbArc
 50
89.99999998139665
 51
172.5945830112981
  0
LINE
  5
2C6B
330
1B
100
AcDbEntity
  8
実線
100
AcDbLine
 10
989.9584623296401
 20
583.6222292443558
 30
0.0
 11
985.3406308199401
 21
584.4364775318559
 31
0.0
  0
LINE
  5
2C6C
330
1B
100
AcDbEntity
  8
実線
100
AcDbLine
 10
987.4423604575401
 20
583.6377337927558
 30
0.0
 11
985.6760329099401
 21
583.9440840678559
 31
0.0
  0
ARC
  5
2C6D
330
1B
100
AcDbEntity
  8
実線
100
AcDbCircle
 10
985.51421994584
 20
585.4212956973558
 30
0.0
 40
1.0
100
AcDbArc
 50
180.0
 51
260.0034356053992
  0
LWPOLYLINE
  5
2C6E
330
1B
100
AcDbEntity
  8
実線
100
AcDbPolyline
 90
        8
 70
     0
 43
0.0
 10
985.6760329099401
 20
583.9440840678559
 10
985.4062519586401
 20
584.0164547861558
 10
985.1615406406402
 20
584.1318665336558
 10
984.9442469365401
 20
584.2857480952558
 10
984.7586071417401
 20
584.4734739612558
 10
984.60858396424
 20
584.6907789342558
 10
984.4994382733402
 20
584.9304160738559
 10
984.4358664892402
 20
585.1770138144559
  0
LWPOLYLINE
  5
2C6F
330
1B
100
AcDbEntity
  8
実線
100
AcDbPolyline
 90
        5
 70
     0
 43
0.0
 10
985.67603490544
 20
583.9440840678559
 10
985.6583384461401
 20
584.1175298877558
 10
985.5899332329402
 20
584.2692366705558
 10
985.4793927129401
 20
584.3801905154558
 10
985.3405712875401
 20
584.4364852189557
  0
LINE
  5
2C70
330
1B
100
AcDbEntity
  8
実線
100
AcDbLine
 10
984.4358664892402
 20
585.1770138144559
 30
0.0
 11
984.4154806984402
 21
585.4212956973558
 31
0.0
  0
LINE
  5
2C71
330
1B
100
AcDbEntity
  8
実線
100
AcDbLine
 10
984.4154806984402
 20
585.4212956973558
 30
0.0
 11
984.51421994584
 21
585.4212956973558
 31
0.0
  0
LINE
  5
2C72
330
1B
100
AcDbEntity
  8
実線
100
AcDbLine
 10
990.3738681802401
 20
578.3929253177558
 30
0.0
 11
990.3738681816401
 21
583.1290468523558
 31
0.0
  0
LWPOLYLINE
  5
2C73
330
1B
100
AcDbEntity
  8
実線
100
AcDbPolyline
 90
        6
 70
     0
 43
0.0
 10
990.3738681802401
 20
578.3929253177558
 10
990.3333558447402
 20
578.1117866499559
 10
990.2137714713401
 20
577.8512835791558
 10
990.0260117158401
 20
577.6361589697557
 10
989.7824464403402
 20
577.4813901963558
 10
989.5076425860402
 20
577.4024514988558
  0
ARC
  5
2C74
330
1B
100
AcDbEntity
  8
実線
100
AcDbCircle
 10
962.51421994584
 20
772.5242341818558
 30
0.0
 40
197.0
100
AcDbArc
 50
277.5932773945999
 51
277.8732183064971
  0
LWPOLYLINE
  5
2C75
330
1B
100
AcDbEntity
  8
実線
100
AcDbPolyline
 90
        5
 70
     0
 43
0.0
 10
990.2249379675401
 20
577.8756087183558
 10
990.1800664885401
 20
577.7956862946559
 10
990.0456921225401
 20
577.6414042149558
 10
989.8827336532402
 20
577.5176938707557
 10
989.6980045417402
 20
577.4297269450557
  0
LINE
  5
2C76
330
1B
100
AcDbEntity
  8
実線
100
AcDbLine
 10
988.5414497359402
 20
577.2912786062558
 30
0.0
 11
988.54581736924
 21
577.2517170792558
 31
0.0
  0
LINE
  5
2C77
330
1B
100
AcDbEntity
  8
実線
100
AcDbLine
 10
989.6980045417402
 20
577.4297269450557
 30
0.0
 11
989.4995830219402
 21
577.3812348720558
 31
0.0
  0
LWPOLYLINE
  5
2C78
330
1B
100
AcDbEntity
  8
実線
100
AcDbPolyline
 90
        6
 70
     0
 43
0.0
 10
989.9584623296401
 20
583.6222292443558
 10
990.0919456610402
 20
583.5788715632558
 10
990.2080845703402
 20
583.5005792843558
 10
990.2977221051401
 20
583.3938936339558
 10
990.3544329123402
 20
583.2668425025558
 10
990.3738681816401
 20
583.1290468523558
  0
LWPOLYLINE
  5
2C79
330
1B
100
AcDbEntity
  8
実線
100
AcDbPolyline
 90
        3
 70
     0
 43
0.0
 10
990.3738681816401
 20
583.1290468307559
 10
989.81805230204
 20
583.2255188772558
 10
987.4423604575401
 20
583.6377337927558
  0
LINE
  5
2C7A
330
1B
100
AcDbEntity
  8
実線
100
AcDbLine
 10
984.7142199458401
 20
616.4075675549558
 30
0.0
 11
984.7142199458401
 21
614.8242341818558
 31
0.0
  0
LINE
  5
2C7B
330
1B
100
AcDbEntity
  8
実線
100
AcDbLine
 10
984.7142199458401
 20
618.4075674357558
 30
0.0
 11
984.7142199458401
 21
616.7409008088558
 31
0.0
  0
LINE
  5
2C7C
330
1B
100
AcDbEntity
  8
実線
100
AcDbLine
 10
984.51421994584
 20
618.4075674357558
 30
0.0
 11
984.7142199458401
 21
618.4075674357558
 31
0.0
  0
LINE
  5
2C7D
330
1B
100
AcDbEntity
  8
実線
100
AcDbLine
 10
984.51421994584
 20
618.1575674357558
 30
0.0
 11
984.7142199458401
 21
618.1575674357558
 31
0.0
  0
LINE
  5
2C7E
330
1B
100
AcDbEntity
  8
実線
100
AcDbLine
 10
984.51421994584
 20
617.5742341818558
 30
0.0
 11
984.7142199458401
 21
617.5742341818558
 31
0.0
  0
LINE
  5
2C7F
330
1B
100
AcDbEntity
  8
実線
100
AcDbLine
 10
984.51421994584
 20
616.9909009280559
 30
0.0
 11
984.7142199458401
 21
616.9909009280559
 31
0.0
  0
LINE
  5
2C80
330
1B
100
AcDbEntity
  8
実線
100
AcDbLine
 10
984.51421994584
 20
616.7409008088558
 30
0.0
 11
984.7142199458401
 21
616.7409008088558
 31
0.0
  0
LINE
  5
2C81
330
1B
100
AcDbEntity
  8
実線
100
AcDbLine
 10
984.51421994584
 20
616.4075675549558
 30
0.0
 11
984.7142199458401
 21
616.4075675549558
 31
0.0
  0
LINE
  5
2C82
330
1B
100
AcDbEntity
  8
実線
100
AcDbLine
 10
984.51421994584
 20
614.8242341818558
 30
0.0
 11
984.7142199458401
 21
614.8242341818558
 31
0.0
  0
ARC
  5
2C83
330
1B
100
AcDbEntity
  8
実線
100
AcDbCircle
 10
962.51421994584
 20
448.5242341818558
 30
0.0
 40
196.9800876184
100
AcDbArc
 50
82.12361407910018
 51
90.0
  0
LINE
  5
2C84
330
1B
100
AcDbEntity
  8
実線
100
AcDbLine
 10
962.0142199458401
 20
636.0242341818558
 30
0.0
 11
929.51421994584
 21
636.0242341818558
 31
0.0
  0
LINE
  5
2C85
330
1B
100
AcDbEntity
  8
実線
100
AcDbLine
 10
961.2142199458402
 20
635.5242341818558
 30
0.0
 11
929.71421994584
 21
635.5242341818558
 31
0.0
  0
LINE
  5
2C86
330
1B
100
AcDbEntity
  8
実線
100
AcDbLine
 10
990.3738681815401
 20
637.9194215107559
 30
0.0
 11
990.3738681834402
 21
642.6555430243559
 31
0.0
  0
LWPOLYLINE
  5
2C87
330
1B
100
AcDbEntity
  8
実線
100
AcDbPolyline
 90
        5
 70
     0
 43
0.0
 10
985.6760329099401
 20
637.1043842959559
 10
987.4421296490401
 20
637.4106946763559
 10
988.8355113804401
 20
637.6524397950559
 10
989.8180612623402
 20
637.8229509662558
 10
990.3738681815401
 20
637.9194215329557
  0
LINE
  5
2C88
330
1B
100
AcDbEntity
  8
実線
100
AcDbLine
 10
985.3405083649402
 20
636.6119692397558
 30
0.0
 11
989.9584623296401
 21
637.4262391194559
 31
0.0
  0
LINE
  5
2C89
330
1B
100
AcDbEntity
  8
実線
100
AcDbLine
 10
984.7142199458401
 20
628.1075675549558
 30
0.0
 11
984.7142199458401
 21
626.5242341818558
 31
0.0
  0
LINE
  5
2C8A
330
1B
100
AcDbEntity
  8
実線
100
AcDbLine
 10
984.7142199458401
 20
630.1075674357559
 30
0.0
 11
984.7142199458401
 21
628.4409008088559
 31
0.0
  0
LINE
  5
2C8B
330
1B
100
AcDbEntity
  8
実線
100
AcDbLine
 10
984.51421994584
 20
630.1075674357559
 30
0.0
 11
984.7142199458401
 21
630.1075674357559
 31
0.0
  0
LINE
  5
2C8C
330
1B
100
AcDbEntity
  8
実線
100
AcDbLine
 10
984.51421994584
 20
629.8575674357558
 30
0.0
 11
984.7142199458401
 21
629.8575674357558
 31
0.0
  0
LINE
  5
2C8D
330
1B
100
AcDbEntity
  8
実線
100
AcDbLine
 10
984.51421994584
 20
629.2742341818558
 30
0.0
 11
984.7142199458401
 21
629.2742341818558
 31
0.0
  0
LINE
  5
2C8E
330
1B
100
AcDbEntity
  8
実線
100
AcDbLine
 10
984.51421994584
 20
628.6909009280558
 30
0.0
 11
984.7142199458401
 21
628.6909009280558
 31
0.0
  0
LINE
  5
2C8F
330
1B
100
AcDbEntity
  8
実線
100
AcDbLine
 10
984.51421994584
 20
628.4409008088559
 30
0.0
 11
984.7142199458401
 21
628.4409008088559
 31
0.0
  0
LINE
  5
2C90
330
1B
100
AcDbEntity
  8
実線
100
AcDbLine
 10
984.51421994584
 20
628.1075675549558
 30
0.0
 11
984.7142199458401
 21
628.1075675549558
 31
0.0
  0
LINE
  5
2C91
330
1B
100
AcDbEntity
  8
実線
100
AcDbLine
 10
984.51421994584
 20
628.0659008088559
 30
0.0
 11
984.7142199458401
 21
628.0659008088559
 31
0.0
  0
LINE
  5
2C92
330
1B
100
AcDbEntity
  8
実線
100
AcDbLine
 10
984.51421994584
 20
628.0242341818558
 30
0.0
 11
984.7142199458401
 21
628.0242341818558
 31
0.0
  0
LINE
  5
2C93
330
1B
100
AcDbEntity
  8
実線
100
AcDbLine
 10
984.51421994584
 20
627.8992341818558
 30
0.0
 11
984.7142199458401
 21
627.8992341818558
 31
0.0
  0
LINE
  5
2C94
330
1B
100
AcDbEntity
  8
実線
100
AcDbLine
 10
984.51421994584
 20
627.7325675549558
 30
0.0
 11
984.7142199458401
 21
627.7325675549558
 31
0.0
  0
LINE
  5
2C95
330
1B
100
AcDbEntity
  8
実線
100
AcDbLine
 10
984.51421994584
 20
627.5242341818558
 30
0.0
 11
984.7142199458401
 21
627.5242341818558
 31
0.0
  0
LINE
  5
2C96
330
1B
100
AcDbEntity
  8
実線
100
AcDbLine
 10
984.51421994584
 20
626.5242341818558
 30
0.0
 11
984.7142199458401
 21
626.5242341818558
 31
0.0
  0
ARC
  5
2C97
330
1B
100
AcDbEntity
  8
実線
100
AcDbCircle
 10
985.51421994584
 20
635.6271726664559
 30
0.0
 40
1.0
100
AcDbArc
 50
100.0036887870997
 51
179.994154965201
  0
LWPOLYLINE
  5
2C98
330
1B
100
AcDbEntity
  8
実線
100
AcDbPolyline
 90
        5
 70
     0
 43
0.0
 10
985.6760250136401
 20
637.1043842959559
 10
985.6583306786401
 20
636.9309395016557
 10
985.5899282052401
 20
636.7792327033558
 10
985.4793906057402
 20
636.6682776044558
 10
985.34057176814
 20
636.6119804195558
  0
LWPOLYLINE
  5
2C99
330
1B
100
AcDbEntity
  8
実線
100
AcDbPolyline
 90
        9
 70
     0
 43
0.0
 10
984.4154806984402
 20
635.6271726664559
 10
984.43531463594
 20
635.8682043149558
 10
984.49860952184
 20
636.1155311885559
 10
984.6068791734401
 20
636.3546019553559
 10
984.7560875518402
 20
636.5719193856558
 10
984.9412687139402
 20
636.7601726885559
 10
985.1584759828401
 20
636.9147997407558
 10
985.4045248255401
 20
637.0313722156558
 10
985.6760329099401
 20
637.1043842959559
  0
LINE
  5
2C9A
330
1B
100
AcDbEntity
  8
実線
100
AcDbLine
 10
984.4154806984402
 20
635.6271726664559
 30
0.0
 11
984.51421994584
 21
635.6271726666558
 31
0.0
  0
LWPOLYLINE
  5
2C9B
330
1B
100
AcDbEntity
  8
実線
100
AcDbPolyline
 90
        6
 70
     0
 43
0.0
 10
990.3738681815401
 20
637.9194215107559
 10
990.3544328751403
 20
637.7816258827558
 10
990.2977220796401
 20
637.6545747594558
 10
990.2080845572401
 20
637.5478891072559
 10
990.0919456604402
 20
637.4695968193558
 10
989.9584623296401
 20
637.4262391194559
  0
LWPOLYLINE
  5
2C9C
330
1B
100
AcDbEntity
  8
実線
100
AcDbPolyline
 90
        6
 70
     0
 43
0.0
 10
989.5076428051401
 20
643.6460168020557
 10
989.7824467185401
 20
643.5670787673558
 10
990.0260123697401
 20
643.4123101573558
 10
990.2137724553401
 20
643.1971855586558
 10
990.3333571425401
 20
642.9366822236559
 10
990.3738681834402
 20
642.6555430243559
  0
ARC
  5
2C9D
330
1B
100
AcDbEntity
  8
実線
100
AcDbCircle
 10
962.51421994584
 20
448.5242341818558
 30
0.0
 40
197.0
100
AcDbArc
 50
82.12678169350283
 51
82.4067226054001
  0
LINE
  5
2C9E
330
1B
100
AcDbEntity
  8
実線
100
AcDbLine
 10
990.1800763510401
 20
643.2527680794557
 30
0.0
 11
990.2249433849402
 21
643.1728508005558
 31
0.0
  0
LINE
  5
2C9F
330
1B
100
AcDbEntity
  8
実線
100
AcDbLine
 10
988.5414497326401
 20
643.7571897269558
 30
0.0
 11
988.54581736924
 21
643.7967512844559
 31
0.0
  0
LWPOLYLINE
  5
2CA0
330
1B
100
AcDbEntity
  8
実線
100
AcDbPolyline
 90
        4
 70
     0
 43
0.0
 10
989.6980095537401
 20
643.6187396347559
 10
989.8827440550402
 20
643.5307681602558
 10
990.0457045241401
 20
643.4070525538559
 10
990.1800763510401
 20
643.2527680794557
  0
LINE
  5
2CA1
330
1B
100
AcDbEntity
  8
実線
100
AcDbLine
 10
989.4995830219402
 20
643.6672334917558
 30
0.0
 11
989.6980095537401
 21
643.6187396347559
 31
0.0
  0
LINE
  5
2CA2
330
1B
100
AcDbEntity
  8
実線
100
AcDbLine
 10
1063.11943578784
 20
534.6275569305557
 30
0.0
 11
1079.81943578784
 21
534.6275569305557
 31
0.0
  0
LINE
  5
2CA3
330
1B
100
AcDbEntity
  8
実線
100
AcDbLine
 10
1063.61943578784
 20
534.1275569305557
 30
0.0
 11
1078.09195289044
 21
534.1275569305557
 31
0.0
  0
LINE
  5
2CA4
330
1B
100
AcDbEntity
  8
実線
100
AcDbLine
 10
1069.119435787839
 20
531.6275569305558
 30
0.0
 11
1067.71943578784
 21
531.6275569305558
 31
0.0
  0
LINE
  5
2CA5
330
1B
100
AcDbEntity
  8
実線
100
AcDbLine
 10
1067.71943578784
 20
531.1275569305557
 30
0.0
 11
1069.01943578784
 21
531.1275569305557
 31
0.0
  0
LINE
  5
2CA6
330
1B
100
AcDbEntity
  8
実線
100
AcDbLine
 10
1067.81943578784
 20
527.1275569305557
 30
0.0
 11
1069.01943578784
 21
527.1275569305557
 31
0.0
  0
LINE
  5
2CA7
330
1B
100
AcDbEntity
  8
実線
100
AcDbLine
 10
1067.81943578784
 20
526.6275569305557
 30
0.0
 11
1069.01943578784
 21
526.6275569305557
 31
0.0
  0
LINE
  5
2CA8
330
1B
100
AcDbEntity
  8
実線
100
AcDbLine
 10
1067.71943578784
 20
526.5275569305559
 30
0.0
 11
1069.119435787839
 21
526.5275569305559
 31
0.0
  0
LINE
  5
2CA9
330
1B
100
AcDbEntity
  8
文字
  6
CENTER
 62
     0
100
AcDbLine
 10
1044.81943578784
 20
531.6275569305558
 30
0.0
 11
1044.81943578784
 21
570.2940368187559
 31
0.0
  0
LINE
  5
2CAA
330
1B
100
AcDbEntity
  8
実線
100
AcDbLine
 10
1051.86943578784
 20
536.8190462694558
 30
0.0
 11
1051.28610253404
 21
537.6275569305557
 31
0.0
  0
LINE
  5
2CAB
330
1B
100
AcDbEntity
  8
実線
100
AcDbLine
 10
1050.51943578784
 20
532.7275569305559
 30
0.0
 11
1063.11943578784
 21
532.7275569305559
 31
0.0
  0
LINE
  5
2CAC
330
1B
100
AcDbEntity
  8
実線
100
AcDbLine
 10
1051.28610253404
 20
535.6275569305558
 30
0.0
 11
1051.86943578784
 21
536.4360675916558
 31
0.0
  0
LINE
  5
2CAD
330
1B
100
AcDbEntity
  8
実線
100
AcDbLine
 10
1063.61943578784
 20
531.7375569305559
 30
0.0
 11
1050.01943578784
 21
531.7375569305559
 31
0.0
  0
LINE
  5
2CAE
330
1B
100
AcDbEntity
  8
文字
  6
CENTER
 62
     0
100
AcDbLine
 10
1044.81943578784
 20
531.6275569305558
 30
0.0
 11
1067.71943578784
 21
531.6275569305558
 31
0.0
  0
LINE
  5
2CAF
330
1B
100
AcDbEntity
  8
実線
100
AcDbLine
 10
1052.66943578784
 20
530.9275569305558
 30
0.0
 11
1050.06943578784
 21
530.9275569305558
 31
0.0
  0
LINE
  5
2CB0
330
1B
100
AcDbEntity
  8
実線
100
AcDbLine
 10
1050.06943578784
 20
529.6275569305557
 30
0.0
 11
1052.66943578784
 21
529.6275569305557
 31
0.0
  0
LINE
  5
2CB1
330
1B
100
AcDbEntity
  8
実線
100
AcDbLine
 10
1053.51943578784
 20
528.8975569305558
 30
0.0
 11
1050.51943578784
 21
528.8975569305558
 31
0.0
  0
LINE
  5
2CB2
330
1B
100
AcDbEntity
  8
実線
100
AcDbLine
 10
1050.51943578784
 20
534.6275569305557
 30
0.0
 11
1037.21943578784
 21
534.6275569305557
 31
0.0
  0
LINE
  5
2CB3
330
1B
100
AcDbEntity
  8
実線
100
AcDbLine
 10
1050.01943578784
 20
534.1275569305557
 30
0.0
 11
1037.31943578784
 21
534.1275569305557
 31
0.0
  0
LINE
  5
2CB4
330
1B
100
AcDbEntity
  8
実線
100
AcDbLine
 10
1051.56943578784
 20
531.7375569305559
 30
0.0
 11
1051.56943578784
 21
532.7275569305559
 31
0.0
  0
LINE
  5
2CB5
330
1B
100
AcDbEntity
  8
実線
100
AcDbLine
 10
1050.81943578784
 20
532.7275569305559
 30
0.0
 11
1050.81943578784
 21
532.2275569305559
 31
0.0
  0
LINE
  5
2CB6
330
1B
100
AcDbEntity
  8
実線
100
AcDbLine
 10
1050.06943578784
 20
530.9275569305558
 30
0.0
 11
1050.06943578784
 21
529.6275569305557
 31
0.0
  0
LINE
  5
2CB7
330
1B
100
AcDbEntity
  8
実線
100
AcDbLine
 10
1050.01943578784
 20
532.2275569305559
 30
0.0
 11
1050.81943578784
 21
532.2275569305559
 31
0.0
  0
LINE
  5
2CB8
330
1B
100
AcDbEntity
  8
実線
100
AcDbLine
 10
1051.03610241474
 20
537.6275569305557
 30
0.0
 11
1051.74443578784
 21
536.6488335237558
 31
0.0
  0
LINE
  5
2CB9
330
1B
100
AcDbEntity
  8
実線
100
AcDbLine
 10
1050.70276916094
 20
537.6275569305557
 30
0.0
 11
1049.11943578784
 21
537.6275569305557
 31
0.0
  0
LINE
  5
2CBA
330
1B
100
AcDbEntity
  8
実線
100
AcDbLine
 10
1051.28610253404
 20
537.6275569305557
 30
0.0
 11
1051.03610241474
 21
537.6275569305557
 31
0.0
  0
LINE
  5
2CBB
330
1B
100
AcDbEntity
  8
実線
100
AcDbLine
 10
1050.03610247444
 20
537.4147909984558
 30
0.0
 11
1050.70276916094
 21
537.4147909984558
 31
0.0
  0
LINE
  5
2CBC
330
1B
100
AcDbEntity
  8
実線
100
AcDbLine
 10
1049.11943578784
 20
537.4147909984558
 30
0.0
 11
1049.78610247444
 21
537.4147909984558
 31
0.0
  0
LINE
  5
2CBD
330
1B
100
AcDbEntity
  8
実線
100
AcDbLine
 10
1051.03610241474
 20
535.6275569305558
 30
0.0
 11
1051.28610253404
 21
535.6275569305558
 31
0.0
  0
LINE
  5
2CBE
330
1B
100
AcDbEntity
  8
実線
100
AcDbLine
 10
1049.78610247444
 20
535.6275569305558
 30
0.0
 11
1050.03610247444
 21
535.6275569305558
 31
0.0
  0
LINE
  5
2CBF
330
1B
100
AcDbEntity
  8
実線
100
AcDbLine
 10
1050.70276916094
 20
537.4147909984558
 30
0.0
 11
1050.70276916094
 21
537.6275569305557
 31
0.0
  0
LINE
  5
2CC0
330
1B
100
AcDbEntity
  8
実線
100
AcDbLine
 10
1050.51943578784
 20
534.6275569305557
 30
0.0
 11
1050.51943578784
 21
532.7275569305559
 31
0.0
  0
LINE
  5
2CC1
330
1B
100
AcDbEntity
  8
実線
100
AcDbLine
 10
1050.03610247444
 20
535.6275569305558
 30
0.0
 11
1050.03610247444
 21
537.4147909984558
 31
0.0
  0
LINE
  5
2CC2
330
1B
100
AcDbEntity
  8
実線
100
AcDbLine
 10
1049.78610247444
 20
537.4147909984558
 30
0.0
 11
1049.78610247444
 21
535.6275569305558
 31
0.0
  0
LINE
  5
2CC3
330
1B
100
AcDbEntity
  8
実線
100
AcDbLine
 10
1049.11943578784
 20
537.6275569305557
 30
0.0
 11
1049.11943578784
 21
537.4147909984558
 31
0.0
  0
LINE
  5
2CC4
330
1B
100
AcDbEntity
  8
実線
100
AcDbLine
 10
1051.74443578784
 20
536.6488335237558
 30
0.0
 11
1051.03610241474
 21
535.6275569305558
 31
0.0
  0
LINE
  5
2CC5
330
1B
100
AcDbEntity
  8
実線
100
AcDbLine
 10
1060.11943578784
 20
530.3975569305558
 30
0.0
 11
1058.919435787839
 21
530.3975569305558
 31
0.0
  0
LINE
  5
2CC6
330
1B
100
AcDbEntity
  8
実線
100
AcDbLine
 10
1059.81943578784
 20
532.7275569305559
 30
0.0
 11
1059.81943578784
 21
532.2275569305559
 31
0.0
  0
LINE
  5
2CC7
330
1B
100
AcDbEntity
  8
実線
100
AcDbLine
 10
1053.81943578784
 20
532.2275569305559
 30
0.0
 11
1053.81943578784
 21
532.7275569305559
 31
0.0
  0
LINE
  5
2CC8
330
1B
100
AcDbEntity
  8
実線
100
AcDbLine
 10
1053.06943578784
 20
531.7375569305559
 30
0.0
 11
1053.06943578784
 21
532.7275569305559
 31
0.0
  0
LINE
  5
2CC9
330
1B
100
AcDbEntity
  8
実線
100
AcDbLine
 10
1053.81943578784
 20
532.2275569305559
 30
0.0
 11
1059.81943578784
 21
532.2275569305559
 31
0.0
  0
LINE
  5
2CCA
330
1B
100
AcDbEntity
  8
実線
100
AcDbLine
 10
1055.71943578784
 20
531.9775569305559
 30
0.0
 11
1056.46943578784
 21
531.9775569305559
 31
0.0
  0
LINE
  5
2CCB
330
1B
100
AcDbEntity
  8
実線
100
AcDbLine
 10
1058.919435787839
 20
531.6975569305558
 30
0.0
 11
1054.71943578784
 21
531.6975569305558
 31
0.0
  0
ARC
  5
2CCC
330
1B
100
AcDbEntity
  8
5_ALL_CURVES
  6
CONTINUOUS
 62
     4
100
AcDbCircle
 10
1056.81943578784
 20
531.6275569305558
 30
0.0
 40
2.5
100
AcDbArc
 50
166.1114431501012
 51
177.4780343542013
  0
ARC
  5
2CCD
330
1B
100
AcDbEntity
  8
実線
100
AcDbCircle
 10
1056.81943578784
 20
531.6275569305558
 30
0.0
 40
2.0887579355
100
AcDbArc
 50
162.7648769693982
 51
176.8402274444006
  0
ARC
  5
2CCE
330
1B
100
AcDbEntity
  8
実線
100
AcDbCircle
 10
1056.81943578784
 20
531.6275569305558
 30
0.0
 40
2.149999999999999
100
AcDbArc
 50
162.7820172279989
 51
176.7096103978988
  0
LINE
  5
2CCF
330
1B
100
AcDbEntity
  8
実線
100
AcDbLine
 10
1055.71943578784
 20
531.7375569305559
 30
0.0
 11
1055.71943578784
 21
531.9775569305559
 31
0.0
  0
LINE
  5
2CD0
330
1B
100
AcDbEntity
  8
実線
100
AcDbLine
 10
1054.71943578784
 20
531.6975569305558
 30
0.0
 11
1054.71943578784
 21
530.3975569305558
 31
0.0
  0
LINE
  5
2CD1
330
1B
100
AcDbEntity
  8
実線
100
AcDbLine
 10
1053.51943578784
 20
530.3975569305558
 30
0.0
 11
1053.51943578784
 21
528.8975569305558
 31
0.0
  0
LINE
  5
2CD2
330
1B
100
AcDbEntity
  8
実線
100
AcDbLine
 10
1052.66943578784
 20
529.6275569305557
 30
0.0
 11
1052.66943578784
 21
530.9275569305558
 31
0.0
  0
LINE
  5
2CD3
330
1B
100
AcDbEntity
  8
実線
100
AcDbLine
 10
1054.71943578784
 20
530.3975569305558
 30
0.0
 11
1053.51943578784
 21
530.3975569305558
 31
0.0
  0
ARC
  5
2CD4
330
1B
100
AcDbEntity
  8
5_ALL_CURVES
  6
CONTINUOUS
 62
     4
100
AcDbCircle
 10
1056.81943578784
 20
531.6275569305558
 30
0.0
 40
2.5
100
AcDbArc
 50
2.521965645798645
 51
13.88855684989872
  0
ARC
  5
2CD5
330
1B
100
AcDbEntity
  8
実線
100
AcDbCircle
 10
1056.81943578784
 20
531.6275569305558
 30
0.0
 40
2.0887579355
100
AcDbArc
 50
3.159772555599353
 51
17.23512303060168
  0
ARC
  5
2CD6
330
1B
100
AcDbEntity
  8
実線
100
AcDbCircle
 10
1056.81943578784
 20
531.6275569305558
 30
0.0
 40
2.149999999999999
100
AcDbArc
 50
3.290389602101193
 51
17.21798277200107
  0
LINE
  5
2CD7
330
1B
100
AcDbEntity
  8
実線
100
AcDbLine
 10
1058.919435787839
 20
530.3975569305558
 30
0.0
 11
1058.919435787839
 21
531.6975569305558
 31
0.0
  0
LINE
  5
2CD8
330
1B
100
AcDbEntity
  8
実線
100
AcDbLine
 10
1057.91943578784
 20
531.9775569305559
 30
0.0
 11
1057.91943578784
 21
531.7375569305559
 31
0.0
  0
LINE
  5
2CD9
330
1B
100
AcDbEntity
  8
実線
100
AcDbLine
 10
1057.16943578784
 20
532.2275569305559
 30
0.0
 11
1057.16943578784
 21
531.9775569305559
 31
0.0
  0
LINE
  5
2CDA
330
1B
100
AcDbEntity
  8
実線
100
AcDbLine
 10
1056.46943578784
 20
531.9775569305559
 30
0.0
 11
1056.46943578784
 21
532.2275569305559
 31
0.0
  0
LINE
  5
2CDB
330
1B
100
AcDbEntity
  8
実線
100
AcDbLine
 10
1057.16943578784
 20
531.9775569305559
 30
0.0
 11
1057.91943578784
 21
531.9775569305559
 31
0.0
  0
LINE
  5
2CDC
330
1B
100
AcDbEntity
  8
実線
100
AcDbLine
 10
1052.70276904174
 20
535.6275569305558
 30
0.0
 11
1051.99443578784
 21
536.6488335237558
 31
0.0
  0
LINE
  5
2CDD
330
1B
100
AcDbEntity
  8
実線
100
AcDbLine
 10
1051.86943578784
 20
536.4360675916558
 30
0.0
 11
1052.45276904174
 21
535.6275569305558
 31
0.0
  0
LINE
  5
2CDE
330
1B
100
AcDbEntity
  8
実線
100
AcDbLine
 10
1052.70276904174
 20
537.6275569305557
 30
0.0
 11
1052.45276904174
 21
537.6275569305557
 31
0.0
  0
LINE
  5
2CDF
330
1B
100
AcDbEntity
  8
実線
100
AcDbLine
 10
1052.45276904174
 20
535.6275569305558
 30
0.0
 11
1052.70276904174
 21
535.6275569305558
 31
0.0
  0
LINE
  5
2CE0
330
1B
100
AcDbEntity
  8
実線
100
AcDbLine
 10
1051.99443578784
 20
536.6488335237558
 30
0.0
 11
1052.70276904174
 21
537.6275569305557
 31
0.0
  0
LINE
  5
2CE1
330
1B
100
AcDbEntity
  8
実線
100
AcDbLine
 10
1052.45276904174
 20
537.6275569305557
 30
0.0
 11
1051.86943578784
 21
536.8190462694558
 31
0.0
  0
LINE
  5
2CE2
330
1B
100
AcDbEntity
  8
実線
100
AcDbLine
 10
1062.81943578784
 20
532.2275569305559
 30
0.0
 11
1062.81943578784
 21
532.7275569305559
 31
0.0
  0
LINE
  5
2CE3
330
1B
100
AcDbEntity
  8
実線
100
AcDbLine
 10
1062.31943578784
 20
532.7275569305559
 30
0.0
 11
1062.31943578784
 21
532.1275569305558
 31
0.0
  0
LINE
  5
2CE4
330
1B
100
AcDbEntity
  8
実線
100
AcDbLine
 10
1062.06943578784
 20
531.7375569305559
 30
0.0
 11
1062.06943578784
 21
532.7275569305559
 31
0.0
  0
LINE
  5
2CE5
330
1B
100
AcDbEntity
  8
実線
100
AcDbLine
 10
1060.56943578784
 20
531.7375569305559
 30
0.0
 11
1060.56943578784
 21
532.7275569305559
 31
0.0
  0
LINE
  5
2CE6
330
1B
100
AcDbEntity
  8
実線
100
AcDbLine
 10
1063.56943578784
 20
529.6275569305557
 30
0.0
 11
1063.56943578784
 21
530.9275569305558
 31
0.0
  0
LINE
  5
2CE7
330
1B
100
AcDbEntity
  8
実線
100
AcDbLine
 10
1060.96943578784
 20
530.9275569305558
 30
0.0
 11
1060.96943578784
 21
529.6275569305557
 31
0.0
  0
LINE
  5
2CE8
330
1B
100
AcDbEntity
  8
実線
100
AcDbLine
 10
1060.11943578784
 20
528.8975569305558
 30
0.0
 11
1060.11943578784
 21
530.3975569305558
 31
0.0
  0
LINE
  5
2CE9
330
1B
100
AcDbEntity
  8
実線
100
AcDbLine
 10
1062.81943578784
 20
532.2275569305559
 30
0.0
 11
1063.61943578784
 21
532.2275569305559
 31
0.0
  0
LINE
  5
2CEA
330
1B
100
AcDbEntity
  8
実線
100
AcDbLine
 10
1062.31943578784
 20
532.1275569305558
 30
0.0
 11
1063.61943578784
 21
532.1275569305558
 31
0.0
  0
LINE
  5
2CEB
330
1B
100
AcDbEntity
  8
実線
100
AcDbLine
 10
1063.56943578784
 20
530.9275569305558
 30
0.0
 11
1060.96943578784
 21
530.9275569305558
 31
0.0
  0
LINE
  5
2CEC
330
1B
100
AcDbEntity
  8
実線
100
AcDbLine
 10
1060.96943578784
 20
529.6275569305557
 30
0.0
 11
1063.56943578784
 21
529.6275569305557
 31
0.0
  0
LINE
  5
2CED
330
1B
100
AcDbEntity
  8
実線
100
AcDbLine
 10
1063.11943578784
 20
528.8975569305558
 30
0.0
 11
1060.11943578784
 21
528.8975569305558
 31
0.0
  0
LINE
  5
2CEE
330
1B
100
AcDbEntity
  8
実線
100
AcDbLine
 10
1067.81943578784
 20
526.5275569305559
 30
0.0
 11
1067.81943578784
 21
531.6275569305558
 31
0.0
  0
LINE
  5
2CEF
330
1B
100
AcDbEntity
  8
実線
100
AcDbLine
 10
1067.71943578784
 20
531.6275569305558
 30
0.0
 11
1067.71943578784
 21
526.5275569305559
 31
0.0
  0
LINE
  5
2CF0
330
1B
100
AcDbEntity
  8
実線
100
AcDbLine
 10
1064.40276904174
 20
535.6275569305558
 30
0.0
 11
1063.69443578784
 21
536.6488335237558
 31
0.0
  0
LINE
  5
2CF1
330
1B
100
AcDbEntity
  8
実線
100
AcDbLine
 10
1063.56943578784
 20
536.4360675916558
 30
0.0
 11
1064.15276904174
 21
535.6275569305558
 31
0.0
  0
LINE
  5
2CF2
330
1B
100
AcDbEntity
  8
実線
100
AcDbLine
 10
1063.69443578784
 20
536.6488335237558
 30
0.0
 11
1064.40276904174
 21
537.6275569305557
 31
0.0
  0
LINE
  5
2CF3
330
1B
100
AcDbEntity
  8
実線
100
AcDbLine
 10
1064.15276904174
 20
537.6275569305557
 30
0.0
 11
1063.56943578784
 21
536.8190462694558
 31
0.0
  0
LINE
  5
2CF4
330
1B
100
AcDbEntity
  8
実線
100
AcDbLine
 10
1062.36110241474
 20
537.1594718799558
 30
0.0
 11
1062.31943578784
 21
537.2871314392559
 31
0.0
  0
LINE
  5
2CF5
330
1B
100
AcDbEntity
  8
実線
100
AcDbLine
 10
1062.06943578784
 20
537.2871314392559
 30
0.0
 11
1062.11110241474
 21
537.1594718799558
 31
0.0
  0
LINE
  5
2CF6
330
1B
100
AcDbEntity
  8
実線
100
AcDbLine
 10
1061.77776910134
 20
536.5211739644557
 30
0.0
 11
1062.11110241474
 21
535.6275569305558
 31
0.0
  0
LINE
  5
2CF7
330
1B
100
AcDbEntity
  8
実線
100
AcDbLine
 10
1062.40276916094
 20
535.6275569305558
 30
0.0
 11
1062.02776916094
 21
536.6062803373559
 31
0.0
  0
LINE
  5
2CF8
330
1B
100
AcDbEntity
  8
実線
100
AcDbLine
 10
1063.56943578784
 20
536.8190462694558
 30
0.0
 11
1062.98610253404
 21
537.6275569305557
 31
0.0
  0
LINE
  5
2CF9
330
1B
100
AcDbEntity
  8
実線
100
AcDbLine
 10
1062.73610241474
 20
537.6275569305557
 30
0.0
 11
1063.44443578784
 21
536.6488335237558
 31
0.0
  0
LINE
  5
2CFA
330
1B
100
AcDbEntity
  8
実線
100
AcDbLine
 10
1062.31943578784
 20
537.2871314392559
 30
0.0
 11
1062.19443578784
 21
537.4573441848558
 31
0.0
  0
LINE
  5
2CFB
330
1B
100
AcDbEntity
  8
実線
100
AcDbLine
 10
1061.98610241474
 20
537.3722378120557
 30
0.0
 11
1062.06943578784
 21
537.2871314392559
 31
0.0
  0
LINE
  5
2CFC
330
1B
100
AcDbEntity
  8
実線
100
AcDbLine
 10
1063.11943578784
 20
532.7275569305559
 30
0.0
 11
1063.11943578784
 21
534.6275569305557
 31
0.0
  0
LINE
  5
2CFD
330
1B
100
AcDbEntity
  8
実線
100
AcDbLine
 10
1062.36110241474
 20
536.9892590150558
 30
0.0
 11
1062.36110241474
 21
537.1594718799558
 31
0.0
  0
LINE
  5
2CFE
330
1B
100
AcDbEntity
  8
実線
100
AcDbLine
 10
1062.11110241474
 20
537.1594718799558
 30
0.0
 11
1062.11110241474
 21
537.0318122014558
 31
0.0
  0
LINE
  5
2CFF
330
1B
100
AcDbEntity
  8
実線
100
AcDbLine
 10
1061.06943578784
 20
536.7764930829558
 30
0.0
 11
1061.06943578784
 21
537.4147909984558
 31
0.0
  0
LINE
  5
2D00
330
1B
100
AcDbEntity
  8
実線
100
AcDbLine
 10
1061.06943578784
 20
535.6275569305558
 30
0.0
 11
1061.06943578784
 21
536.5211739644557
 31
0.0
  0
LINE
  5
2D01
330
1B
100
AcDbEntity
  8
実線
100
AcDbLine
 10
1060.81943578784
 20
537.6275569305557
 30
0.0
 11
1060.81943578784
 21
535.6275569305558
 31
0.0
  0
LINE
  5
2D02
330
1B
100
AcDbEntity
  8
実線
100
AcDbLine
 10
1062.19443578784
 20
537.4573441848558
 30
0.0
 11
1062.02776916094
 21
537.5850037441558
 31
0.0
  0
LINE
  5
2D03
330
1B
100
AcDbEntity
  8
実線
100
AcDbLine
 10
1062.31943578784
 20
536.8615994558559
 30
0.0
 11
1062.36110241474
 21
536.9892590150558
 31
0.0
  0
LINE
  5
2D04
330
1B
100
AcDbEntity
  8
実線
100
AcDbLine
 10
1062.11110241474
 20
537.0318122014558
 30
0.0
 11
1062.06943578784
 21
536.9041526422559
 31
0.0
  0
LINE
  5
2D05
330
1B
100
AcDbEntity
  8
実線
100
AcDbLine
 10
1061.86110241474
 20
537.4147909984558
 30
0.0
 11
1061.98610241474
 21
537.3722378120557
 31
0.0
  0
LINE
  5
2D06
330
1B
100
AcDbEntity
  8
実線
100
AcDbLine
 10
1062.19443578784
 20
536.6913867101557
 30
0.0
 11
1062.31943578784
 21
536.8615994558559
 31
0.0
  0
LINE
  5
2D07
330
1B
100
AcDbEntity
  8
実線
100
AcDbLine
 10
1062.98610253404
 20
535.6275569305558
 30
0.0
 11
1063.56943578784
 21
536.4360675916558
 31
0.0
  0
LINE
  5
2D08
330
1B
100
AcDbEntity
  8
実線
100
AcDbLine
 10
1063.44443578784
 20
536.6488335237558
 30
0.0
 11
1062.73610241474
 21
535.6275569305558
 31
0.0
  0
LINE
  5
2D09
330
1B
100
AcDbEntity
  8
実線
100
AcDbLine
 10
1062.02776916094
 20
537.5850037441558
 30
0.0
 11
1061.81943578784
 21
537.6275569305557
 31
0.0
  0
LINE
  5
2D0A
330
1B
100
AcDbEntity
  8
実線
100
AcDbLine
 10
1062.06943578784
 20
536.9041526422559
 30
0.0
 11
1061.98610241474
 21
536.8190462694558
 31
0.0
  0
LINE
  5
2D0B
330
1B
100
AcDbEntity
  8
実線
100
AcDbLine
 10
1061.81943578784
 20
537.6275569305557
 30
0.0
 11
1060.81943578784
 21
537.6275569305557
 31
0.0
  0
LINE
  5
2D0C
330
1B
100
AcDbEntity
  8
実線
100
AcDbLine
 10
1062.98610253404
 20
537.6275569305557
 30
0.0
 11
1062.73610241474
 21
537.6275569305557
 31
0.0
  0
LINE
  5
2D0D
330
1B
100
AcDbEntity
  8
実線
100
AcDbLine
 10
1061.06943578784
 20
537.4147909984558
 30
0.0
 11
1061.86110241474
 21
537.4147909984558
 31
0.0
  0
LINE
  5
2D0E
330
1B
100
AcDbEntity
  8
実線
100
AcDbLine
 10
1061.86110241474
 20
536.7764930829558
 30
0.0
 11
1061.06943578784
 21
536.7764930829558
 31
0.0
  0
LINE
  5
2D0F
330
1B
100
AcDbEntity
  8
実線
100
AcDbLine
 10
1061.06943578784
 20
536.5211739644557
 30
0.0
 11
1061.77776910134
 21
536.5211739644557
 31
0.0
  0
LINE
  5
2D10
330
1B
100
AcDbEntity
  8
実線
100
AcDbLine
 10
1062.73610241474
 20
535.6275569305558
 30
0.0
 11
1062.98610253404
 21
535.6275569305558
 31
0.0
  0
LINE
  5
2D11
330
1B
100
AcDbEntity
  8
実線
100
AcDbLine
 10
1062.11110241474
 20
535.6275569305558
 30
0.0
 11
1062.40276916094
 21
535.6275569305558
 31
0.0
  0
LINE
  5
2D12
330
1B
100
AcDbEntity
  8
実線
100
AcDbLine
 10
1060.81943578784
 20
535.6275569305558
 30
0.0
 11
1061.06943578784
 21
535.6275569305558
 31
0.0
  0
LINE
  5
2D13
330
1B
100
AcDbEntity
  8
実線
100
AcDbLine
 10
1061.98610241474
 20
536.8190462694558
 30
0.0
 11
1061.86110241474
 21
536.7764930829558
 31
0.0
  0
LINE
  5
2D14
330
1B
100
AcDbEntity
  8
実線
100
AcDbLine
 10
1062.02776916094
 20
536.6062803373559
 30
0.0
 11
1062.19443578784
 21
536.6913867101557
 31
0.0
  0
LINE
  5
2D15
330
1B
100
AcDbEntity
  8
実線
100
AcDbLine
 10
1064.40276904174
 20
537.6275569305557
 30
0.0
 11
1064.15276904174
 21
537.6275569305557
 31
0.0
  0
LINE
  5
2D16
330
1B
100
AcDbEntity
  8
実線
100
AcDbLine
 10
1064.15276904174
 20
535.6275569305558
 30
0.0
 11
1064.40276904174
 21
535.6275569305558
 31
0.0
  0
ARC
  5
2D17
330
1B
100
AcDbEntity
  8
実線
100
AcDbCircle
 10
853.8194357878401
 20
531.6275569305558
 30
0.0
 40
226.0
100
AcDbArc
 50
0.7605857828989345
 51
7.405390182298551
  0
LINE
  5
2D18
330
1B
100
AcDbEntity
  8
実線
100
AcDbLine
 10
1069.92237427244
 20
550.3188357172558
 30
0.0
 11
1069.92237427244
 21
534.6275569305557
 31
0.0
  0
LWPOLYLINE
  5
2D19
330
1B
100
AcDbEntity
  8
実線
100
AcDbPolyline
 90
        9
 70
     0
 43
0.0
 10
1069.92247628754
 20
550.0205075118558
 10
1070.08311256894
 20
549.9942401265558
 10
1070.24799587634
 20
549.9099926730558
 10
1070.40736721724
 20
549.7644576055559
 10
1070.55222884254
 20
549.5607653609559
 10
1070.67771944404
 20
549.3027405283558
 10
1070.78079756874
 20
548.9923901661557
 10
1070.85850900694
 20
548.6302413703558
 10
1070.90717084364
 20
548.2168711182558
  0
LWPOLYLINE
  5
2D1A
330
1B
100
AcDbEntity
  8
実線
100
AcDbPolyline
 90
        9
 70
     0
 43
0.0
 10
1069.92237427244
 20
550.3188357172558
 10
1070.16340592094
 20
550.2921258020558
 10
1070.41073279454
 20
550.2064686603558
 10
1070.64980356134
 20
550.0584457461558
 10
1070.86712099164
 20
549.8512727267558
 10
1071.05537429454
 20
549.5888508875558
 10
1071.21000134674
 20
549.2732298433558
 10
1071.32657382154
 20
548.9049511893559
 10
1071.39958590194
 20
548.4844492634558
  0
LWPOLYLINE
  5
2D1B
330
1B
100
AcDbEntity
  8
実線
100
AcDbPolyline
 90
        5
 70
     0
 43
0.0
 10
1071.39958590194
 20
548.4844492634558
 10
1071.70589628224
 20
545.2898180963558
 10
1071.94764140094
 20
541.8589770928559
 10
1072.11815257224
 20
538.2756179130558
 10
1072.21462313894
 20
534.6275569653557
  0
LWPOLYLINE
  5
2D1C
330
1B
100
AcDbEntity
  8
実線
100
AcDbPolyline
 90
        5
 70
     0
 43
0.0
 10
1070.90717084574
 20
548.2168416835559
 10
1071.21257236824
 20
545.0853195461559
 10
1071.45390104424
 20
541.7209712751558
 10
1071.62446541084
 20
538.2060961720558
 10
1071.72144072534
 20
534.6275569305557
  0
LINE
  5
2D1D
330
1B
100
AcDbEntity
  8
文字
 62
     0
100
AcDbLine
 10
1069.119435787839
 20
531.6275569305558
 30
0.0
 11
1083.48591567614
 21
531.6275569305558
 31
0.0
  0
LINE
  5
2D1E
330
1B
100
AcDbEntity
  8
実線
100
AcDbLine
 10
1072.27025334924
 20
534.1275569305557
 30
0.0
 11
1072.26083293314
 21
531.0667929179557
 31
0.0
  0
LINE
  5
2D1F
330
1B
100
AcDbEntity
  8
実線
100
AcDbLine
 10
1071.77782261524
 20
534.1275569305557
 30
0.0
 11
1071.76842846094
 21
531.0753255668557
 31
0.0
  0
LINE
  5
2D20
330
1B
100
AcDbEntity
  8
実線
100
AcDbLine
 10
1069.119435787839
 20
526.5275569305559
 30
0.0
 11
1069.119435787839
 21
531.6275569305558
 31
0.0
  0
LINE
  5
2D21
330
1B
100
AcDbEntity
  8
実線
100
AcDbLine
 10
1069.01943578784
 20
531.6275569305558
 30
0.0
 11
1069.01943578784
 21
526.6275569305557
 31
0.0
  0
LINE
  5
2D22
330
1B
100
AcDbEntity
  8
実線
100
AcDbLine
 10
1072.10828684074
 20
534.6275569305557
 30
0.0
 11
1072.10828684074
 21
534.1275569305557
 31
0.0
  0
LINE
  5
2D23
330
1B
100
AcDbEntity
  8
実線
100
AcDbLine
 10
1079.81943578784
 20
531.6275569305558
 30
0.0
 11
1079.81943578784
 21
534.6275569305557
 31
0.0
  0
LINE
  5
2D24
330
1B
100
AcDbEntity
  8
実線
100
AcDbLine
 10
1078.09195289044
 20
531.6275569305558
 30
0.0
 11
1078.09195289044
 21
534.1275569305557
 31
0.0
  0
LINE
  5
2D25
330
1B
100
AcDbEntity
  8
実線
100
AcDbLine
 10
1079.75058875524
 20
527.6833130757559
 30
0.0
 11
1079.81943578784
 21
531.6275569305558
 31
0.0
  0
LINE
  5
2D26
330
1B
100
AcDbEntity
  8
実線
100
AcDbLine
 10
1078.03989066584
 20
528.6275569305558
 30
0.0
 11
1078.09195289044
 21
531.6275569305558
 31
0.0
  0
LINE
  5
2D27
330
1B
100
AcDbEntity
  8
実線
100
AcDbLine
 10
1079.76707059304
 20
528.6275569305558
 30
0.0
 11
1078.03989066584
 21
528.6275569305558
 31
0.0
  0
LINE
  5
2D28
330
1B
100
AcDbEntity
  8
実線
100
AcDbLine
 10
1077.82418149124
 20
534.1275569305557
 30
0.0
 11
1077.82418149124
 21
534.6275569305557
 31
0.0
  0
LWPOLYLINE
  5
2D29
330
1B
100
AcDbEntity
  8
実線
100
AcDbPolyline
 90
        5
 70
     0
 43
0.0
 10
1071.39958590194
 20
548.4844442576559
 10
1071.22614110754
 20
548.4538371951559
 10
1071.07443430934
 20
548.3935120198558
 10
1070.96347921034
 20
548.3110294025558
 10
1070.90718202554
 20
548.2167270492558
  0
ARC
  5
2D2A
330
1B
100
AcDbEntity
  8
実線
100
AcDbCircle
 10
1076.94272009494
 20
560.6275569305559
 30
0.0
 40
1.0
100
AcDbArc
 50
7.405390182298551
 51
90.0
  0
ENDSEC
  0
SECTION
  2
OBJECTS
  0
DICTIONARY
  5
D4D
330
0
100
AcDbDictionary
  3
ACAD_GROUP
350
D4E
  3
ACAD_LAYOUT
350
D5D
  3
ACAD_MLINESTYLE
350
D4F
  3
ACAD_PLOTSETTINGS
350
D5E
  3
ACAD_PLOTSTYLENAME
350
D5B
  3
ACDBHEADERROUNDTRIPXREC
350
307E
  3
ACDBVARIABLEDICTIONARY
350
10A5
  0
DICTIONARY
  5
D91
330
2
100
AcDbDictionary
280
     1
  3
ACAD_LAYERFILTERS
360
D92
  3
ACAD_LAYERSTATES
360
E18
  0
DICTIONARY
  5
1118
330
1B
100
AcDbDictionary
280
     1
  3
ACAD_LAYOUTSELFREF
360
309F
  0
DICTIONARY
  5
111A
330
1C
100
AcDbDictionary
280
     1
  3
ACAD_LAYOUTSELFREF
360
30A0
  0
DICTIONARY
  5
D4E
102
{ACAD_REACTORS
330
D4D
102
}
330
D4D
100
AcDbDictionary
  0
DICTIONARY
  5
D5D
102
{ACAD_REACTORS
330
D4D
102
}
330
D4D
100
AcDbDictionary
  0
DICTIONARY
  5
D4F
102
{ACAD_REACTORS
330
D4D
102
}
330
D4D
100
AcDbDictionary
  3
STANDARD
350
D50
  0
DICTIONARY
  5
D5E
102
{ACAD_REACTORS
330
D4D
102
}
330
D4D
100
AcDbDictionary
  0
ACDBDICTIONARYWDFLT
  5
D5B
102
{ACAD_REACTORS
330
D4D
102
}
330
D4D
100
AcDbDictionary
281
     1
  3
Normal
350
D5C
100
AcDbDictionaryWithDefault
340
D5C
  0
DICTIONARY
  5
307E
102
{ACAD_REACTORS
330
D4D
102
}
330
D4D
100
AcDbDictionary
  3
CEPSNTYPE
350
3088
  3
DIMSTYLEDATA
350
308C
  3
FINGERPRINTGUID
350
3089
  3
HYPERLINKBASE
350
3081
  3
INSUNITS
350
3087
  3
LAYOUTDICT
350
3083
  3
LWETCUNION
350
3086
  3
PLOTSETDICT
350
3084
  3
PLOTSTYLNAMDICT
350
3085
  3
PSVPSCALE
350
308B
  3
PUCSBASE
350
308F
  3
PUCSORGBACK
350
3095
  3
PUCSORGBOTTOM
350
3091
  3
PUCSORGFRONT
350
3094
  3
PUCSORGLEFT
350
3092
  3
PUCSORGRIGHT
350
3093
  3
PUCSORGTOP
350
3090
  3
PUCSORTHOREF
350
308D
  3
PUCSORTHOVIEW
350
308E
  3
STYLESHEET
350
3082
  3
TSTACKALIGN
350
307F
  3
TSTACKSIZE
350
3080
  3
UCSBASE
350
3098
  3
UCSORGBACK
350
309E
  3
UCSORGBOTTOM
350
309A
  3
UCSORGFRONT
350
309D
  3
UCSORGLEFT
350
309B
  3
UCSORGRIGHT
350
309C
  3
UCSORGTOP
350
3099
  3
UCSORTHOREF
350
3096
  3
UCSORTHOVIEW
350
3097
  3
VERSIONGUID
350
308A
  0
DICTIONARY
  5
10A5
102
{ACAD_REACTORS
330
D4D
102
}
330
D4D
100
AcDbDictionary
  3
DIMASSOC
350
10A6
  0
DICTIONARY
  5
D92
102
{ACAD_REACTORS
330
D91
102
}
330
D91
100
AcDbDictionary
280
     1
  3
0
360
D93
  3
01全体計画平面図
360
D94
  3
02現況平面図
360
D95
  3
03撤去平面図
360
D96
  3
04造成平面図
360
D97
  3
05施設平面図
360
D98
  3
06排水平面図
360
D99
  3
07給水平面図
360
D9A
  3
08電気平面図
360
D9B
  3
09植栽平面図-1
360
D9C
  3
1
360
D9D
  3
1-交差点処理図_最新1案_
360
D9E
  3
1-交差点処理図_最新1案_0
360
1F8B
  3
10植栽平面図-2
360
D9F
  3
11寸法図
360
DA0
  3
1次施工
360
DA1
  3
2
360
DA2
  3
2-線形図1
360
DA3
  3
2次施工
360
DA4
  3
3
360
DA5
  3
3-線形図2
360
DA6
  3
3次施工
360
DA7
  3
4
360
DA8
  3
4次施工
360
DA9
  3
5
360
DAA
  3
50
360
DAB
  3
6
360
DAC
  3
7
360
DAD
  3
7-専用部北行
360
DAE
  3
8-ONﾗﾝﾌ_
360
DAF
  3
8-ONﾗﾝﾌ_0
360
1F8C
  3
9-OFFﾗﾝﾌ_
360
DB0
  3
9-OFFﾗﾝﾌ_0
360
1F8D
  3
A
360
DB1
  3
B
360
DB2
  3
B北
360
DB3
  3
C
360
DB4
  3
CAR
360
DB5
  3
D
360
DB6
  3
DIM
360
DB7
  3
DIM2
360
DB8
  3
DIM3
360
DB9
  3
E
360
DBA
  3
E南
360
DBB
  3
GENKYOU
360
DBC
  3
HTXT
360
DBD
  3
HTXT2
360
DBE
  3
KAN
360
DBF
  3
LAND
360
DC0
  3
MASU
360
DC1
  3
OFF
360
DC2
  3
OFST
360
DC3
  3
ON
360
DC4
  3
ｼｭｳｾｲ
360
DC5
  3
ｾﾒﾝﾄ注入量上半円
360
DC6
  3
ﾌﾘ_ｽ_解除
360
DC7
  3
ﾌﾘ_ｽ_解除0
360
1F8E
  3
ﾙｼ_ｵﾝ値下半円
360
DC8
  3
ﾙｼ_ｵﾝ値下半円0
360
1F8F
  3
Ｓ
360
DC9
  3
その他
360
DCA
  3
セメント注入量
360
DCB
  3
フリ_ズ以外
360
DCC
  3
フリ_ズ以外0
360
1F90
  3
ランプ
360
DCD
  3
ルジオン値
360
DCE
  3
ロック
360
DCF
  3
ロック解除
360
DD0
  3
案1
360
DD1
  3
案2
360
DD2
  3
一般
360
DD3
  3
外部参照の非表示画層
360
DD4
  3
形状
360
DD5
  3
形状以外
360
DD6
  3
計画
360
DD7
  3
現況
360
DD8
  3
暫定形
360
DD9
  3
縦断セット
360
DDA
  3
縦断計画
360
DDB
  3
縦断埋設
360
DDC
  3
数量用
360
DDD
  3
専北
360
DDE
  3
専用
360
DDF
  3
線形
360
DE0
  3
全帯
360
DE1
  3
断面
360
DE2
  3
東西線
360
DE3
  3
南北線
360
DE4
  3
非表示
360
DE5
  3
非表示を表示
360
DE6
  3
非表示画層を表示
360
DE7
  3
表示レイヤ_を表示
360
DE8
  3
表示レイヤ_を表示0
360
1F91
  3
副道
360
DE9
  3
平面図
360
DEA
  3
埋設
360
DEB
  0
DICTIONARY
  5
E18
102
{ACAD_REACTORS
330
D91
102
}
330
D91
100
AcDbDictionary
  0
XRECORD
  5
309F
102
{ACAD_REACTORS
330
1118
102
}
330
1118
100
AcDbXrecord
340
1B
  0
XRECORD
  5
30A0
102
{ACAD_REACTORS
330
111A
102
}
330
111A
100
AcDbXrecord
340
1C
  0
MLINESTYLE
  5
D50
102
{ACAD_REACTORS
330
D4F
102
}
330
D4F
100
AcDbMlineStyle
  2
STANDARD
 70
     0
  3

 62
   256
 51
90.0
 52
90.0
 71
     2
 49
0.5
 62
   256
  6
BYLAYER
 49
-0.5
 62
   256
  6
BYLAYER
  0
ACDBPLACEHOLDER
  5
D5C
102
{ACAD_REACTORS
330
D5B
102
}
330
D5B
100
AcDbPlaceHolder
280
     0
  0
XRECORD
  5
3088
102
{ACAD_REACTORS
330
307E
102
}
330
307E
100
AcDbXrecord
 90
        0
  0
XRECORD
  5
308C
102
{ACAD_REACTORS
330
307E
102
}
330
307E
100
AcDbXrecord
1000
DSTYLE
1002
{
1070
   341
340
DEC
1070
   342
340
DEC
1002
}
  0
XRECORD
  5
3089
102
{ACAD_REACTORS
330
307E
102
}
330
307E
100
AcDbXrecord
  1
{1192BB43-D520-41DF-8210-6917A5BE4CAB}
  0
XRECORD
  5
3081
102
{ACAD_REACTORS
330
307E
102
}
330
307E
100
AcDbXrecord
  1

  0
XRECORD
  5
3087
102
{ACAD_REACTORS
330
307E
102
}
330
307E
100
AcDbXrecord
 90
        0
  0
XRECORD
  5
3083
102
{ACAD_REACTORS
330
307E
102
}
330
307E
100
AcDbXrecord
340
D5D
  0
XRECORD
  5
3086
102
{ACAD_REACTORS
330
307E
102
}
330
307E
100
AcDbXrecord
 90
    10781
  0
XRECORD
  5
3084
102
{ACAD_REACTORS
330
307E
102
}
330
307E
100
AcDbXrecord
340
D5E
  0
XRECORD
  5
3085
102
{ACAD_REACTORS
330
307E
102
}
330
307E
100
AcDbXrecord
340
D5B
  0
XRECORD
  5
308B
102
{ACAD_REACTORS
330
307E
102
}
330
307E
100
AcDbXrecord
 40
0.0
  0
XRECORD
  5
308F
102
{ACAD_REACTORS
330
307E
102
}
330
307E
100
AcDbXrecord
340
0
  0
XRECORD
  5
3095
102
{ACAD_REACTORS
330
307E
102
}
330
307E
100
AcDbXrecord
 10
0.0
 20
0.0
 30
0.0
  0
XRECORD
  5
3091
102
{ACAD_REACTORS
330
307E
102
}
330
307E
100
AcDbXrecord
 10
0.0
 20
0.0
 30
0.0
  0
XRECORD
  5
3094
102
{ACAD_REACTORS
330
307E
102
}
330
307E
100
AcDbXrecord
 10
0.0
 20
0.0
 30
0.0
  0
XRECORD
  5
3092
102
{ACAD_REACTORS
330
307E
102
}
330
307E
100
AcDbXrecord
 10
0.0
 20
0.0
 30
0.0
  0
XRECORD
  5
3093
102
{ACAD_REACTORS
330
307E
102
}
330
307E
100
AcDbXrecord
 10
0.0
 20
0.0
 30
0.0
  0
XRECORD
  5
3090
102
{ACAD_REACTORS
330
307E
102
}
330
307E
100
AcDbXrecord
 10
0.0
 20
0.0
 30
0.0
  0
XRECORD
  5
308D
102
{ACAD_REACTORS
330
307E
102
}
330
307E
100
AcDbXrecord
340
0
  0
XRECORD
  5
308E
102
{ACAD_REACTORS
330
307E
102
}
330
307E
100
AcDbXrecord
 70
     0
  0
XRECORD
  5
3082
102
{ACAD_REACTORS
330
307E
102
}
330
307E
100
AcDbXrecord
  1
A3.ctb
  0
XRECORD
  5
307F
102
{ACAD_REACTORS
330
307E
102
}
330
307E
100
AcDbXrecord
 90
        1
  0
XRECORD
  5
3080
102
{ACAD_REACTORS
330
307E
102
}
330
307E
100
AcDbXrecord
 90
       70
  0
XRECORD
  5
3098
102
{ACAD_REACTORS
330
307E
102
}
330
307E
100
AcDbXrecord
340
0
  0
XRECORD
  5
309E
102
{ACAD_REACTORS
330
307E
102
}
330
307E
100
AcDbXrecord
 10
0.0
 20
0.0
 30
0.0
  0
XRECORD
  5
309A
102
{ACAD_REACTORS
330
307E
102
}
330
307E
100
AcDbXrecord
 10
0.0
 20
0.0
 30
0.0
  0
XRECORD
  5
309D
102
{ACAD_REACTORS
330
307E
102
}
330
307E
100
AcDbXrecord
 10
0.0
 20
0.0
 30
0.0
  0
XRECORD
  5
309B
102
{ACAD_REACTORS
330
307E
102
}
330
307E
100
AcDbXrecord
 10
0.0
 20
0.0
 30
0.0
  0
XRECORD
  5
309C
102
{ACAD_REACTORS
330
307E
102
}
330
307E
100
AcDbXrecord
 10
0.0
 20
0.0
 30
0.0
  0
XRECORD
  5
3099
102
{ACAD_REACTORS
330
307E
102
}
330
307E
100
AcDbXrecord
 10
0.0
 20
0.0
 30
0.0
  0
XRECORD
  5
3096
102
{ACAD_REACTORS
330
307E
102
}
330
307E
100
AcDbXrecord
340
0
  0
XRECORD
  5
3097
102
{ACAD_REACTORS
330
307E
102
}
330
307E
100
AcDbXrecord
 70
     0
  0
XRECORD
  5
308A
102
{ACAD_REACTORS
330
307E
102
}
330
307E
100
AcDbXrecord
  1
{6AF565B8-380D-4F69-9959-0F5F31B42FC7}
  0
DICTIONARYVAR
  5
10A6
102
{ACAD_REACTORS
330
10A5
102
}
330
10A5
100
DictionaryVariables
280
     0
  1
1
  0
XRECORD
  5
D93
102
{ACAD_REACTORS
330
D92
102
}
330
D92
100
AcDbXrecord
  1
0
  1
0*
  1
*
  1
*
 70
     0
  1
*
  1
*
  0
XRECORD
  5
D94
102
{ACAD_REACTORS
330
D92
102
}
330
D92
100
AcDbXrecord
  1
01全体計画平面図
  1
00*,01*,0A*,0E-2*
  1
*
  1
*
 70
     0
  1
*
  1
*
  0
XRECORD
  5
D95
102
{ACAD_REACTORS
330
D92
102
}
330
D92
100
AcDbXrecord
  1
02現況平面図
  1
00*,02*,0B*
  1
*
  1
*
 70
     0
  1
*
  1
*
  0
XRECORD
  5
D96
102
{ACAD_REACTORS
330
D92
102
}
330
D92
100
AcDbXrecord
  1
03撤去平面図
  1
00*,01*,0C*
  1
*
  1
*
 70
     0
  1
*
  1
*
  0
XRECORD
  5
D97
102
{ACAD_REACTORS
330
D92
102
}
330
D92
100
AcDbXrecord
  1
04造成平面図
  1
00*,02*,0D*,03*
  1
*
  1
*
 70
     0
  1
*
  1
*
  0
XRECORD
  5
D98
102
{ACAD_REACTORS
330
D92
102
}
330
D92
100
AcDbXrecord
  1
05施設平面図
  1
00*,02*,0E*
  1
*
  1
*
 70
     0
  1
*
  1
*
  0
XRECORD
  5
D99
102
{ACAD_REACTORS
330
D92
102
}
330
D92
100
AcDbXrecord
  1
06排水平面図
  1
00*,02*,0F*
  1
*
  1
*
 70
     0
  1
*
  1
*
  0
XRECORD
  5
D9A
102
{ACAD_REACTORS
330
D92
102
}
330
D92
100
AcDbXrecord
  1
07給水平面図
  1
00*,02*,0G*
  1
*
  1
*
 70
     0
  1
*
  1
*
  0
XRECORD
  5
D9B
102
{ACAD_REACTORS
330
D92
102
}
330
D92
100
AcDbXrecord
  1
08電気平面図
  1
00*,02*,0H*
  1
*
  1
*
 70
     0
  1
*
  1
*
  0
XRECORD
  5
D9C
102
{ACAD_REACTORS
330
D92
102
}
330
D92
100
AcDbXrecord
  1
09植栽平面図-1
  1
00*,02*,0I*
  1
*
  1
*
 70
     0
  1
*
  1
*
  0
XRECORD
  5
D9D
102
{ACAD_REACTORS
330
D92
102
}
330
D92
100
AcDbXrecord
  1
1
  1
*計画*
  1
*
  1
*
 70
     0
  1
*
  1
*
  0
XRECORD
  5
D9E
102
{ACAD_REACTORS
330
D92
102
}
330
D92
100
AcDbXrecord
  1
1-交差点処理図（最新1案）
  1
*交差点処理図（最新1案）*
  1
*
  1
*
 70
     0
  1
*
  1
*
  0
XRECORD
  5
1F8B
102
{ACAD_REACTORS
330
D92
102
}
330
D92
100
AcDbXrecord
  1
1-交差点処理図（最新1案）
  1
*交差点処理図（最新1案）*
  1
*
  1
*
 70
     0
  1
*
  1
*
  0
XRECORD
  5
D9F
102
{ACAD_REACTORS
330
D92
102
}
330
D92
100
AcDbXrecord
  1
10植栽平面図-2
  1
00*,02*,0J*
  1
*
  1
*
 70
     0
  1
*
  1
*
  0
XRECORD
  5
DA0
102
{ACAD_REACTORS
330
D92
102
}
330
D92
100
AcDbXrecord
  1
11寸法図
  1
00*,02*,0K*,03*
  1
*
  1
*
 70
     0
  1
*
  1
*
  0
XRECORD
  5
DA1
102
{ACAD_REACTORS
330
D92
102
}
330
D92
100
AcDbXrecord
  1
1次施工
  1
*1次*
  1
*
  1
*
 70
     0
  1
*
  1
*
  0
XRECORD
  5
DA2
102
{ACAD_REACTORS
330
D92
102
}
330
D92
100
AcDbXrecord
  1
2
  1
*SOKUTENME
  1
*
  1
*
 70
     0
  1
*
  1
*
  0
XRECORD
  5
DA3
102
{ACAD_REACTORS
330
D92
102
}
330
D92
100
AcDbXrecord
  1
2-線形図1
  1
*線形図1*
  1
*
  1
*
 70
     0
  1
*
  1
*
  0
XRECORD
  5
DA4
102
{ACAD_REACTORS
330
D92
102
}
330
D92
100
AcDbXrecord
  1
2次施工
  1
*2次*
  1
*
  1
*
 70
     0
  1
*
  1
*
  0
XRECORD
  5
DA5
102
{ACAD_REACTORS
330
D92
102
}
330
D92
100
AcDbXrecord
  1
3
  1
*下部工*
  1
*
  1
*
 70
     0
  1
*
  1
*
  0
XRECORD
  5
DA6
102
{ACAD_REACTORS
330
D92
102
}
330
D92
100
AcDbXrecord
  1
3-線形図2
  1
*線形図2*
  1
*
  1
*
 70
     0
  1
*
  1
*
  0
XRECORD
  5
DA7
102
{ACAD_REACTORS
330
D92
102
}
330
D92
100
AcDbXrecord
  1
3次施工
  1
*3次*
  1
*
  1
*
 70
     0
  1
*
  1
*
  0
XRECORD
  5
DA8
102
{ACAD_REACTORS
330
D92
102
}
330
D92
100
AcDbXrecord
  1
4
  1
*
  1
4
  1
*
 70
     0
  1
*
  1
*
  0
XRECORD
  5
DA9
102
{ACAD_REACTORS
330
D92
102
}
330
D92
100
AcDbXrecord
  1
4次施工
  1
*4次*
  1
*
  1
*
 70
     0
  1
*
  1
*
  0
XRECORD
  5
DAA
102
{ACAD_REACTORS
330
D92
102
}
330
D92
100
AcDbXrecord
  1
5
  1
*
  1
5
  1
*
 70
     0
  1
*
  1
*
  0
XRECORD
  5
DAB
102
{ACAD_REACTORS
330
D92
102
}
330
D92
100
AcDbXrecord
  1
50
  1
*-50
  1
*
  1
*
 70
     0
  1
*
  1
*
  0
XRECORD
  5
DAC
102
{ACAD_REACTORS
330
D92
102
}
330
D92
100
AcDbXrecord
  1
6
  1
*
  1
6
  1
*
 70
     0
  1
*
  1
*
  0
XRECORD
  5
DAD
102
{ACAD_REACTORS
330
D92
102
}
330
D92
100
AcDbXrecord
  1
7
  1
*
  1
7
  1
*
 70
     0
  1
*
  1
*
  0
XRECORD
  5
DAE
102
{ACAD_REACTORS
330
D92
102
}
330
D92
100
AcDbXrecord
  1
7-専用部北行
  1
80*,90*,A0*,B0*,
  1
*
  1
*
 70
     0
  1
*
  1
*
  0
XRECORD
  5
DAF
102
{ACAD_REACTORS
330
D92
102
}
330
D92
100
AcDbXrecord
  1
8-ONﾗﾝﾌﾟ
  1
70*,90*,A0*,B0*,
  1
*
  1
*
 70
     0
  1
*
  1
*
  0
XRECORD
  5
1F8C
102
{ACAD_REACTORS
330
D92
102
}
330
D92
100
AcDbXrecord
  1
8-ONﾗﾝﾌﾟ
  1
70*,90*,A0*,B0*,
  1
*
  1
*
 70
     0
  1
*
  1
*
  0
XRECORD
  5
DB0
102
{ACAD_REACTORS
330
D92
102
}
330
D92
100
AcDbXrecord
  1
9-OFFﾗﾝﾌﾟ
  1
70*,80*,A0*B0*,
  1
*
  1
*
 70
     0
  1
*
  1
*
  0
XRECORD
  5
1F8D
102
{ACAD_REACTORS
330
D92
102
}
330
D92
100
AcDbXrecord
  1
9-OFFﾗﾝﾌﾟ
  1
70*,80*,A0*B0*,
  1
*
  1
*
 70
     0
  1
*
  1
*
  0
XRECORD
  5
DB1
102
{ACAD_REACTORS
330
D92
102
}
330
D92
100
AcDbXrecord
  1
a
  1
*A_*
  1
*
  1
*
 70
    12
  1
*
  1
*
  0
XRECORD
  5
DB2
102
{ACAD_REACTORS
330
D92
102
}
330
D92
100
AcDbXrecord
  1
b
  1
*b_*
  1
*
  1
*
 70
    12
  1
*
  1
*
  0
XRECORD
  5
DB3
102
{ACAD_REACTORS
330
D92
102
}
330
D92
100
AcDbXrecord
  1
B北
  1
*B北*
  1
*
  1
*
 70
     0
  1
*
  1
*
  0
XRECORD
  5
DB4
102
{ACAD_REACTORS
330
D92
102
}
330
D92
100
AcDbXrecord
  1
c
  1
*c_*
  1
*
  1
*
 70
    12
  1
*
  1
*
  0
XRECORD
  5
DB5
102
{ACAD_REACTORS
330
D92
102
}
330
D92
100
AcDbXrecord
  1
CAR
  1
CAR*
  1
*
  1
*
 70
     0
  1
*
  1
*
  0
XRECORD
  5
DB6
102
{ACAD_REACTORS
330
D92
102
}
330
D92
100
AcDbXrecord
  1
d
  1
*d_*
  1
*
  1
*
 70
    12
  1
*
  1
*
  0
XRECORD
  5
DB7
102
{ACAD_REACTORS
330
D92
102
}
330
D92
100
AcDbXrecord
  1
DIM
  1
*DIM
  1
*
  1
*
 70
     0
  1
*
  1
*
  0
XRECORD
  5
DB8
102
{ACAD_REACTORS
330
D92
102
}
330
D92
100
AcDbXrecord
  1
DIM2
  1
*DIM2
  1
*
  1
*
 70
     0
  1
*
  1
*
  0
XRECORD
  5
DB9
102
{ACAD_REACTORS
330
D92
102
}
330
D92
100
AcDbXrecord
  1
DIM3
  1
*DIM3
  1
*
  1
*
 70
     0
  1
*
  1
*
  0
XRECORD
  5
DBA
102
{ACAD_REACTORS
330
D92
102
}
330
D92
100
AcDbXrecord
  1
e
  1
*e_*
  1
*
  1
*
 70
    12
  1
*
  1
*
  0
XRECORD
  5
DBB
102
{ACAD_REACTORS
330
D92
102
}
330
D92
100
AcDbXrecord
  1
E南
  1
*E*南*
  1
*
  1
*
 70
     0
  1
*
  1
*
  0
XRECORD
  5
DBC
102
{ACAD_REACTORS
330
D92
102
}
330
D92
100
AcDbXrecord
  1
GENKYOU
  1
*G*
  1
*
  1
*
 70
     0
  1
*
  1
*
  0
XRECORD
  5
DBD
102
{ACAD_REACTORS
330
D92
102
}
330
D92
100
AcDbXrecord
  1
HTXT
  1
*HTXT
  1
*
  1
*
 70
     0
  1
*
  1
*
  0
XRECORD
  5
DBE
102
{ACAD_REACTORS
330
D92
102
}
330
D92
100
AcDbXrecord
  1
HTXT2
  1
*HTXT2
  1
*
  1
*
 70
     0
  1
*
  1
*
  0
XRECORD
  5
DBF
102
{ACAD_REACTORS
330
D92
102
}
330
D92
100
AcDbXrecord
  1
KAN
  1
W,S,T,G,E,
  1
*
  1
*
 70
     0
  1
*
  1
*
  0
XRECORD
  5
DC0
102
{ACAD_REACTORS
330
D92
102
}
330
D92
100
AcDbXrecord
  1
LAND
  1
*
  1
*
  1
*
 70
     0
  1
*
  1
*
  0
XRECORD
  5
DC1
102
{ACAD_REACTORS
330
D92
102
}
330
D92
100
AcDbXrecord
  1
MASU
  1
*MASU
  1
*
  1
*
 70
     0
  1
*
  1
*
  0
XRECORD
  5
DC2
102
{ACAD_REACTORS
330
D92
102
}
330
D92
100
AcDbXrecord
  1
OFF
  1
*OFF*
  1
*
  1
*
 70
     0
  1
*
  1
*
  0
XRECORD
  5
DC3
102
{ACAD_REACTORS
330
D92
102
}
330
D92
100
AcDbXrecord
  1
OFST
  1
*OFST
  1
*
  1
*
 70
     0
  1
*
  1
*
  0
XRECORD
  5
DC4
102
{ACAD_REACTORS
330
D92
102
}
330
D92
100
AcDbXrecord
  1
ON
  1
*ON*
  1
*
  1
*
 70
     0
  1
*
  1
*
  0
XRECORD
  5
DC5
102
{ACAD_REACTORS
330
D92
102
}
330
D92
100
AcDbXrecord
  1
ｼｭｳｾｲ
  1
*
  1
*
  1
*
 70
     0
  1
*
  1
*
  0
XRECORD
  5
DC6
102
{ACAD_REACTORS
330
D92
102
}
330
D92
100
AcDbXrecord
  1
ｾﾒﾝﾄ注入量上半円
  1
CE-?-T-?
  1
*
  1
*
 70
     0
  1
*
  1
*
  0
XRECORD
  5
DC7
102
{ACAD_REACTORS
330
D92
102
}
330
D92
100
AcDbXrecord
  1
ﾌﾘｰｽﾞ解除
  1
*
  1
*
  1
*
 70
    12
  1
*
  1
*
  0
XRECORD
  5
1F8E
102
{ACAD_REACTORS
330
D92
102
}
330
D92
100
AcDbXrecord
  1
ﾌﾘｰｽﾞ解除
  1
*
  1
*
  1
*
 70
    12
  1
*
  1
*
  0
XRECORD
  5
DC8
102
{ACAD_REACTORS
330
D92
102
}
330
D92
100
AcDbXrecord
  1
ﾙｼﾞｵﾝ値下半円
  1
LU-?-B-?
  1
*
  1
*
 70
     0
  1
*
  1
*
  0
XRECORD
  5
1F8F
102
{ACAD_REACTORS
330
D92
102
}
330
D92
100
AcDbXrecord
  1
ﾙｼﾞｵﾝ値下半円
  1
LU-?-B-?
  1
*
  1
*
 70
     0
  1
*
  1
*
  0
XRECORD
  5
DC9
102
{ACAD_REACTORS
330
D92
102
}
330
D92
100
AcDbXrecord
  1
ｓ
  1
*SOKUTENME
  1
*
  1
*
 70
     0
  1
*
  1
*
  0
XRECORD
  5
DCA
102
{ACAD_REACTORS
330
D92
102
}
330
D92
100
AcDbXrecord
  1
その他
  1
O*
  1
*
  1
*
 70
     0
  1
*
  1
*
  0
XRECORD
  5
DCB
102
{ACAD_REACTORS
330
D92
102
}
330
D92
100
AcDbXrecord
  1
セメント注入量
  1
CE-*
  1
*
  1
*
 70
     0
  1
*
  1
*
  0
XRECORD
  5
DCC
102
{ACAD_REACTORS
330
D92
102
}
330
D92
100
AcDbXrecord
  1
フリーズ以外
  1
*
  1
*
  1
*
 70
    12
  1
*
  1
*
  0
XRECORD
  5
1F90
102
{ACAD_REACTORS
330
D92
102
}
330
D92
100
AcDbXrecord
  1
フリーズ以外
  1
*
  1
*
  1
*
 70
    12
  1
*
  1
*
  0
XRECORD
  5
DCD
102
{ACAD_REACTORS
330
D92
102
}
330
D92
100
AcDbXrecord
  1
ランプ
  1
*ランプ*
  1
*
  1
*
 70
     0
  1
*
  1
*
  0
XRECORD
  5
DCE
102
{ACAD_REACTORS
330
D92
102
}
330
D92
100
AcDbXrecord
  1
ルジオン値
  1
LU-*
  1
*
  1
*
 70
     0
  1
*
  1
*
  0
XRECORD
  5
DCF
102
{ACAD_REACTORS
330
D92
102
}
330
D92
100
AcDbXrecord
  1
ロック
  1
*
  1
*
  1
*
 70
   256
  1
*
  1
*
  0
XRECORD
  5
DD0
102
{ACAD_REACTORS
330
D92
102
}
330
D92
100
AcDbXrecord
  1
ロック解除
  1
*
  1
*
  1
*
 70
   768
  1
*
  1
*
  0
XRECORD
  5
DD1
102
{ACAD_REACTORS
330
D92
102
}
330
D92
100
AcDbXrecord
  1
案1
  1
*案1
  1
*
  1
*
 70
     0
  1
*
  1
*
  0
XRECORD
  5
DD2
102
{ACAD_REACTORS
330
D92
102
}
330
D92
100
AcDbXrecord
  1
案2
  1
*案2
  1
*
  1
*
 70
     0
  1
*
  1
*
  0
XRECORD
  5
DD3
102
{ACAD_REACTORS
330
D92
102
}
330
D92
100
AcDbXrecord
  1
一般
  1
*般*
  1
*
  1
*
 70
     0
  1
*
  1
*
  0
XRECORD
  5
DD4
102
{ACAD_REACTORS
330
D92
102
}
330
D92
100
AcDbXrecord
  1
外部参照の非表示画層
  1
*
  1
*
  1
*
 70
     0
  1
*
  1
*
  0
XRECORD
  5
DD5
102
{ACAD_REACTORS
330
D92
102
}
330
D92
100
AcDbXrecord
  1
形状
  1
pen1,pen3,pen4,up,dia,low
  1
*
  1
*
 70
     0
  1
*
  1
*
  0
XRECORD
  5
DD6
102
{ACAD_REACTORS
330
D92
102
}
330
D92
100
AcDbXrecord
  1
形状以外
  1
dim,cen,text,sakuzu1,sakuzu2,siten,defpoints,0
  1
*
  1
*
 70
     0
  1
*
  1
*
  0
XRECORD
  5
DD7
102
{ACAD_REACTORS
330
D92
102
}
330
D92
100
AcDbXrecord
  1
計画
  1
K*
  1
*
  1
*
 70
     0
  1
*
  1
*
  0
XRECORD
  5
DD8
102
{ACAD_REACTORS
330
D92
102
}
330
D92
100
AcDbXrecord
  1
現況
  1
G*
  1
*
  1
*
 70
     0
  1
*
  1
*
  0
XRECORD
  5
DD9
102
{ACAD_REACTORS
330
D92
102
}
330
D92
100
AcDbXrecord
  1
暫定形
  1
*暫*
  1
*
  1
*
 70
     0
  1
*
  1
*
  0
XRECORD
  5
DDA
102
{ACAD_REACTORS
330
D92
102
}
330
D92
100
AcDbXrecord
  1
縦断セット
  1
JO*
  1
*
  1
*
 70
     0
  1
*
  1
*
  0
XRECORD
  5
DDB
102
{ACAD_REACTORS
330
D92
102
}
330
D92
100
AcDbXrecord
  1
縦断計画
  1
JK*
  1
*
  1
*
 70
     0
  1
*
  1
*
  0
XRECORD
  5
DDC
102
{ACAD_REACTORS
330
D92
102
}
330
D92
100
AcDbXrecord
  1
縦断埋設
  1
JM*
  1
*
  1
*
 70
     0
  1
*
  1
*
  0
XRECORD
  5
DDD
102
{ACAD_REACTORS
330
D92
102
}
330
D92
100
AcDbXrecord
  1
数量用
  1
*数量用*
  1
*
  1
*
 70
     0
  1
*
  1
*
  0
XRECORD
  5
DDE
102
{ACAD_REACTORS
330
D92
102
}
330
D92
100
AcDbXrecord
  1
専北
  1
*専北*
  1
*
  1
*
 70
     0
  1
*
  1
*
  0
XRECORD
  5
DDF
102
{ACAD_REACTORS
330
D92
102
}
330
D92
100
AcDbXrecord
  1
専用
  1
*専*
  1
*
  1
*
 70
     0
  1
*
  1
*
  0
XRECORD
  5
DE0
102
{ACAD_REACTORS
330
D92
102
}
330
D92
100
AcDbXrecord
  1
線形
  1
*線形*
  1
*
  1
*
 70
     0
  1
*
  1
*
  0
XRECORD
  5
DE1
102
{ACAD_REACTORS
330
D92
102
}
330
D92
100
AcDbXrecord
  1
全帯
  1
*帯*
  1
*
  1
*
 70
     0
  1
*
  1
*
  0
XRECORD
  5
DE2
102
{ACAD_REACTORS
330
D92
102
}
330
D92
100
AcDbXrecord
  1
断面
  1
*断面*
  1
*
  1
*
 70
     0
  1
*
  1
*
  0
XRECORD
  5
DE3
102
{ACAD_REACTORS
330
D92
102
}
330
D92
100
AcDbXrecord
  1
東西線
  1
*A
  1
*
  1
*
 70
     0
  1
*
  1
*
  0
XRECORD
  5
DE4
102
{ACAD_REACTORS
330
D92
102
}
330
D92
100
AcDbXrecord
  1
南北線
  1
*B
  1
*
  1
*
 70
     0
  1
*
  1
*
  0
XRECORD
  5
DE5
102
{ACAD_REACTORS
330
D92
102
}
330
D92
100
AcDbXrecord
  1
非表示
  1
z*
  1
*
  1
*
 70
     0
  1
*
  1
*
  0
XRECORD
  5
DE6
102
{ACAD_REACTORS
330
D92
102
}
330
D92
100
AcDbXrecord
  1
非表示を表示
  1
*
  1
*
  1
*
 70
     3
  1
*
  1
*
  0
XRECORD
  5
DE7
102
{ACAD_REACTORS
330
D92
102
}
330
D92
100
AcDbXrecord
  1
非表示画層を表示
  1
*
  1
*
  1
*
 70
     3
  1
*
  1
*
  0
XRECORD
  5
DE8
102
{ACAD_REACTORS
330
D92
102
}
330
D92
100
AcDbXrecord
  1
表示レイヤ－を表示
  1
*
  1
*
  1
*
 70
     1
  1
*
  1
*
  0
XRECORD
  5
1F91
102
{ACAD_REACTORS
330
D92
102
}
330
D92
100
AcDbXrecord
  1
表示レイヤ－を表示
  1
*
  1
*
  1
*
 70
     1
  1
*
  1
*
  0
XRECORD
  5
DE9
102
{ACAD_REACTORS
330
D92
102
}
330
D92
100
AcDbXrecord
  1
副道
  1
*副*
  1
*
  1
*
 70
     0
  1
*
  1
*
  0
XRECORD
  5
DEA
102
{ACAD_REACTORS
330
D92
102
}
330
D92
100
AcDbXrecord
  1
平面図
  1
*平*
  1
*
  1
*
 70
     0
  1
*
  1
*
  0
XRECORD
  5
DEB
102
{ACAD_REACTORS
330
D92
102
}
330
D92
100
AcDbXrecord
  1
埋設
  1
M*
  1
*
  1
*
 70
     0
  1
*
  1
*
  0
ENDSEC
  0
EOF
