  0
SECTION
  2
HEADER
  9
$ACADVER
  1
AC1009
  9
$INSBASE
 10
0.0
 20
0.0
 30
0.0
  9
$EXTMIN
 10
36.51672465321235
 20
57.568222804423719
 30
-0.0000000000112497
  9
$EXTMAX
 10
408.60534764431122
 20
279.22151251163041
 30
0.0000000000002956
  9
$LIMMIN
 10
12.4529226403788
 20
28.502864890270299
  9
$LIMMAX
 10
422.60916876810671
 20
308.01373820971531
  9
$ORTHOMODE
 70
     1
  9
$REGENMODE
 70
     1
  9
$FILLMODE
 70
     1
  9
$QTEXTMODE
 70
     0
  9
$MIRRTEXT
 70
     1
  9
$DRAGMODE
 70
     2
  9
$LTSCALE
 40
23.100000000000001
  9
$OSMODE
 70
  3071
  9
$ATTMODE
 70
     1
  9
$TEXTSIZE
 40
0.2
  9
$TRACEWID
 40
0.05
  9
$TEXTSTYLE
  7
STANDARD
  9
$CLAYER
  8
1_ALL_DRAFT_DIMS
  9
$CELTYPE
  6
BYLAYER
  9
$CECOLOR
 62
     4
  9
$DIMSCALE
 40
1.0
  9
$DIMASZ
 40
2.0
  9
$DIMEXO
 40
2.625
  9
$DIMDLI
 40
15.960000000000001
  9
$DIMRND
 40
0.0
  9
$DIMDLE
 40
0.0
  9
$DIMEXE
 40
7.5599999999999978
  9
$DIMTP
 40
0.001
  9
$DIMTM
 40
0.001
  9
$DIMTXT
 40
2.799999999999998
  9
$DIMCEN
 40
3.779999999999998
  9
$DIMTSZ
 40
0.0
  9
$DIMTOL
 70
     0
  9
$DIMLIM
 70
     0
  9
$DIMTIH
 70
     1
  9
$DIMTOH
 70
     1
  9
$DIMSE1
 70
     0
  9
$DIMSE2
 70
     0
  9
$DIMTAD
 70
     0
  9
$DIMZIN
 70
     0
  9
$DIMBLK
  1
OPEN30
  9
$DIMASO
 70
     1
  9
$DIMSHO
 70
     1
  9
$DIMPOST
  1

  9
$DIMAPOST
  1

  9
$DIMALT
 70
     0
  9
$DIMALTD
 70
     2
  9
$DIMALTF
 40
25.399999999999999
  9
$DIMLFAC
 40
1.0
  9
$DIMTOFL
 70
     0
  9
$DIMTVP
 40
0.0
  9
$DIMTIX
 70
     0
  9
$DIMSOXD
 70
     0
  9
$DIMSAH
 70
     0
  9
$DIMBLK1
  1

  9
$DIMBLK2
  1

  9
$DIMSTYLE
  2
STANDARD
  9
$DIMCLRD
 70
     0
  9
$DIMCLRE
 70
     0
  9
$DIMCLRT
 70
     0
  9
$DIMTFAC
 40
1.0
  9
$DIMGAP
 40
0.5
  9
$LUNITS
 70
     2
  9
$LUPREC
 70
     4
  9
$SKETCHINC
 40
0.1
  9
$FILLETRAD
 40
0.0
  9
$AUNITS
 70
     0
  9
$AUPREC
 70
     0
  9
$MENU
  1
.
  9
$ELEVATION
 40
0.0
  9
$PELEVATION
 40
0.0
  9
$THICKNESS
 40
0.0
  9
$LIMCHECK
 70
     0
  9
$BLIPMODE
 70
     0
  9
$CHAMFERA
 40
0.0
  9
$CHAMFERB
 40
0.0
  9
$SKPOLY
 70
     0
  9
$TDCREATE
 40
2453755.8678806708
  9
$TDUPDATE
 40
2454461.6365191541
  9
$TDINDWG
 40
0.0178055324
  9
$TDUSRTIMER
 40
0.0178053588
  9
$USRTIMER
 70
     1
  9
$ANGBASE
 50
0.0
  9
$ANGDIR
 70
     0
  9
$PDMODE
 70
     0
  9
$PDSIZE
 40
0.0
  9
$PLINEWID
 40
0.0
  9
$COORDS
 70
     0
  9
$SPLFRAME
 70
     0
  9
$SPLINETYPE
 70
     6
  9
$SPLINESEGS
 70
     8
  9
$ATTDIA
 70
     0
  9
$ATTREQ
 70
     1
  9
$HANDLING
 70
     1
  9
$HANDSEED
  5
2606
  9
$SURFTAB1
 70
     6
  9
$SURFTAB2
 70
     6
  9
$SURFTYPE
 70
     6
  9
$SURFU
 70
     6
  9
$SURFV
 70
     6
  9
$UCSNAME
  2

  9
$UCSORG
 10
0.0
 20
0.0
 30
0.0
  9
$UCSXDIR
 10
1.0
 20
0.0
 30
0.0
  9
$UCSYDIR
 10
0.0
 20
1.0
 30
0.0
  9
$PUCSNAME
  2

  9
$PUCSORG
 10
0.0
 20
0.0
 30
0.0
  9
$PUCSXDIR
 10
1.0
 20
0.0
 30
0.0
  9
$PUCSYDIR
 10
0.0
 20
1.0
 30
0.0
  9
$USERI1
 70
     0
  9
$USERI2
 70
     0
  9
$USERI3
 70
     0
  9
$USERI4
 70
     0
  9
$USERI5
 70
     0
  9
$USERR1
 40
0.0
  9
$USERR2
 40
0.0
  9
$USERR3
 40
0.0
  9
$USERR4
 40
0.0
  9
$USERR5
 40
0.0
  9
$WORLDVIEW
 70
     1
  9
$SHADEDGE
 70
     3
  9
$SHADEDIF
 70
    70
  9
$TILEMODE
 70
     1
  9
$MAXACTVP
 70
    64
  9
$PLIMCHECK
 70
     0
  9
$PEXTMIN
 10
1.0000000000000000E+020
 20
1.0000000000000000E+020
 30
1.0000000000000000E+020
  9
$PEXTMAX
 10
-1.0000000000000000E+020
 20
-1.0000000000000000E+020
 30
-1.0000000000000000E+020
  9
$PLIMMIN
 10
0.0
 20
0.0
  9
$PLIMMAX
 10
12.0
 20
9.0
  9
$UNITMODE
 70
     0
  9
$VISRETAIN
 70
     1
  9
$PLINEGEN
 70
     0
  9
$PSLTSCALE
 70
     1
  0
ENDSEC
  0
SECTION
  2
TABLES
  0
TABLE
  2
VPORT
 70
     7
  0
VPORT
  2
*ACTIVE
 70
     0
 10
0.0
 20
0.0
 11
1.0
 21
1.0
 12
217.5310457042427
 22
168.25830154999281
 13
0.0
 23
0.0
 14
1.0
 24
1.0
 15
0.0
 25
0.0
 16
0.0
 26
0.0
 36
1.0
 17
0.0
 27
0.0
 37
0.0
 40
281.63643129145601
 41
1.515228426395939
 42
50.0
 43
0.0
 44
0.0
 50
0.0
 51
0.0
 71
     0
 72
   100
 73
     1
 74
     1
 75
     0
 76
     0
 77
     0
 78
     0
  0
ENDTAB
  0
TABLE
  2
LTYPE
 70
     2
  0
LTYPE
  2
CONTINUOUS
 70
     0
  3
Solid line
 72
    65
 73
     0
 40
0.0
  0
LTYPE
  2
CENTER
 70
     0
  3
____ _ ____ _ ____ _ ____ _ ____ _ ____ _ ____
 72
    65
 73
     4
 40
0.6
 49
0.375
 49
-0.075
 49
0.075
 49
-0.075
  0
ENDTAB
  0
TABLE
  2
LAYER
 70
     7
  0
LAYER
  2
0
 70
     0
 62
     7
  6
CONTINUOUS
  0
LAYER
  2
DEFAULT_1
 70
     0
 62
     7
  6
CENTER
  0
LAYER
  2
1_ALL_DRAFT_DIMS
 70
     0
 62
     7
  6
CONTINUOUS
  0
LAYER
  2
2_ALL_NOTES
 70
     0
 62
     7
  6
CONTINUOUS
  0
LAYER
  2
7_ALL_FEATURES
 70
     0
 62
     7
  6
CONTINUOUS
  0
LAYER
  2
5_ALL_CURVES
 70
     0
 62
     7
  6
CONTINUOUS
  0
LAYER
  2
DEFPOINTS
 70
     0
 62
     7
  6
CONTINUOUS
  0
ENDTAB
  0
TABLE
  2
STYLE
 70
     2
  0
STYLE
  2
STANDARD
 70
     0
 40
0.0
 41
0.8
 50
0.0
 71
     0
 42
0.2
  3
txt.shx
  4
bigfont.shx
  0
STYLE
  2
STANDARD1
 70
     0
 40
0.0
 41
1.0
 50
0.0
 71
     0
 42
4.0
  3
monotxt.shx
  4
bigfont.shx
  0
ENDTAB
  0
TABLE
  2
VIEW
 70
     0
  0
ENDTAB
  0
TABLE
  2
UCS
 70
     0
  0
ENDTAB
  0
TABLE
  2
APPID
 70
     1
  0
APPID
  2
ACAD
 70
     0
  0
ENDTAB
  0
TABLE
  2
DIMSTYLE
 70
     4
  0
DIMSTYLE
  2
STANDARD
 70
     0
  3

  4

  5
OPEN30
  6

  7

 40
1.0
 41
2.0
 42
0.5
 43
0.38
 44
1.0
 45
0.0
 46
0.0
 47
0.001
 48
0.001
140
2.799999999999998
141
0.09
142
0.0
143
25.399999999999999
144
1.0
145
0.0
146
1.0
147
0.5
 71
     0
 72
     0
 73
     0
 74
     1
 75
     0
 76
     0
 77
     1
 78
     9
170
     0
171
     2
172
     0
173
     0
174
     0
175
     0
176
     0
177
     0
178
     0
  0
DIMSTYLE
  2
DIMSTYLE_1
 70
     0
  3

  4

  5

  6

  7

 40
1.0
 41
2.0
 42
0.0625
 43
0.38
 44
0.18
 45
0.0
 46
0.0
 47
0.2
 48
0.2
140
2.799999999999998
141
0.09
142
0.0
143
25.399999999999999
144
1.0
145
0.0
146
1.0
147
0.09
 71
     0
 72
     0
 73
     0
 74
     0
 75
     0
 76
     0
 77
     1
 78
     8
170
     0
171
     2
172
     0
173
     0
174
     0
175
     0
176
     0
177
     0
178
     0
  0
DIMSTYLE
  2
DIMSTYLE_2
 70
     0
  3

  4

  5

  6

  7

 40
1.0
 41
2.0
 42
0.0625
 43
0.38
 44
0.18
 45
0.0
 46
0.0
 47
0.5
 48
0.5
140
2.799999999999998
141
0.09
142
0.0
143
25.399999999999999
144
1.0
145
0.0
146
1.0
147
0.09
 71
     0
 72
     0
 73
     0
 74
     0
 75
     0
 76
     0
 77
     1
 78
     8
170
     0
171
     2
172
     0
173
     0
174
     0
175
     0
176
     0
177
     0
178
     0
  0
DIMSTYLE
  2
DIMSTYLE_3
 70
     0
  3

  4

  5

  6

  7

 40
1.0
 41
2.0
 42
0.0625
 43
0.38
 44
0.18
 45
0.0
 46
0.0
 47
0.3
 48
0.3
140
2.799999999999998
141
0.09
142
0.0
143
25.399999999999999
144
1.0
145
0.0
146
1.0
147
0.09
 71
     0
 72
     0
 73
     0
 74
     0
 75
     0
 76
     0
 77
     1
 78
     8
170
     0
171
     2
172
     0
173
     0
174
     0
175
     0
176
     0
177
     0
178
     0
  0
ENDTAB
  0
ENDSEC
  0
SECTION
  2
BLOCKS
  0
BLOCK
  8
0
  2
$MODEL_SPACE
 70
     0
 10
0.0
 20
0.0
 30
0.0
  3
$MODEL_SPACE
  1

  0
ENDBLK
  5
1F
  8
0
  0
BLOCK
 67
     1
  8
0
  2
$PAPER_SPACE
 70
     0
 10
0.0
 20
0.0
 30
0.0
  3
$PAPER_SPACE
  1

  0
ENDBLK
  5
21
 67
     1
  8
0
  0
BLOCK
  8
0
  2
_OPEN
 70
     0
 10
0.0
 20
0.0
 30
0.0
  3
_OPEN
  1

  0
LINE
  5
FD2
  8
0
  6
BYBLOCK
 62
     0
 10
0.0
 20
0.0
 30
0.0
 11
-1.0
 21
0.3125
 31
0.0
  0
LINE
  5
FD3
  8
0
  6
BYBLOCK
 62
     0
 10
-1.0
 20
-0.3125
 30
0.0
 11
0.0
 21
0.0
 31
0.0
  0
LINE
  5
FD4
  8
0
  6
BYBLOCK
 62
     0
 10
-1.0
 20
0.0
 30
0.0
 11
0.0
 21
0.0
 31
0.0
  0
ENDBLK
  5
FD6
  8
0
  6
BYBLOCK
 62
     0
  0
BLOCK
  8
0
 62
     4
  2
*D7
 70
     1
 10
0.0
 20
0.0
 30
0.0
  3
*D7
  1

  0
LINE
  5
253D
  8
1_ALL_DRAFT_DIMS
 62
     0
 10
55.980102949142463
 20
145.5278355809979
 30
0.0
 11
55.980102949142463
 21
176.63153937749331
 31
0.0
  0
LINE
  5
253E
  8
1_ALL_DRAFT_DIMS
 62
     0
 10
125.98010294914241
 20
145.5278355809979
 30
0.0
 11
125.98010294914241
 21
176.63153937749331
 31
0.0
  0
LINE
  5
253F
  8
1_ALL_DRAFT_DIMS
 62
     0
 10
57.980102949142463
 20
175.63153937749331
 30
0.0
 11
123.98010294914241
 21
175.63153937749331
 31
0.0
  0
INSERT
  5
2540
  8
1_ALL_DRAFT_DIMS
 62
     0
  2
_OPEN30
 10
55.980102949142463
 20
175.63153937749331
 30
0.0
 41
2.0
 42
2.0
 43
2.0
 50
180.0
  0
INSERT
  5
2541
  8
1_ALL_DRAFT_DIMS
 62
     0
  2
_OPEN30
 10
125.98010294914241
 20
175.63153937749331
 30
0.0
 41
2.0
 42
2.0
 43
2.0
  0
TEXT
  5
2542
  8
1_ALL_DRAFT_DIMS
 62
     0
 10
89.30010294914247
 20
176.13153937749331
 30
0.0
 40
2.799999999999998
  1
70
 41
0.8
  0
POINT
  5
2543
  8
DEFPOINTS
 62
     0
 10
55.980102949142463
 20
145.0278355809979
 30
0.0
  0
POINT
  5
2544
  8
DEFPOINTS
 62
     0
 10
125.98010294914241
 20
145.0278355809979
 30
0.0
  0
POINT
  5
2545
  8
DEFPOINTS
 62
     0
 10
125.98010294914241
 20
175.63153937749331
 30
0.0
  0
ENDBLK
  5
247C
  8
0
 62
     4
  0
BLOCK
  8
0
 62
     4
  2
_OPEN30
 70
     0
 10
0.0
 20
0.0
 30
0.0
  3
_OPEN30
  1

  0
LINE
  5
2487
  8
0
  6
BYBLOCK
 62
     0
 10
-1.0
 20
0.26794919
 30
0.0
 11
0.0
 21
0.0
 31
0.0
  0
LINE
  5
2488
  8
0
  6
BYBLOCK
 62
     0
 10
0.0
 20
0.0
 30
0.0
 11
-1.0
 21
-0.26794919
 31
0.0
  0
LINE
  5
2489
  8
0
  6
BYBLOCK
 62
     0
 10
0.0
 20
0.0
 30
0.0
 11
-1.0
 21
0.0
 31
0.0
  0
ENDBLK
  5
248B
  8
0
 62
     4
  0
BLOCK
  8
0
 62
     4
  2
*D9
 70
     1
 10
0.0
 20
0.0
 30
0.0
  3
*D9
  1

  0
LINE
  5
2558
  8
1_ALL_DRAFT_DIMS
 62
     0
 10
73.980102949142463
 20
160.0278355809979
 30
0.0
 11
38.818196589004849
 21
160.0278355809979
 31
0.0
  0
LINE
  5
2559
  8
1_ALL_DRAFT_DIMS
 62
     0
 10
60.480102949142463
 20
150.0278355809979
 30
0.0
 11
38.818196589004849
 21
150.0278355809979
 31
0.0
  0
LINE
  5
255A
  8
1_ALL_DRAFT_DIMS
 62
     0
 10
39.818196589004849
 20
158.0278355809979
 30
0.0
 11
39.818196589004849
 21
152.0278355809979
 31
0.0
  0
INSERT
  5
255B
  8
1_ALL_DRAFT_DIMS
 62
     0
  2
_OPEN30
 10
39.818196589004849
 20
160.0278355809979
 30
0.0
 41
2.0
 42
2.0
 43
2.0
 50
90.0
  0
INSERT
  5
255C
  8
1_ALL_DRAFT_DIMS
 62
     0
  2
_OPEN30
 10
39.818196589004849
 20
150.0278355809979
 30
0.0
 41
2.0
 42
2.0
 43
2.0
 50
270.0
  0
TEXT
  5
255D
  8
1_ALL_DRAFT_DIMS
 62
     0
 10
39.318196589004828
 20
152.22783558099789
 30
0.0
 40
2.799999999999998
  1
(10)
 50
90.0
 41
0.8
  0
POINT
  5
255E
  8
DEFPOINTS
 62
     0
 10
74.480102949142463
 20
160.0278355809979
 30
0.0
  0
POINT
  5
255F
  8
DEFPOINTS
 62
     0
 10
60.980102949142463
 20
150.0278355809979
 30
0.0
  0
POINT
  5
2560
  8
DEFPOINTS
 62
     0
 10
39.818196589004849
 20
150.0278355809979
 30
0.0
  0
ENDBLK
  5
24BD
  8
0
 62
     4
  0
BLOCK
  8
0
 62
     4
  2
*D10
 70
     1
 10
0.0
 20
0.0
 30
0.0
  3
*D10
  1

  0
LINE
  5
254F
  8
1_ALL_DRAFT_DIMS
 62
     0
 10
60.480102949142463
 20
150.0278355809979
 30
0.0
 11
38.818196589004849
 21
150.0278355809979
 31
0.0
  0
LINE
  5
2550
  8
1_ALL_DRAFT_DIMS
 62
     0
 10
60.480102949142463
 20
90.02783558099793
 30
0.0
 11
38.818196589004842
 21
90.02783558099793
 31
0.0
  0
LINE
  5
2551
  8
1_ALL_DRAFT_DIMS
 62
     0
 10
39.818196589004849
 20
148.0278355809979
 30
0.0
 11
39.818196589004842
 21
92.027835580997944
 31
0.0
  0
INSERT
  5
2552
  8
1_ALL_DRAFT_DIMS
 62
     0
  2
_OPEN30
 10
39.818196589004849
 20
150.0278355809979
 30
0.0
 41
2.0
 42
2.0
 43
2.0
 50
90.0
  0
INSERT
  5
2553
  8
1_ALL_DRAFT_DIMS
 62
     0
  2
_OPEN30
 10
39.818196589004842
 20
90.02783558099793
 30
0.0
 41
2.0
 42
2.0
 43
2.0
 50
270.0
  0
TEXT
  5
2554
  8
1_ALL_DRAFT_DIMS
 62
     0
 10
39.318196589004828
 20
118.3478355809979
 30
0.0
 40
2.799999999999998
  1
60
 50
90.0
 41
0.8
  0
POINT
  5
2555
  8
DEFPOINTS
 62
     0
 10
60.980102949142463
 20
150.0278355809979
 30
0.0
  0
POINT
  5
2556
  8
DEFPOINTS
 62
     0
 10
60.980102949142463
 20
90.02783558099793
 30
0.0
  0
POINT
  5
2557
  8
DEFPOINTS
 62
     0
 10
39.818196589004842
 20
90.02783558099793
 30
0.0
  0
ENDBLK
  5
24D4
  8
0
 62
     4
  0
BLOCK
  8
0
 62
     4
  2
*D11
 70
     1
 10
0.0
 20
0.0
 30
0.0
  3
*D11
  1

  0
LINE
  5
2546
  8
1_ALL_DRAFT_DIMS
 62
     0
 10
107.98010294914241
 20
160.0278355809979
 30
0.0
 11
141.73312985520121
 21
160.0278355809979
 31
0.0
  0
LINE
  5
2547
  8
1_ALL_DRAFT_DIMS
 62
     0
 10
134.8415806776008
 20
120.0278355809979
 30
0.0
 11
141.73312985520121
 21
120.0278355809979
 31
0.0
  0
LINE
  5
2548
  8
1_ALL_DRAFT_DIMS
 62
     0
 10
140.73312985520121
 20
158.0278355809979
 30
0.0
 11
140.73312985520121
 21
122.0278355809979
 31
0.0
  0
INSERT
  5
2549
  8
1_ALL_DRAFT_DIMS
 62
     0
  2
_OPEN30
 10
140.73312985520121
 20
160.0278355809979
 30
0.0
 41
2.0
 42
2.0
 43
2.0
 50
90.0
  0
INSERT
  5
254A
  8
1_ALL_DRAFT_DIMS
 62
     0
  2
_OPEN30
 10
140.73312985520121
 20
120.0278355809979
 30
0.0
 41
2.0
 42
2.0
 43
2.0
 50
270.0
  0
TEXT
  5
254B
  8
1_ALL_DRAFT_DIMS
 62
     0
 10
140.23312985520121
 20
138.3478355809979
 30
0.0
 40
2.799999999999998
  1
40
 50
90.0
 41
0.8
  0
POINT
  5
254C
  8
DEFPOINTS
 62
     0
 10
107.48010294914241
 20
160.0278355809979
 30
0.0
  0
POINT
  5
254D
  8
DEFPOINTS
 62
     0
 10
134.3415806776008
 20
120.0278355809979
 30
0.0
  0
POINT
  5
254E
  8
DEFPOINTS
 62
     0
 10
140.73312985520121
 20
120.0278355809979
 30
0.0
  0
ENDBLK
  5
24F4
  8
0
 62
     4
  0
BLOCK
  8
0
 62
     4
  2
*D12
 70
     1
 10
0.0
 20
0.0
 30
0.0
  3
*D12
  1

  0
LINE
  5
2561
  8
1_ALL_DRAFT_DIMS
 62
     0
 10
155.23034794914241
 20
236.98570358099789
 30
0.0
 11
155.23034794914241
 21
276.90338080734699
 31
0.0
  0
LINE
  5
2562
  8
1_ALL_DRAFT_DIMS
 62
     0
 10
282.17501832472311
 20
251.86544869175219
 30
0.0
 11
282.17501832472311
 21
276.90338080734699
 31
0.0
  0
LINE
  5
2563
  8
1_ALL_DRAFT_DIMS
 62
     0
 10
157.23034794914241
 20
275.90338080734699
 30
0.0
 11
280.17501832472311
 21
275.90338080734699
 31
0.0
  0
INSERT
  5
2564
  8
1_ALL_DRAFT_DIMS
 62
     0
  2
_OPEN30
 10
155.23034794914241
 20
275.90338080734699
 30
0.0
 41
2.0
 42
2.0
 43
2.0
 50
180.0
  0
INSERT
  5
2565
  8
1_ALL_DRAFT_DIMS
 62
     0
  2
_OPEN30
 10
282.17501832472311
 20
275.90338080734699
 30
0.0
 41
2.0
 42
2.0
 43
2.0
  0
TEXT
  5
2566
  8
1_ALL_DRAFT_DIMS
 62
     0
 10
216.08934980359939
 20
276.40338080734699
 30
0.0
 40
2.799999999999998
  1
128
 41
0.8
  0
POINT
  5
2567
  8
DEFPOINTS
 62
     0
 10
155.23034794914241
 20
236.48570358099789
 30
0.0
  0
POINT
  5
2568
  8
DEFPOINTS
 62
     0
 10
282.17501832472311
 20
251.36544869175219
 30
0.0
  0
POINT
  5
2569
  8
DEFPOINTS
 62
     0
 10
282.17501832472311
 20
275.90338080734699
 30
0.0
  0
ENDBLK
  5
2514
  8
0
 62
     4
  0
ENDSEC
  0
SECTION
  2
ENTITIES
  0
TEXT
  5
7CC
  8
0
  6
CONTINUOUS
 62
     2
 10
405.27999999999992
 20
19.0
 30
0.0
 40
3.0
  1
 
 41
0.8
 72
     1
 11
406.0
 21
19.0
 31
0.0
  0
TEXT
  5
7CF
  8
0
  6
CONTINUOUS
 62
     2
 10
405.27999999999992
 20
12.0
 30
0.0
 40
3.0
  1
 
 41
0.8
 72
     1
 11
406.0
 21
12.0
 31
0.0
  0
LINE
  5
F28
  8
0
 10
408.58873742581261
 20
73.589936645408315
 30
0.0
 11
328.58873742581261
 21
73.589936645408315
 31
0.0
  0
LINE
  5
F29
  8
0
 10
408.58873742581261
 20
65.589936645408329
 30
0.0
 11
328.58873742581261
 21
65.589936645408329
 31
0.0
  0
LINE
  5
F2A
  8
0
 10
408.58873742581261
 20
57.589936645408322
 30
0.0
 11
328.58873742581261
 21
57.589936645408322
 31
0.0
  0
LINE
  5
F2B
  8
0
 10
328.58873742581261
 20
73.589936645408315
 30
0.0
 11
328.58873742581261
 21
57.589936645408322
 31
0.0
  0
TEXT
  5
F2C
  8
0
 10
334.52402742581262
 20
59.261622645408323
 30
0.0
 40
4.0
  1
型名
  7
STANDARD1
  0
TEXT
  5
F2D
  8
0
 10
334.52402742581262
 20
67.261622645408309
 30
0.0
 40
4.0
  1
品名
  7
STANDARD1
  0
TEXT
  5
F2E
  8
0
 10
350.52402742581262
 20
59.261622645408323
 30
0.0
 40
4.0
  1
CIT-8510M
  7
STANDARD1
  0
TEXT
  5
F2F
  8
0
 10
350.52402742581262
 20
67.261622645408309
 30
0.0
 40
4.0
  1
カラーカメラ
  7
STANDARD1
  0
LINE
  5
F30
  8
0
 10
348.58873742581261
 20
73.589936645408315
 30
0.0
 11
348.58873742581261
 21
57.589936645408322
 31
0.0
  0
LINE
  5
F31
  8
0
 10
408.58873742581261
 20
73.589936645408315
 30
0.0
 11
408.58873742581261
 21
57.589936645408322
 31
0.0
  0
CIRCLE
  5
1E1A
  8
0
  6
CONTINUOUS
 10
212.23034794914241
 20
220.98570358099781
 30
0.0
 40
4.5
  0
LINE
  5
1E1B
  8
0
  6
CONTINUOUS
 10
179.23034794914241
 20
255.98570358099789
 30
0.0
 11
277.18945994914242
 21
255.98570358099789
 31
0.0
  0
LINE
  5
1E1C
  8
0
  6
CONTINUOUS
 10
176.73034794914241
 20
238.48570358099781
 30
0.0
 11
224.73034794914241
 21
238.48570358099781
 31
0.0
  0
LINE
  5
1E1D
  8
DEFAULT_1
  6
CENTER
 10
212.23034794914241
 20
220.98570358099781
 30
0.0
 11
207.73034794914241
 21
220.98570358099781
 31
0.0
  0
LINE
  5
1E1E
  8
0
  6
CONTINUOUS
 10
176.73034794914241
 20
203.48570358099789
 30
0.0
 11
224.73034794914241
 21
203.48570358099789
 31
0.0
  0
LINE
  5
1E1F
  8
0
  6
CONTINUOUS
 10
179.23034794914241
 20
185.98570358099781
 30
0.0
 11
277.18945994914242
 21
185.98570358099781
 31
0.0
  0
LINE
  5
1E20
  8
0
  6
CONTINUOUS
 10
176.73034794914241
 20
160.0278355809979
 30
0.0
 11
224.73034794914241
 21
160.0278355809979
 31
0.0
  0
LINE
  5
1E21
  8
0
  6
CONTINUOUS
 10
175.73034794914241
 20
150.0278355809979
 30
0.0
 11
278.31217394914239
 21
150.0278355809979
 31
0.0
  0
LINE
  5
1E22
  8
7_ALL_FEATURES
  6
CONTINUOUS
 10
207.73034794914241
 20
138.93421858099791
 30
0.0
 11
209.59701494914239
 21
138.93421858099791
 31
0.0
  0
LINE
  5
1E23
  8
7_ALL_FEATURES
  6
CONTINUOUS
 10
209.59701494914239
 20
138.5257085809979
 30
0.0
 11
207.73034794914241
 21
138.5257085809979
 31
0.0
  0
LINE
  5
1E24
  8
0
  6
CONTINUOUS
 10
179.23034794914241
 20
90.02783558099793
 30
0.0
 11
278.31217394914239
 21
90.02783558099793
 31
0.0
  0
LINE
  5
1E25
  8
2_ALL_NOTES
  6
CONTINUOUS
 10
183.07150994914241
 20
217.84644458099791
 30
0.0
 11
221.54469194914239
 21
169.1077785809978
 31
0.0
  0
LINE
  5
1E2C
  8
0
  6
CONTINUOUS
 10
108.48010294914241
 20
150.0278355809979
 30
0.0
 11
108.48010294914241
 21
159.0278355809979
 31
0.0
  0
LINE
  5
1E2D
  8
DEFAULT_1
  6
CENTER
 10
90.980102949142463
 20
138.0278355809979
 30
0.0
 11
90.980102949142463
 21
166.08093358099791
 31
0.0
  0
LINE
  5
1E2E
  8
0
  6
CONTINUOUS
 10
73.480102949142463
 20
150.0278355809979
 30
0.0
 11
73.480102949142463
 21
159.0278355809979
 31
0.0
  0
LINE
  5
1E2F
  8
0
  6
CONTINUOUS
 10
189.5303479491424
 20
159.0278355809979
 30
0.0
 11
189.5303479491424
 21
153.0278355809979
 31
0.0
  0
LINE
  5
1E30
  8
0
  6
CONTINUOUS
 10
181.5303479491424
 20
153.0278355809979
 30
0.0
 11
181.5303479491424
 21
159.0278355809979
 31
0.0
  0
LINE
  5
1E31
  8
0
  6
CONTINUOUS
 10
175.73034794914241
 20
150.0278355809979
 30
0.0
 11
175.73034794914241
 21
159.0278355809979
 31
0.0
  0
CIRCLE
  5
1E32
  8
0
  6
CONTINUOUS
 10
90.980102949142463
 20
120.0278355809979
 30
0.0
 40
15.5
  0
ARC
  5
1E33
  8
0
  6
CONTINUOUS
 10
90.980102949142463
 20
120.0278355809979
 30
0.0
 40
14.5
 50
63.954571999999573
 51
176.04542799999999
  0
ARC
  5
1E34
  8
0
  6
CONTINUOUS
 10
90.980102949142463
 20
120.0278355809979
 30
0.0
 40
14.5
 50
183.9545719999999
 51
296.0454280000003
  0
ARC
  5
1E35
  8
0
  6
CONTINUOUS
 10
77.480102949142463
 20
98.527835580997944
 30
0.0
 40
9.8868600000000004
 50
267.10119099999997
 51
272.89880899999991
  0
LINE
  5
1E36
  8
0
  6
CONTINUOUS
 10
60.980102949142463
 20
150.0278355809979
 30
0.0
 11
120.98010294914241
 21
150.0278355809979
 31
0.0
  0
LINE
  5
1E38
  8
0
  6
CONTINUOUS
 10
120.98010294914241
 20
90.02783558099793
 30
0.0
 11
60.980102949142463
 21
90.02783558099793
 31
0.0
  0
LINE
  5
1E39
  8
0
  6
CONTINUOUS
 10
80.027737949142477
 20
88.857801580997943
 30
0.0
 11
74.932466949142452
 21
88.857801580997943
 31
0.0
  0
LINE
  5
1E3B
  8
0
  6
CONTINUOUS
 10
55.980102949142463
 20
95.02783558099793
 30
0.0
 11
55.980102949142463
 21
145.0278355809979
 31
0.0
  0
ARC
  5
1E3E
  8
0
  6
CONTINUOUS
 10
77.480102949142463
 20
98.527835580997944
 30
0.0
 40
9.9874919999999996
 50
261.36218700000029
 51
267.130424
  0
LINE
  5
1E3F
  8
0
  6
CONTINUOUS
 10
76.980102949142463
 20
88.55286758099794
 30
0.0
 11
76.980102949142463
 21
88.653626580997923
 31
0.0
  0
ARC
  5
1E40
  8
0
  6
CONTINUOUS
 10
60.980102949142463
 20
95.02783558099793
 30
0.0
 40
5.0
 50
180.0
 51
270.0
  0
LINE
  5
1E41
  8
0
  6
CONTINUOUS
 10
75.980102949142463
 20
88.640975580997903
 30
0.0
 11
75.980102949142463
 21
88.653626580997923
 31
0.0
  0
LINE
  5
1E42
  8
0
  6
CONTINUOUS
 10
74.932466949142452
 20
88.857801580997943
 30
0.0
 11
74.830102949142486
 21
90.02783558099793
 31
0.0
  0
LINE
  5
1E43
  8
0
  6
CONTINUOUS
 10
75.980102949142463
 20
88.640975580997903
 30
0.0
 11
74.932466949142452
 21
88.857801580997943
 31
0.0
  0
LINE
  5
1E4E
  8
DEFAULT_1
  6
CENTER
 10
134.3415806776008
 20
120.0278355809979
 30
0.0
 11
47.558635949142449
 21
120.0278355809979
 31
0.0
  0
LINE
  5
1E4F
  8
0
  6
CONTINUOUS
 10
76.980102949142463
 20
121.0278355809979
 30
0.0
 11
76.514625949142442
 21
121.0278355809979
 31
0.0
  0
LINE
  5
1E50
  8
0
  6
CONTINUOUS
 10
76.514625949142442
 20
119.0278355809979
 30
0.0
 11
76.980102949142463
 21
119.0278355809979
 31
0.0
  0
LINE
  5
1E51
  8
0
  6
CONTINUOUS
 10
76.980102949142463
 20
119.0278355809979
 30
0.0
 11
76.980102949142463
 21
121.0278355809979
 31
0.0
  0
ARC
  5
1E52
  8
0
  6
CONTINUOUS
 10
60.980102949142463
 20
145.0278355809979
 30
0.0
 40
5.0
 50
90.0
 51
180.0
  0
LINE
  5
1E53
  8
0
  6
CONTINUOUS
 10
65.980102949142463
 20
150.1278355809979
 30
0.0
 11
73.480102949142463
 21
150.1278355809979
 31
0.0
  0
LINE
  5
1E54
  8
0
  6
CONTINUOUS
 10
65.980102949142463
 20
150.0278355809979
 30
0.0
 11
65.980102949142463
 21
150.1278355809979
 31
0.0
  0
ARC
  5
1E57
  8
0
  6
CONTINUOUS
 10
114.98010294914241
 20
114.0278355809979
 30
0.0
 40
8.0
 50
90.0
 51
270.0
  0
CIRCLE
  5
1E58
  8
0
  6
CONTINUOUS
 10
90.980102949142463
 20
120.0278355809979
 30
0.0
 40
12.25
  0
CIRCLE
  5
1E59
  8
0
  6
CONTINUOUS
 10
90.980102949142463
 20
120.0278355809979
 30
0.0
 40
12.75
  0
ARC
  5
1E5A
  8
0
  6
CONTINUOUS
 10
90.980102949142463
 20
120.0278355809979
 30
0.0
 40
14.5
 50
303.95457200000038
 51
56.045427999999532
  0
CIRCLE
  5
1E5B
  8
0
  6
CONTINUOUS
 10
114.98010294914241
 20
114.0278355809979
 30
0.0
 40
7.2000000000000002
  0
ARC
  5
1E5C
  8
0
  6
CONTINUOUS
 10
114.98010294914241
 20
114.0278355809979
 30
0.0
 40
6.75
 50
188.51962399999991
 51
171.48037600000009
  0
ARC
  5
1E5D
  8
0
  6
CONTINUOUS
 10
114.98010294914241
 20
114.0278355809979
 30
0.0
 40
5.75
 50
190.01541000000009
 51
169.9845899999998
  0
CIRCLE
  5
1E5E
  8
0
  6
CONTINUOUS
 10
114.98010294914241
 20
114.0278355809979
 30
0.0
 40
7.5
  0
LINE
  5
1E5F
  8
0
  6
CONTINUOUS
 10
125.98010294914241
 20
145.0278355809979
 30
0.0
 11
125.98010294914241
 21
95.02783558099793
 31
0.0
  0
LINE
  5
1E60
  8
0
  6
CONTINUOUS
 10
122.5628949491424
 20
123.0278355809979
 30
0.0
 11
122.5628949491424
 21
105.0278355809979
 31
0.0
  0
ARC
  5
1E62
  8
0
  6
CONTINUOUS
 10
104.48010294914241
 20
98.527835580997944
 30
0.0
 40
9.9874919999999996
 50
261.36218700000029
 51
267.130424
  0
ARC
  5
1E63
  8
0
  6
CONTINUOUS
 10
104.48010294914241
 20
98.527835580997944
 30
0.0
 40
9.9874919999999996
 50
272.86957599999988
 51
278.6378129999996
  0
ARC
  5
1E64
  8
0
  6
CONTINUOUS
 10
77.480102949142463
 20
98.527835580997944
 30
0.0
 40
9.9874919999999996
 50
272.86957599999988
 51
278.6378129999996
  0
LINE
  5
1E65
  8
0
  6
CONTINUOUS
 10
104.98010294914241
 20
88.653626580997923
 30
0.0
 11
104.98010294914241
 21
88.55286758099794
 31
0.0
  0
LINE
  5
1E66
  8
0
  6
CONTINUOUS
 10
103.98010294914241
 20
88.55286758099794
 30
0.0
 11
103.98010294914241
 21
88.653626580997923
 31
0.0
  0
LINE
  5
1E67
  8
0
  6
CONTINUOUS
 10
77.980102949142463
 20
88.653626580997923
 30
0.0
 11
77.980102949142463
 21
88.55286758099794
 31
0.0
  0
LINE
  5
1E68
  8
0
  6
CONTINUOUS
 10
101.0801029491424
 20
91.462856580997936
 30
0.0
 11
80.880102949142497
 21
91.462856580997936
 31
0.0
  0
LINE
  5
1E69
  8
0
  6
CONTINUOUS
 10
96.080102949142486
 20
91.179930580997933
 30
0.0
 11
85.880102949142497
 21
91.179930580997933
 31
0.0
  0
LINE
  5
1E6A
  8
0
  6
CONTINUOUS
 10
85.880102949142497
 20
91.027835580997916
 30
0.0
 11
96.080102949142486
 21
91.027835580997916
 31
0.0
  0
LINE
  5
1E6B
  8
0
  6
CONTINUOUS
 10
101.0801029491424
 20
90.827835580997942
 30
0.0
 11
80.880102949142497
 21
90.827835580997942
 31
0.0
  0
LINE
  5
1E6C
  8
0
  6
CONTINUOUS
 10
85.880102949142497
 20
90.84571258099794
 30
0.0
 11
80.880102949142497
 21
90.84571258099794
 31
0.0
  0
LINE
  5
1E6D
  8
0
  6
CONTINUOUS
 10
80.027737949142477
 20
88.857801580997943
 30
0.0
 11
80.130102949142497
 21
90.02783558099793
 31
0.0
  0
LINE
  5
1E6E
  8
0
  6
CONTINUOUS
 10
80.880102949142497
 20
90.02783558099793
 30
0.0
 11
80.880102949142497
 21
91.462856580997936
 31
0.0
  0
LINE
  5
1E6F
  8
0
  6
CONTINUOUS
 10
78.980102949142463
 20
88.653626580997923
 30
0.0
 11
78.980102949142463
 21
88.640975580997903
 31
0.0
  0
LINE
  5
1E70
  8
0
  6
CONTINUOUS
 10
78.980102949142463
 20
88.640975580997903
 30
0.0
 11
80.027737949142477
 21
88.857801580997943
 31
0.0
  0
LINE
  5
1E71
  8
0
  6
CONTINUOUS
 10
85.880102949142497
 20
91.179930580997933
 30
0.0
 11
85.880102949142497
 21
90.84571258099794
 31
0.0
  0
LINE
  5
1E72
  8
0
  6
CONTINUOUS
 10
84.980102949142463
 20
90.827835580997942
 30
0.0
 11
84.980102949142463
 21
90.84571258099794
 31
0.0
  0
LINE
  5
1E73
  8
0
  6
CONTINUOUS
 10
87.056149949142466
 20
91.179930580997933
 30
0.0
 11
86.980102949142449
 21
91.027835580997916
 31
0.0
  0
LINE
  5
1E74
  8
0
  6
CONTINUOUS
 10
86.980102949142449
 20
90.827835580997942
 30
0.0
 11
86.980102949142449
 21
91.027835580997916
 31
0.0
  0
LINE
  5
1E75
  8
0
  6
CONTINUOUS
 10
102.98010294914241
 20
88.640975580997903
 30
0.0
 11
101.93246694914239
 21
88.857801580997943
 31
0.0
  0
LINE
  5
1E76
  8
0
  6
CONTINUOUS
 10
107.02773794914241
 20
88.857801580997943
 30
0.0
 11
101.93246694914239
 21
88.857801580997943
 31
0.0
  0
LINE
  5
1E77
  8
0
  6
CONTINUOUS
 10
101.0801029491424
 20
90.84571258099794
 30
0.0
 11
96.080102949142486
 21
90.84571258099794
 31
0.0
  0
LINE
  5
1E78
  8
0
  6
CONTINUOUS
 10
96.080102949142486
 20
91.179930580997933
 30
0.0
 11
96.080102949142486
 21
90.84571258099794
 31
0.0
  0
LINE
  5
1E79
  8
0
  6
CONTINUOUS
 10
94.980102949142463
 20
90.827835580997942
 30
0.0
 11
94.980102949142463
 21
91.027835580997916
 31
0.0
  0
LINE
  5
1E7A
  8
0
  6
CONTINUOUS
 10
94.904054949142449
 20
91.179930580997933
 30
0.0
 11
94.980102949142463
 21
91.027835580997916
 31
0.0
  0
LINE
  5
1E7B
  8
0
  6
CONTINUOUS
 10
101.0801029491424
 20
90.02783558099793
 30
0.0
 11
101.0801029491424
 21
91.462856580997936
 31
0.0
  0
LINE
  5
1E7C
  8
0
  6
CONTINUOUS
 10
101.93246694914239
 20
88.857801580997943
 30
0.0
 11
101.8301029491424
 21
90.02783558099793
 31
0.0
  0
LINE
  5
1E7D
  8
0
  6
CONTINUOUS
 10
105.98010294914241
 20
88.640975580997903
 30
0.0
 11
107.02773794914241
 21
88.857801580997943
 31
0.0
  0
ARC
  5
1E7E
  8
0
  6
CONTINUOUS
 10
104.48010294914241
 20
98.527835580997944
 30
0.0
 40
9.8868600000000004
 50
267.10119099999997
 51
272.89880899999991
  0
LINE
  5
1E7F
  8
0
  6
CONTINUOUS
 10
105.98010294914241
 20
88.653626580997923
 30
0.0
 11
105.98010294914241
 21
88.640975580997903
 31
0.0
  0
LINE
  5
1E80
  8
0
  6
CONTINUOUS
 10
102.98010294914241
 20
88.640975580997903
 30
0.0
 11
102.98010294914241
 21
88.653626580997923
 31
0.0
  0
LINE
  5
1E81
  8
0
  6
CONTINUOUS
 10
107.02773794914241
 20
88.857801580997943
 30
0.0
 11
107.1301029491424
 21
90.02783558099793
 31
0.0
  0
LINE
  5
1E82
  8
0
  6
CONTINUOUS
 10
98.846127949142456
 20
108.40348058099789
 30
0.0
 11
97.1140769491425
 21
107.40348058099789
 31
0.0
  0
LINE
  5
1E83
  8
0
  6
CONTINUOUS
 10
97.1140769491425
 20
107.40348058099789
 30
0.0
 11
97.346814949142484
 21
107.00036558099789
 31
0.0
  0
LINE
  5
1E84
  8
0
  6
CONTINUOUS
 10
99.078865949142482
 20
108.00036558099789
 30
0.0
 11
98.846127949142456
 21
108.40348058099789
 31
0.0
  0
ARC
  5
1E85
  8
0
  6
CONTINUOUS
 10
120.98010294914241
 20
95.02783558099793
 30
0.0
 40
5.0
 50
270.0
 51
0.0
  0
LINE
  5
1E86
  8
0
  6
CONTINUOUS
 10
121.5091159491424
 20
106.0278355809979
 30
0.0
 11
114.98010294914241
 21
106.0278355809979
 31
0.0
  0
LINE
  5
1E87
  8
0
  6
CONTINUOUS
 10
121.51055894914241
 20
110.5277985809979
 30
0.0
 11
121.51055894914241
 21
106.0278345809979
 31
0.0
  0
LINE
  5
1E88
  8
0
  6
CONTINUOUS
 10
122.5329459491424
 20
105.2645485809979
 30
0.0
 11
122.5628949491424
 21
105.0278355809979
 31
0.0
  0
LINE
  5
1E89
  8
0
  6
CONTINUOUS
 10
122.4357359491424
 20
105.50404658099789
 30
0.0
 11
122.5329459491424
 21
105.2645485809979
 31
0.0
  0
LINE
  5
1E8A
  8
0
  6
CONTINUOUS
 10
122.2792189491424
 20
105.71042458099789
 30
0.0
 11
122.4357359491424
 21
105.50404658099789
 31
0.0
  0
LINE
  5
1E8B
  8
0
  6
CONTINUOUS
 10
122.06795994914251
 20
105.87563058099791
 30
0.0
 11
122.2792189491424
 21
105.71042458099789
 31
0.0
  0
LINE
  5
1E8C
  8
0
  6
CONTINUOUS
 10
121.8103289491424
 20
105.9861125809979
 30
0.0
 11
122.06795994914251
 21
105.87563058099791
 31
0.0
  0
LINE
  5
1E8D
  8
0
  6
CONTINUOUS
 10
121.51055894914241
 20
106.0278345809979
 30
0.0
 11
121.8103289491424
 21
105.9861125809979
 31
0.0
  0
LINE
  5
1E8E
  8
0
  6
CONTINUOUS
 10
110.48010294914241
 20
150.22783558099789
 30
0.0
 11
113.48010294914241
 21
150.22783558099789
 31
0.0
  0
LINE
  5
1E8F
  8
0
  6
CONTINUOUS
 10
108.48010294914241
 20
150.1278355809979
 30
0.0
 11
115.98010294914241
 21
150.1278355809979
 31
0.0
  0
LINE
  5
1E91
  8
DEFAULT_1
  6
CENTER
 10
90.980102949142463
 20
80.300117407867106
 30
0.0
 11
90.980102949142463
 21
138.0278355809979
 31
0.0
  0
LINE
  5
1E92
  8
0
  6
CONTINUOUS
 10
96.980102949142477
 20
125.5278355809979
 30
0.0
 11
84.980102949142463
 21
125.5278355809979
 31
0.0
  0
LINE
  5
1E93
  8
0
  6
CONTINUOUS
 10
84.980102949142463
 20
114.5278355809979
 30
0.0
 11
96.980102949142477
 21
114.5278355809979
 31
0.0
  0
LINE
  5
1E94
  8
0
  6
CONTINUOUS
 10
84.980102949142463
 20
125.5278355809979
 30
0.0
 11
84.980102949142463
 21
114.5278355809979
 31
0.0
  0
CIRCLE
  5
1E95
  8
0
  6
CONTINUOUS
 10
82.980102949142477
 20
127.5278355809979
 30
0.0
 40
1.1000000000000001
  0
ARC
  5
1E96
  8
5_ALL_CURVES
  6
CONTINUOUS
 10
82.980102949142477
 20
127.5278355809979
 30
0.0
 40
3.5499999999999989
 50
304.29551399999951
 51
325.7029839999999
  0
CIRCLE
  5
1E97
  8
0
  6
CONTINUOUS
 10
82.980102949142477
 20
127.5278355809979
 30
0.0
 40
0.9
  0
CIRCLE
  5
1E98
  8
0
  6
CONTINUOUS
 10
82.980102949142477
 20
127.5278355809979
 30
0.0
 40
1.0
  0
LINE
  5
1E99
  8
0
  6
CONTINUOUS
 10
96.980102949142477
 20
114.5278355809979
 30
0.0
 11
96.980102949142477
 21
125.5278355809979
 31
0.0
  0
LINE
  5
1E9A
  8
0
  6
CONTINUOUS
 10
108.3045879491424
 20
115.0278355809979
 30
0.0
 11
109.3177269491424
 21
115.0278355809979
 31
0.0
  0
LINE
  5
1E9B
  8
0
  6
CONTINUOUS
 10
109.3177269491424
 20
113.0278355809979
 30
0.0
 11
108.3045879491424
 21
113.0278355809979
 31
0.0
  0
LINE
  5
1E9C
  8
0
  6
CONTINUOUS
 10
97.1140769491425
 20
132.65219158099791
 30
0.0
 11
98.846127949142456
 21
131.65219158099791
 31
0.0
  0
LINE
  5
1E9D
  8
0
  6
CONTINUOUS
 10
97.346814949142484
 20
133.0553055809979
 30
0.0
 11
97.1140769491425
 21
132.65219158099791
 31
0.0
  0
LINE
  5
1E9E
  8
0
  6
CONTINUOUS
 10
98.846127949142456
 20
131.65219158099791
 30
0.0
 11
99.078865949142482
 21
132.0553055809979
 31
0.0
  0
LINE
  5
1E9F
  8
0
  6
CONTINUOUS
 10
80.880102949142497
 20
149.22783558099789
 30
0.0
 11
101.0801029491424
 21
149.22783558099789
 31
0.0
  0
LINE
  5
1EA0
  8
0
  6
CONTINUOUS
 10
96.080102949142486
 20
148.8757415809979
 30
0.0
 11
85.880102949142497
 21
148.8757415809979
 31
0.0
  0
LINE
  5
1EA1
  8
0
  6
CONTINUOUS
 10
101.0801029491424
 20
148.5928145809979
 30
0.0
 11
80.880102949142497
 21
148.5928145809979
 31
0.0
  0
LINE
  5
1EA2
  8
0
  6
CONTINUOUS
 10
86.980102949142449
 20
149.0278355809979
 30
0.0
 11
85.880102949142497
 21
149.0278355809979
 31
0.0
  0
LINE
  5
1EA3
  8
0
  6
CONTINUOUS
 10
85.880102949142497
 20
149.20995858099789
 30
0.0
 11
80.880102949142497
 21
149.20995858099789
 31
0.0
  0
LINE
  5
1EA4
  8
0
  6
CONTINUOUS
 10
80.880102949142497
 20
150.0278355809979
 30
0.0
 11
80.880102949142497
 21
148.5928145809979
 31
0.0
  0
LINE
  5
1EA5
  8
0
  6
CONTINUOUS
 10
85.880102949142497
 20
148.8757415809979
 30
0.0
 11
85.880102949142497
 21
149.20995858099789
 31
0.0
  0
LINE
  5
1EA6
  8
0
  6
CONTINUOUS
 10
86.980102949142449
 20
148.8757415809979
 30
0.0
 11
86.980102949142449
 21
149.22783558099789
 31
0.0
  0
LINE
  5
1EA7
  8
0
  6
CONTINUOUS
 10
101.0801029491424
 20
149.20995858099789
 30
0.0
 11
96.080102949142486
 21
149.20995858099789
 31
0.0
  0
LINE
  5
1EA8
  8
0
  6
CONTINUOUS
 10
96.080102949142486
 20
149.0278355809979
 30
0.0
 11
95.780102949142474
 21
149.0278355809979
 31
0.0
  0
LINE
  5
1EA9
  8
0
  6
CONTINUOUS
 10
96.980102949142477
 20
149.22783558099789
 30
0.0
 11
96.980102949142477
 21
149.20995858099789
 31
0.0
  0
LINE
  5
1EAA
  8
0
  6
CONTINUOUS
 10
96.080102949142486
 20
148.8757415809979
 30
0.0
 11
96.080102949142486
 21
149.20995858099789
 31
0.0
  0
LINE
  5
1EAB
  8
0
  6
CONTINUOUS
 10
95.780102949142474
 20
149.22783558099789
 30
0.0
 11
95.780102949142474
 21
148.8757415809979
 31
0.0
  0
LINE
  5
1EAC
  8
0
  6
CONTINUOUS
 10
101.0801029491424
 20
148.5928145809979
 30
0.0
 11
101.0801029491424
 21
150.0278355809979
 31
0.0
  0
LINE
  5
1EAD
  8
0
  6
CONTINUOUS
 10
110.48010294914241
 20
150.1278355809979
 30
0.0
 11
110.48010294914241
 21
150.22783558099789
 31
0.0
  0
LINE
  5
1EAE
  8
0
  6
CONTINUOUS
 10
109.98010294914241
 20
150.1278355809979
 30
0.0
 11
109.98010294914241
 21
150.22783558099789
 31
0.0
  0
LINE
  5
1EAF
  8
0
  6
CONTINUOUS
 10
109.60510294914241
 20
150.1278355809979
 30
0.0
 11
109.60510294914241
 21
150.22783558099789
 31
0.0
  0
LINE
  5
1EB0
  8
0
  6
CONTINUOUS
 10
109.60510294914241
 20
150.22783558099789
 30
0.0
 11
109.98010294914241
 21
150.22783558099789
 31
0.0
  0
LINE
  5
1EB1
  8
0
  6
CONTINUOUS
 10
108.48010294914241
 20
150.22783558099789
 30
0.0
 11
109.10510194914239
 21
150.22783558099789
 31
0.0
  0
LINE
  5
1EB2
  8
0
  6
CONTINUOUS
 10
109.10510194914239
 20
150.1278355809979
 30
0.0
 11
109.10510194914239
 21
150.22783558099789
 31
0.0
  0
LINE
  5
1EB3
  8
0
  6
CONTINUOUS
 10
114.98010294914241
 20
122.0278355809979
 30
0.0
 11
121.5091159491424
 21
122.0278355809979
 31
0.0
  0
LINE
  5
1EB4
  8
0
  6
CONTINUOUS
 10
121.51055894914241
 20
122.0278365809979
 30
0.0
 11
121.51055894914241
 21
117.52787258099789
 31
0.0
  0
LINE
  5
1EB5
  8
0
  6
CONTINUOUS
 10
121.8103289491424
 20
122.06955858099791
 30
0.0
 11
121.51055894914241
 21
122.0278365809979
 31
0.0
  0
LINE
  5
1EB6
  8
0
  6
CONTINUOUS
 10
122.06795994914251
 20
122.18004158099789
 30
0.0
 11
121.8103289491424
 21
122.06955858099791
 31
0.0
  0
LINE
  5
1EB7
  8
0
  6
CONTINUOUS
 10
122.2792189491424
 20
122.34524658099789
 30
0.0
 11
122.06795994914251
 21
122.18004158099789
 31
0.0
  0
LINE
  5
1EB8
  8
0
  6
CONTINUOUS
 10
122.4357359491424
 20
122.55162558099789
 30
0.0
 11
122.2792189491424
 21
122.34524658099789
 31
0.0
  0
LINE
  5
1EB9
  8
0
  6
CONTINUOUS
 10
122.5329459491424
 20
122.79112258099789
 30
0.0
 11
122.4357359491424
 21
122.55162558099789
 31
0.0
  0
LINE
  5
1EBA
  8
0
  6
CONTINUOUS
 10
122.5628949491424
 20
123.0278355809979
 30
0.0
 11
122.5329459491424
 21
122.79112258099789
 31
0.0
  0
ARC
  5
1EBB
  8
0
  6
CONTINUOUS
 10
120.98010294914241
 20
145.0278355809979
 30
0.0
 40
5.0
 50
0.0
 51
90.0
  0
LINE
  5
1EBC
  8
0
  6
CONTINUOUS
 10
113.48010294914241
 20
150.1278355809979
 30
0.0
 11
113.48010294914241
 21
150.22783558099789
 31
0.0
  0
LINE
  5
1EBD
  8
0
  6
CONTINUOUS
 10
112.91760294914241
 20
150.1278355809979
 30
0.0
 11
112.91760294914241
 21
150.22783558099789
 31
0.0
  0
LINE
  5
1EBE
  8
0
  6
CONTINUOUS
 10
111.98010294914241
 20
150.1278355809979
 30
0.0
 11
111.98010294914241
 21
150.22783558099789
 31
0.0
  0
LINE
  5
1EBF
  8
0
  6
CONTINUOUS
 10
111.04260294914241
 20
150.1278355809979
 30
0.0
 11
111.04260294914241
 21
150.22783558099789
 31
0.0
  0
LINE
  5
1EC0
  8
0
  6
CONTINUOUS
 10
115.98010294914241
 20
150.0278355809979
 30
0.0
 11
115.98010294914241
 21
150.1278355809979
 31
0.0
  0
LINE
  5
1EC2
  8
0
  6
CONTINUOUS
 10
181.73034794914241
 20
90.02783558099793
 30
0.0
 11
181.73034794914241
 21
150.0278355809979
 31
0.0
  0
LINE
  5
1EC3
  8
0
  6
CONTINUOUS
 10
178.23034794914241
 20
91.027835580997916
 30
0.0
 11
178.23034794914241
 21
149.0278355809979
 31
0.0
  0
LINE
  5
1EC4
  8
0
  6
CONTINUOUS
 10
160.7289779491424
 20
123.0278355809979
 30
0.0
 11
160.7289779491424
 21
105.0278355809979
 31
0.0
  0
LINE
  5
1EC5
  8
0
  6
CONTINUOUS
 10
159.73034794914241
 20
122.0278365809979
 30
0.0
 11
159.73034794914241
 21
106.0278345809979
 31
0.0
  0
LINE
  5
1EC6
  8
0
  6
CONTINUOUS
 10
159.4302259491424
 20
121.5278355809979
 30
0.0
 11
159.4302259491424
 21
106.5278355809979
 31
0.0
  0
LINE
  5
1EC7
  8
0
  6
CONTINUOUS
 10
156.0302259491425
 20
121.5278355809979
 30
0.0
 11
156.0302259491425
 21
106.5278355809979
 31
0.0
  0
LINE
  5
1EC8
  8
0
  6
CONTINUOUS
 10
155.73022594914241
 20
106.8303155809979
 30
0.0
 11
155.73034794914241
 21
143.5017665809979
 31
0.0
  0
LINE
  5
1EC9
  8
0
  6
CONTINUOUS
 10
155.23034794914241
 20
104.5281065809979
 30
0.0
 11
155.23034794914241
 21
135.5275645809979
 31
0.0
  0
LINE
  5
1ECA
  8
0
  6
CONTINUOUS
 10
158.57333994914239
 20
93.558015580997932
 30
0.0
 11
177.7565159491424
 21
92.552668580997917
 31
0.0
  0
LINE
  5
1ECB
  8
0
  6
CONTINUOUS
 10
159.73034794914241
 20
106.0278345809979
 30
0.0
 11
160.01481894914241
 21
105.9861125809979
 31
0.0
  0
LINE
  5
1ECC
  8
0
  6
CONTINUOUS
 10
155.73034794914241
 20
96.553904580997951
 30
0.0
 11
155.73034794914241
 21
106.8278355809979
 31
0.0
  0
ARC
  5
1ECD
  8
0
  6
CONTINUOUS
 10
158.73034794914241
 20
96.553904580997951
 30
0.0
 40
3.0
 50
180.0
 51
267.0
  0
ARC
  5
1ECE
  8
0
  6
CONTINUOUS
 10
156.73034794914241
 20
105.0278355809979
 30
0.0
 40
1.0
 50
90.0
 51
180.0
  0
ARC
  5
1ECF
  8
0
  6
CONTINUOUS
 10
155.23034794914241
 20
104.0278355809979
 30
0.0
 40
0.5
 50
0.0
 51
90.0
  0
LINE
  5
1ED0
  8
0
  6
CONTINUOUS
 10
159.73034794914241
 20
106.0278355809979
 30
0.0
 11
156.73034794914241
 21
106.0278355809979
 31
0.0
  0
LINE
  5
1ED1
  8
0
  6
CONTINUOUS
 10
155.73022594914241
 20
106.8278355809979
 30
0.0
 11
156.0302259491425
 21
106.5278355809979
 31
0.0
  0
LINE
  5
1ED2
  8
0
  6
CONTINUOUS
 10
159.73022594914241
 20
110.5278355809979
 30
0.0
 11
159.4302259491424
 21
110.5278355809979
 31
0.0
  0
LINE
  5
1ED3
  8
0
  6
CONTINUOUS
 10
156.0302259491425
 20
106.5278355809979
 30
0.0
 11
159.4302259491424
 21
106.5278355809979
 31
0.0
  0
LINE
  5
1ED4
  8
0
  6
CONTINUOUS
 10
160.7005569491424
 20
105.2645485809979
 30
0.0
 11
160.7289779491424
 21
105.0278355809979
 31
0.0
  0
LINE
  5
1ED5
  8
0
  6
CONTINUOUS
 10
160.6083089491425
 20
105.50404658099789
 30
0.0
 11
160.7005569491424
 21
105.2645485809979
 31
0.0
  0
LINE
  5
1ED6
  8
0
  6
CONTINUOUS
 10
160.45977994914239
 20
105.71042458099789
 30
0.0
 11
160.6083089491425
 21
105.50404658099789
 31
0.0
  0
LINE
  5
1ED7
  8
0
  6
CONTINUOUS
 10
160.25930294914241
 20
105.87563058099791
 30
0.0
 11
160.45977994914239
 21
105.71042458099789
 31
0.0
  0
LINE
  5
1ED8
  8
0
  6
CONTINUOUS
 10
160.01481894914241
 20
105.9861125809979
 30
0.0
 11
160.25930294914241
 21
105.87563058099791
 31
0.0
  0
ARC
  5
1ED9
  8
0
  6
CONTINUOUS
 10
185.5303479491424
 20
98.527835580997944
 30
0.0
 40
9.9874919999999996
 50
261.36218700000029
 51
267.130424
  0
ARC
  5
1EDA
  8
0
  6
CONTINUOUS
 10
185.5303479491424
 20
98.527835580997944
 30
0.0
 40
9.9874919999999996
 50
272.86957599999988
 51
278.6378129999996
  0
LINE
  5
1EDB
  8
0
  6
CONTINUOUS
 10
186.0303479491424
 20
88.653626580997923
 30
0.0
 11
186.0303479491424
 21
88.55286758099794
 31
0.0
  0
LINE
  5
1EDC
  8
0
  6
CONTINUOUS
 10
185.0303479491424
 20
88.55286758099794
 30
0.0
 11
185.0303479491424
 21
88.653626580997923
 31
0.0
  0
LINE
  5
1EDD
  8
0
  6
CONTINUOUS
 10
182.98271294914241
 20
88.857801580997943
 30
0.0
 11
188.07798394914241
 21
88.857801580997943
 31
0.0
  0
ARC
  5
1EDE
  8
0
  6
CONTINUOUS
 10
177.73034794914241
 20
92.053353580997936
 30
0.0
 40
0.5
 50
0.0
 51
87.000000000000085
  0
ARC
  5
1EDF
  8
0
  6
CONTINUOUS
 10
179.23034794914241
 20
91.027835580997916
 30
0.0
 40
1.0
 50
180.0
 51
270.0
  0
LINE
  5
1EE0
  8
0
  6
CONTINUOUS
 10
184.0303479491424
 20
88.640975580997903
 30
0.0
 11
184.0303479491424
 21
88.653626580997923
 31
0.0
  0
LINE
  5
1EE1
  8
0
  6
CONTINUOUS
 10
184.0303479491424
 20
88.640975580997903
 30
0.0
 11
182.98271294914241
 21
88.857801580997943
 31
0.0
  0
LINE
  5
1EE2
  8
0
  6
CONTINUOUS
 10
182.98271294914241
 20
88.857801580997943
 30
0.0
 11
182.88034794914239
 21
90.02783558099793
 31
0.0
  0
ARC
  5
1EE3
  8
0
  6
CONTINUOUS
 10
185.5303479491424
 20
98.527835580997944
 30
0.0
 40
9.8868600000000004
 50
267.10119099999997
 51
272.89880899999991
  0
LINE
  5
1EE4
  8
0
  6
CONTINUOUS
 10
187.0303479491424
 20
88.640975580997903
 30
0.0
 11
188.07798394914241
 21
88.857801580997943
 31
0.0
  0
LINE
  5
1EE5
  8
0
  6
CONTINUOUS
 10
188.07798394914241
 20
88.857801580997943
 30
0.0
 11
188.1803479491424
 21
90.02783558099793
 31
0.0
  0
LINE
  5
1EE6
  8
0
  6
CONTINUOUS
 10
187.0303479491424
 20
88.653626580997923
 30
0.0
 11
187.0303479491424
 21
88.640975580997903
 31
0.0
  0
LINE
  5
1EE7
  8
0
  6
CONTINUOUS
 10
158.57333994914239
 20
146.4976555809979
 30
0.0
 11
177.7565159491424
 21
147.5030035809979
 31
0.0
  0
LINE
  5
1EE9
  8
0
  6
CONTINUOUS
 10
160.01481894914241
 20
122.06955858099791
 30
0.0
 11
159.73034794914241
 21
122.0278365809979
 31
0.0
  0
LINE
  5
1EEA
  8
0
  6
CONTINUOUS
 10
159.73022594914241
 20
117.5278355809979
 30
0.0
 11
159.4302259491424
 21
117.5278355809979
 31
0.0
  0
ARC
  5
1EEB
  8
0
  6
CONTINUOUS
 10
156.73034794914241
 20
123.0278355809979
 30
0.0
 40
1.0
 50
180.0
 51
270.0
  0
LINE
  5
1EEC
  8
0
  6
CONTINUOUS
 10
155.73022594914241
 20
121.2278355809979
 30
0.0
 11
156.0302259491425
 21
121.5278355809979
 31
0.0
  0
LINE
  5
1EED
  8
0
  6
CONTINUOUS
 10
156.73034794914241
 20
122.0278355809979
 30
0.0
 11
159.73034794914241
 21
122.0278355809979
 31
0.0
  0
LINE
  5
1EEE
  8
0
  6
CONTINUOUS
 10
156.0302259491425
 20
121.5278355809979
 30
0.0
 11
159.4302259491424
 21
121.5278355809979
 31
0.0
  0
LINE
  5
1EEF
  8
0
  6
CONTINUOUS
 10
160.25930294914241
 20
122.18004158099789
 30
0.0
 11
160.01481894914241
 21
122.06955858099791
 31
0.0
  0
LINE
  5
1EF0
  8
0
  6
CONTINUOUS
 10
160.45977994914239
 20
122.34524658099789
 30
0.0
 11
160.25930294914241
 21
122.18004158099789
 31
0.0
  0
LINE
  5
1EF1
  8
0
  6
CONTINUOUS
 10
160.6083089491425
 20
122.55162558099789
 30
0.0
 11
160.45977994914239
 21
122.34524658099789
 31
0.0
  0
LINE
  5
1EF2
  8
0
  6
CONTINUOUS
 10
160.7005569491424
 20
122.79112258099789
 30
0.0
 11
160.6083089491425
 21
122.55162558099789
 31
0.0
  0
LINE
  5
1EF3
  8
0
  6
CONTINUOUS
 10
160.7289779491424
 20
123.0278355809979
 30
0.0
 11
160.7005569491424
 21
122.79112258099789
 31
0.0
  0
ARC
  5
1EF4
  8
0
  6
CONTINUOUS
 10
158.73034794914241
 20
143.5017665809979
 30
0.0
 40
3.0
 50
92.999999999999915
 51
180.0
  0
ARC
  5
1EF5
  8
0
  6
CONTINUOUS
 10
155.23034794914241
 20
136.0278355809979
 30
0.0
 40
0.5
 50
270.0
 51
359.99999100000042
  0
CIRCLE
  5
1EF6
  8
0
  6
CONTINUOUS
 10
190.0303479491424
 20
122.42783558099789
 30
0.0
 40
0.5
  0
CIRCLE
  5
1EF7
  8
0
  6
CONTINUOUS
 10
191.83034794914241
 20
122.42783558099789
 30
0.0
 40
0.5
  0
ARC
  5
1EF8
  8
0
  6
CONTINUOUS
 10
191.83034794914241
 20
123.8278355809979
 30
0.0
 40
1.5
 50
250.34543499999981
 51
289.6545650000001
  0
CIRCLE
  5
1EF9
  8
0
  6
CONTINUOUS
 10
190.0303479491424
 20
124.2278355809979
 30
0.0
 40
0.5
  0
CIRCLE
  5
1EFA
  8
0
  6
CONTINUOUS
 10
190.0303479491424
 20
126.0278355809979
 30
0.0
 40
0.5
  0
CIRCLE
  5
1EFB
  8
0
  6
CONTINUOUS
 10
191.83034794914241
 20
124.2278355809979
 30
0.0
 40
0.5
  0
CIRCLE
  5
1EFC
  8
0
  6
CONTINUOUS
 10
191.83034794914241
 20
126.0278355809979
 30
0.0
 40
0.5
  0
ARC
  5
1EFD
  8
0
  6
CONTINUOUS
 10
191.83034794914241
 20
123.8278355809979
 30
0.0
 40
1.5
 50
157.2092399999996
 51
179.4416789999992
  0
CIRCLE
  5
1EFE
  8
0
  6
CONTINUOUS
 10
193.63034794914239
 20
122.42783558099789
 30
0.0
 40
0.5
  0
CIRCLE
  5
1EFF
  8
0
  6
CONTINUOUS
 10
193.63034794914239
 20
124.2278355809979
 30
0.0
 40
0.5
  0
CIRCLE
  5
1F00
  8
0
  6
CONTINUOUS
 10
193.63034794914239
 20
126.0278355809979
 30
0.0
 40
0.5
  0
ARC
  5
1F01
  8
0
  6
CONTINUOUS
 10
191.83034794914241
 20
123.8278355809979
 30
0.0
 40
1.5
 50
0.5583210000007332
 51
22.790760000000422
  0
LINE
  5
1F02
  8
7_ALL_FEATURES
  6
CONTINUOUS
 10
191.3970149491424
 20
140.22783558099789
 30
0.0
 11
193.9303479491424
 21
140.22783558099789
 31
0.0
  0
LINE
  5
1F03
  8
7_ALL_FEATURES
  6
CONTINUOUS
 10
192.86368094914241
 20
137.0278355809979
 30
0.0
 11
192.4636809491424
 21
137.0278355809979
 31
0.0
  0
LINE
  5
1F04
  8
7_ALL_FEATURES
  6
CONTINUOUS
 10
192.4636809491424
 20
138.80530758099789
 30
0.0
 11
192.86368094914241
 21
139.20530758099781
 31
0.0
  0
LINE
  5
1F05
  8
7_ALL_FEATURES
  6
CONTINUOUS
 10
188.59701494914239
 20
137.0278355809979
 30
0.0
 11
188.06368194914239
 21
137.0278355809979
 31
0.0
  0
LINE
  5
1F06
  8
7_ALL_FEATURES
  6
CONTINUOUS
 10
188.33034794914241
 20
137.36826158099791
 30
0.0
 11
189.33034794914241
 21
140.22783558099789
 31
0.0
  0
LINE
  5
1F07
  8
7_ALL_FEATURES
  6
CONTINUOUS
 10
186.73034794914241
 20
140.22783558099789
 30
0.0
 11
187.33034794914241
 21
140.22783558099789
 31
0.0
  0
LINE
  5
1F08
  8
7_ALL_FEATURES
  6
CONTINUOUS
 10
187.13034794914239
 20
137.0278355809979
 30
0.0
 11
186.73034794914241
 21
137.0278355809979
 31
0.0
  0
LINE
  5
1F09
  8
7_ALL_FEATURES
  6
CONTINUOUS
 10
187.33034794914241
 20
140.22783558099789
 30
0.0
 11
188.33034794914241
 21
137.36826158099791
 31
0.0
  0
LINE
  5
1F0A
  8
7_ALL_FEATURES
  6
CONTINUOUS
 10
188.06368194914239
 20
137.0278355809979
 30
0.0
 11
187.13034794914239
 21
139.5469845809979
 31
0.0
  0
LINE
  5
1F0B
  8
7_ALL_FEATURES
  6
CONTINUOUS
 10
187.13034794914239
 20
139.5469845809979
 30
0.0
 11
187.13034794914239
 21
137.0278355809979
 31
0.0
  0
LINE
  5
1F0C
  8
7_ALL_FEATURES
  6
CONTINUOUS
 10
186.73034794914241
 20
137.0278355809979
 30
0.0
 11
186.73034794914241
 21
140.22783558099789
 31
0.0
  0
LINE
  5
1F0D
  8
7_ALL_FEATURES
  6
CONTINUOUS
 10
190.4636809491424
 20
140.22783558099789
 30
0.0
 11
190.86368094914241
 21
140.22783558099789
 31
0.0
  0
LINE
  5
1F0E
  8
7_ALL_FEATURES
  6
CONTINUOUS
 10
189.33034794914241
 20
140.22783558099789
 30
0.0
 11
189.9303479491424
 21
140.22783558099789
 31
0.0
  0
LINE
  5
1F0F
  8
7_ALL_FEATURES
  6
CONTINUOUS
 10
192.4636809491424
 20
139.88741058099791
 30
0.0
 11
191.3970149491424
 21
139.88741058099791
 31
0.0
  0
LINE
  5
1F10
  8
7_ALL_FEATURES
  6
CONTINUOUS
 10
189.9303479491424
 20
137.0278355809979
 30
0.0
 11
189.5303479491424
 21
137.0278355809979
 31
0.0
  0
LINE
  5
1F11
  8
7_ALL_FEATURES
  6
CONTINUOUS
 10
190.86368094914241
 20
137.0278355809979
 30
0.0
 11
190.4636809491424
 21
137.0278355809979
 31
0.0
  0
LINE
  5
1F12
  8
7_ALL_FEATURES
  6
CONTINUOUS
 10
192.4636809491424
 20
137.0278355809979
 30
0.0
 11
192.4636809491424
 21
139.88741058099791
 31
0.0
  0
LINE
  5
1F13
  8
7_ALL_FEATURES
  6
CONTINUOUS
 10
191.3970149491424
 20
139.88741058099791
 30
0.0
 11
191.3970149491424
 21
140.22783558099789
 31
0.0
  0
LINE
  5
1F14
  8
7_ALL_FEATURES
  6
CONTINUOUS
 10
190.86368094914241
 20
140.22783558099789
 30
0.0
 11
190.86368094914241
 21
137.0278355809979
 31
0.0
  0
LINE
  5
1F15
  8
7_ALL_FEATURES
  6
CONTINUOUS
 10
190.68620994914241
 20
137.0278355809979
 30
0.0
 11
190.86368094914241
 21
137.2053075809979
 31
0.0
  0
LINE
  5
1F16
  8
7_ALL_FEATURES
  6
CONTINUOUS
 10
189.5303479491424
 20
139.5469845809979
 30
0.0
 11
188.59701494914239
 21
137.0278355809979
 31
0.0
  0
LINE
  5
1F17
  8
7_ALL_FEATURES
  6
CONTINUOUS
 10
190.4636809491424
 20
137.0278355809979
 30
0.0
 11
190.4636809491424
 21
140.22783558099789
 31
0.0
  0
LINE
  5
1F18
  8
7_ALL_FEATURES
  6
CONTINUOUS
 10
189.9303479491424
 20
140.22783558099789
 30
0.0
 11
189.9303479491424
 21
137.0278355809979
 31
0.0
  0
LINE
  5
1F19
  8
7_ALL_FEATURES
  6
CONTINUOUS
 10
189.5303479491424
 20
137.0278355809979
 30
0.0
 11
189.5303479491424
 21
139.5469845809979
 31
0.0
  0
ARC
  5
1F1A
  8
0
  6
CONTINUOUS
 10
185.5303479491424
 20
144.5278355809979
 30
0.0
 40
9.9874919999999996
 50
92.869575999999924
 51
98.637812999999625
  0
LINE
  5
1F1B
  8
0
  6
CONTINUOUS
 10
182.98271294914241
 20
154.19786958099789
 30
0.0
 11
188.07798394914241
 21
154.19786958099789
 31
0.0
  0
LINE
  5
1F1C
  8
0
  6
CONTINUOUS
 10
190.5303479491424
 20
153.0278355809979
 30
0.0
 11
180.5303479491424
 21
153.0278355809979
 31
0.0
  0
ARC
  5
1F1D
  8
0
  6
CONTINUOUS
 10
177.73034794914241
 20
148.00231858099789
 30
0.0
 40
0.5
 50
272.99999999999989
 51
0.0
  0
ARC
  5
1F1E
  8
0
  6
CONTINUOUS
 10
179.23034794914241
 20
149.0278355809979
 30
0.0
 40
1.0
 50
90.0
 51
180.0
  0
LINE
  5
1F1F
  8
0
  6
CONTINUOUS
 10
184.0303479491424
 20
154.41469558099789
 30
0.0
 11
182.98271294914241
 21
154.19786958099789
 31
0.0
  0
LINE
  5
1F20
  8
0
  6
CONTINUOUS
 10
184.0303479491424
 20
154.4020445809978
 30
0.0
 11
184.0303479491424
 21
154.41469558099789
 31
0.0
  0
LINE
  5
1F21
  8
0
  6
CONTINUOUS
 10
182.98271294914241
 20
154.19786958099789
 30
0.0
 11
182.88034794914239
 21
153.0278355809979
 31
0.0
  0
ARC
  5
1F22
  8
0
  6
CONTINUOUS
 10
185.5303479491424
 20
144.5278355809979
 30
0.0
 40
9.9874919999999996
 50
81.362187000000247
 51
87.13042400000009
  0
ARC
  5
1F23
  8
0
  6
CONTINUOUS
 10
185.5303479491424
 20
144.5278355809979
 30
0.0
 40
9.8868600000000004
 50
87.101191000000071
 51
92.898808999999915
  0
LINE
  5
1F24
  8
0
  6
CONTINUOUS
 10
187.0303479491424
 20
154.41469558099789
 30
0.0
 11
188.07798394914241
 21
154.19786958099789
 31
0.0
  0
LINE
  5
1F25
  8
0
  6
CONTINUOUS
 10
188.07798394914241
 20
154.19786958099789
 30
0.0
 11
188.1803479491424
 21
153.0278355809979
 31
0.0
  0
LINE
  5
1F26
  8
0
  6
CONTINUOUS
 10
187.0303479491424
 20
154.41469558099789
 30
0.0
 11
187.0303479491424
 21
154.4020445809978
 31
0.0
  0
LINE
  5
1F27
  8
0
  6
CONTINUOUS
 10
186.0303479491424
 20
154.50280458099789
 30
0.0
 11
186.0303479491424
 21
154.4020445809978
 31
0.0
  0
LINE
  5
1F28
  8
0
  6
CONTINUOUS
 10
185.0303479491424
 20
154.4020445809978
 30
0.0
 11
185.0303479491424
 21
154.50280458099789
 31
0.0
  0
LINE
  5
1F29
  8
7_ALL_FEATURES
  6
CONTINUOUS
 10
200.3970149491424
 20
140.22783558099789
 30
0.0
 11
201.9970149491424
 21
140.22783558099789
 31
0.0
  0
LINE
  5
1F2A
  8
7_ALL_FEATURES
  6
CONTINUOUS
 10
202.06368094914239
 20
139.8193255809978
 30
0.0
 11
200.79701494914241
 21
139.8193255809978
 31
0.0
  0
LINE
  5
1F2B
  8
7_ALL_FEATURES
  6
CONTINUOUS
 10
200.79701494914241
 20
138.86613358099791
 30
0.0
 11
202.06368094914239
 21
138.86613358099791
 31
0.0
  0
LINE
  5
1F2C
  8
7_ALL_FEATURES
  6
CONTINUOUS
 10
200.79701494914241
 20
138.45762258099791
 30
0.0
 11
202.06368094914239
 21
138.45762258099791
 31
0.0
  0
LINE
  5
1F2D
  8
7_ALL_FEATURES
  6
CONTINUOUS
 10
202.06368094914239
 20
137.43634658099791
 30
0.0
 11
200.79701494914241
 21
137.43634658099791
 31
0.0
  0
LINE
  5
1F2E
  8
7_ALL_FEATURES
  6
CONTINUOUS
 10
201.9970149491424
 20
137.0278355809979
 30
0.0
 11
200.3970149491424
 21
137.0278355809979
 31
0.0
  0
LINE
  5
1F2F
  8
7_ALL_FEATURES
  6
CONTINUOUS
 10
196.79701494914241
 20
138.38953758099791
 30
0.0
 11
196.5303479491424
 21
138.66187858099789
 31
0.0
  0
LINE
  5
1F30
  8
7_ALL_FEATURES
  6
CONTINUOUS
 10
196.5303479491424
 20
137.23209158099789
 30
0.0
 11
196.79701494914241
 21
137.50443158099779
 31
0.0
  0
LINE
  5
1F31
  8
7_ALL_FEATURES
  6
CONTINUOUS
 10
195.5303479491424
 20
140.22783558099789
 30
0.0
 11
195.26368194914241
 21
140.15975058099789
 31
0.0
  0
LINE
  5
1F32
  8
7_ALL_FEATURES
  6
CONTINUOUS
 10
195.8636819491424
 20
140.22783558099789
 30
0.0
 11
195.5303479491424
 21
140.22783558099789
 31
0.0
  0
LINE
  5
1F33
  8
7_ALL_FEATURES
  6
CONTINUOUS
 10
193.9303479491424
 20
139.88741058099791
 30
0.0
 11
192.86368094914241
 21
139.88741058099791
 31
0.0
  0
LINE
  5
1F34
  8
7_ALL_FEATURES
  6
CONTINUOUS
 10
195.5303479491424
 20
139.8193255809978
 30
0.0
 11
195.9303479491424
 21
139.8193255809978
 31
0.0
  0
LINE
  5
1F35
  8
7_ALL_FEATURES
  6
CONTINUOUS
 10
195.9303479491424
 20
137.0278355809979
 30
0.0
 11
196.26368194914241
 21
137.0959205809979
 31
0.0
  0
LINE
  5
1F36
  8
7_ALL_FEATURES
  6
CONTINUOUS
 10
196.19701494914241
 20
137.50443158099779
 30
0.0
 11
195.9303479491424
 21
137.43634658099791
 31
0.0
  0
LINE
  5
1F37
  8
7_ALL_FEATURES
  6
CONTINUOUS
 10
196.19701494914241
 20
140.15975058099789
 30
0.0
 11
195.8636819491424
 21
140.22783558099789
 31
0.0
  0
LINE
  5
1F38
  8
7_ALL_FEATURES
  6
CONTINUOUS
 10
196.33034794914241
 20
139.4788995809979
 30
0.0
 11
196.73034794914241
 21
139.4788995809979
 31
0.0
  0
LINE
  5
1F39
  8
7_ALL_FEATURES
  6
CONTINUOUS
 10
195.9303479491424
 20
138.86613358099791
 30
0.0
 11
195.5303479491424
 21
138.86613358099791
 31
0.0
  0
LINE
  5
1F3A
  8
7_ALL_FEATURES
  6
CONTINUOUS
 10
195.5303479491424
 20
138.45762258099791
 30
0.0
 11
195.9303479491424
 21
138.45762258099791
 31
0.0
  0
LINE
  5
1F3B
  8
7_ALL_FEATURES
  6
CONTINUOUS
 10
194.8636819491424
 20
137.91294258099791
 30
0.0
 11
194.4636819491424
 21
137.91294258099791
 31
0.0
  0
LINE
  5
1F3C
  8
7_ALL_FEATURES
  6
CONTINUOUS
 10
195.9303479491424
 20
137.43634658099791
 30
0.0
 11
195.3970149491424
 21
137.43634658099791
 31
0.0
  0
LINE
  5
1F3D
  8
7_ALL_FEATURES
  6
CONTINUOUS
 10
195.3970149491424
 20
137.0278355809979
 30
0.0
 11
195.9303479491424
 21
137.0278355809979
 31
0.0
  0
LINE
  5
1F3E
  8
7_ALL_FEATURES
  6
CONTINUOUS
 10
195.9303479491424
 20
139.8193255809978
 30
0.0
 11
196.13034794914239
 21
139.75124058099789
 31
0.0
  0
LINE
  5
1F3F
  8
7_ALL_FEATURES
  6
CONTINUOUS
 10
195.5303479491424
 20
138.86613358099791
 30
0.0
 11
195.33034794914241
 21
138.93421858099791
 31
0.0
  0
LINE
  5
1F40
  8
7_ALL_FEATURES
  6
CONTINUOUS
 10
195.9303479491424
 20
138.45762258099791
 30
0.0
 11
196.19701494914241
 21
138.38953758099791
 31
0.0
  0
LINE
  5
1F41
  8
7_ALL_FEATURES
  6
CONTINUOUS
 10
195.26368194914241
 20
138.5257085809979
 30
0.0
 11
195.5303479491424
 21
138.45762258099791
 31
0.0
  0
LINE
  5
1F42
  8
7_ALL_FEATURES
  6
CONTINUOUS
 10
195.3970149491424
 20
137.43634658099791
 30
0.0
 11
195.13034794914239
 21
137.50443158099779
 31
0.0
  0
LINE
  5
1F43
  8
7_ALL_FEATURES
  6
CONTINUOUS
 10
196.26368194914241
 20
138.79804858099789
 30
0.0
 11
195.9303479491424
 21
138.86613358099791
 31
0.0
  0
LINE
  5
1F44
  8
7_ALL_FEATURES
  6
CONTINUOUS
 10
195.06368194914239
 20
137.0959205809979
 30
0.0
 11
195.3970149491424
 21
137.0278355809979
 31
0.0
  0
LINE
  5
1F45
  8
7_ALL_FEATURES
  6
CONTINUOUS
 10
196.5303479491424
 20
138.66187858099789
 30
0.0
 11
196.26368194914241
 21
138.79804858099789
 31
0.0
  0
LINE
  5
1F46
  8
7_ALL_FEATURES
  6
CONTINUOUS
 10
194.9970149491424
 20
138.66187858099789
 30
0.0
 11
195.26368194914241
 21
138.5257085809979
 31
0.0
  0
LINE
  5
1F47
  8
7_ALL_FEATURES
  6
CONTINUOUS
 10
196.4636819491424
 20
139.9554955809979
 30
0.0
 11
196.19701494914241
 21
140.15975058099789
 31
0.0
  0
LINE
  5
1F48
  8
7_ALL_FEATURES
  6
CONTINUOUS
 10
196.19701494914241
 20
138.38953758099791
 30
0.0
 11
196.3970149491424
 21
138.25336758099789
 31
0.0
  0
LINE
  5
1F49
  8
7_ALL_FEATURES
  6
CONTINUOUS
 10
195.33034794914241
 20
138.93421858099791
 30
0.0
 11
195.13034794914239
 21
139.0703885809979
 31
0.0
  0
LINE
  5
1F4A
  8
7_ALL_FEATURES
  6
CONTINUOUS
 10
194.73034794914241
 20
137.30017658099791
 30
0.0
 11
195.06368194914239
 21
137.0959205809979
 31
0.0
  0
LINE
  5
1F4B
  8
7_ALL_FEATURES
  6
CONTINUOUS
 10
196.66368194914239
 20
139.68315458099781
 30
0.0
 11
196.4636819491424
 21
139.9554955809979
 31
0.0
  0
LINE
  5
1F4C
  8
7_ALL_FEATURES
  6
CONTINUOUS
 10
196.13034794914239
 20
139.75124058099789
 30
0.0
 11
196.26368194914241
 21
139.61506958099781
 31
0.0
  0
LINE
  5
1F4D
  8
7_ALL_FEATURES
  6
CONTINUOUS
 10
194.73034794914241
 20
138.93421858099791
 30
0.0
 11
194.9970149491424
 21
138.66187858099789
 31
0.0
  0
LINE
  5
1F4E
  8
7_ALL_FEATURES
  6
CONTINUOUS
 10
195.13034794914239
 20
137.50443158099779
 30
0.0
 11
194.9303479491424
 21
137.70868658099789
 31
0.0
  0
LINE
  5
1F4F
  8
7_ALL_FEATURES
  6
CONTINUOUS
 10
196.26368194914241
 20
139.61506958099781
 30
0.0
 11
196.33034794914241
 21
139.4788995809979
 31
0.0
  0
LINE
  5
1F50
  8
7_ALL_FEATURES
  6
CONTINUOUS
 10
196.3970149491424
 20
138.25336758099789
 30
0.0
 11
196.5303479491424
 21
138.0491125809979
 31
0.0
  0
LINE
  5
1F51
  8
7_ALL_FEATURES
  6
CONTINUOUS
 10
196.73034794914241
 20
139.4788995809979
 30
0.0
 11
196.66368194914239
 21
139.68315458099781
 31
0.0
  0
LINE
  5
1F52
  8
7_ALL_FEATURES
  6
CONTINUOUS
 10
195.13034794914239
 20
139.0703885809979
 30
0.0
 11
195.06368194914239
 21
139.27464458099789
 31
0.0
  0
LINE
  5
1F53
  8
7_ALL_FEATURES
  6
CONTINUOUS
 10
194.5303479491424
 20
137.64060158099781
 30
0.0
 11
194.73034794914241
 21
137.30017658099791
 31
0.0
  0
LINE
  5
1F54
  8
7_ALL_FEATURES
  6
CONTINUOUS
 10
194.66368194914239
 20
139.20655958099789
 30
0.0
 11
194.73034794914241
 21
138.93421858099791
 31
0.0
  0
LINE
  5
1F55
  8
7_ALL_FEATURES
  6
CONTINUOUS
 10
194.4636819491424
 20
137.91294258099791
 30
0.0
 11
194.5303479491424
 21
137.64060158099781
 31
0.0
  0
LINE
  5
1F56
  8
7_ALL_FEATURES
  6
CONTINUOUS
 10
194.9303479491424
 20
137.70868658099789
 30
0.0
 11
194.8636819491424
 21
137.91294258099791
 31
0.0
  0
LINE
  5
1F57
  8
7_ALL_FEATURES
  6
CONTINUOUS
 10
195.33034794914241
 20
139.75124058099789
 30
0.0
 11
195.5303479491424
 21
139.8193255809978
 31
0.0
  0
LINE
  5
1F58
  8
7_ALL_FEATURES
  6
CONTINUOUS
 10
196.26368194914241
 20
137.0959205809979
 30
0.0
 11
196.5303479491424
 21
137.23209158099789
 31
0.0
  0
LINE
  5
1F59
  8
7_ALL_FEATURES
  6
CONTINUOUS
 10
196.5303479491424
 20
138.0491125809979
 30
0.0
 11
196.5303479491424
 21
137.84485758099791
 31
0.0
  0
LINE
  5
1F5A
  8
7_ALL_FEATURES
  6
CONTINUOUS
 10
195.26368194914241
 20
140.15975058099789
 30
0.0
 11
194.9970149491424
 21
140.0235805809979
 31
0.0
  0
LINE
  5
1F5B
  8
7_ALL_FEATURES
  6
CONTINUOUS
 10
196.3970149491424
 20
137.64060158099781
 30
0.0
 11
196.19701494914241
 21
137.50443158099779
 31
0.0
  0
LINE
  5
1F5C
  8
7_ALL_FEATURES
  6
CONTINUOUS
 10
195.13034794914239
 20
139.61506958099781
 30
0.0
 11
195.33034794914241
 21
139.75124058099789
 31
0.0
  0
LINE
  5
1F5D
  8
7_ALL_FEATURES
  6
CONTINUOUS
 10
194.9970149491424
 20
140.0235805809979
 30
0.0
 11
194.73034794914241
 21
139.75124058099789
 31
0.0
  0
LINE
  5
1F5E
  8
7_ALL_FEATURES
  6
CONTINUOUS
 10
196.5303479491424
 20
137.84485758099791
 30
0.0
 11
196.3970149491424
 21
137.64060158099781
 31
0.0
  0
LINE
  5
1F5F
  8
7_ALL_FEATURES
  6
CONTINUOUS
 10
195.06368194914239
 20
139.41081458099791
 30
0.0
 11
195.13034794914239
 21
139.61506958099781
 31
0.0
  0
LINE
  5
1F60
  8
7_ALL_FEATURES
  6
CONTINUOUS
 10
194.73034794914241
 20
139.75124058099789
 30
0.0
 11
194.66368194914239
 21
139.4788995809979
 31
0.0
  0
LINE
  5
1F61
  8
7_ALL_FEATURES
  6
CONTINUOUS
 10
195.06368194914239
 20
139.27464458099789
 30
0.0
 11
195.06368194914239
 21
139.41081458099791
 31
0.0
  0
LINE
  5
1F62
  8
7_ALL_FEATURES
  6
CONTINUOUS
 10
194.66368194914239
 20
139.4788995809979
 30
0.0
 11
194.66368194914239
 21
139.20655958099789
 31
0.0
  0
LINE
  5
1F63
  8
7_ALL_FEATURES
  6
CONTINUOUS
 10
193.9303479491424
 20
140.22783558099789
 30
0.0
 11
193.9303479491424
 21
139.88741058099791
 31
0.0
  0
LINE
  5
1F64
  8
7_ALL_FEATURES
  6
CONTINUOUS
 10
192.86368094914241
 20
139.88741058099791
 30
0.0
 11
192.86368094914241
 21
137.0278355809979
 31
0.0
  0
LINE
  5
1F65
  8
7_ALL_FEATURES
  6
CONTINUOUS
 10
193.54578494914239
 20
139.88741058099791
 30
0.0
 11
193.88620994914251
 21
140.22783558099789
 31
0.0
  0
LINE
  5
1F66
  8
7_ALL_FEATURES
  6
CONTINUOUS
 10
197.8636819491424
 20
140.22783558099789
 30
0.0
 11
197.4636819491424
 21
140.22783558099789
 31
0.0
  0
LINE
  5
1F67
  8
7_ALL_FEATURES
  6
CONTINUOUS
 10
199.86368094914241
 20
140.22783558099789
 30
0.0
 11
199.4636819491424
 21
140.22783558099789
 31
0.0
  0
LINE
  5
1F68
  8
7_ALL_FEATURES
  6
CONTINUOUS
 10
198.79701494914241
 20
137.0278355809979
 30
0.0
 11
199.13034794914239
 21
137.0959205809979
 31
0.0
  0
LINE
  5
1F69
  8
7_ALL_FEATURES
  6
CONTINUOUS
 10
199.06368194914239
 20
137.50443158099779
 30
0.0
 11
198.79701494914241
 21
137.43634658099791
 31
0.0
  0
LINE
  5
1F6A
  8
7_ALL_FEATURES
  6
CONTINUOUS
 10
198.79701494914241
 20
137.43634658099791
 30
0.0
 11
198.5303479491424
 21
137.43634658099791
 31
0.0
  0
LINE
  5
1F6B
  8
7_ALL_FEATURES
  6
CONTINUOUS
 10
198.5303479491424
 20
137.0278355809979
 30
0.0
 11
198.79701494914241
 21
137.0278355809979
 31
0.0
  0
LINE
  5
1F6C
  8
7_ALL_FEATURES
  6
CONTINUOUS
 10
198.5303479491424
 20
137.43634658099791
 30
0.0
 11
198.26368194914241
 21
137.50443158099779
 31
0.0
  0
LINE
  5
1F6D
  8
7_ALL_FEATURES
  6
CONTINUOUS
 10
198.19701494914241
 20
137.0959205809979
 30
0.0
 11
198.5303479491424
 21
137.0278355809979
 31
0.0
  0
LINE
  5
1F6E
  8
7_ALL_FEATURES
  6
CONTINUOUS
 10
197.9303479491424
 20
137.23209158099789
 30
0.0
 11
198.19701494914241
 21
137.0959205809979
 31
0.0
  0
LINE
  5
1F6F
  8
7_ALL_FEATURES
  6
CONTINUOUS
 10
198.26368194914241
 20
137.50443158099779
 30
0.0
 11
198.06368194914239
 21
137.64060158099781
 31
0.0
  0
LINE
  5
1F70
  8
7_ALL_FEATURES
  6
CONTINUOUS
 10
197.66368194914239
 20
137.50443158099779
 30
0.0
 11
197.9303479491424
 21
137.23209158099789
 31
0.0
  0
LINE
  5
1F71
  8
7_ALL_FEATURES
  6
CONTINUOUS
 10
197.5303479491424
 20
137.7767715809978
 30
0.0
 11
197.66368194914239
 21
137.50443158099779
 31
0.0
  0
LINE
  5
1F72
  8
7_ALL_FEATURES
  6
CONTINUOUS
 10
196.9303479491424
 20
138.1171975809979
 30
0.0
 11
196.79701494914241
 21
138.38953758099791
 31
0.0
  0
LINE
  5
1F73
  8
7_ALL_FEATURES
  6
CONTINUOUS
 10
198.06368194914239
 20
137.64060158099781
 30
0.0
 11
197.9303479491424
 21
137.84485758099791
 31
0.0
  0
LINE
  5
1F74
  8
7_ALL_FEATURES
  6
CONTINUOUS
 10
197.4636819491424
 20
138.1171975809979
 30
0.0
 11
197.5303479491424
 21
137.7767715809978
 31
0.0
  0
LINE
  5
1F75
  8
7_ALL_FEATURES
  6
CONTINUOUS
 10
197.9303479491424
 20
137.84485758099791
 30
0.0
 11
197.8636819491424
 21
138.1171975809979
 31
0.0
  0
LINE
  5
1F76
  8
7_ALL_FEATURES
  6
CONTINUOUS
 10
200.79701494914241
 20
137.43634658099791
 30
0.0
 11
200.79701494914241
 21
138.45762258099791
 31
0.0
  0
LINE
  5
1F77
  8
7_ALL_FEATURES
  6
CONTINUOUS
 10
200.79701494914241
 20
139.8193255809978
 30
0.0
 11
200.79701494914241
 21
138.86613358099791
 31
0.0
  0
LINE
  5
1F78
  8
7_ALL_FEATURES
  6
CONTINUOUS
 10
200.3970149491424
 20
137.0278355809979
 30
0.0
 11
200.3970149491424
 21
140.22783558099789
 31
0.0
  0
LINE
  5
1F79
  8
7_ALL_FEATURES
  6
CONTINUOUS
 10
199.13034794914239
 20
137.0959205809979
 30
0.0
 11
199.3970149491424
 21
137.23209158099789
 31
0.0
  0
LINE
  5
1F7A
  8
7_ALL_FEATURES
  6
CONTINUOUS
 10
199.26368194914241
 20
137.64060158099781
 30
0.0
 11
199.06368194914239
 21
137.50443158099779
 31
0.0
  0
LINE
  5
1F7B
  8
7_ALL_FEATURES
  6
CONTINUOUS
 10
199.3970149491424
 20
137.23209158099789
 30
0.0
 11
199.66368094914239
 21
137.50443158099779
 31
0.0
  0
LINE
  5
1F7C
  8
7_ALL_FEATURES
  6
CONTINUOUS
 10
199.66368094914239
 20
137.50443158099779
 30
0.0
 11
199.79701494914241
 21
137.7767715809978
 31
0.0
  0
LINE
  5
1F7D
  8
7_ALL_FEATURES
  6
CONTINUOUS
 10
199.4636819491424
 20
138.1171975809979
 30
0.0
 11
199.3970149491424
 21
137.84485758099791
 31
0.0
  0
LINE
  5
1F7E
  8
7_ALL_FEATURES
  6
CONTINUOUS
 10
199.79701494914241
 20
137.7767715809978
 30
0.0
 11
199.86368094914241
 21
138.1171975809979
 31
0.0
  0
LINE
  5
1F7F
  8
7_ALL_FEATURES
  6
CONTINUOUS
 10
199.86368094914241
 20
138.1171975809979
 30
0.0
 11
199.86368094914241
 21
140.22783558099789
 31
0.0
  0
LINE
  5
1F80
  8
7_ALL_FEATURES
  6
CONTINUOUS
 10
199.4636819491424
 20
140.22783558099789
 30
0.0
 11
199.4636819491424
 21
138.1171975809979
 31
0.0
  0
LINE
  5
1F81
  8
7_ALL_FEATURES
  6
CONTINUOUS
 10
197.8636819491424
 20
138.1171975809979
 30
0.0
 11
197.8636819491424
 21
140.22783558099789
 31
0.0
  0
LINE
  5
1F82
  8
7_ALL_FEATURES
  6
CONTINUOUS
 10
197.4636819491424
 20
140.22783558099789
 30
0.0
 11
197.4636819491424
 21
138.1171975809979
 31
0.0
  0
LINE
  5
1F83
  8
7_ALL_FEATURES
  6
CONTINUOUS
 10
196.9303479491424
 20
137.7767715809978
 30
0.0
 11
196.9303479491424
 21
138.1171975809979
 31
0.0
  0
LINE
  5
1F84
  8
7_ALL_FEATURES
  6
CONTINUOUS
 10
199.3970149491424
 20
137.84485758099791
 30
0.0
 11
199.26368194914241
 21
137.64060158099781
 31
0.0
  0
LINE
  5
1F85
  8
7_ALL_FEATURES
  6
CONTINUOUS
 10
196.79701494914241
 20
137.50443158099779
 30
0.0
 11
196.9303479491424
 21
137.7767715809978
 31
0.0
  0
LINE
  5
1F86
  8
7_ALL_FEATURES
  6
CONTINUOUS
 10
204.86368094914241
 20
138.66187858099789
 30
0.0
 11
205.13034794914239
 21
138.5257085809979
 31
0.0
  0
LINE
  5
1F87
  8
7_ALL_FEATURES
  6
CONTINUOUS
 10
204.9303479491424
 20
137.0959205809979
 30
0.0
 11
205.26368094914241
 21
137.0278355809979
 31
0.0
  0
LINE
  5
1F88
  8
7_ALL_FEATURES
  6
CONTINUOUS
 10
204.9970149491424
 20
137.50443158099779
 30
0.0
 11
204.79701494914241
 21
137.70868658099789
 31
0.0
  0
LINE
  5
1F89
  8
7_ALL_FEATURES
  6
CONTINUOUS
 10
204.9970149491424
 20
139.0703885809979
 30
0.0
 11
204.9303479491424
 21
139.27464458099789
 31
0.0
  0
LINE
  5
1F8A
  8
7_ALL_FEATURES
  6
CONTINUOUS
 10
204.9303479491424
 20
139.41081458099791
 30
0.0
 11
204.9970149491424
 21
139.61506958099781
 31
0.0
  0
LINE
  5
1F8B
  8
7_ALL_FEATURES
  6
CONTINUOUS
 10
205.13034794914239
 20
140.15975058099789
 30
0.0
 11
204.86368094914241
 21
140.0235805809979
 31
0.0
  0
LINE
  5
1F8C
  8
7_ALL_FEATURES
  6
CONTINUOUS
 10
203.3970149491424
 20
140.22783558099789
 30
0.0
 11
203.79701494914241
 21
140.22783558099789
 31
0.0
  0
LINE
  5
1F8D
  8
7_ALL_FEATURES
  6
CONTINUOUS
 10
202.33034794914241
 20
137.0959205809979
 30
0.0
 11
201.9970149491424
 21
137.0278355809979
 31
0.0
  0
LINE
  5
1F8E
  8
7_ALL_FEATURES
  6
CONTINUOUS
 10
201.9970149491424
 20
140.22783558099789
 30
0.0
 11
202.33034794914241
 21
140.15975058099789
 31
0.0
  0
LINE
  5
1F8F
  8
7_ALL_FEATURES
  6
CONTINUOUS
 10
204.73034794914241
 20
137.91294258099791
 30
0.0
 11
204.33034794914241
 21
137.91294258099791
 31
0.0
  0
LINE
  5
1F90
  8
7_ALL_FEATURES
  6
CONTINUOUS
 10
203.79701494914241
 20
137.0278355809979
 30
0.0
 11
203.3970149491424
 21
137.0278355809979
 31
0.0
  0
LINE
  5
1F91
  8
7_ALL_FEATURES
  6
CONTINUOUS
 10
202.26368094914241
 20
139.75124058099789
 30
0.0
 11
202.06368094914239
 21
139.8193255809978
 31
0.0
  0
LINE
  5
1F92
  8
7_ALL_FEATURES
  6
CONTINUOUS
 10
202.06368094914239
 20
138.45762258099791
 30
0.0
 11
202.26368094914241
 21
138.38953758099791
 31
0.0
  0
LINE
  5
1F93
  8
7_ALL_FEATURES
  6
CONTINUOUS
 10
202.33034794914241
 20
140.15975058099789
 30
0.0
 11
202.59701494914239
 21
139.9554955809979
 31
0.0
  0
LINE
  5
1F94
  8
7_ALL_FEATURES
  6
CONTINUOUS
 10
204.59701494914239
 20
137.30017658099791
 30
0.0
 11
204.9303479491424
 21
137.0959205809979
 31
0.0
  0
LINE
  5
1F95
  8
7_ALL_FEATURES
  6
CONTINUOUS
 10
202.46368094914251
 20
138.66187858099789
 30
0.0
 11
202.59701494914239
 21
138.5937935809979
 31
0.0
  0
LINE
  5
1F96
  8
7_ALL_FEATURES
  6
CONTINUOUS
 10
202.59701494914239
 20
139.9554955809979
 30
0.0
 11
202.79701494914241
 21
139.68315458099781
 31
0.0
  0
LINE
  5
1F97
  8
7_ALL_FEATURES
  6
CONTINUOUS
 10
204.59701494914239
 20
138.93421858099791
 30
0.0
 11
204.86368094914241
 21
138.66187858099789
 31
0.0
  0
LINE
  5
1F98
  8
7_ALL_FEATURES
  6
CONTINUOUS
 10
202.3970149491424
 20
139.61506958099781
 30
0.0
 11
202.26368094914241
 21
139.75124058099789
 31
0.0
  0
LINE
  5
1F99
  8
7_ALL_FEATURES
  6
CONTINUOUS
 10
202.26368094914241
 20
138.38953758099791
 30
0.0
 11
202.3970149491424
 21
138.25336758099789
 31
0.0
  0
LINE
  5
1F9A
  8
7_ALL_FEATURES
  6
CONTINUOUS
 10
204.3970149491424
 20
137.64060158099781
 30
0.0
 11
204.59701494914239
 21
137.30017658099791
 31
0.0
  0
LINE
  5
1F9B
  8
7_ALL_FEATURES
  6
CONTINUOUS
 10
202.59701494914239
 20
138.5937935809979
 30
0.0
 11
202.79701494914241
 21
138.32145258099791
 31
0.0
  0
LINE
  5
1F9C
  8
7_ALL_FEATURES
  6
CONTINUOUS
 10
204.5303479491424
 20
139.20655958099789
 30
0.0
 11
204.59701494914239
 21
138.93421858099791
 31
0.0
  0
LINE
  5
1F9D
  8
7_ALL_FEATURES
  6
CONTINUOUS
 10
204.33034794914241
 20
137.91294258099791
 30
0.0
 11
204.3970149491424
 21
137.64060158099781
 31
0.0
  0
LINE
  5
1F9E
  8
7_ALL_FEATURES
  6
CONTINUOUS
 10
204.79701494914241
 20
137.70868658099789
 30
0.0
 11
204.73034794914241
 21
137.91294258099791
 31
0.0
  0
LINE
  5
1F9F
  8
7_ALL_FEATURES
  6
CONTINUOUS
 10
202.79701494914241
 20
139.68315458099781
 30
0.0
 11
202.86368094914241
 21
139.4788995809979
 31
0.0
  0
LINE
  5
1FA0
  8
7_ALL_FEATURES
  6
CONTINUOUS
 10
202.46368094914251
 20
139.41081458099791
 30
0.0
 11
202.3970149491424
 21
139.61506958099781
 31
0.0
  0
LINE
  5
1FA1
  8
7_ALL_FEATURES
  6
CONTINUOUS
 10
202.79701494914241
 20
138.32145258099791
 30
0.0
 11
202.86368094914241
 21
138.1171975809979
 31
0.0
  0
LINE
  5
1FA2
  8
7_ALL_FEATURES
  6
CONTINUOUS
 10
202.3970149491424
 20
138.25336758099789
 30
0.0
 11
202.46368094914251
 21
138.0491125809979
 31
0.0
  0
LINE
  5
1FA3
  8
7_ALL_FEATURES
  6
CONTINUOUS
 10
202.26368094914241
 20
137.50443158099779
 30
0.0
 11
202.06368094914239
 21
137.43634658099791
 31
0.0
  0
LINE
  5
1FA4
  8
7_ALL_FEATURES
  6
CONTINUOUS
 10
204.59701494914239
 20
139.75124058099789
 30
0.0
 11
204.5303479491424
 21
139.4788995809979
 31
0.0
  0
LINE
  5
1FA5
  8
7_ALL_FEATURES
  6
CONTINUOUS
 10
204.9303479491424
 20
139.27464458099789
 30
0.0
 11
204.9303479491424
 21
139.41081458099791
 31
0.0
  0
LINE
  5
1FA6
  8
7_ALL_FEATURES
  6
CONTINUOUS
 10
204.5303479491424
 20
139.4788995809979
 30
0.0
 11
204.5303479491424
 21
139.20655958099789
 31
0.0
  0
LINE
  5
1FA7
  8
7_ALL_FEATURES
  6
CONTINUOUS
 10
203.79701494914241
 20
140.22783558099789
 30
0.0
 11
203.79701494914241
 21
137.0278355809979
 31
0.0
  0
LINE
  5
1FA8
  8
7_ALL_FEATURES
  6
CONTINUOUS
 10
203.3970149491424
 20
137.0278355809979
 30
0.0
 11
203.3970149491424
 21
140.22783558099789
 31
0.0
  0
LINE
  5
1FA9
  8
7_ALL_FEATURES
  6
CONTINUOUS
 10
202.86368094914241
 20
138.1171975809979
 30
0.0
 11
202.86368094914241
 21
137.7767715809978
 31
0.0
  0
LINE
  5
1FAA
  8
7_ALL_FEATURES
  6
CONTINUOUS
 10
202.86368094914241
 20
139.4788995809979
 30
0.0
 11
202.86368094914241
 21
139.20655958099789
 31
0.0
  0
LINE
  5
1FAB
  8
7_ALL_FEATURES
  6
CONTINUOUS
 10
202.46368094914251
 20
139.27464458099789
 30
0.0
 11
202.46368094914251
 21
139.41081458099791
 31
0.0
  0
LINE
  5
1FAC
  8
7_ALL_FEATURES
  6
CONTINUOUS
 10
202.46368094914251
 20
138.0491125809979
 30
0.0
 11
202.46368094914251
 21
137.84485758099791
 31
0.0
  0
LINE
  5
1FAD
  8
7_ALL_FEATURES
  6
CONTINUOUS
 10
202.06368094914239
 20
138.86613358099791
 30
0.0
 11
202.26368094914241
 21
138.93421858099791
 31
0.0
  0
LINE
  5
1FAE
  8
7_ALL_FEATURES
  6
CONTINUOUS
 10
202.59701494914239
 20
138.72996358099789
 30
0.0
 11
202.46368094914251
 21
138.66187858099789
 31
0.0
  0
LINE
  5
1FAF
  8
7_ALL_FEATURES
  6
CONTINUOUS
 10
202.59701494914239
 20
137.30017658099791
 30
0.0
 11
202.33034794914241
 21
137.0959205809979
 31
0.0
  0
LINE
  5
1FB0
  8
7_ALL_FEATURES
  6
CONTINUOUS
 10
204.57242794914239
 20
139.0346595809979
 30
0.0
 11
204.9303479491424
 21
139.3925805809979
 31
0.0
  0
LINE
  5
1FB1
  8
7_ALL_FEATURES
  6
CONTINUOUS
 10
203.3970149491424
 20
137.8592475809979
 30
0.0
 11
203.79701494914241
 21
138.25924758099791
 31
0.0
  0
LINE
  5
1FB2
  8
7_ALL_FEATURES
  6
CONTINUOUS
 10
204.86368094914241
 20
140.0235805809979
 30
0.0
 11
204.59701494914239
 21
139.75124058099789
 31
0.0
  0
LINE
  5
1FB3
  8
7_ALL_FEATURES
  6
CONTINUOUS
 10
202.3970149491424
 20
137.64060158099781
 30
0.0
 11
202.26368094914241
 21
137.50443158099779
 31
0.0
  0
LINE
  5
1FB4
  8
7_ALL_FEATURES
  6
CONTINUOUS
 10
202.26368094914241
 20
138.93421858099791
 30
0.0
 11
202.3970149491424
 21
139.0703885809979
 31
0.0
  0
LINE
  5
1FB5
  8
7_ALL_FEATURES
  6
CONTINUOUS
 10
202.79701494914241
 20
137.5725165809979
 30
0.0
 11
202.59701494914239
 21
137.30017658099791
 31
0.0
  0
LINE
  5
1FB6
  8
7_ALL_FEATURES
  6
CONTINUOUS
 10
202.79701494914241
 20
139.0023035809979
 30
0.0
 11
202.59701494914239
 21
138.72996358099789
 31
0.0
  0
LINE
  5
1FB7
  8
7_ALL_FEATURES
  6
CONTINUOUS
 10
202.86368094914241
 20
137.7767715809978
 30
0.0
 11
202.79701494914241
 21
137.5725165809979
 31
0.0
  0
LINE
  5
1FB8
  8
7_ALL_FEATURES
  6
CONTINUOUS
 10
202.46368094914251
 20
137.84485758099791
 30
0.0
 11
202.3970149491424
 21
137.64060158099781
 31
0.0
  0
LINE
  5
1FB9
  8
7_ALL_FEATURES
  6
CONTINUOUS
 10
202.86368094914241
 20
139.20655958099789
 30
0.0
 11
202.79701494914241
 21
139.0023035809979
 31
0.0
  0
LINE
  5
1FBA
  8
7_ALL_FEATURES
  6
CONTINUOUS
 10
202.3970149491424
 20
139.0703885809979
 30
0.0
 11
202.46368094914251
 21
139.27464458099789
 31
0.0
  0
LINE
  5
1FBB
  8
7_ALL_FEATURES
  6
CONTINUOUS
 10
207.33034794914241
 20
140.22783558099789
 30
0.0
 11
207.73034794914241
 21
140.22783558099789
 31
0.0
  0
LINE
  5
1FBC
  8
7_ALL_FEATURES
  6
CONTINUOUS
 10
205.73034794914241
 20
140.22783558099789
 30
0.0
 11
205.3970149491424
 21
140.22783558099789
 31
0.0
  0
LINE
  5
1FBD
  8
7_ALL_FEATURES
  6
CONTINUOUS
 10
205.3970149491424
 20
139.8193255809978
 30
0.0
 11
205.79701494914241
 21
139.8193255809978
 31
0.0
  0
LINE
  5
1FBE
  8
7_ALL_FEATURES
  6
CONTINUOUS
 10
205.3970149491424
 20
140.22783558099789
 30
0.0
 11
205.13034794914239
 21
140.15975058099789
 31
0.0
  0
LINE
  5
1FBF
  8
7_ALL_FEATURES
  6
CONTINUOUS
 10
206.06368094914239
 20
137.50443158099779
 30
0.0
 11
205.79701494914241
 21
137.43634658099791
 31
0.0
  0
LINE
  5
1FC0
  8
7_ALL_FEATURES
  6
CONTINUOUS
 10
206.06368094914239
 20
140.15975058099789
 30
0.0
 11
205.73034794914241
 21
140.22783558099789
 31
0.0
  0
LINE
  5
1FC1
  8
7_ALL_FEATURES
  6
CONTINUOUS
 10
206.13034794914239
 20
138.79804858099789
 30
0.0
 11
205.79701494914241
 21
138.86613358099791
 31
0.0
  0
LINE
  5
1FC2
  8
7_ALL_FEATURES
  6
CONTINUOUS
 10
206.19701494914241
 20
139.4788995809979
 30
0.0
 11
206.59701494914239
 21
139.4788995809979
 31
0.0
  0
LINE
  5
1FC3
  8
7_ALL_FEATURES
  6
CONTINUOUS
 10
205.79701494914241
 20
138.86613358099791
 30
0.0
 11
205.3970149491424
 21
138.86613358099791
 31
0.0
  0
LINE
  5
1FC4
  8
7_ALL_FEATURES
  6
CONTINUOUS
 10
205.3970149491424
 20
138.45762258099791
 30
0.0
 11
205.79701494914241
 21
138.45762258099791
 31
0.0
  0
LINE
  5
1FC5
  8
7_ALL_FEATURES
  6
CONTINUOUS
 10
205.79701494914241
 20
137.43634658099791
 30
0.0
 11
205.26368094914241
 21
137.43634658099791
 31
0.0
  0
LINE
  5
1FC6
  8
7_ALL_FEATURES
  6
CONTINUOUS
 10
205.26368094914241
 20
137.0278355809979
 30
0.0
 11
205.79701494914241
 21
137.0278355809979
 31
0.0
  0
LINE
  5
1FC7
  8
7_ALL_FEATURES
  6
CONTINUOUS
 10
207.73034794914241
 20
137.0278355809979
 30
0.0
 11
207.33034794914241
 21
137.0278355809979
 31
0.0
  0
LINE
  5
1FC8
  8
7_ALL_FEATURES
  6
CONTINUOUS
 10
205.79701494914241
 20
137.0278355809979
 30
0.0
 11
206.13034794914239
 21
137.0959205809979
 31
0.0
  0
LINE
  5
1FC9
  8
7_ALL_FEATURES
  6
CONTINUOUS
 10
206.3970149491424
 20
138.66187858099789
 30
0.0
 11
206.13034794914239
 21
138.79804858099789
 31
0.0
  0
LINE
  5
1FCA
  8
7_ALL_FEATURES
  6
CONTINUOUS
 10
205.79701494914241
 20
139.8193255809978
 30
0.0
 11
205.9970149491424
 21
139.75124058099789
 31
0.0
  0
LINE
  5
1FCB
  8
7_ALL_FEATURES
  6
CONTINUOUS
 10
205.3970149491424
 20
138.86613358099791
 30
0.0
 11
205.19701494914241
 21
138.93421858099791
 31
0.0
  0
LINE
  5
1FCC
  8
7_ALL_FEATURES
  6
CONTINUOUS
 10
205.79701494914241
 20
138.45762258099791
 30
0.0
 11
206.06368094914239
 21
138.38953758099791
 31
0.0
  0
LINE
  5
1FCD
  8
7_ALL_FEATURES
  6
CONTINUOUS
 10
205.13034794914239
 20
138.5257085809979
 30
0.0
 11
205.3970149491424
 21
138.45762258099791
 31
0.0
  0
LINE
  5
1FCE
  8
7_ALL_FEATURES
  6
CONTINUOUS
 10
205.26368094914241
 20
137.43634658099791
 30
0.0
 11
204.9970149491424
 21
137.50443158099779
 31
0.0
  0
LINE
  5
1FCF
  8
7_ALL_FEATURES
  6
CONTINUOUS
 10
205.9970149491424
 20
139.75124058099789
 30
0.0
 11
206.13034794914239
 21
139.61506958099781
 31
0.0
  0
LINE
  5
1FD0
  8
7_ALL_FEATURES
  6
CONTINUOUS
 10
206.66368094914239
 20
138.38953758099791
 30
0.0
 11
206.3970149491424
 21
138.66187858099789
 31
0.0
  0
LINE
  5
1FD1
  8
7_ALL_FEATURES
  6
CONTINUOUS
 10
206.33034794914241
 20
139.9554955809979
 30
0.0
 11
206.06368094914239
 21
140.15975058099789
 31
0.0
  0
LINE
  5
1FD2
  8
7_ALL_FEATURES
  6
CONTINUOUS
 10
206.06368094914239
 20
138.38953758099791
 30
0.0
 11
206.26368094914241
 21
138.25336758099789
 31
0.0
  0
LINE
  5
1FD3
  8
7_ALL_FEATURES
  6
CONTINUOUS
 10
205.19701494914241
 20
138.93421858099791
 30
0.0
 11
204.9970149491424
 21
139.0703885809979
 31
0.0
  0
LINE
  5
1FD4
  8
7_ALL_FEATURES
  6
CONTINUOUS
 10
206.26368094914241
 20
138.25336758099789
 30
0.0
 11
206.3970149491424
 21
138.0491125809979
 31
0.0
  0
LINE
  5
1FD5
  8
7_ALL_FEATURES
  6
CONTINUOUS
 10
206.5303479491424
 20
139.68315458099781
 30
0.0
 11
206.33034794914241
 21
139.9554955809979
 31
0.0
  0
LINE
  5
1FD6
  8
7_ALL_FEATURES
  6
CONTINUOUS
 10
206.59701494914239
 20
139.4788995809979
 30
0.0
 11
206.5303479491424
 21
139.68315458099781
 31
0.0
  0
LINE
  5
1FD7
  8
7_ALL_FEATURES
  6
CONTINUOUS
 10
206.13034794914239
 20
139.61506958099781
 30
0.0
 11
206.19701494914241
 21
139.4788995809979
 31
0.0
  0
LINE
  5
1FD8
  8
7_ALL_FEATURES
  6
CONTINUOUS
 10
206.79701494914241
 20
138.1171975809979
 30
0.0
 11
206.66368094914239
 21
138.38953758099791
 31
0.0
  0
LINE
  5
1FD9
  8
7_ALL_FEATURES
  6
CONTINUOUS
 10
207.73034794914241
 20
138.5257085809979
 30
0.0
 11
207.73034794914241
 21
137.0278355809979
 31
0.0
  0
LINE
  5
1FDA
  8
7_ALL_FEATURES
  6
CONTINUOUS
 10
207.73034794914241
 20
140.22783558099789
 30
0.0
 11
207.73034794914241
 21
138.93421858099791
 31
0.0
  0
LINE
  5
1FDB
  8
7_ALL_FEATURES
  6
CONTINUOUS
 10
207.33034794914241
 20
137.0278355809979
 30
0.0
 11
207.33034794914241
 21
140.22783558099789
 31
0.0
  0
LINE
  5
1FDC
  8
7_ALL_FEATURES
  6
CONTINUOUS
 10
206.79701494914241
 20
137.7767715809978
 30
0.0
 11
206.79701494914241
 21
138.1171975809979
 31
0.0
  0
LINE
  5
1FDD
  8
7_ALL_FEATURES
  6
CONTINUOUS
 10
206.3970149491424
 20
138.0491125809979
 30
0.0
 11
206.3970149491424
 21
137.84485758099791
 31
0.0
  0
LINE
  5
1FDE
  8
7_ALL_FEATURES
  6
CONTINUOUS
 10
206.13034794914239
 20
137.0959205809979
 30
0.0
 11
206.3970149491424
 21
137.23209158099789
 31
0.0
  0
LINE
  5
1FDF
  8
7_ALL_FEATURES
  6
CONTINUOUS
 10
206.26368094914241
 20
137.64060158099781
 30
0.0
 11
206.06368094914239
 21
137.50443158099779
 31
0.0
  0
LINE
  5
1FE0
  8
7_ALL_FEATURES
  6
CONTINUOUS
 10
206.3970149491424
 20
137.23209158099789
 30
0.0
 11
206.66368094914239
 21
137.50443158099779
 31
0.0
  0
LINE
  5
1FE1
  8
7_ALL_FEATURES
  6
CONTINUOUS
 10
206.3970149491424
 20
137.84485758099791
 30
0.0
 11
206.26368094914241
 21
137.64060158099781
 31
0.0
  0
LINE
  5
1FE2
  8
7_ALL_FEATURES
  6
CONTINUOUS
 10
206.66368094914239
 20
137.50443158099779
 30
0.0
 11
206.79701494914241
 21
137.7767715809978
 31
0.0
  0
LINE
  5
1FE3
  8
7_ALL_FEATURES
  6
CONTINUOUS
 10
205.19701494914241
 20
139.75124058099789
 30
0.0
 11
205.3970149491424
 21
139.8193255809978
 31
0.0
  0
LINE
  5
1FE4
  8
7_ALL_FEATURES
  6
CONTINUOUS
 10
204.9970149491424
 20
139.61506958099781
 30
0.0
 11
205.19701494914241
 21
139.75124058099789
 31
0.0
  0
LINE
  5
1FE5
  8
7_ALL_FEATURES
  6
CONTINUOUS
 10
205.33648794914239
 20
139.79872058099789
 30
0.0
 11
205.75962394914239
 21
140.2218555809979
 31
0.0
  0
LINE
  5
1FE7
  8
0
  6
CONTINUOUS
 10
74.480102949142463
 20
160.0278355809979
 30
0.0
 11
107.48010294914241
 21
160.0278355809979
 31
0.0
  0
ARC
  5
1FEA
  8
0
  6
CONTINUOUS
 10
74.480102949142463
 20
159.0278355809979
 30
0.0
 40
1.0
 50
90.0
 51
180.0
  0
ARC
  5
1FEC
  8
0
  6
CONTINUOUS
 10
158.73034794914241
 20
249.45963458099791
 30
0.0
 40
3.0
 50
92.999999999999915
 51
180.0
  0
LINE
  5
1FED
  8
0
  6
CONTINUOUS
 10
181.73034794914241
 20
238.48570358099781
 30
0.0
 11
181.73034794914241
 21
255.98570358099789
 31
0.0
  0
LINE
  5
1FEE
  8
0
  6
CONTINUOUS
 10
178.23034794914241
 20
238.48570358099781
 30
0.0
 11
178.23034794914241
 21
254.98570358099781
 31
0.0
  0
LINE
  5
1FF0
  8
2_ALL_NOTES
  6
CONTINUOUS
 62
    40
 10
144.94113594914239
 20
192.22628958099779
 30
0.0
 11
124.7811359491424
 21
192.22628958099779
 31
0.0
  0
TEXT
  5
1FF1
  8
2_ALL_NOTES
  6
CONTINUOUS
 62
    40
 10
124.7811359491424
 20
192.92628958099789
 30
0.0
 40
2.7999999999999989
  1
（底面に移設可能）
 41
0.8
  0
TEXT
  5
1FF2
  8
2_ALL_NOTES
  6
CONTINUOUS
 62
    40
 10
127.0211359491424
 20
197.12628958099791
 30
0.0
 40
2.7999999999999989
  1
絶縁取付アダプタ
 41
0.8
  0
ARC
  5
1FF5
  8
0
  6
CONTINUOUS
 10
107.48010294914241
 20
159.0278355809979
 30
0.0
 40
1.0
 50
0.0
 51
90.0
  0
LINE
  5
1FFA
  8
0
  6
CONTINUOUS
 10
189.5303479491424
 20
207.48570358099789
 30
0.0
 11
189.5303479491424
 21
204.48570358099781
 31
0.0
  0
LINE
  5
1FFB
  8
0
  6
CONTINUOUS
 10
181.5303479491424
 20
204.48570358099781
 30
0.0
 11
181.5303479491424
 21
207.48570358099789
 31
0.0
  0
LINE
  5
1FFC
  8
0
  6
CONTINUOUS
 10
175.73034794914241
 20
237.48570358099781
 30
0.0
 11
175.73034794914241
 21
204.48570358099781
 31
0.0
  0
LINE
  5
1FFD
  8
0
  6
CONTINUOUS
 10
155.73034794914241
 20
249.45963458099791
 30
0.0
 11
155.73022594914241
 21
189.7857035809979
 31
0.0
  0
LINE
  5
1FFE
  8
2_ALL_NOTES
  6
CONTINUOUS
 62
    40
 10
175.73034794914241
 20
216.7731775809979
 30
0.0
 11
146.94113594914239
 21
192.22628958099779
 31
0.0
  0
ARC
  5
2000
  8
0
  6
CONTINUOUS
 10
176.73034794914241
 20
204.48570358099781
 30
0.0
 40
1.0
 50
180.0
 51
270.0
  0
ARC
  5
2001
  8
0
  6
CONTINUOUS
 10
176.73034794914241
 20
159.0278355809979
 30
0.0
 40
1.0
 50
90.0
 51
180.0
  0
LINE
  5
2002
  8
0
  6
CONTINUOUS
 10
158.57333994914239
 20
189.51588358099789
 30
0.0
 11
177.7565159491424
 21
188.51053658099789
 31
0.0
  0
LINE
  5
2006
  8
2_ALL_NOTES
  6
CONTINUOUS
 10
146.94113594914239
 20
192.22628958099779
 30
0.0
 11
144.94113594914239
 21
192.22628958099779
 31
0.0
  0
ARC
  5
2007
  8
0
  6
CONTINUOUS
 10
158.73034794914241
 20
192.5117725809979
 30
0.0
 40
3.0
 50
180.0
 51
267.0
  0
LINE
  5
2008
  8
0
  6
CONTINUOUS
 10
155.73022594914241
 20
189.7857035809979
 30
0.0
 11
156.0302259491425
 21
189.48570358099781
 31
0.0
  0
LINE
  5
2009
  8
0
  6
CONTINUOUS
 10
156.0302259491425
 20
189.48570358099781
 30
0.0
 11
159.1492119491424
 21
189.48570358099781
 31
0.0
  0
LINE
  5
200A
  8
0
  6
CONTINUOUS
 10
156.0302259491425
 20
191.2484985809979
 30
0.0
 11
156.0302259491425
 21
189.48570358099781
 31
0.0
  0
ARC
  5
200C
  8
0
  6
CONTINUOUS
 10
180.5303479491424
 20
159.0278355809979
 30
0.0
 40
1.0
 50
0.0
 51
90.0
  0
ARC
  5
200D
  8
0
  6
CONTINUOUS
 10
190.5303479491424
 20
159.0278355809979
 30
0.0
 40
1.0
 50
90.0
 51
180.0
  0
LINE
  5
2011
  8
0
  6
CONTINUOUS
 10
181.73034794914241
 20
185.98570358099781
 30
0.0
 11
181.73034794914241
 21
203.48570358099789
 31
0.0
  0
LINE
  5
2012
  8
0
  6
CONTINUOUS
 10
178.23034794914241
 20
186.98570358099781
 30
0.0
 11
178.23034794914241
 21
203.48570358099789
 31
0.0
  0
ARC
  5
2013
  8
0
  6
CONTINUOUS
 10
179.23034794914241
 20
186.98570358099781
 30
0.0
 40
1.0
 50
180.0
 51
270.0
  0
ARC
  5
2014
  8
0
  6
CONTINUOUS
 10
177.73034794914241
 20
188.0112215809979
 30
0.0
 40
0.5
 50
0.0
 51
87.000000000000085
  0
ARC
  5
2015
  8
0
  6
CONTINUOUS
 10
180.5303479491424
 20
204.48570358099781
 30
0.0
 40
1.0
 50
270.0
 51
0.0
  0
ARC
  5
2016
  8
0
  6
CONTINUOUS
 10
190.5303479491424
 20
204.48570358099781
 30
0.0
 40
1.0
 50
180.0
 51
270.0
  0
ARC
  5
2017
  8
0
  6
CONTINUOUS
 10
176.73034794914241
 20
237.48570358099781
 30
0.0
 40
1.0
 50
90.0
 51
180.0
  0
LINE
  5
2018
  8
DEFAULT_1
  6
CENTER
 10
176.48034794914241
 20
220.98570358099781
 30
0.0
 11
145.96807394914239
 21
220.98570358099781
 31
0.0
  0
LINE
  5
2019
  8
0
  6
CONTINUOUS
 10
155.23034794914241
 20
205.48570358099789
 30
0.0
 11
155.23034794914241
 21
236.48570358099789
 31
0.0
  0
ARC
  5
201A
  8
0
  6
CONTINUOUS
 10
155.23034794914241
 20
204.98570358099781
 30
0.0
 40
0.5
 50
22.499715000000069
 51
90.0
  0
LINE
  5
201B
  8
2_ALL_NOTES
  6
CONTINUOUS
 10
175.73034794914241
 20
216.7731775809979
 30
0.0
 11
173.80294594914241
 21
215.9511395809979
 31
0.0
  0
LINE
  5
201C
  8
2_ALL_NOTES
  6
CONTINUOUS
 10
174.6139649491424
 20
214.99995658099789
 30
0.0
 11
175.73034794914241
 21
216.7731775809979
 31
0.0
  0
ARC
  5
201D
  8
0
  6
CONTINUOUS
 10
155.23034794914241
 20
236.98570358099789
 30
0.0
 40
0.5
 50
270.0
 51
337.50028499999991
  0
LINE
  5
201E
  8
DEFAULT_1
  6
CENTER
 10
182.23034794914241
 20
220.98570358099781
 30
0.0
 11
205.23034794914241
 21
220.98570358099781
 31
0.0
  0
LINE
  5
201F
  8
2_ALL_NOTES
  6
CONTINUOUS
 10
183.07150994914241
 20
217.84644458099791
 30
0.0
 11
183.82012994914251
 21
215.88935658099791
 31
0.0
  0
LINE
  5
2020
  8
DEFAULT_1
  6
CENTER
 10
182.23034794914241
 20
220.98570358099781
 30
0.0
 11
182.23034794914241
 21
213.98570358099789
 31
0.0
  0
ARC
  5
2021
  8
0
  6
CONTINUOUS
 10
185.5303479491424
 20
207.48570358099789
 30
0.0
 40
4.0
 50
0.0
 51
180.0
  0
CIRCLE
  5
2022
  8
0
  6
CONTINUOUS
 10
185.5303479491424
 20
207.48570358099789
 30
0.0
 40
2.5476349999999992
  0
CIRCLE
  5
2023
  8
0
  6
CONTINUOUS
 10
185.5303479491424
 20
207.48570358099789
 30
0.0
 40
2.649999999999999
  0
LINE
  5
2024
  8
0
  6
CONTINUOUS
 10
184.0303479491424
 20
207.98570358099789
 30
0.0
 11
185.0303479491424
 21
207.98570358099789
 31
0.0
  0
LINE
  5
2025
  8
0
  6
CONTINUOUS
 10
185.0303479491424
 20
206.98570358099781
 30
0.0
 11
184.0303479491424
 21
206.98570358099781
 31
0.0
  0
LINE
  5
2026
  8
0
  6
CONTINUOUS
 10
184.0303479491424
 20
206.98570358099781
 30
0.0
 11
184.0303479491424
 21
207.98570358099789
 31
0.0
  0
LINE
  5
2027
  8
0
  6
CONTINUOUS
 10
185.0303479491424
 20
208.98570358099781
 30
0.0
 11
186.0303479491424
 21
208.98570358099781
 31
0.0
  0
LINE
  5
2028
  8
0
  6
CONTINUOUS
 10
186.0303479491424
 20
207.98570358099789
 30
0.0
 11
187.0303479491424
 21
207.98570358099789
 31
0.0
  0
LINE
  5
2029
  8
0
  6
CONTINUOUS
 10
187.0303479491424
 20
206.98570358099781
 30
0.0
 11
186.0303479491424
 21
206.98570358099781
 31
0.0
  0
LINE
  5
202A
  8
0
  6
CONTINUOUS
 10
186.0303479491424
 20
205.98570358099789
 30
0.0
 11
185.0303479491424
 21
205.98570358099789
 31
0.0
  0
LINE
  5
202B
  8
0
  6
CONTINUOUS
 10
187.0303479491424
 20
207.98570358099789
 30
0.0
 11
187.0303479491424
 21
206.98570358099781
 31
0.0
  0
LINE
  5
202C
  8
0
  6
CONTINUOUS
 10
186.0303479491424
 20
206.98570358099781
 30
0.0
 11
186.0303479491424
 21
205.98570358099789
 31
0.0
  0
LINE
  5
202D
  8
0
  6
CONTINUOUS
 10
186.0303479491424
 20
208.98570358099781
 30
0.0
 11
186.0303479491424
 21
207.98570358099789
 31
0.0
  0
LINE
  5
202E
  8
0
  6
CONTINUOUS
 10
185.0303479491424
 20
207.98570358099789
 30
0.0
 11
185.0303479491424
 21
208.98570358099781
 31
0.0
  0
LINE
  5
202F
  8
0
  6
CONTINUOUS
 10
185.0303479491424
 20
205.98570358099789
 30
0.0
 11
185.0303479491424
 21
206.98570358099781
 31
0.0
  0
LINE
  5
2030
  8
2_ALL_NOTES
  6
CONTINUOUS
 10
184.80127994914241
 20
216.66385358099791
 30
0.0
 11
183.07150994914241
 21
217.84644458099791
 31
0.0
  0
CIRCLE
  5
2031
  8
0
  6
CONTINUOUS
 10
182.23034794914241
 20
220.98570358099781
 30
0.0
 40
3.25
  0
CIRCLE
  5
2032
  8
0
  6
CONTINUOUS
 10
182.23034794914241
 20
220.98570358099781
 30
0.0
 40
4.5
  0
LINE
  5
2033
  8
DEFAULT_1
  6
CENTER
 10
182.23034794914241
 20
220.98570358099781
 30
0.0
 11
182.23034794914241
 21
226.73570358099789
 31
0.0
  0
LINE
  5
2034
  8
0
  6
CONTINUOUS
 10
181.73034794914241
 20
224.16987758099791
 30
0.0
 11
181.73034794914241
 21
217.80152958099779
 31
0.0
  0
LINE
  5
2035
  8
0
  6
CONTINUOUS
 10
180.13034794914239
 20
218.53560158099791
 30
0.0
 11
180.13034794914239
 21
223.43580558099791
 31
0.0
  0
LINE
  5
2036
  8
0
  6
CONTINUOUS
 10
179.83490594914241
 20
218.81446958099789
 30
0.0
 11
179.83490594914241
 21
223.15693758099789
 31
0.0
  0
LINE
  5
2037
  8
DEFAULT_1
  6
CENTER
 10
182.23034794914241
 20
220.98570358099781
 30
0.0
 11
176.48034794914241
 21
220.98570358099781
 31
0.0
  0
LINE
  5
2038
  8
DEFAULT_1
  6
CENTER
 10
182.23034794914241
 20
226.73570358099789
 30
0.0
 11
182.23034794914241
 21
227.5259675809979
 31
0.0
  0
LINE
  5
2039
  8
DEFAULT_1
  6
CENTER
 10
207.73034794914241
 20
220.98570358099781
 30
0.0
 11
205.23034794914241
 21
220.98570358099781
 31
0.0
  0
ARC
  5
203A
  8
0
  6
CONTINUOUS
 10
185.5303479491424
 20
234.48570358099789
 30
0.0
 40
4.0
 50
180.0
 51
0.0
  0
CIRCLE
  5
203B
  8
0
  6
CONTINUOUS
 10
185.5303479491424
 20
234.48570358099789
 30
0.0
 40
2.5476349999999992
  0
CIRCLE
  5
203C
  8
0
  6
CONTINUOUS
 10
185.5303479491424
 20
234.48570358099789
 30
0.0
 40
2.649999999999999
  0
LINE
  5
203D
  8
0
  6
CONTINUOUS
 10
184.0303479491424
 20
234.98570358099789
 30
0.0
 11
185.0303479491424
 21
234.98570358099789
 31
0.0
  0
LINE
  5
203E
  8
0
  6
CONTINUOUS
 10
185.0303479491424
 20
233.98570358099781
 30
0.0
 11
184.0303479491424
 21
233.98570358099781
 31
0.0
  0
ARC
  5
203F
  8
0
  6
CONTINUOUS
 10
180.5303479491424
 20
237.48570358099781
 30
0.0
 40
1.0
 50
0.0
 51
90.0
  0
LINE
  5
2040
  8
0
  6
CONTINUOUS
 10
184.0303479491424
 20
233.98570358099781
 30
0.0
 11
184.0303479491424
 21
234.98570358099789
 31
0.0
  0
LINE
  5
2041
  8
0
  6
CONTINUOUS
 10
181.5303479491424
 20
234.48570358099789
 30
0.0
 11
181.5303479491424
 21
237.48570358099781
 31
0.0
  0
LINE
  5
2042
  8
0
  6
CONTINUOUS
 10
186.0303479491424
 20
233.98570358099781
 30
0.0
 11
186.0303479491424
 21
232.98570358099789
 31
0.0
  0
LINE
  5
2043
  8
0
  6
CONTINUOUS
 10
185.0303479491424
 20
232.98570358099789
 30
0.0
 11
185.0303479491424
 21
233.98570358099781
 31
0.0
  0
LINE
  5
2044
  8
0
  6
CONTINUOUS
 10
186.0303479491424
 20
232.98570358099789
 30
0.0
 11
185.0303479491424
 21
232.98570358099789
 31
0.0
  0
LINE
  5
2045
  8
0
  6
CONTINUOUS
 10
185.0303479491424
 20
235.98570358099781
 30
0.0
 11
186.0303479491424
 21
235.98570358099781
 31
0.0
  0
LINE
  5
2046
  8
0
  6
CONTINUOUS
 10
186.0303479491424
 20
234.98570358099789
 30
0.0
 11
187.0303479491424
 21
234.98570358099789
 31
0.0
  0
LINE
  5
2047
  8
0
  6
CONTINUOUS
 10
187.0303479491424
 20
233.98570358099781
 30
0.0
 11
186.0303479491424
 21
233.98570358099781
 31
0.0
  0
LINE
  5
2048
  8
0
  6
CONTINUOUS
 10
187.0303479491424
 20
234.98570358099789
 30
0.0
 11
187.0303479491424
 21
233.98570358099781
 31
0.0
  0
LINE
  5
2049
  8
0
  6
CONTINUOUS
 10
186.0303479491424
 20
235.98570358099781
 30
0.0
 11
186.0303479491424
 21
234.98570358099789
 31
0.0
  0
LINE
  5
204A
  8
0
  6
CONTINUOUS
 10
185.0303479491424
 20
234.98570358099789
 30
0.0
 11
185.0303479491424
 21
235.98570358099781
 31
0.0
  0
ARC
  5
204B
  8
0
  6
CONTINUOUS
 10
190.5303479491424
 20
237.48570358099781
 30
0.0
 40
1.0
 50
90.0
 51
180.0
  0
LINE
  5
204C
  8
0
  6
CONTINUOUS
 10
189.5303479491424
 20
237.48570358099781
 30
0.0
 11
189.5303479491424
 21
234.48570358099789
 31
0.0
  0
LINE
  5
204D
  8
0
  6
CONTINUOUS
 10
158.57333994914239
 20
252.45552358099789
 30
0.0
 11
177.7565159491424
 21
253.46087158099789
 31
0.0
  0
ARC
  5
204F
  8
0
  6
CONTINUOUS
 10
177.73034794914241
 20
253.96018558099789
 30
0.0
 40
0.5
 50
272.99999999999989
 51
0.0
  0
ARC
  5
2050
  8
0
  6
CONTINUOUS
 10
179.23034794914241
 20
254.98570358099781
 30
0.0
 40
1.0
 50
90.0
 51
180.0
  0
LINE
  5
2051
  8
0
  6
CONTINUOUS
 10
357.70609094914249
 20
150.0278355809979
 30
0.0
 11
357.70609094914249
 21
159.0278355809979
 31
0.0
  0
LINE
  5
2052
  8
0
  6
CONTINUOUS
 10
344.20609094914238
 20
159.0278355809979
 30
0.0
 11
344.20609094914238
 21
153.0278355809979
 31
0.0
  0
LINE
  5
2053
  8
0
  6
CONTINUOUS
 10
336.20609094914238
 20
153.0278355809979
 30
0.0
 11
336.20609094914238
 21
159.0278355809979
 31
0.0
  0
LINE
  5
2054
  8
0
  6
CONTINUOUS
 10
322.70609094914249
 20
150.0278355809979
 30
0.0
 11
322.70609094914249
 21
159.0278355809979
 31
0.0
  0
LINE
  5
2055
  8
0
  6
CONTINUOUS
 10
225.73034794914241
 20
150.0278355809979
 30
0.0
 11
225.73034794914241
 21
159.0278355809979
 31
0.0
  0
LINE
  5
2056
  8
0
  6
CONTINUOUS
 10
339.81465894914243
 20
90.807377580997908
 30
0.0
 11
340.55823794914238
 21
90.809685580997964
 31
0.0
  0
LINE
  5
2057
  8
0
  6
CONTINUOUS
 10
340.55821994914248
 20
149.24598458099791
 30
0.0
 11
339.81466994914251
 21
149.24829358099791
 31
0.0
  0
ARC
  5
2058
  8
0
  6
CONTINUOUS
 10
340.20609094914238
 20
144.5278355809979
 30
0.0
 40
9.8868600000000004
 50
87.101191000000071
 51
92.898808999999915
  0
LINE
  5
2059
  8
0
  6
CONTINUOUS
 10
337.65845494914242
 20
154.19786958099789
 30
0.0
 11
342.75372594914239
 21
154.19786958099789
 31
0.0
  0
LINE
  5
205A
  8
0
  6
CONTINUOUS
 10
345.20609094914249
 20
153.0278355809979
 30
0.0
 11
335.20609094914249
 21
153.0278355809979
 31
0.0
  0
LINE
  5
205B
  8
0
  6
CONTINUOUS
 10
310.20609094914249
 20
150.0278355809979
 30
0.0
 11
370.20609094914249
 21
150.0278355809979
 31
0.0
  0
LINE
  5
205C
  8
0
  6
CONTINUOUS
 10
310.20609094914249
 20
90.02783558099793
 30
0.0
 11
370.20609094914249
 21
90.02783558099793
 31
0.0
  0
LINE
  5
205D
  8
0
  6
CONTINUOUS
 10
273.33034794914249
 20
150.0278355809979
 30
0.0
 11
273.33034794914249
 21
90.02783558099793
 31
0.0
  0
LINE
  5
205E
  8
7_ALL_FEATURES
  6
CONTINUOUS
 10
241.73034794914241
 20
100.0278355809979
 30
0.0
 11
243.23034794914241
 21
100.0278355809979
 31
0.0
  0
LINE
  5
205F
  8
7_ALL_FEATURES
  6
CONTINUOUS
 10
243.23034794914241
 20
98.02783558099793
 30
0.0
 11
241.73034794914241
 21
98.02783558099793
 31
0.0
  0
LINE
  5
2060
  8
7_ALL_FEATURES
  6
CONTINUOUS
 10
225.1470149491424
 20
98.155495580997922
 30
0.0
 11
224.98034794914241
 21
98.070388580997943
 31
0.0
  0
LINE
  5
2061
  8
7_ALL_FEATURES
  6
CONTINUOUS
 10
224.0220149491424
 20
99.90017658099795
 30
0.0
 11
224.18868194914239
 21
99.985282580997946
 31
0.0
  0
LINE
  5
2062
  8
7_ALL_FEATURES
  6
CONTINUOUS
 10
224.93868194914239
 20
98.32570858099794
 30
0.0
 11
225.06368194914239
 21
98.410814580997908
 31
0.0
  0
LINE
  5
2063
  8
7_ALL_FEATURES
  6
CONTINUOUS
 10
224.23034794914241
 20
99.729963580997946
 30
0.0
 11
224.10534794914241
 21
99.644857580997964
 31
0.0
  0
LINE
  5
2064
  8
7_ALL_FEATURES
  6
CONTINUOUS
 10
225.31368194914239
 20
98.32570858099794
 30
0.0
 11
225.1470149491424
 21
98.155495580997922
 31
0.0
  0
LINE
  5
2065
  8
7_ALL_FEATURES
  6
CONTINUOUS
 10
223.85534794914241
 20
99.729963580997946
 30
0.0
 11
224.0220149491424
 21
99.90017658099795
 31
0.0
  0
LINE
  5
2066
  8
7_ALL_FEATURES
  6
CONTINUOUS
 10
224.10534794914241
 20
99.644857580997964
 30
0.0
 11
224.0220149491424
 21
99.51719758099793
 31
0.0
  0
LINE
  5
2067
  8
7_ALL_FEATURES
  6
CONTINUOUS
 10
223.7720149491424
 20
99.559750580997928
 30
0.0
 11
223.85534794914241
 21
99.729963580997946
 31
0.0
  0
LINE
  5
2068
  8
7_ALL_FEATURES
  6
CONTINUOUS
 10
225.06368194914239
 20
98.410814580997908
 30
0.0
 11
225.10534794914241
 21
98.538474580997914
 31
0.0
  0
LINE
  5
2069
  8
7_ALL_FEATURES
  6
CONTINUOUS
 10
224.0220149491424
 20
99.51719758099793
 30
0.0
 11
223.98034794914241
 21
99.346984580997955
 31
0.0
  0
LINE
  5
206A
  8
7_ALL_FEATURES
  6
CONTINUOUS
 10
225.35534794914241
 20
98.538474580997914
 30
0.0
 11
225.31368194914239
 21
98.32570858099794
 31
0.0
  0
LINE
  5
206B
  8
7_ALL_FEATURES
  6
CONTINUOUS
 10
223.73034794914241
 20
99.346984580997955
 30
0.0
 11
223.7720149491424
 21
99.559750580997928
 31
0.0
  0
LINE
  5
206C
  8
7_ALL_FEATURES
  6
CONTINUOUS
 10
225.31368194914239
 20
99.729963580997946
 30
0.0
 11
225.35534794914241
 21
99.51719758099793
 31
0.0
  0
LINE
  5
206D
  8
7_ALL_FEATURES
  6
CONTINUOUS
 10
223.98034794914241
 20
99.346984580997955
 30
0.0
 11
223.98034794914241
 21
98.708686580997934
 31
0.0
  0
LINE
  5
206E
  8
7_ALL_FEATURES
  6
CONTINUOUS
 10
223.73034794914241
 20
98.708686580997934
 30
0.0
 11
223.73034794914241
 21
99.346984580997955
 31
0.0
  0
LINE
  5
206F
  8
7_ALL_FEATURES
  6
CONTINUOUS
 10
223.7720149491424
 20
98.495920580997947
 30
0.0
 11
223.73034794914241
 21
98.708686580997934
 31
0.0
  0
LINE
  5
2070
  8
7_ALL_FEATURES
  6
CONTINUOUS
 10
223.98034794914241
 20
98.708686580997934
 30
0.0
 11
224.0220149491424
 21
98.538474580997914
 31
0.0
  0
LINE
  5
2071
  8
7_ALL_FEATURES
  6
CONTINUOUS
 10
225.10534794914241
 20
99.51719758099793
 30
0.0
 11
225.06368194914239
 21
99.644857580997964
 31
0.0
  0
LINE
  5
2072
  8
7_ALL_FEATURES
  6
CONTINUOUS
 10
223.85534794914241
 20
98.32570858099794
 30
0.0
 11
223.7720149491424
 21
98.495920580997947
 31
0.0
  0
LINE
  5
2073
  8
7_ALL_FEATURES
  6
CONTINUOUS
 10
224.0220149491424
 20
98.538474580997914
 30
0.0
 11
224.10534794914241
 21
98.410814580997908
 31
0.0
  0
LINE
  5
2074
  8
7_ALL_FEATURES
  6
CONTINUOUS
 10
225.1470149491424
 20
99.90017658099795
 30
0.0
 11
225.31368194914239
 21
99.729963580997946
 31
0.0
  0
LINE
  5
2075
  8
7_ALL_FEATURES
  6
CONTINUOUS
 10
224.0220149491424
 20
98.155495580997922
 30
0.0
 11
223.85534794914241
 21
98.32570858099794
 31
0.0
  0
LINE
  5
2076
  8
7_ALL_FEATURES
  6
CONTINUOUS
 10
225.06368194914239
 20
99.644857580997964
 30
0.0
 11
224.93868194914239
 21
99.729963580997946
 31
0.0
  0
LINE
  5
2077
  8
7_ALL_FEATURES
  6
CONTINUOUS
 10
224.10534794914241
 20
98.410814580997908
 30
0.0
 11
224.23034794914241
 21
98.32570858099794
 31
0.0
  0
LINE
  5
2078
  8
7_ALL_FEATURES
  6
CONTINUOUS
 10
224.98034794914241
 20
99.985282580997946
 30
0.0
 11
225.1470149491424
 21
99.90017658099795
 31
0.0
  0
LINE
  5
2079
  8
7_ALL_FEATURES
  6
CONTINUOUS
 10
224.18868194914239
 20
98.070388580997943
 30
0.0
 11
224.0220149491424
 21
98.155495580997922
 31
0.0
  0
LINE
  5
207A
  8
7_ALL_FEATURES
  6
CONTINUOUS
 10
224.93868194914239
 20
99.729963580997946
 30
0.0
 11
224.7720149491424
 21
99.772516580997944
 31
0.0
  0
LINE
  5
207B
  8
7_ALL_FEATURES
  6
CONTINUOUS
 10
224.7720149491424
 20
100.0278355809979
 30
0.0
 11
224.98034794914241
 21
99.985282580997946
 31
0.0
  0
LINE
  5
207C
  8
7_ALL_FEATURES
  6
CONTINUOUS
 10
224.23034794914241
 20
98.32570858099794
 30
0.0
 11
224.3970149491424
 21
98.283154580997916
 31
0.0
  0
LINE
  5
207D
  8
7_ALL_FEATURES
  6
CONTINUOUS
 10
224.3970149491424
 20
98.02783558099793
 30
0.0
 11
224.18868194914239
 21
98.070388580997943
 31
0.0
  0
LINE
  5
207E
  8
7_ALL_FEATURES
  6
CONTINUOUS
 10
224.3970149491424
 20
100.0278355809979
 30
0.0
 11
224.7720149491424
 21
100.0278355809979
 31
0.0
  0
LINE
  5
207F
  8
7_ALL_FEATURES
  6
CONTINUOUS
 10
224.7720149491424
 20
99.772516580997944
 30
0.0
 11
224.3970149491424
 21
99.772516580997944
 31
0.0
  0
LINE
  5
2080
  8
7_ALL_FEATURES
  6
CONTINUOUS
 10
225.35534794914241
 20
99.51719758099793
 30
0.0
 11
225.10534794914241
 21
99.51719758099793
 31
0.0
  0
LINE
  5
2081
  8
7_ALL_FEATURES
  6
CONTINUOUS
 10
225.10534794914241
 20
98.538474580997914
 30
0.0
 11
225.35534794914241
 21
98.538474580997914
 31
0.0
  0
LINE
  5
2082
  8
7_ALL_FEATURES
  6
CONTINUOUS
 10
224.3970149491424
 20
98.283154580997916
 30
0.0
 11
224.7720149491424
 21
98.283154580997916
 31
0.0
  0
LINE
  5
2083
  8
7_ALL_FEATURES
  6
CONTINUOUS
 10
224.7720149491424
 20
98.02783558099793
 30
0.0
 11
224.3970149491424
 21
98.02783558099793
 31
0.0
  0
LINE
  5
2084
  8
7_ALL_FEATURES
  6
CONTINUOUS
 10
224.18868194914239
 20
99.985282580997946
 30
0.0
 11
224.3970149491424
 21
100.0278355809979
 31
0.0
  0
LINE
  5
2085
  8
7_ALL_FEATURES
  6
CONTINUOUS
 10
224.98034794914241
 20
98.070388580997943
 30
0.0
 11
224.7720149491424
 21
98.02783558099793
 31
0.0
  0
LINE
  5
2086
  8
7_ALL_FEATURES
  6
CONTINUOUS
 10
224.3970149491424
 20
99.772516580997944
 30
0.0
 11
224.23034794914241
 21
99.729963580997946
 31
0.0
  0
LINE
  5
2087
  8
7_ALL_FEATURES
  6
CONTINUOUS
 10
224.7720149491424
 20
98.283154580997916
 30
0.0
 11
224.93868194914239
 21
98.32570858099794
 31
0.0
  0
LINE
  5
2088
  8
7_ALL_FEATURES
  6
CONTINUOUS
 10
229.56368194914239
 20
99.559750580997928
 30
0.0
 11
229.6470149491424
 21
99.729963580997946
 31
0.0
  0
LINE
  5
2089
  8
7_ALL_FEATURES
  6
CONTINUOUS
 10
229.6470149491424
 20
98.32570858099794
 30
0.0
 11
229.56368194914239
 21
98.495920580997947
 31
0.0
  0
LINE
  5
208A
  8
7_ALL_FEATURES
  6
CONTINUOUS
 10
227.06368094914239
 20
98.155495580997922
 30
0.0
 11
226.8970149491424
 21
98.070388580997943
 31
0.0
  0
LINE
  5
208B
  8
7_ALL_FEATURES
  6
CONTINUOUS
 10
226.85534794914241
 20
98.32570858099794
 30
0.0
 11
226.98034794914241
 21
98.410814580997908
 31
0.0
  0
LINE
  5
208C
  8
7_ALL_FEATURES
  6
CONTINUOUS
 10
225.98034794914241
 20
99.90017658099795
 30
0.0
 11
226.1470149491424
 21
99.985282580997946
 31
0.0
  0
LINE
  5
208D
  8
7_ALL_FEATURES
  6
CONTINUOUS
 10
226.18868094914251
 20
99.729963580997946
 30
0.0
 11
226.06368094914239
 21
99.644857580997964
 31
0.0
  0
LINE
  5
208E
  8
7_ALL_FEATURES
  6
CONTINUOUS
 10
227.23034794914241
 20
98.32570858099794
 30
0.0
 11
227.06368094914239
 21
98.155495580997922
 31
0.0
  0
LINE
  5
208F
  8
7_ALL_FEATURES
  6
CONTINUOUS
 10
225.81368094914239
 20
99.729963580997946
 30
0.0
 11
225.98034794914241
 21
99.90017658099795
 31
0.0
  0
LINE
  5
2090
  8
7_ALL_FEATURES
  6
CONTINUOUS
 10
226.98034794914241
 20
98.410814580997908
 30
0.0
 11
227.06368094914239
 21
98.538474580997914
 31
0.0
  0
LINE
  5
2091
  8
7_ALL_FEATURES
  6
CONTINUOUS
 10
226.06368094914239
 20
99.644857580997964
 30
0.0
 11
225.98034794914241
 21
99.51719758099793
 31
0.0
  0
LINE
  5
2092
  8
7_ALL_FEATURES
  6
CONTINUOUS
 10
227.31368094914251
 20
98.495920580997947
 30
0.0
 11
227.23034794914241
 21
98.32570858099794
 31
0.0
  0
LINE
  5
2093
  8
7_ALL_FEATURES
  6
CONTINUOUS
 10
225.73034794914241
 20
99.559750580997928
 30
0.0
 11
225.81368094914239
 21
99.729963580997946
 31
0.0
  0
LINE
  5
2094
  8
7_ALL_FEATURES
  6
CONTINUOUS
 10
227.06368094914239
 20
98.538474580997914
 30
0.0
 11
227.10534794914241
 21
98.708686580997934
 31
0.0
  0
LINE
  5
2095
  8
7_ALL_FEATURES
  6
CONTINUOUS
 10
225.98034794914241
 20
99.51719758099793
 30
0.0
 11
225.93868094914239
 21
99.346984580997955
 31
0.0
  0
LINE
  5
2096
  8
7_ALL_FEATURES
  6
CONTINUOUS
 10
229.5220149491424
 20
99.346984580997955
 30
0.0
 11
229.56368194914239
 21
99.559750580997928
 31
0.0
  0
LINE
  5
2097
  8
7_ALL_FEATURES
  6
CONTINUOUS
 10
227.35534794914241
 20
98.708686580997934
 30
0.0
 11
227.31368094914251
 21
98.495920580997947
 31
0.0
  0
LINE
  5
2098
  8
7_ALL_FEATURES
  6
CONTINUOUS
 10
225.68868194914239
 20
99.346984580997955
 30
0.0
 11
225.73034794914241
 21
99.559750580997928
 31
0.0
  0
LINE
  5
2099
  8
7_ALL_FEATURES
  6
CONTINUOUS
 10
229.5220149491424
 20
98.708686580997934
 30
0.0
 11
229.5220149491424
 21
99.346984580997955
 31
0.0
  0
LINE
  5
209A
  8
7_ALL_FEATURES
  6
CONTINUOUS
 10
229.18868194914239
 20
98.283154580997916
 30
0.0
 11
229.18868194914239
 21
98.02783558099793
 31
0.0
  0
LINE
  5
209B
  8
7_ALL_FEATURES
  6
CONTINUOUS
 10
227.93868194914239
 20
100.0278355809979
 30
0.0
 11
227.93868194914239
 21
98.283154580997916
 31
0.0
  0
LINE
  5
209C
  8
7_ALL_FEATURES
  6
CONTINUOUS
 10
227.68868094914239
 20
98.02783558099793
 30
0.0
 11
227.68868094914239
 21
100.0278355809979
 31
0.0
  0
LINE
  5
209D
  8
7_ALL_FEATURES
  6
CONTINUOUS
 10
227.35534794914241
 20
99.346984580997955
 30
0.0
 11
227.35534794914241
 21
98.708686580997934
 31
0.0
  0
LINE
  5
209E
  8
7_ALL_FEATURES
  6
CONTINUOUS
 10
227.10534794914241
 20
98.708686580997934
 30
0.0
 11
227.10534794914241
 21
99.346984580997955
 31
0.0
  0
LINE
  5
209F
  8
7_ALL_FEATURES
  6
CONTINUOUS
 10
225.93868094914239
 20
99.346984580997955
 30
0.0
 11
225.93868094914239
 21
98.708686580997934
 31
0.0
  0
LINE
  5
20A0
  8
7_ALL_FEATURES
  6
CONTINUOUS
 10
225.68868194914239
 20
98.708686580997934
 30
0.0
 11
225.68868194914239
 21
99.346984580997955
 31
0.0
  0
LINE
  5
20A1
  8
7_ALL_FEATURES
  6
CONTINUOUS
 10
229.56368194914239
 20
98.495920580997947
 30
0.0
 11
229.5220149491424
 21
98.708686580997934
 31
0.0
  0
LINE
  5
20A2
  8
7_ALL_FEATURES
  6
CONTINUOUS
 10
227.31368094914251
 20
99.559750580997928
 30
0.0
 11
227.35534794914241
 21
99.346984580997955
 31
0.0
  0
LINE
  5
20A3
  8
7_ALL_FEATURES
  6
CONTINUOUS
 10
225.73034794914241
 20
98.495920580997947
 30
0.0
 11
225.68868194914239
 21
98.708686580997934
 31
0.0
  0
LINE
  5
20A4
  8
7_ALL_FEATURES
  6
CONTINUOUS
 10
227.10534794914241
 20
99.346984580997955
 30
0.0
 11
227.06368094914239
 21
99.51719758099793
 31
0.0
  0
LINE
  5
20A5
  8
7_ALL_FEATURES
  6
CONTINUOUS
 10
225.93868094914239
 20
98.708686580997934
 30
0.0
 11
225.98034794914241
 21
98.538474580997914
 31
0.0
  0
LINE
  5
20A6
  8
7_ALL_FEATURES
  6
CONTINUOUS
 10
227.23034794914241
 20
99.729963580997946
 30
0.0
 11
227.31368094914251
 21
99.559750580997928
 31
0.0
  0
LINE
  5
20A7
  8
7_ALL_FEATURES
  6
CONTINUOUS
 10
225.81368094914239
 20
98.32570858099794
 30
0.0
 11
225.73034794914241
 21
98.495920580997947
 31
0.0
  0
LINE
  5
20A8
  8
7_ALL_FEATURES
  6
CONTINUOUS
 10
227.06368094914239
 20
99.51719758099793
 30
0.0
 11
226.98034794914241
 21
99.644857580997964
 31
0.0
  0
LINE
  5
20A9
  8
7_ALL_FEATURES
  6
CONTINUOUS
 10
225.98034794914241
 20
98.538474580997914
 30
0.0
 11
226.06368094914239
 21
98.410814580997908
 31
0.0
  0
LINE
  5
20AA
  8
7_ALL_FEATURES
  6
CONTINUOUS
 10
227.06368094914239
 20
99.90017658099795
 30
0.0
 11
227.23034794914241
 21
99.729963580997946
 31
0.0
  0
LINE
  5
20AB
  8
7_ALL_FEATURES
  6
CONTINUOUS
 10
225.98034794914241
 20
98.155495580997922
 30
0.0
 11
225.81368094914239
 21
98.32570858099794
 31
0.0
  0
LINE
  5
20AC
  8
7_ALL_FEATURES
  6
CONTINUOUS
 10
226.98034794914241
 20
99.644857580997964
 30
0.0
 11
226.85534794914241
 21
99.729963580997946
 31
0.0
  0
LINE
  5
20AD
  8
7_ALL_FEATURES
  6
CONTINUOUS
 10
226.06368094914239
 20
98.410814580997908
 30
0.0
 11
226.18868094914251
 21
98.32570858099794
 31
0.0
  0
LINE
  5
20AE
  8
7_ALL_FEATURES
  6
CONTINUOUS
 10
226.8970149491424
 20
99.985282580997946
 30
0.0
 11
227.06368094914239
 21
99.90017658099795
 31
0.0
  0
LINE
  5
20AF
  8
7_ALL_FEATURES
  6
CONTINUOUS
 10
226.1470149491424
 20
98.070388580997943
 30
0.0
 11
225.98034794914241
 21
98.155495580997922
 31
0.0
  0
LINE
  5
20B0
  8
7_ALL_FEATURES
  6
CONTINUOUS
 10
226.85534794914241
 20
99.729963580997946
 30
0.0
 11
226.68868094914239
 21
99.772516580997944
 31
0.0
  0
LINE
  5
20B1
  8
7_ALL_FEATURES
  6
CONTINUOUS
 10
226.18868094914251
 20
98.32570858099794
 30
0.0
 11
226.35534794914241
 21
98.283154580997916
 31
0.0
  0
LINE
  5
20B2
  8
7_ALL_FEATURES
  6
CONTINUOUS
 10
226.68868094914239
 20
100.0278355809979
 30
0.0
 11
226.8970149491424
 21
99.985282580997946
 31
0.0
  0
LINE
  5
20B3
  8
7_ALL_FEATURES
  6
CONTINUOUS
 10
226.35534794914241
 20
98.02783558099793
 30
0.0
 11
226.1470149491424
 21
98.070388580997943
 31
0.0
  0
LINE
  5
20B4
  8
7_ALL_FEATURES
  6
CONTINUOUS
 10
227.68868094914239
 20
100.0278355809979
 30
0.0
 11
227.93868194914239
 21
100.0278355809979
 31
0.0
  0
LINE
  5
20B5
  8
7_ALL_FEATURES
  6
CONTINUOUS
 10
226.35534794914241
 20
100.0278355809979
 30
0.0
 11
226.68868094914239
 21
100.0278355809979
 31
0.0
  0
LINE
  5
20B6
  8
7_ALL_FEATURES
  6
CONTINUOUS
 10
226.68868094914239
 20
99.772516580997944
 30
0.0
 11
226.35534794914241
 21
99.772516580997944
 31
0.0
  0
LINE
  5
20B7
  8
7_ALL_FEATURES
  6
CONTINUOUS
 10
227.93868194914239
 20
98.283154580997916
 30
0.0
 11
229.18868194914239
 21
98.283154580997916
 31
0.0
  0
LINE
  5
20B8
  8
7_ALL_FEATURES
  6
CONTINUOUS
 10
226.35534794914241
 20
98.283154580997916
 30
0.0
 11
226.68868094914239
 21
98.283154580997916
 31
0.0
  0
LINE
  5
20B9
  8
7_ALL_FEATURES
  6
CONTINUOUS
 10
226.68868094914239
 20
98.02783558099793
 30
0.0
 11
226.35534794914241
 21
98.02783558099793
 31
0.0
  0
LINE
  5
20BA
  8
7_ALL_FEATURES
  6
CONTINUOUS
 10
229.18868194914239
 20
98.02783558099793
 30
0.0
 11
227.68868094914239
 21
98.02783558099793
 31
0.0
  0
LINE
  5
20BB
  8
7_ALL_FEATURES
  6
CONTINUOUS
 10
226.1470149491424
 20
99.985282580997946
 30
0.0
 11
226.35534794914241
 21
100.0278355809979
 31
0.0
  0
LINE
  5
20BC
  8
7_ALL_FEATURES
  6
CONTINUOUS
 10
226.8970149491424
 20
98.070388580997943
 30
0.0
 11
226.68868094914239
 21
98.02783558099793
 31
0.0
  0
LINE
  5
20BD
  8
7_ALL_FEATURES
  6
CONTINUOUS
 10
226.35534794914241
 20
99.772516580997944
 30
0.0
 11
226.18868094914251
 21
99.729963580997946
 31
0.0
  0
LINE
  5
20BE
  8
7_ALL_FEATURES
  6
CONTINUOUS
 10
226.68868094914239
 20
98.283154580997916
 30
0.0
 11
226.85534794914241
 21
98.32570858099794
 31
0.0
  0
LINE
  5
20BF
  8
7_ALL_FEATURES
  6
CONTINUOUS
 10
232.56368094914239
 20
99.176771580997922
 30
0.0
 11
232.68868094914251
 21
99.219325580997918
 31
0.0
  0
LINE
  5
20C0
  8
7_ALL_FEATURES
  6
CONTINUOUS
 10
232.8970149491424
 20
99.091665580997926
 30
0.0
 11
232.73034794914241
 21
99.00655958099793
 31
0.0
  0
LINE
  5
20C1
  8
7_ALL_FEATURES
  6
CONTINUOUS
 10
230.8970149491424
 20
98.155495580997922
 30
0.0
 11
230.73034794914241
 21
98.070388580997943
 31
0.0
  0
LINE
  5
20C2
  8
7_ALL_FEATURES
  6
CONTINUOUS
 10
229.81368194914239
 20
99.90017658099795
 30
0.0
 11
229.98034794914241
 21
99.985282580997946
 31
0.0
  0
LINE
  5
20C3
  8
7_ALL_FEATURES
  6
CONTINUOUS
 10
230.68868194914239
 20
98.32570858099794
 30
0.0
 11
230.81368194914239
 21
98.410814580997908
 31
0.0
  0
LINE
  5
20C4
  8
7_ALL_FEATURES
  6
CONTINUOUS
 10
230.0220149491424
 20
99.729963580997946
 30
0.0
 11
229.8970149491424
 21
99.644857580997964
 31
0.0
  0
LINE
  5
20C5
  8
7_ALL_FEATURES
  6
CONTINUOUS
 10
232.68868094914251
 20
99.219325580997918
 30
0.0
 11
232.7720149491424
 21
99.304431580997914
 31
0.0
  0
LINE
  5
20C6
  8
7_ALL_FEATURES
  6
CONTINUOUS
 10
231.06368194914239
 20
98.32570858099794
 30
0.0
 11
230.8970149491424
 21
98.155495580997922
 31
0.0
  0
LINE
  5
20C7
  8
7_ALL_FEATURES
  6
CONTINUOUS
 10
233.0220149491424
 20
99.261878580997916
 30
0.0
 11
232.8970149491424
 21
99.091665580997926
 31
0.0
  0
LINE
  5
20C8
  8
7_ALL_FEATURES
  6
CONTINUOUS
 10
229.6470149491424
 20
99.729963580997946
 30
0.0
 11
229.81368194914239
 21
99.90017658099795
 31
0.0
  0
LINE
  5
20C9
  8
7_ALL_FEATURES
  6
CONTINUOUS
 10
230.81368194914239
 20
98.410814580997908
 30
0.0
 11
230.8970149491424
 21
98.538474580997914
 31
0.0
  0
LINE
  5
20CA
  8
7_ALL_FEATURES
  6
CONTINUOUS
 10
229.8970149491424
 20
99.644857580997964
 30
0.0
 11
229.81368194914239
 21
99.51719758099793
 31
0.0
  0
LINE
  5
20CB
  8
7_ALL_FEATURES
  6
CONTINUOUS
 10
231.1470149491424
 20
98.495920580997947
 30
0.0
 11
231.06368194914239
 21
98.32570858099794
 31
0.0
  0
LINE
  5
20CC
  8
7_ALL_FEATURES
  6
CONTINUOUS
 10
233.06368094914239
 20
99.389537580997924
 30
0.0
 11
233.0220149491424
 21
99.261878580997916
 31
0.0
  0
LINE
  5
20CD
  8
7_ALL_FEATURES
  6
CONTINUOUS
 10
232.7720149491424
 20
99.304431580997914
 30
0.0
 11
232.81368094914239
 21
99.432090580997908
 31
0.0
  0
LINE
  5
20CE
  8
7_ALL_FEATURES
  6
CONTINUOUS
 10
230.8970149491424
 20
98.538474580997914
 30
0.0
 11
230.93868194914239
 21
98.708686580997934
 31
0.0
  0
LINE
  5
20CF
  8
7_ALL_FEATURES
  6
CONTINUOUS
 10
229.81368194914239
 20
99.51719758099793
 30
0.0
 11
229.7720149491424
 21
99.346984580997955
 31
0.0
  0
LINE
  5
20D0
  8
7_ALL_FEATURES
  6
CONTINUOUS
 10
231.18868194914239
 20
98.708686580997934
 30
0.0
 11
231.1470149491424
 21
98.495920580997947
 31
0.0
  0
LINE
  5
20D1
  8
7_ALL_FEATURES
  6
CONTINUOUS
 10
233.06368094914239
 20
99.559750580997928
 30
0.0
 11
233.06368094914239
 21
99.389537580997924
 31
0.0
  0
LINE
  5
20D2
  8
7_ALL_FEATURES
  6
CONTINUOUS
 10
232.81368094914239
 20
99.432090580997908
 30
0.0
 11
232.81368094914239
 21
99.559750580997928
 31
0.0
  0
LINE
  5
20D3
  8
7_ALL_FEATURES
  6
CONTINUOUS
 10
231.7720149491424
 20
98.921452580997951
 30
0.0
 11
231.7720149491424
 21
98.02783558099793
 31
0.0
  0
LINE
  5
20D4
  8
7_ALL_FEATURES
  6
CONTINUOUS
 10
231.7720149491424
 20
99.815069580997942
 30
0.0
 11
231.7720149491424
 21
99.176771580997922
 31
0.0
  0
LINE
  5
20D5
  8
7_ALL_FEATURES
  6
CONTINUOUS
 10
231.5220149491424
 20
98.02783558099793
 30
0.0
 11
231.5220149491424
 21
100.0278355809979
 31
0.0
  0
LINE
  5
20D6
  8
7_ALL_FEATURES
  6
CONTINUOUS
 10
231.18868194914239
 20
99.346984580997955
 30
0.0
 11
231.18868194914239
 21
98.708686580997934
 31
0.0
  0
LINE
  5
20D7
  8
7_ALL_FEATURES
  6
CONTINUOUS
 10
230.93868194914239
 20
98.708686580997934
 30
0.0
 11
230.93868194914239
 21
99.346984580997955
 31
0.0
  0
LINE
  5
20D8
  8
7_ALL_FEATURES
  6
CONTINUOUS
 10
229.7720149491424
 20
99.346984580997955
 30
0.0
 11
229.7720149491424
 21
98.708686580997934
 31
0.0
  0
LINE
  5
20D9
  8
7_ALL_FEATURES
  6
CONTINUOUS
 10
231.1470149491424
 20
99.559750580997928
 30
0.0
 11
231.18868194914239
 21
99.346984580997955
 31
0.0
  0
LINE
  5
20DA
  8
7_ALL_FEATURES
  6
CONTINUOUS
 10
230.93868194914239
 20
99.346984580997955
 30
0.0
 11
230.8970149491424
 21
99.51719758099793
 31
0.0
  0
LINE
  5
20DB
  8
7_ALL_FEATURES
  6
CONTINUOUS
 10
229.7720149491424
 20
98.708686580997934
 30
0.0
 11
229.81368194914239
 21
98.538474580997914
 31
0.0
  0
LINE
  5
20DC
  8
7_ALL_FEATURES
  6
CONTINUOUS
 10
233.0220149491424
 20
99.687410580997934
 30
0.0
 11
233.06368094914239
 21
99.559750580997928
 31
0.0
  0
LINE
  5
20DD
  8
7_ALL_FEATURES
  6
CONTINUOUS
 10
232.81368094914239
 20
99.559750580997928
 30
0.0
 11
232.7720149491424
 21
99.687410580997934
 31
0.0
  0
LINE
  5
20DE
  8
7_ALL_FEATURES
  6
CONTINUOUS
 10
232.81368094914239
 20
98.02783558099793
 30
0.0
 11
232.48034794914241
 21
98.921452580997951
 31
0.0
  0
LINE
  5
20DF
  8
7_ALL_FEATURES
  6
CONTINUOUS
 10
232.73034794914241
 20
99.00655958099793
 30
0.0
 11
233.10534794914241
 21
98.02783558099793
 31
0.0
  0
LINE
  5
20E0
  8
7_ALL_FEATURES
  6
CONTINUOUS
 10
231.06368194914239
 20
99.729963580997946
 30
0.0
 11
231.1470149491424
 21
99.559750580997928
 31
0.0
  0
LINE
  5
20E1
  8
7_ALL_FEATURES
  6
CONTINUOUS
 10
230.8970149491424
 20
99.51719758099793
 30
0.0
 11
230.81368194914239
 21
99.644857580997964
 31
0.0
  0
LINE
  5
20E2
  8
7_ALL_FEATURES
  6
CONTINUOUS
 10
232.8970149491424
 20
99.857622580997955
 30
0.0
 11
233.0220149491424
 21
99.687410580997934
 31
0.0
  0
LINE
  5
20E3
  8
7_ALL_FEATURES
  6
CONTINUOUS
 10
229.81368194914239
 20
98.538474580997914
 30
0.0
 11
229.8970149491424
 21
98.410814580997908
 31
0.0
  0
LINE
  5
20E4
  8
7_ALL_FEATURES
  6
CONTINUOUS
 10
232.7720149491424
 20
99.687410580997934
 30
0.0
 11
232.68868094914251
 21
99.772516580997944
 31
0.0
  0
LINE
  5
20E5
  8
7_ALL_FEATURES
  6
CONTINUOUS
 10
230.8970149491424
 20
99.90017658099795
 30
0.0
 11
231.06368194914239
 21
99.729963580997946
 31
0.0
  0
LINE
  5
20E6
  8
7_ALL_FEATURES
  6
CONTINUOUS
 10
229.81368194914239
 20
98.155495580997922
 30
0.0
 11
229.6470149491424
 21
98.32570858099794
 31
0.0
  0
LINE
  5
20E7
  8
7_ALL_FEATURES
  6
CONTINUOUS
 10
232.73034794914241
 20
99.985282580997946
 30
0.0
 11
232.8970149491424
 21
99.857622580997955
 31
0.0
  0
LINE
  5
20E8
  8
7_ALL_FEATURES
  6
CONTINUOUS
 10
230.81368194914239
 20
99.644857580997964
 30
0.0
 11
230.68868194914239
 21
99.729963580997946
 31
0.0
  0
LINE
  5
20E9
  8
7_ALL_FEATURES
  6
CONTINUOUS
 10
229.8970149491424
 20
98.410814580997908
 30
0.0
 11
230.0220149491424
 21
98.32570858099794
 31
0.0
  0
LINE
  5
20EA
  8
7_ALL_FEATURES
  6
CONTINUOUS
 10
230.73034794914241
 20
99.985282580997946
 30
0.0
 11
230.8970149491424
 21
99.90017658099795
 31
0.0
  0
LINE
  5
20EB
  8
7_ALL_FEATURES
  6
CONTINUOUS
 10
229.98034794914241
 20
98.070388580997943
 30
0.0
 11
229.81368194914239
 21
98.155495580997922
 31
0.0
  0
LINE
  5
20EC
  8
7_ALL_FEATURES
  6
CONTINUOUS
 10
232.68868094914251
 20
99.772516580997944
 30
0.0
 11
232.56368094914239
 21
99.815069580997942
 31
0.0
  0
LINE
  5
20ED
  8
7_ALL_FEATURES
  6
CONTINUOUS
 10
230.68868194914239
 20
99.729963580997946
 30
0.0
 11
230.5220149491424
 21
99.772516580997944
 31
0.0
  0
LINE
  5
20EE
  8
7_ALL_FEATURES
  6
CONTINUOUS
 10
230.0220149491424
 20
98.32570858099794
 30
0.0
 11
230.18868194914239
 21
98.283154580997916
 31
0.0
  0
LINE
  5
20EF
  8
7_ALL_FEATURES
  6
CONTINUOUS
 10
232.5220149491424
 20
100.0278355809979
 30
0.0
 11
232.73034794914241
 21
99.985282580997946
 31
0.0
  0
LINE
  5
20F0
  8
7_ALL_FEATURES
  6
CONTINUOUS
 10
230.5220149491424
 20
100.0278355809979
 30
0.0
 11
230.73034794914241
 21
99.985282580997946
 31
0.0
  0
LINE
  5
20F1
  8
7_ALL_FEATURES
  6
CONTINUOUS
 10
230.18868194914239
 20
98.02783558099793
 30
0.0
 11
229.98034794914241
 21
98.070388580997943
 31
0.0
  0
LINE
  5
20F2
  8
7_ALL_FEATURES
  6
CONTINUOUS
 10
231.5220149491424
 20
100.0278355809979
 30
0.0
 11
232.5220149491424
 21
100.0278355809979
 31
0.0
  0
LINE
  5
20F3
  8
7_ALL_FEATURES
  6
CONTINUOUS
 10
230.18868194914239
 20
100.0278355809979
 30
0.0
 11
230.5220149491424
 21
100.0278355809979
 31
0.0
  0
LINE
  5
20F4
  8
7_ALL_FEATURES
  6
CONTINUOUS
 10
232.56368094914239
 20
99.815069580997942
 30
0.0
 11
231.7720149491424
 21
99.815069580997942
 31
0.0
  0
LINE
  5
20F5
  8
7_ALL_FEATURES
  6
CONTINUOUS
 10
230.5220149491424
 20
99.772516580997944
 30
0.0
 11
230.18868194914239
 21
99.772516580997944
 31
0.0
  0
LINE
  5
20F6
  8
7_ALL_FEATURES
  6
CONTINUOUS
 10
231.7720149491424
 20
99.176771580997922
 30
0.0
 11
232.56368094914239
 21
99.176771580997922
 31
0.0
  0
LINE
  5
20F7
  8
7_ALL_FEATURES
  6
CONTINUOUS
 10
232.48034794914241
 20
98.921452580997951
 30
0.0
 11
231.7720149491424
 21
98.921452580997951
 31
0.0
  0
LINE
  5
20F8
  8
7_ALL_FEATURES
  6
CONTINUOUS
 10
230.18868194914239
 20
98.283154580997916
 30
0.0
 11
230.5220149491424
 21
98.283154580997916
 31
0.0
  0
LINE
  5
20F9
  8
7_ALL_FEATURES
  6
CONTINUOUS
 10
230.5220149491424
 20
98.02783558099793
 30
0.0
 11
230.18868194914239
 21
98.02783558099793
 31
0.0
  0
LINE
  5
20FA
  8
7_ALL_FEATURES
  6
CONTINUOUS
 10
231.7720149491424
 20
98.02783558099793
 30
0.0
 11
231.5220149491424
 21
98.02783558099793
 31
0.0
  0
LINE
  5
20FB
  8
7_ALL_FEATURES
  6
CONTINUOUS
 10
233.10534794914241
 20
98.02783558099793
 30
0.0
 11
232.81368094914239
 21
98.02783558099793
 31
0.0
  0
LINE
  5
20FC
  8
7_ALL_FEATURES
  6
CONTINUOUS
 10
229.98034794914241
 20
99.985282580997946
 30
0.0
 11
230.18868194914239
 21
100.0278355809979
 31
0.0
  0
LINE
  5
20FD
  8
7_ALL_FEATURES
  6
CONTINUOUS
 10
230.73034794914241
 20
98.070388580997943
 30
0.0
 11
230.5220149491424
 21
98.02783558099793
 31
0.0
  0
LINE
  5
20FE
  8
7_ALL_FEATURES
  6
CONTINUOUS
 10
230.18868194914239
 20
99.772516580997944
 30
0.0
 11
230.0220149491424
 21
99.729963580997946
 31
0.0
  0
LINE
  5
20FF
  8
7_ALL_FEATURES
  6
CONTINUOUS
 10
230.5220149491424
 20
98.283154580997916
 30
0.0
 11
230.68868194914239
 21
98.32570858099794
 31
0.0
  0
LINE
  5
2100
  8
7_ALL_FEATURES
  6
CONTINUOUS
 10
237.3970149491424
 20
98.02783558099793
 30
0.0
 11
238.06368094914239
 21
100.0278355809979
 31
0.0
  0
LINE
  5
2101
  8
7_ALL_FEATURES
  6
CONTINUOUS
 10
237.81368094914251
 20
98.538474580997914
 30
0.0
 11
237.6470149491424
 21
98.02783558099793
 31
0.0
  0
LINE
  5
2102
  8
7_ALL_FEATURES
  6
CONTINUOUS
 10
236.85534794914241
 20
98.155495580997922
 30
0.0
 11
236.68868094914251
 21
98.070388580997943
 31
0.0
  0
LINE
  5
2103
  8
7_ALL_FEATURES
  6
CONTINUOUS
 10
236.6470149491424
 20
98.32570858099794
 30
0.0
 11
236.7720149491424
 21
98.410814580997908
 31
0.0
  0
LINE
  5
2104
  8
7_ALL_FEATURES
  6
CONTINUOUS
 10
237.0220149491424
 20
98.32570858099794
 30
0.0
 11
236.85534794914241
 21
98.155495580997922
 31
0.0
  0
LINE
  5
2105
  8
7_ALL_FEATURES
  6
CONTINUOUS
 10
235.73034794914241
 20
99.90017658099795
 30
0.0
 11
235.8970149491424
 21
99.985282580997946
 31
0.0
  0
LINE
  5
2106
  8
7_ALL_FEATURES
  6
CONTINUOUS
 10
235.93868094914239
 20
99.729963580997946
 30
0.0
 11
235.81368094914251
 21
99.644857580997964
 31
0.0
  0
LINE
  5
2107
  8
7_ALL_FEATURES
  6
CONTINUOUS
 10
235.56368094914251
 20
99.729963580997946
 30
0.0
 11
235.73034794914241
 21
99.90017658099795
 31
0.0
  0
LINE
  5
2108
  8
7_ALL_FEATURES
  6
CONTINUOUS
 10
235.81368094914251
 20
99.644857580997964
 30
0.0
 11
235.73034794914241
 21
99.51719758099793
 31
0.0
  0
LINE
  5
2109
  8
7_ALL_FEATURES
  6
CONTINUOUS
 10
235.48034794914241
 20
99.559750580997928
 30
0.0
 11
235.56368094914251
 21
99.729963580997946
 31
0.0
  0
LINE
  5
210A
  8
7_ALL_FEATURES
  6
CONTINUOUS
 10
236.7720149491424
 20
98.410814580997908
 30
0.0
 11
236.81368094914239
 21
98.538474580997914
 31
0.0
  0
LINE
  5
210B
  8
7_ALL_FEATURES
  6
CONTINUOUS
 10
235.73034794914241
 20
99.51719758099793
 30
0.0
 11
235.68868094914239
 21
99.346984580997955
 31
0.0
  0
LINE
  5
210C
  8
7_ALL_FEATURES
  6
CONTINUOUS
 10
237.06368094914239
 20
98.538474580997914
 30
0.0
 11
237.0220149491424
 21
98.32570858099794
 31
0.0
  0
LINE
  5
210D
  8
7_ALL_FEATURES
  6
CONTINUOUS
 10
235.43868094914239
 20
99.346984580997955
 30
0.0
 11
235.48034794914241
 21
99.559750580997928
 31
0.0
  0
LINE
  5
210E
  8
7_ALL_FEATURES
  6
CONTINUOUS
 10
235.68868094914239
 20
99.346984580997955
 30
0.0
 11
235.68868094914239
 21
98.708686580997934
 31
0.0
  0
LINE
  5
210F
  8
7_ALL_FEATURES
  6
CONTINUOUS
 10
235.43868094914239
 20
98.708686580997934
 30
0.0
 11
235.43868094914239
 21
99.346984580997955
 31
0.0
  0
LINE
  5
2110
  8
7_ALL_FEATURES
  6
CONTINUOUS
 10
237.0220149491424
 20
99.729963580997946
 30
0.0
 11
237.06368094914239
 21
99.51719758099793
 31
0.0
  0
LINE
  5
2111
  8
7_ALL_FEATURES
  6
CONTINUOUS
 10
235.48034794914241
 20
98.495920580997947
 30
0.0
 11
235.43868094914239
 21
98.708686580997934
 31
0.0
  0
LINE
  5
2112
  8
7_ALL_FEATURES
  6
CONTINUOUS
 10
235.68868094914239
 20
98.708686580997934
 30
0.0
 11
235.73034794914241
 21
98.538474580997914
 31
0.0
  0
LINE
  5
2113
  8
7_ALL_FEATURES
  6
CONTINUOUS
 10
236.81368094914239
 20
99.51719758099793
 30
0.0
 11
236.7720149491424
 21
99.644857580997964
 31
0.0
  0
LINE
  5
2114
  8
7_ALL_FEATURES
  6
CONTINUOUS
 10
235.56368094914251
 20
98.32570858099794
 30
0.0
 11
235.48034794914241
 21
98.495920580997947
 31
0.0
  0
LINE
  5
2115
  8
7_ALL_FEATURES
  6
CONTINUOUS
 10
235.73034794914241
 20
98.538474580997914
 30
0.0
 11
235.81368094914251
 21
98.410814580997908
 31
0.0
  0
LINE
  5
2116
  8
7_ALL_FEATURES
  6
CONTINUOUS
 10
236.85534794914241
 20
99.90017658099795
 30
0.0
 11
237.0220149491424
 21
99.729963580997946
 31
0.0
  0
LINE
  5
2117
  8
7_ALL_FEATURES
  6
CONTINUOUS
 10
235.73034794914241
 20
98.155495580997922
 30
0.0
 11
235.56368094914251
 21
98.32570858099794
 31
0.0
  0
LINE
  5
2118
  8
7_ALL_FEATURES
  6
CONTINUOUS
 10
236.7720149491424
 20
99.644857580997964
 30
0.0
 11
236.6470149491424
 21
99.729963580997946
 31
0.0
  0
LINE
  5
2119
  8
7_ALL_FEATURES
  6
CONTINUOUS
 10
235.81368094914251
 20
98.410814580997908
 30
0.0
 11
235.93868094914239
 21
98.32570858099794
 31
0.0
  0
LINE
  5
211A
  8
7_ALL_FEATURES
  6
CONTINUOUS
 10
236.68868094914251
 20
99.985282580997946
 30
0.0
 11
236.85534794914241
 21
99.90017658099795
 31
0.0
  0
LINE
  5
211B
  8
7_ALL_FEATURES
  6
CONTINUOUS
 10
235.8970149491424
 20
98.070388580997943
 30
0.0
 11
235.73034794914241
 21
98.155495580997922
 31
0.0
  0
LINE
  5
211C
  8
7_ALL_FEATURES
  6
CONTINUOUS
 10
236.6470149491424
 20
99.729963580997946
 30
0.0
 11
236.48034794914241
 21
99.772516580997944
 31
0.0
  0
LINE
  5
211D
  8
7_ALL_FEATURES
  6
CONTINUOUS
 10
235.93868094914239
 20
98.32570858099794
 30
0.0
 11
236.10534794914241
 21
98.283154580997916
 31
0.0
  0
LINE
  5
211E
  8
7_ALL_FEATURES
  6
CONTINUOUS
 10
236.48034794914241
 20
100.0278355809979
 30
0.0
 11
236.68868094914251
 21
99.985282580997946
 31
0.0
  0
LINE
  5
211F
  8
7_ALL_FEATURES
  6
CONTINUOUS
 10
236.10534794914241
 20
98.02783558099793
 30
0.0
 11
235.8970149491424
 21
98.070388580997943
 31
0.0
  0
LINE
  5
2120
  8
7_ALL_FEATURES
  6
CONTINUOUS
 10
236.10534794914241
 20
100.0278355809979
 30
0.0
 11
236.48034794914241
 21
100.0278355809979
 31
0.0
  0
LINE
  5
2121
  8
7_ALL_FEATURES
  6
CONTINUOUS
 10
236.48034794914241
 20
99.772516580997944
 30
0.0
 11
236.10534794914241
 21
99.772516580997944
 31
0.0
  0
LINE
  5
2122
  8
7_ALL_FEATURES
  6
CONTINUOUS
 10
237.06368094914239
 20
99.51719758099793
 30
0.0
 11
236.81368094914239
 21
99.51719758099793
 31
0.0
  0
LINE
  5
2123
  8
7_ALL_FEATURES
  6
CONTINUOUS
 10
236.81368094914239
 20
98.538474580997914
 30
0.0
 11
237.06368094914239
 21
98.538474580997914
 31
0.0
  0
LINE
  5
2124
  8
7_ALL_FEATURES
  6
CONTINUOUS
 10
236.10534794914241
 20
98.283154580997916
 30
0.0
 11
236.48034794914241
 21
98.283154580997916
 31
0.0
  0
LINE
  5
2125
  8
7_ALL_FEATURES
  6
CONTINUOUS
 10
236.48034794914241
 20
98.02783558099793
 30
0.0
 11
236.10534794914241
 21
98.02783558099793
 31
0.0
  0
LINE
  5
2126
  8
7_ALL_FEATURES
  6
CONTINUOUS
 10
237.6470149491424
 20
98.02783558099793
 30
0.0
 11
237.3970149491424
 21
98.02783558099793
 31
0.0
  0
LINE
  5
2127
  8
7_ALL_FEATURES
  6
CONTINUOUS
 10
235.8970149491424
 20
99.985282580997946
 30
0.0
 11
236.10534794914241
 21
100.0278355809979
 31
0.0
  0
LINE
  5
2128
  8
7_ALL_FEATURES
  6
CONTINUOUS
 10
236.10534794914241
 20
99.772516580997944
 30
0.0
 11
235.93868094914239
 21
99.729963580997946
 31
0.0
  0
LINE
  5
2129
  8
7_ALL_FEATURES
  6
CONTINUOUS
 10
236.68868094914251
 20
98.070388580997943
 30
0.0
 11
236.48034794914241
 21
98.02783558099793
 31
0.0
  0
LINE
  5
212A
  8
7_ALL_FEATURES
  6
CONTINUOUS
 10
236.48034794914241
 20
98.283154580997916
 30
0.0
 11
236.6470149491424
 21
98.32570858099794
 31
0.0
  0
LINE
  5
212B
  8
7_ALL_FEATURES
  6
CONTINUOUS
 10
241.14701394914249
 20
99.602303580997926
 30
0.0
 11
240.56368194914239
 21
98.02783558099793
 31
0.0
  0
LINE
  5
212C
  8
7_ALL_FEATURES
  6
CONTINUOUS
 10
240.3970139491424
 20
98.240601580997918
 30
0.0
 11
241.0220139491424
 21
100.0278355809979
 31
0.0
  0
LINE
  5
212D
  8
7_ALL_FEATURES
  6
CONTINUOUS
 10
238.23034794914241
 20
99.857622580997955
 30
0.0
 11
237.85534794914241
 21
98.708686580997934
 31
0.0
  0
LINE
  5
212E
  8
7_ALL_FEATURES
  6
CONTINUOUS
 10
241.73034794914241
 20
98.02783558099793
 30
0.0
 11
241.73034794914241
 21
100.0278355809979
 31
0.0
  0
LINE
  5
212F
  8
7_ALL_FEATURES
  6
CONTINUOUS
 10
241.39701394914249
 20
100.0278355809979
 30
0.0
 11
241.39701394914249
 21
98.02783558099793
 31
0.0
  0
LINE
  5
2130
  8
7_ALL_FEATURES
  6
CONTINUOUS
 10
241.14701394914249
 20
98.02783558099793
 30
0.0
 11
241.14701394914249
 21
99.602303580997926
 31
0.0
  0
LINE
  5
2131
  8
7_ALL_FEATURES
  6
CONTINUOUS
 10
239.6470149491424
 20
99.602303580997926
 30
0.0
 11
239.6470149491424
 21
98.02783558099793
 31
0.0
  0
LINE
  5
2132
  8
7_ALL_FEATURES
  6
CONTINUOUS
 10
239.3970149491424
 20
98.02783558099793
 30
0.0
 11
239.3970149491424
 21
100.0278355809979
 31
0.0
  0
LINE
  5
2133
  8
7_ALL_FEATURES
  6
CONTINUOUS
 10
238.3970149491424
 20
100.0278355809979
 30
0.0
 11
239.06368094914239
 21
98.02783558099793
 31
0.0
  0
LINE
  5
2134
  8
7_ALL_FEATURES
  6
CONTINUOUS
 10
239.77201394914249
 20
100.0278355809979
 30
0.0
 11
240.3970139491424
 21
98.240601580997918
 31
0.0
  0
LINE
  5
2135
  8
7_ALL_FEATURES
  6
CONTINUOUS
 10
240.23034794914241
 20
98.02783558099793
 30
0.0
 11
239.6470149491424
 21
99.602303580997926
 31
0.0
  0
LINE
  5
2136
  8
7_ALL_FEATURES
  6
CONTINUOUS
 10
238.60534794914241
 20
98.708686580997934
 30
0.0
 11
238.23034794914241
 21
99.857622580997955
 31
0.0
  0
LINE
  5
2137
  8
7_ALL_FEATURES
  6
CONTINUOUS
 10
238.81368094914239
 20
98.02783558099793
 30
0.0
 11
238.6470149491424
 21
98.538474580997914
 31
0.0
  0
LINE
  5
2138
  8
7_ALL_FEATURES
  6
CONTINUOUS
 10
241.0220139491424
 20
100.0278355809979
 30
0.0
 11
241.39701394914249
 21
100.0278355809979
 31
0.0
  0
LINE
  5
2139
  8
7_ALL_FEATURES
  6
CONTINUOUS
 10
239.3970149491424
 20
100.0278355809979
 30
0.0
 11
239.77201394914249
 21
100.0278355809979
 31
0.0
  0
LINE
  5
213A
  8
7_ALL_FEATURES
  6
CONTINUOUS
 10
238.06368094914239
 20
100.0278355809979
 30
0.0
 11
238.3970149491424
 21
100.0278355809979
 31
0.0
  0
LINE
  5
213B
  8
7_ALL_FEATURES
  6
CONTINUOUS
 10
237.85534794914241
 20
98.708686580997934
 30
0.0
 11
238.60534794914241
 21
98.708686580997934
 31
0.0
  0
LINE
  5
213C
  8
7_ALL_FEATURES
  6
CONTINUOUS
 10
238.6470149491424
 20
98.538474580997914
 30
0.0
 11
237.81368094914251
 21
98.538474580997914
 31
0.0
  0
LINE
  5
213D
  8
7_ALL_FEATURES
  6
CONTINUOUS
 10
239.06368094914239
 20
98.02783558099793
 30
0.0
 11
238.81368094914239
 21
98.02783558099793
 31
0.0
  0
LINE
  5
213E
  8
7_ALL_FEATURES
  6
CONTINUOUS
 10
239.6470149491424
 20
98.02783558099793
 30
0.0
 11
239.3970149491424
 21
98.02783558099793
 31
0.0
  0
LINE
  5
213F
  8
7_ALL_FEATURES
  6
CONTINUOUS
 10
240.56368194914239
 20
98.02783558099793
 30
0.0
 11
240.23034794914241
 21
98.02783558099793
 31
0.0
  0
LINE
  5
2140
  8
7_ALL_FEATURES
  6
CONTINUOUS
 10
241.39701394914249
 20
98.02783558099793
 30
0.0
 11
241.14701394914249
 21
98.02783558099793
 31
0.0
  0
LINE
  5
2141
  8
7_ALL_FEATURES
  6
CONTINUOUS
 10
258.29284794914241
 20
100.64485758099789
 30
0.0
 11
258.04284794914241
 21
100.70868658099791
 31
0.0
  0
LINE
  5
2142
  8
7_ALL_FEATURES
  6
CONTINUOUS
 10
258.29284794914241
 20
99.368261580997938
 30
0.0
 11
258.04284794914241
 21
99.432091580997934
 31
0.0
  0
LINE
  5
2143
  8
7_ALL_FEATURES
  6
CONTINUOUS
 10
258.04284794914241
 20
101.0278355809979
 30
0.0
 11
258.35534794914241
 21
100.96400558099791
 31
0.0
  0
LINE
  5
2144
  8
7_ALL_FEATURES
  6
CONTINUOUS
 10
258.41784794914241
 20
98.091665580997926
 30
0.0
 11
258.10534794914241
 21
98.02783558099793
 31
0.0
  0
LINE
  5
2145
  8
7_ALL_FEATURES
  6
CONTINUOUS
 10
258.04284794914241
 20
99.687410580997934
 30
0.0
 11
258.29284794914241
 21
99.751239580997947
 31
0.0
  0
LINE
  5
2146
  8
7_ALL_FEATURES
  6
CONTINUOUS
 10
258.04284794914241
 20
98.34698458099794
 30
0.0
 11
258.29284794914241
 21
98.410814580997908
 31
0.0
  0
LINE
  5
2147
  8
7_ALL_FEATURES
  6
CONTINUOUS
 10
257.16784794914241
 20
100.2618785809979
 30
0.0
 11
257.16784794914241
 21
100.1342185809979
 31
0.0
  0
LINE
  5
2148
  8
7_ALL_FEATURES
  6
CONTINUOUS
 10
256.85534794914241
 20
100.0703885809979
 30
0.0
 11
256.85534794914241
 21
100.2618785809979
 31
0.0
  0
LINE
  5
2149
  8
7_ALL_FEATURES
  6
CONTINUOUS
 10
249.16784794914241
 20
100.2618785809979
 30
0.0
 11
249.10534794914241
 21
100.0065595809979
 31
0.0
  0
LINE
  5
214A
  8
7_ALL_FEATURES
  6
CONTINUOUS
 10
248.73034794914241
 20
100.0065595809979
 30
0.0
 11
248.79284794914241
 21
100.3257085809979
 31
0.0
  0
LINE
  5
214B
  8
7_ALL_FEATURES
  6
CONTINUOUS
 10
253.91784794914241
 20
100.70868658099791
 30
0.0
 11
253.91784794914241
 21
98.02783558099793
 31
0.0
  0
LINE
  5
214C
  8
7_ALL_FEATURES
  6
CONTINUOUS
 10
253.54284794914241
 20
98.02783558099793
 30
0.0
 11
253.54284794914241
 21
100.70868658099791
 31
0.0
  0
LINE
  5
214D
  8
7_ALL_FEATURES
  6
CONTINUOUS
 10
252.04284794914241
 20
101.0278355809979
 30
0.0
 11
252.04284794914241
 21
98.02783558099793
 31
0.0
  0
LINE
  5
214E
  8
7_ALL_FEATURES
  6
CONTINUOUS
 10
251.66784794914241
 20
98.02783558099793
 30
0.0
 11
251.66784794914241
 21
101.0278355809979
 31
0.0
  0
LINE
  5
214F
  8
7_ALL_FEATURES
  6
CONTINUOUS
 10
249.73034794914241
 20
98.410814580997908
 30
0.0
 11
250.29284794914241
 21
98.410814580997908
 31
0.0
  0
LINE
  5
2150
  8
7_ALL_FEATURES
  6
CONTINUOUS
 10
250.29284794914241
 20
98.02783558099793
 30
0.0
 11
249.73034794914241
 21
98.02783558099793
 31
0.0
  0
LINE
  5
2151
  8
7_ALL_FEATURES
  6
CONTINUOUS
 10
245.48034794914241
 20
98.02783558099793
 30
0.0
 11
246.1470139491424
 21
100.0278355809979
 31
0.0
  0
LINE
  5
2152
  8
7_ALL_FEATURES
  6
CONTINUOUS
 10
246.31368194914239
 20
99.857622580997955
 30
0.0
 11
245.93868194914239
 21
98.708686580997934
 31
0.0
  0
LINE
  5
2153
  8
7_ALL_FEATURES
  6
CONTINUOUS
 10
245.93868194914239
 20
98.708686580997934
 30
0.0
 11
246.68868194914239
 21
98.708686580997934
 31
0.0
  0
LINE
  5
2154
  8
7_ALL_FEATURES
  6
CONTINUOUS
 10
246.73034794914241
 20
98.538474580997914
 30
0.0
 11
245.8970139491424
 21
98.538474580997914
 31
0.0
  0
LINE
  5
2155
  8
7_ALL_FEATURES
  6
CONTINUOUS
 10
244.73034794914241
 20
99.219325580997918
 30
0.0
 11
244.81368194914239
 21
99.304431580997914
 31
0.0
  0
LINE
  5
2156
  8
7_ALL_FEATURES
  6
CONTINUOUS
 10
245.06368194914239
 20
99.261878580997916
 30
0.0
 11
244.93868194914239
 21
99.091665580997926
 31
0.0
  0
LINE
  5
2157
  8
7_ALL_FEATURES
  6
CONTINUOUS
 10
244.60534794914241
 20
99.176771580997922
 30
0.0
 11
244.73034794914241
 21
99.219325580997918
 31
0.0
  0
LINE
  5
2158
  8
7_ALL_FEATURES
  6
CONTINUOUS
 10
244.93868194914239
 20
99.091665580997926
 30
0.0
 11
244.7720139491424
 21
99.00655958099793
 31
0.0
  0
LINE
  5
2159
  8
7_ALL_FEATURES
  6
CONTINUOUS
 10
245.8970139491424
 20
98.538474580997914
 30
0.0
 11
245.73034794914241
 21
98.02783558099793
 31
0.0
  0
LINE
  5
215A
  8
7_ALL_FEATURES
  6
CONTINUOUS
 10
245.10534794914241
 20
99.389537580997924
 30
0.0
 11
245.06368194914239
 21
99.261878580997916
 31
0.0
  0
LINE
  5
215B
  8
7_ALL_FEATURES
  6
CONTINUOUS
 10
244.81368194914239
 20
99.304431580997914
 30
0.0
 11
244.85534794914241
 21
99.432090580997908
 31
0.0
  0
LINE
  5
215C
  8
7_ALL_FEATURES
  6
CONTINUOUS
 10
245.10534794914241
 20
99.559750580997928
 30
0.0
 11
245.10534794914241
 21
99.389537580997924
 31
0.0
  0
LINE
  5
215D
  8
7_ALL_FEATURES
  6
CONTINUOUS
 10
244.85534794914241
 20
99.432090580997908
 30
0.0
 11
244.85534794914241
 21
99.559750580997928
 31
0.0
  0
LINE
  5
215E
  8
7_ALL_FEATURES
  6
CONTINUOUS
 10
243.81368194914239
 20
98.921452580997951
 30
0.0
 11
243.81368194914239
 21
98.02783558099793
 31
0.0
  0
LINE
  5
215F
  8
7_ALL_FEATURES
  6
CONTINUOUS
 10
243.81368194914239
 20
99.815069580997942
 30
0.0
 11
243.81368194914239
 21
99.176771580997922
 31
0.0
  0
LINE
  5
2160
  8
7_ALL_FEATURES
  6
CONTINUOUS
 10
243.56368194914239
 20
98.02783558099793
 30
0.0
 11
243.56368194914239
 21
100.0278355809979
 31
0.0
  0
LINE
  5
2161
  8
7_ALL_FEATURES
  6
CONTINUOUS
 10
243.23034794914241
 20
98.283154580997916
 30
0.0
 11
243.23034794914241
 21
98.02783558099793
 31
0.0
  0
LINE
  5
2162
  8
7_ALL_FEATURES
  6
CONTINUOUS
 10
243.23034794914241
 20
100.0278355809979
 30
0.0
 11
243.23034794914241
 21
99.772516580997944
 31
0.0
  0
LINE
  5
2163
  8
7_ALL_FEATURES
  6
CONTINUOUS
 10
243.06368194914239
 20
99.219325580997918
 30
0.0
 11
243.06368194914239
 21
98.964005580997934
 31
0.0
  0
LINE
  5
2164
  8
7_ALL_FEATURES
  6
CONTINUOUS
 10
241.98034794914241
 20
98.964005580997934
 30
0.0
 11
241.98034794914241
 21
98.283154580997916
 31
0.0
  0
LINE
  5
2165
  8
7_ALL_FEATURES
  6
CONTINUOUS
 10
241.98034794914241
 20
99.772516580997944
 30
0.0
 11
241.98034794914241
 21
99.219325580997918
 31
0.0
  0
LINE
  5
2166
  8
7_ALL_FEATURES
  6
CONTINUOUS
 10
245.06368194914239
 20
99.687410580997934
 30
0.0
 11
245.10534794914241
 21
99.559750580997928
 31
0.0
  0
LINE
  5
2167
  8
7_ALL_FEATURES
  6
CONTINUOUS
 10
244.85534794914241
 20
99.559750580997928
 30
0.0
 11
244.81368194914239
 21
99.687410580997934
 31
0.0
  0
LINE
  5
2168
  8
7_ALL_FEATURES
  6
CONTINUOUS
 10
244.85534794914241
 20
98.02783558099793
 30
0.0
 11
244.52201394914249
 21
98.921452580997951
 31
0.0
  0
LINE
  5
2169
  8
7_ALL_FEATURES
  6
CONTINUOUS
 10
244.7720139491424
 20
99.00655958099793
 30
0.0
 11
245.14701394914249
 21
98.02783558099793
 31
0.0
  0
LINE
  5
216A
  8
7_ALL_FEATURES
  6
CONTINUOUS
 10
244.93868194914239
 20
99.857622580997955
 30
0.0
 11
245.06368194914239
 21
99.687410580997934
 31
0.0
  0
LINE
  5
216B
  8
7_ALL_FEATURES
  6
CONTINUOUS
 10
244.81368194914239
 20
99.687410580997934
 30
0.0
 11
244.73034794914241
 21
99.772516580997944
 31
0.0
  0
LINE
  5
216C
  8
7_ALL_FEATURES
  6
CONTINUOUS
 10
244.7720139491424
 20
99.985282580997946
 30
0.0
 11
244.93868194914239
 21
99.857622580997955
 31
0.0
  0
LINE
  5
216D
  8
7_ALL_FEATURES
  6
CONTINUOUS
 10
244.73034794914241
 20
99.772516580997944
 30
0.0
 11
244.60534794914241
 21
99.815069580997942
 31
0.0
  0
LINE
  5
216E
  8
7_ALL_FEATURES
  6
CONTINUOUS
 10
244.56368194914239
 20
100.0278355809979
 30
0.0
 11
244.7720139491424
 21
99.985282580997946
 31
0.0
  0
LINE
  5
216F
  8
7_ALL_FEATURES
  6
CONTINUOUS
 10
243.56368194914239
 20
100.0278355809979
 30
0.0
 11
244.56368194914239
 21
100.0278355809979
 31
0.0
  0
LINE
  5
2170
  8
7_ALL_FEATURES
  6
CONTINUOUS
 10
244.60534794914241
 20
99.815069580997942
 30
0.0
 11
243.81368194914239
 21
99.815069580997942
 31
0.0
  0
LINE
  5
2171
  8
7_ALL_FEATURES
  6
CONTINUOUS
 10
243.23034794914241
 20
99.772516580997944
 30
0.0
 11
241.98034794914241
 21
99.772516580997944
 31
0.0
  0
LINE
  5
2172
  8
7_ALL_FEATURES
  6
CONTINUOUS
 10
241.98034794914241
 20
99.219325580997918
 30
0.0
 11
243.06368194914239
 21
99.219325580997918
 31
0.0
  0
LINE
  5
2173
  8
7_ALL_FEATURES
  6
CONTINUOUS
 10
243.81368194914239
 20
99.176771580997922
 30
0.0
 11
244.60534794914241
 21
99.176771580997922
 31
0.0
  0
LINE
  5
2174
  8
7_ALL_FEATURES
  6
CONTINUOUS
 10
243.06368194914239
 20
98.964005580997934
 30
0.0
 11
241.98034794914241
 21
98.964005580997934
 31
0.0
  0
LINE
  5
2175
  8
7_ALL_FEATURES
  6
CONTINUOUS
 10
244.52201394914249
 20
98.921452580997951
 30
0.0
 11
243.81368194914239
 21
98.921452580997951
 31
0.0
  0
LINE
  5
2176
  8
7_ALL_FEATURES
  6
CONTINUOUS
 10
241.98034794914241
 20
98.283154580997916
 30
0.0
 11
243.23034794914241
 21
98.283154580997916
 31
0.0
  0
LINE
  5
2177
  8
7_ALL_FEATURES
  6
CONTINUOUS
 10
243.81368194914239
 20
98.02783558099793
 30
0.0
 11
243.56368194914239
 21
98.02783558099793
 31
0.0
  0
LINE
  5
2178
  8
7_ALL_FEATURES
  6
CONTINUOUS
 10
245.14701394914249
 20
98.02783558099793
 30
0.0
 11
244.85534794914241
 21
98.02783558099793
 31
0.0
  0
LINE
  5
2179
  8
7_ALL_FEATURES
  6
CONTINUOUS
 10
245.73034794914241
 20
98.02783558099793
 30
0.0
 11
245.48034794914241
 21
98.02783558099793
 31
0.0
  0
LINE
  5
217A
  8
7_ALL_FEATURES
  6
CONTINUOUS
 10
249.10534794914241
 20
100.0065595809979
 30
0.0
 11
249.10534794914241
 21
99.049112580997942
 31
0.0
  0
LINE
  5
217B
  8
7_ALL_FEATURES
  6
CONTINUOUS
 10
248.73034794914241
 20
99.049112580997942
 30
0.0
 11
248.73034794914241
 21
100.0065595809979
 31
0.0
  0
LINE
  5
217C
  8
7_ALL_FEATURES
  6
CONTINUOUS
 10
248.79284794914241
 20
98.729963580997946
 30
0.0
 11
248.73034794914241
 21
99.049112580997942
 31
0.0
  0
LINE
  5
217D
  8
7_ALL_FEATURES
  6
CONTINUOUS
 10
249.10534794914241
 20
99.049112580997942
 30
0.0
 11
249.16784794914241
 21
98.793793580997956
 31
0.0
  0
LINE
  5
217E
  8
7_ALL_FEATURES
  6
CONTINUOUS
 10
246.68868194914239
 20
98.708686580997934
 30
0.0
 11
246.31368194914239
 21
99.857622580997955
 31
0.0
  0
LINE
  5
217F
  8
7_ALL_FEATURES
  6
CONTINUOUS
 10
246.8970139491424
 20
98.02783558099793
 30
0.0
 11
246.73034794914241
 21
98.538474580997914
 31
0.0
  0
LINE
  5
2180
  8
7_ALL_FEATURES
  6
CONTINUOUS
 10
246.48034794914241
 20
100.0278355809979
 30
0.0
 11
247.14701394914249
 21
98.02783558099793
 31
0.0
  0
LINE
  5
2181
  8
7_ALL_FEATURES
  6
CONTINUOUS
 10
248.91784794914241
 20
98.474644580997932
 30
0.0
 11
248.79284794914241
 21
98.729963580997946
 31
0.0
  0
LINE
  5
2182
  8
7_ALL_FEATURES
  6
CONTINUOUS
 10
249.16784794914241
 20
98.793793580997956
 30
0.0
 11
249.29284794914241
 21
98.602303580997926
 31
0.0
  0
LINE
  5
2183
  8
7_ALL_FEATURES
  6
CONTINUOUS
 10
249.16784794914241
 20
98.219325580997918
 30
0.0
 11
248.91784794914241
 21
98.474644580997932
 31
0.0
  0
LINE
  5
2184
  8
7_ALL_FEATURES
  6
CONTINUOUS
 10
249.29284794914241
 20
98.602303580997926
 30
0.0
 11
249.48034794914241
 21
98.474644580997932
 31
0.0
  0
LINE
  5
2185
  8
7_ALL_FEATURES
  6
CONTINUOUS
 10
249.41784794914241
 20
98.091665580997926
 30
0.0
 11
249.16784794914241
 21
98.219325580997918
 31
0.0
  0
LINE
  5
2186
  8
7_ALL_FEATURES
  6
CONTINUOUS
 10
249.48034794914241
 20
98.474644580997932
 30
0.0
 11
249.73034794914241
 21
98.410814580997908
 31
0.0
  0
LINE
  5
2187
  8
7_ALL_FEATURES
  6
CONTINUOUS
 10
249.73034794914241
 20
98.02783558099793
 30
0.0
 11
249.41784794914241
 21
98.091665580997926
 31
0.0
  0
LINE
  5
2188
  8
7_ALL_FEATURES
  6
CONTINUOUS
 10
246.1470139491424
 20
100.0278355809979
 30
0.0
 11
246.48034794914241
 21
100.0278355809979
 31
0.0
  0
LINE
  5
2189
  8
7_ALL_FEATURES
  6
CONTINUOUS
 10
247.14701394914249
 20
98.02783558099793
 30
0.0
 11
246.8970139491424
 21
98.02783558099793
 31
0.0
  0
LINE
  5
218A
  8
7_ALL_FEATURES
  6
CONTINUOUS
 10
251.10534794914241
 20
98.474644580997932
 30
0.0
 11
250.85534794914241
 21
98.219325580997918
 31
0.0
  0
LINE
  5
218B
  8
7_ALL_FEATURES
  6
CONTINUOUS
 10
250.85534794914241
 20
98.219325580997918
 30
0.0
 11
250.60534794914241
 21
98.091665580997926
 31
0.0
  0
LINE
  5
218C
  8
7_ALL_FEATURES
  6
CONTINUOUS
 10
250.54284794914241
 20
98.474644580997932
 30
0.0
 11
250.73034794914241
 21
98.602303580997926
 31
0.0
  0
LINE
  5
218D
  8
7_ALL_FEATURES
  6
CONTINUOUS
 10
250.73034794914241
 20
98.602303580997926
 30
0.0
 11
250.79284794914241
 21
98.793793580997956
 31
0.0
  0
LINE
  5
218E
  8
7_ALL_FEATURES
  6
CONTINUOUS
 10
251.16784794914241
 20
98.793793580997956
 30
0.0
 11
251.10534794914241
 21
98.474644580997932
 31
0.0
  0
LINE
  5
218F
  8
7_ALL_FEATURES
  6
CONTINUOUS
 10
250.79284794914241
 20
98.793793580997956
 30
0.0
 11
251.16784794914241
 21
98.793793580997956
 31
0.0
  0
LINE
  5
2190
  8
7_ALL_FEATURES
  6
CONTINUOUS
 10
252.04284794914241
 20
98.02783558099793
 30
0.0
 11
251.66784794914241
 21
98.02783558099793
 31
0.0
  0
LINE
  5
2191
  8
7_ALL_FEATURES
  6
CONTINUOUS
 10
253.91784794914241
 20
98.02783558099793
 30
0.0
 11
253.54284794914241
 21
98.02783558099793
 31
0.0
  0
LINE
  5
2192
  8
7_ALL_FEATURES
  6
CONTINUOUS
 10
250.60534794914241
 20
98.091665580997926
 30
0.0
 11
250.29284794914241
 21
98.02783558099793
 31
0.0
  0
LINE
  5
2193
  8
7_ALL_FEATURES
  6
CONTINUOUS
 10
250.29284794914241
 20
98.410814580997908
 30
0.0
 11
250.54284794914241
 21
98.474644580997932
 31
0.0
  0
LINE
  5
2194
  8
7_ALL_FEATURES
  6
CONTINUOUS
 10
257.29284794914241
 20
99.240601580997904
 30
0.0
 11
257.10534794914241
 21
98.985282580997946
 31
0.0
  0
LINE
  5
2195
  8
7_ALL_FEATURES
  6
CONTINUOUS
 10
256.91784794914241
 20
99.304431580997914
 30
0.0
 11
257.16784794914241
 21
99.495920580997947
 31
0.0
  0
LINE
  5
2196
  8
7_ALL_FEATURES
  6
CONTINUOUS
 10
256.79284794914241
 20
98.985282580997946
 30
0.0
 11
256.91784794914241
 21
99.304431580997914
 31
0.0
  0
LINE
  5
2197
  8
7_ALL_FEATURES
  6
CONTINUOUS
 10
257.54284794914241
 20
99.368261580997938
 30
0.0
 11
257.29284794914241
 21
99.240601580997904
 31
0.0
  0
LINE
  5
2198
  8
7_ALL_FEATURES
  6
CONTINUOUS
 10
257.16784794914241
 20
99.495920580997947
 30
0.0
 11
257.29284794914241
 21
99.559750580997928
 31
0.0
  0
LINE
  5
2199
  8
7_ALL_FEATURES
  6
CONTINUOUS
 10
257.10534794914241
 20
98.985282580997946
 30
0.0
 11
257.10534794914241
 21
98.793793580997956
 31
0.0
  0
LINE
  5
219A
  8
7_ALL_FEATURES
  6
CONTINUOUS
 10
256.79284794914241
 20
98.793793580997956
 30
0.0
 11
256.79284794914241
 21
98.985282580997946
 31
0.0
  0
LINE
  5
219B
  8
7_ALL_FEATURES
  6
CONTINUOUS
 10
256.29284794914241
 20
99.432091580997934
 30
0.0
 11
256.29284794914241
 21
99.112942580997924
 31
0.0
  0
LINE
  5
219C
  8
7_ALL_FEATURES
  6
CONTINUOUS
 10
255.41784794914241
 20
99.112942580997924
 30
0.0
 11
255.41784794914241
 21
99.432091580997934
 31
0.0
  0
LINE
  5
219D
  8
7_ALL_FEATURES
  6
CONTINUOUS
 10
256.91784794914241
 20
98.474644580997932
 30
0.0
 11
256.79284794914241
 21
98.793793580997956
 31
0.0
  0
LINE
  5
219E
  8
7_ALL_FEATURES
  6
CONTINUOUS
 10
256.98034794914241
 20
99.815069580997942
 30
0.0
 11
256.85534794914241
 21
100.0703885809979
 31
0.0
  0
LINE
  5
219F
  8
7_ALL_FEATURES
  6
CONTINUOUS
 10
257.16784794914241
 20
100.1342185809979
 30
0.0
 11
257.29284794914241
 21
99.942729580997934
 31
0.0
  0
LINE
  5
21A0
  8
7_ALL_FEATURES
  6
CONTINUOUS
 10
257.10534794914241
 20
98.793793580997956
 30
0.0
 11
257.29284794914241
 21
98.538474580997914
 31
0.0
  0
LINE
  5
21A1
  8
7_ALL_FEATURES
  6
CONTINUOUS
 10
257.16784794914241
 20
99.623580580997924
 30
0.0
 11
256.98034794914241
 21
99.815069580997942
 31
0.0
  0
LINE
  5
21A2
  8
7_ALL_FEATURES
  6
CONTINUOUS
 10
257.10534794914241
 20
98.283154580997916
 30
0.0
 11
256.91784794914241
 21
98.474644580997932
 31
0.0
  0
LINE
  5
21A3
  8
7_ALL_FEATURES
  6
CONTINUOUS
 10
257.29284794914241
 20
99.942729580997934
 30
0.0
 11
257.54284794914241
 21
99.751239580997947
 31
0.0
  0
LINE
  5
21A4
  8
7_ALL_FEATURES
  6
CONTINUOUS
 10
257.41784794914241
 20
98.091665580997926
 30
0.0
 11
257.10534794914241
 21
98.283154580997916
 31
0.0
  0
LINE
  5
21A5
  8
7_ALL_FEATURES
  6
CONTINUOUS
 10
257.29284794914241
 20
99.559750580997928
 30
0.0
 11
257.16784794914241
 21
99.623580580997924
 31
0.0
  0
LINE
  5
21A6
  8
7_ALL_FEATURES
  6
CONTINUOUS
 10
257.29284794914241
 20
98.538474580997914
 30
0.0
 11
257.54284794914241
 21
98.410814580997908
 31
0.0
  0
LINE
  5
21A7
  8
7_ALL_FEATURES
  6
CONTINUOUS
 10
257.54284794914241
 20
99.751239580997947
 30
0.0
 11
257.79284794914241
 21
99.687410580997934
 31
0.0
  0
LINE
  5
21A8
  8
7_ALL_FEATURES
  6
CONTINUOUS
 10
257.54284794914241
 20
98.410814580997908
 30
0.0
 11
257.79284794914241
 21
98.34698458099794
 31
0.0
  0
LINE
  5
21A9
  8
7_ALL_FEATURES
  6
CONTINUOUS
 10
257.73034794914241
 20
98.02783558099793
 30
0.0
 11
257.41784794914241
 21
98.091665580997926
 31
0.0
  0
LINE
  5
21AA
  8
7_ALL_FEATURES
  6
CONTINUOUS
 10
257.79284794914241
 20
99.687410580997934
 30
0.0
 11
258.04284794914241
 21
99.687410580997934
 31
0.0
  0
LINE
  5
21AB
  8
7_ALL_FEATURES
  6
CONTINUOUS
 10
255.41784794914241
 20
99.432091580997934
 30
0.0
 11
256.29284794914241
 21
99.432091580997934
 31
0.0
  0
LINE
  5
21AC
  8
7_ALL_FEATURES
  6
CONTINUOUS
 10
258.04284794914241
 20
99.432091580997934
 30
0.0
 11
257.79284794914241
 21
99.432091580997934
 31
0.0
  0
LINE
  5
21AD
  8
7_ALL_FEATURES
  6
CONTINUOUS
 10
256.29284794914241
 20
99.112942580997924
 30
0.0
 11
255.41784794914241
 21
99.112942580997924
 31
0.0
  0
LINE
  5
21AE
  8
7_ALL_FEATURES
  6
CONTINUOUS
 10
257.79284794914241
 20
98.34698458099794
 30
0.0
 11
258.04284794914241
 21
98.34698458099794
 31
0.0
  0
LINE
  5
21AF
  8
7_ALL_FEATURES
  6
CONTINUOUS
 10
258.10534794914241
 20
98.02783558099793
 30
0.0
 11
257.73034794914241
 21
98.02783558099793
 31
0.0
  0
LINE
  5
21B0
  8
7_ALL_FEATURES
  6
CONTINUOUS
 10
257.79284794914241
 20
99.432091580997934
 30
0.0
 11
257.54284794914241
 21
99.368261580997938
 31
0.0
  0
LINE
  5
21B1
  8
7_ALL_FEATURES
  6
CONTINUOUS
 10
249.73034794914241
 20
101.0278355809979
 30
0.0
 11
250.29284794914241
 21
101.0278355809979
 31
0.0
  0
LINE
  5
21B2
  8
7_ALL_FEATURES
  6
CONTINUOUS
 10
250.29284794914241
 20
100.64485758099789
 30
0.0
 11
249.73034794914241
 21
100.64485758099789
 31
0.0
  0
LINE
  5
21B3
  8
7_ALL_FEATURES
  6
CONTINUOUS
 10
249.48034794914241
 20
100.5810275809979
 30
0.0
 11
249.29284794914241
 21
100.45336758099791
 31
0.0
  0
LINE
  5
21B4
  8
7_ALL_FEATURES
  6
CONTINUOUS
 10
248.91784794914241
 20
100.5810275809979
 30
0.0
 11
249.16784794914241
 21
100.8363465809979
 31
0.0
  0
LINE
  5
21B5
  8
7_ALL_FEATURES
  6
CONTINUOUS
 10
249.29284794914241
 20
100.45336758099791
 30
0.0
 11
249.16784794914241
 21
100.2618785809979
 31
0.0
  0
LINE
  5
21B6
  8
7_ALL_FEATURES
  6
CONTINUOUS
 10
248.79284794914241
 20
100.3257085809979
 30
0.0
 11
248.91784794914241
 21
100.5810275809979
 31
0.0
  0
LINE
  5
21B7
  8
7_ALL_FEATURES
  6
CONTINUOUS
 10
249.16784794914241
 20
100.8363465809979
 30
0.0
 11
249.41784794914241
 21
100.96400558099791
 31
0.0
  0
LINE
  5
21B8
  8
7_ALL_FEATURES
  6
CONTINUOUS
 10
249.41784794914241
 20
100.96400558099791
 30
0.0
 11
249.73034794914241
 21
101.0278355809979
 31
0.0
  0
LINE
  5
21B9
  8
7_ALL_FEATURES
  6
CONTINUOUS
 10
249.73034794914241
 20
100.64485758099789
 30
0.0
 11
249.48034794914241
 21
100.5810275809979
 31
0.0
  0
LINE
  5
21BA
  8
7_ALL_FEATURES
  6
CONTINUOUS
 10
252.54284794914241
 20
101.0278355809979
 30
0.0
 11
254.91784794914241
 21
101.0278355809979
 31
0.0
  0
LINE
  5
21BB
  8
7_ALL_FEATURES
  6
CONTINUOUS
 10
254.91784794914241
 20
100.70868658099791
 30
0.0
 11
253.91784794914241
 21
100.70868658099791
 31
0.0
  0
LINE
  5
21BC
  8
7_ALL_FEATURES
  6
CONTINUOUS
 10
252.54284794914241
 20
100.70868658099791
 30
0.0
 11
252.54284794914241
 21
101.0278355809979
 31
0.0
  0
LINE
  5
21BD
  8
7_ALL_FEATURES
  6
CONTINUOUS
 10
251.10534794914241
 20
100.5810275809979
 30
0.0
 11
251.16784794914241
 21
100.2618785809979
 31
0.0
  0
LINE
  5
21BE
  8
7_ALL_FEATURES
  6
CONTINUOUS
 10
250.79284794914241
 20
100.2618785809979
 30
0.0
 11
250.73034794914241
 21
100.45336758099791
 31
0.0
  0
LINE
  5
21BF
  8
7_ALL_FEATURES
  6
CONTINUOUS
 10
250.85534794914241
 20
100.8363465809979
 30
0.0
 11
251.10534794914241
 21
100.5810275809979
 31
0.0
  0
LINE
  5
21C0
  8
7_ALL_FEATURES
  6
CONTINUOUS
 10
250.73034794914241
 20
100.45336758099791
 30
0.0
 11
250.54284794914241
 21
100.5810275809979
 31
0.0
  0
LINE
  5
21C1
  8
7_ALL_FEATURES
  6
CONTINUOUS
 10
250.60534794914241
 20
100.96400558099791
 30
0.0
 11
250.85534794914241
 21
100.8363465809979
 31
0.0
  0
LINE
  5
21C2
  8
7_ALL_FEATURES
  6
CONTINUOUS
 10
250.54284794914241
 20
100.5810275809979
 30
0.0
 11
250.29284794914241
 21
100.64485758099789
 31
0.0
  0
LINE
  5
21C3
  8
7_ALL_FEATURES
  6
CONTINUOUS
 10
250.29284794914241
 20
101.0278355809979
 30
0.0
 11
250.60534794914241
 21
100.96400558099791
 31
0.0
  0
LINE
  5
21C4
  8
7_ALL_FEATURES
  6
CONTINUOUS
 10
251.66784794914241
 20
101.0278355809979
 30
0.0
 11
252.04284794914241
 21
101.0278355809979
 31
0.0
  0
LINE
  5
21C5
  8
7_ALL_FEATURES
  6
CONTINUOUS
 10
253.54284794914241
 20
100.70868658099791
 30
0.0
 11
252.54284794914241
 21
100.70868658099791
 31
0.0
  0
LINE
  5
21C6
  8
7_ALL_FEATURES
  6
CONTINUOUS
 10
251.16784794914241
 20
100.2618785809979
 30
0.0
 11
250.79284794914241
 21
100.2618785809979
 31
0.0
  0
LINE
  5
21C7
  8
7_ALL_FEATURES
  6
CONTINUOUS
 10
257.29284794914241
 20
100.45336758099791
 30
0.0
 11
257.16784794914241
 21
100.2618785809979
 31
0.0
  0
LINE
  5
21C8
  8
7_ALL_FEATURES
  6
CONTINUOUS
 10
257.16784794914241
 20
100.7725165809979
 30
0.0
 11
257.48034794914241
 21
100.96400558099791
 31
0.0
  0
LINE
  5
21C9
  8
7_ALL_FEATURES
  6
CONTINUOUS
 10
257.54284794914241
 20
100.64485758099789
 30
0.0
 11
257.29284794914241
 21
100.45336758099791
 31
0.0
  0
LINE
  5
21CA
  8
7_ALL_FEATURES
  6
CONTINUOUS
 10
256.98034794914241
 20
100.5810275809979
 30
0.0
 11
257.16784794914241
 21
100.7725165809979
 31
0.0
  0
LINE
  5
21CB
  8
7_ALL_FEATURES
  6
CONTINUOUS
 10
256.85534794914241
 20
100.2618785809979
 30
0.0
 11
256.98034794914241
 21
100.5810275809979
 31
0.0
  0
LINE
  5
21CC
  8
7_ALL_FEATURES
  6
CONTINUOUS
 10
254.91784794914241
 20
101.0278355809979
 30
0.0
 11
254.91784794914241
 21
100.70868658099791
 31
0.0
  0
LINE
  5
21CD
  8
7_ALL_FEATURES
  6
CONTINUOUS
 10
257.79284794914241
 20
101.0278355809979
 30
0.0
 11
258.04284794914241
 21
101.0278355809979
 31
0.0
  0
LINE
  5
21CE
  8
7_ALL_FEATURES
  6
CONTINUOUS
 10
258.04284794914241
 20
100.70868658099791
 30
0.0
 11
257.79284794914241
 21
100.70868658099791
 31
0.0
  0
LINE
  5
21CF
  8
7_ALL_FEATURES
  6
CONTINUOUS
 10
257.48034794914241
 20
100.96400558099791
 30
0.0
 11
257.79284794914241
 21
101.0278355809979
 31
0.0
  0
LINE
  5
21D0
  8
7_ALL_FEATURES
  6
CONTINUOUS
 10
257.79284794914241
 20
100.70868658099791
 30
0.0
 11
257.54284794914241
 21
100.64485758099789
 31
0.0
  0
LINE
  5
21D1
  8
7_ALL_FEATURES
  6
CONTINUOUS
 10
268.91784794914241
 20
100.3895375809979
 30
0.0
 11
268.04284794914241
 21
98.02783558099793
 31
0.0
  0
LINE
  5
21D2
  8
7_ALL_FEATURES
  6
CONTINUOUS
 10
264.16784894914241
 20
100.5171975809979
 30
0.0
 11
263.91784794914241
 21
100.1342185809979
 31
0.0
  0
LINE
  5
21D3
  8
7_ALL_FEATURES
  6
CONTINUOUS
 10
267.79284794914241
 20
98.34698458099794
 30
0.0
 11
268.73034794914241
 21
101.0278355809979
 31
0.0
  0
LINE
  5
21D4
  8
7_ALL_FEATURES
  6
CONTINUOUS
 10
263.60534894914241
 20
100.1342185809979
 30
0.0
 11
263.66784794914241
 21
100.3257085809979
 31
0.0
  0
LINE
  5
21D5
  8
7_ALL_FEATURES
  6
CONTINUOUS
 10
269.29284794914241
 20
101.0278355809979
 30
0.0
 11
269.29284794914241
 21
98.02783558099793
 31
0.0
  0
LINE
  5
21D6
  8
7_ALL_FEATURES
  6
CONTINUOUS
 10
268.91784794914241
 20
98.02783558099793
 30
0.0
 11
268.91784794914241
 21
100.3895375809979
 31
0.0
  0
LINE
  5
21D7
  8
7_ALL_FEATURES
  6
CONTINUOUS
 10
262.66784894914241
 20
100.5171975809979
 30
0.0
 11
262.29284894914241
 21
100.0703885809979
 31
0.0
  0
LINE
  5
21D8
  8
7_ALL_FEATURES
  6
CONTINUOUS
 10
266.66784794914241
 20
100.3895375809979
 30
0.0
 11
266.66784794914241
 21
98.02783558099793
 31
0.0
  0
LINE
  5
21D9
  8
7_ALL_FEATURES
  6
CONTINUOUS
 10
266.29284794914241
 20
98.02783558099793
 30
0.0
 11
266.29284794914241
 21
101.0278355809979
 31
0.0
  0
LINE
  5
21DA
  8
7_ALL_FEATURES
  6
CONTINUOUS
 10
263.04284894914241
 20
101.0278355809979
 30
0.0
 11
263.04284894914241
 21
98.02783558099793
 31
0.0
  0
LINE
  5
21DB
  8
7_ALL_FEATURES
  6
CONTINUOUS
 10
262.66784894914241
 20
98.02783558099793
 30
0.0
 11
262.66784894914241
 21
100.5171975809979
 31
0.0
  0
LINE
  5
21DC
  8
7_ALL_FEATURES
  6
CONTINUOUS
 10
262.29284894914241
 20
100.0703885809979
 30
0.0
 11
262.29284894914241
 21
100.5810275809979
 31
0.0
  0
LINE
  5
21DD
  8
7_ALL_FEATURES
  6
CONTINUOUS
 10
259.85534794914241
 20
100.70868658099791
 30
0.0
 11
259.85534794914241
 21
99.687410580997934
 31
0.0
  0
LINE
  5
21DE
  8
7_ALL_FEATURES
  6
CONTINUOUS
 10
259.54284794914241
 20
99.368261580997938
 30
0.0
 11
259.54284794914241
 21
101.0278355809979
 31
0.0
  0
LINE
  5
21DF
  8
7_ALL_FEATURES
  6
CONTINUOUS
 10
265.66784894914241
 20
100.3257085809979
 30
0.0
 11
265.73034794914241
 21
100.1342185809979
 31
0.0
  0
LINE
  5
21E0
  8
7_ALL_FEATURES
  6
CONTINUOUS
 10
266.85534794914241
 20
101.0278355809979
 30
0.0
 11
267.79284794914241
 21
98.34698458099794
 31
0.0
  0
LINE
  5
21E1
  8
7_ALL_FEATURES
  6
CONTINUOUS
 10
267.54284894914241
 20
98.02783558099793
 30
0.0
 11
266.66784794914241
 21
100.3895375809979
 31
0.0
  0
LINE
  5
21E2
  8
7_ALL_FEATURES
  6
CONTINUOUS
 10
258.98034794914241
 20
100.2618785809979
 30
0.0
 11
258.98034794914241
 21
100.0703885809979
 31
0.0
  0
LINE
  5
21E3
  8
7_ALL_FEATURES
  6
CONTINUOUS
 10
258.66784794914241
 20
100.1342185809979
 30
0.0
 11
258.66784794914241
 21
100.2618785809979
 31
0.0
  0
LINE
  5
21E4
  8
7_ALL_FEATURES
  6
CONTINUOUS
 10
265.41784794914241
 20
100.1342185809979
 30
0.0
 11
265.16784794914241
 21
100.5171975809979
 31
0.0
  0
LINE
  5
21E5
  8
7_ALL_FEATURES
  6
CONTINUOUS
 10
266.66784794914241
 20
98.02783558099793
 30
0.0
 11
266.29284794914241
 21
98.02783558099793
 31
0.0
  0
LINE
  5
21E6
  8
7_ALL_FEATURES
  6
CONTINUOUS
 10
261.10534794914241
 20
98.410814580997908
 30
0.0
 11
261.29284794914241
 21
98.538474580997914
 31
0.0
  0
LINE
  5
21E7
  8
7_ALL_FEATURES
  6
CONTINUOUS
 10
258.91784794914241
 20
98.474644580997932
 30
0.0
 11
258.73034794914241
 21
98.283154580997916
 31
0.0
  0
LINE
  5
21E8
  8
7_ALL_FEATURES
  6
CONTINUOUS
 10
258.85534794914241
 20
99.815069580997942
 30
0.0
 11
258.66784794914241
 21
99.623580580997924
 31
0.0
  0
LINE
  5
21E9
  8
7_ALL_FEATURES
  6
CONTINUOUS
 10
261.66784794914241
 20
98.538474580997914
 30
0.0
 11
261.48034794914241
 21
98.283154580997916
 31
0.0
  0
LINE
  5
21EA
  8
7_ALL_FEATURES
  6
CONTINUOUS
 10
258.54284794914241
 20
98.538474580997914
 30
0.0
 11
258.73034794914241
 21
98.793793580997956
 31
0.0
  0
LINE
  5
21EB
  8
7_ALL_FEATURES
  6
CONTINUOUS
 10
261.29284794914241
 20
98.538474580997914
 30
0.0
 11
261.41784794914241
 21
98.729963580997946
 31
0.0
  0
LINE
  5
21EC
  8
7_ALL_FEATURES
  6
CONTINUOUS
 10
258.54284794914241
 20
99.942729580997934
 30
0.0
 11
258.66784794914241
 21
100.1342185809979
 31
0.0
  0
LINE
  5
21ED
  8
7_ALL_FEATURES
  6
CONTINUOUS
 10
258.98034794914241
 20
100.0703885809979
 30
0.0
 11
258.85534794914241
 21
99.815069580997942
 31
0.0
  0
LINE
  5
21EE
  8
7_ALL_FEATURES
  6
CONTINUOUS
 10
261.79284794914241
 20
98.857622580997955
 30
0.0
 11
261.66784794914241
 21
98.538474580997914
 31
0.0
  0
LINE
  5
21EF
  8
7_ALL_FEATURES
  6
CONTINUOUS
 10
259.04284794914241
 20
98.793793580997956
 30
0.0
 11
258.91784794914241
 21
98.474644580997932
 31
0.0
  0
LINE
  5
21F0
  8
7_ALL_FEATURES
  6
CONTINUOUS
 10
261.41784794914241
 20
98.729963580997946
 30
0.0
 11
261.48034794914241
 21
98.921452580997951
 31
0.0
  0
LINE
  5
21F1
  8
7_ALL_FEATURES
  6
CONTINUOUS
 10
258.29284794914241
 20
98.410814580997908
 30
0.0
 11
258.54284794914241
 21
98.538474580997914
 31
0.0
  0
LINE
  5
21F2
  8
7_ALL_FEATURES
  6
CONTINUOUS
 10
258.66784794914241
 20
99.623580580997924
 30
0.0
 11
258.54284794914241
 21
99.559750580997928
 31
0.0
  0
LINE
  5
21F3
  8
7_ALL_FEATURES
  6
CONTINUOUS
 10
261.48034794914241
 20
98.283154580997916
 30
0.0
 11
261.16784894914241
 21
98.091665580997926
 31
0.0
  0
LINE
  5
21F4
  8
7_ALL_FEATURES
  6
CONTINUOUS
 10
258.73034794914241
 20
98.283154580997916
 30
0.0
 11
258.41784794914241
 21
98.091665580997926
 31
0.0
  0
LINE
  5
21F5
  8
7_ALL_FEATURES
  6
CONTINUOUS
 10
259.85534794914241
 20
99.687410580997934
 30
0.0
 11
260.16784794914241
 21
99.878899580997938
 31
0.0
  0
LINE
  5
21F6
  8
7_ALL_FEATURES
  6
CONTINUOUS
 10
260.23034794914241
 20
99.559750580997928
 30
0.0
 11
259.98034794914241
 21
99.368261580997938
 31
0.0
  0
LINE
  5
21F7
  8
7_ALL_FEATURES
  6
CONTINUOUS
 10
258.29284794914241
 20
99.751239580997947
 30
0.0
 11
258.54284794914241
 21
99.942729580997934
 31
0.0
  0
LINE
  5
21F8
  8
7_ALL_FEATURES
  6
CONTINUOUS
 10
261.79284794914241
 20
99.112942580997924
 30
0.0
 11
261.79284794914241
 21
98.857622580997955
 31
0.0
  0
LINE
  5
21F9
  8
7_ALL_FEATURES
  6
CONTINUOUS
 10
261.48034794914241
 20
98.921452580997951
 30
0.0
 11
261.48034794914241
 21
99.049112580997942
 31
0.0
  0
LINE
  5
21FA
  8
7_ALL_FEATURES
  6
CONTINUOUS
 10
259.04284794914241
 20
98.985282580997946
 30
0.0
 11
259.04284794914241
 21
98.793793580997956
 31
0.0
  0
LINE
  5
21FB
  8
7_ALL_FEATURES
  6
CONTINUOUS
 10
258.73034794914241
 20
98.793793580997956
 30
0.0
 11
258.73034794914241
 21
98.985282580997946
 31
0.0
  0
LINE
  5
21FC
  8
7_ALL_FEATURES
  6
CONTINUOUS
 10
261.48034794914241
 20
99.049112580997942
 30
0.0
 11
261.41784794914241
 21
99.240601580997904
 31
0.0
  0
LINE
  5
21FD
  8
7_ALL_FEATURES
  6
CONTINUOUS
 10
261.66784794914241
 20
99.432091580997934
 30
0.0
 11
261.79284794914241
 21
99.112942580997924
 31
0.0
  0
LINE
  5
21FE
  8
7_ALL_FEATURES
  6
CONTINUOUS
 10
258.91784794914241
 20
99.304431580997914
 30
0.0
 11
259.04284794914241
 21
98.985282580997946
 31
0.0
  0
LINE
  5
21FF
  8
7_ALL_FEATURES
  6
CONTINUOUS
 10
259.91784794914241
 20
98.793793580997956
 30
0.0
 11
260.04284794914241
 21
98.538474580997914
 31
0.0
  0
LINE
  5
2200
  8
7_ALL_FEATURES
  6
CONTINUOUS
 10
259.66784794914241
 20
98.538474580997914
 30
0.0
 11
259.54284794914241
 21
98.793793580997956
 31
0.0
  0
LINE
  5
2201
  8
7_ALL_FEATURES
  6
CONTINUOUS
 10
261.41784794914241
 20
99.240601580997904
 30
0.0
 11
261.29284794914241
 21
99.432091580997934
 31
0.0
  0
LINE
  5
2202
  8
7_ALL_FEATURES
  6
CONTINUOUS
 10
261.48034794914241
 20
99.687410580997934
 30
0.0
 11
261.66784794914241
 21
99.432091580997934
 31
0.0
  0
LINE
  5
2203
  8
7_ALL_FEATURES
  6
CONTINUOUS
 10
259.85534794914241
 20
98.283154580997916
 30
0.0
 11
259.66784794914241
 21
98.538474580997914
 31
0.0
  0
LINE
  5
2204
  8
7_ALL_FEATURES
  6
CONTINUOUS
 10
258.73034794914241
 20
98.985282580997946
 30
0.0
 11
258.54284794914241
 21
99.240601580997904
 31
0.0
  0
LINE
  5
2205
  8
7_ALL_FEATURES
  6
CONTINUOUS
 10
258.66784794914241
 20
99.495920580997947
 30
0.0
 11
258.91784794914241
 21
99.304431580997914
 31
0.0
  0
LINE
  5
2206
  8
7_ALL_FEATURES
  6
CONTINUOUS
 10
261.29284794914241
 20
99.432091580997934
 30
0.0
 11
261.10534794914241
 21
99.559750580997928
 31
0.0
  0
LINE
  5
2207
  8
7_ALL_FEATURES
  6
CONTINUOUS
 10
260.04284794914241
 20
98.538474580997914
 30
0.0
 11
260.23034794914241
 21
98.410814580997908
 31
0.0
  0
LINE
  5
2208
  8
7_ALL_FEATURES
  6
CONTINUOUS
 10
261.16784894914241
 20
99.878899580997938
 30
0.0
 11
261.48034794914241
 21
99.687410580997934
 31
0.0
  0
LINE
  5
2209
  8
7_ALL_FEATURES
  6
CONTINUOUS
 10
260.16784794914241
 20
98.091665580997926
 30
0.0
 11
259.85534794914241
 21
98.283154580997916
 31
0.0
  0
LINE
  5
220A
  8
7_ALL_FEATURES
  6
CONTINUOUS
 10
258.54284794914241
 20
99.559750580997928
 30
0.0
 11
258.66784794914241
 21
99.495920580997947
 31
0.0
  0
LINE
  5
220B
  8
7_ALL_FEATURES
  6
CONTINUOUS
 10
258.54284794914241
 20
99.240601580997904
 30
0.0
 11
258.29284794914241
 21
99.368261580997938
 31
0.0
  0
LINE
  5
220C
  8
7_ALL_FEATURES
  6
CONTINUOUS
 10
261.10534794914241
 20
99.559750580997928
 30
0.0
 11
260.85534794914241
 21
99.623580580997924
 31
0.0
  0
LINE
  5
220D
  8
7_ALL_FEATURES
  6
CONTINUOUS
 10
260.23034794914241
 20
98.410814580997908
 30
0.0
 11
260.48034794914241
 21
98.34698458099794
 31
0.0
  0
LINE
  5
220E
  8
7_ALL_FEATURES
  6
CONTINUOUS
 10
260.85534794914241
 20
99.942729580997934
 30
0.0
 11
261.16784894914241
 21
99.878899580997938
 31
0.0
  0
LINE
  5
220F
  8
7_ALL_FEATURES
  6
CONTINUOUS
 10
260.48034794914241
 20
98.02783558099793
 30
0.0
 11
260.16784794914241
 21
98.091665580997926
 31
0.0
  0
LINE
  5
2210
  8
7_ALL_FEATURES
  6
CONTINUOUS
 10
260.48034794914241
 20
99.942729580997934
 30
0.0
 11
260.85534794914241
 21
99.942729580997934
 31
0.0
  0
LINE
  5
2211
  8
7_ALL_FEATURES
  6
CONTINUOUS
 10
260.85534794914241
 20
99.623580580997924
 30
0.0
 11
260.48034794914241
 21
99.623580580997924
 31
0.0
  0
LINE
  5
2212
  8
7_ALL_FEATURES
  6
CONTINUOUS
 10
259.98034794914241
 20
99.368261580997938
 30
0.0
 11
259.54284794914241
 21
99.368261580997938
 31
0.0
  0
LINE
  5
2213
  8
7_ALL_FEATURES
  6
CONTINUOUS
 10
259.54284794914241
 20
98.793793580997956
 30
0.0
 11
259.91784794914241
 21
98.793793580997956
 31
0.0
  0
LINE
  5
2214
  8
7_ALL_FEATURES
  6
CONTINUOUS
 10
260.48034794914241
 20
98.34698458099794
 30
0.0
 11
260.85534794914241
 21
98.34698458099794
 31
0.0
  0
LINE
  5
2215
  8
7_ALL_FEATURES
  6
CONTINUOUS
 10
260.85534794914241
 20
98.02783558099793
 30
0.0
 11
260.48034794914241
 21
98.02783558099793
 31
0.0
  0
LINE
  5
2216
  8
7_ALL_FEATURES
  6
CONTINUOUS
 10
260.16784794914241
 20
99.878899580997938
 30
0.0
 11
260.48034794914241
 21
99.942729580997934
 31
0.0
  0
LINE
  5
2217
  8
7_ALL_FEATURES
  6
CONTINUOUS
 10
261.16784894914241
 20
98.091665580997926
 30
0.0
 11
260.85534794914241
 21
98.02783558099793
 31
0.0
  0
LINE
  5
2218
  8
7_ALL_FEATURES
  6
CONTINUOUS
 10
260.48034794914241
 20
99.623580580997924
 30
0.0
 11
260.23034794914241
 21
99.559750580997928
 31
0.0
  0
LINE
  5
2219
  8
7_ALL_FEATURES
  6
CONTINUOUS
 10
260.85534794914241
 20
98.34698458099794
 30
0.0
 11
261.10534794914241
 21
98.410814580997908
 31
0.0
  0
LINE
  5
221A
  8
7_ALL_FEATURES
  6
CONTINUOUS
 10
265.54284794914241
 20
98.474644580997932
 30
0.0
 11
265.35534794914241
 21
98.283154580997916
 31
0.0
  0
LINE
  5
221B
  8
7_ALL_FEATURES
  6
CONTINUOUS
 10
265.16784794914241
 20
98.538474580997914
 30
0.0
 11
265.41784794914241
 21
98.921452580997951
 31
0.0
  0
LINE
  5
221C
  8
7_ALL_FEATURES
  6
CONTINUOUS
 10
265.66784894914241
 20
98.729963580997946
 30
0.0
 11
265.54284794914241
 21
98.474644580997932
 31
0.0
  0
LINE
  5
221D
  8
7_ALL_FEATURES
  6
CONTINUOUS
 10
265.73034794914241
 20
98.921452580997951
 30
0.0
 11
265.66784894914241
 21
98.729963580997946
 31
0.0
  0
LINE
  5
221E
  8
7_ALL_FEATURES
  6
CONTINUOUS
 10
265.79284794914241
 20
99.240601580997904
 30
0.0
 11
265.73034794914241
 21
98.921452580997951
 31
0.0
  0
LINE
  5
221F
  8
7_ALL_FEATURES
  6
CONTINUOUS
 10
265.41784794914241
 20
98.921452580997951
 30
0.0
 11
265.48034894914241
 21
99.304431580997914
 31
0.0
  0
LINE
  5
2220
  8
7_ALL_FEATURES
  6
CONTINUOUS
 10
265.35534794914241
 20
98.283154580997916
 30
0.0
 11
265.04284794914241
 21
98.091665580997926
 31
0.0
  0
LINE
  5
2221
  8
7_ALL_FEATURES
  6
CONTINUOUS
 10
264.98034794914241
 20
98.410814580997908
 30
0.0
 11
265.16784794914241
 21
98.538474580997914
 31
0.0
  0
LINE
  5
2222
  8
7_ALL_FEATURES
  6
CONTINUOUS
 10
263.54284794914241
 20
99.815069580997942
 30
0.0
 11
263.60534894914241
 21
100.1342185809979
 31
0.0
  0
LINE
  5
2223
  8
7_ALL_FEATURES
  6
CONTINUOUS
 10
263.91784794914241
 20
100.1342185809979
 30
0.0
 11
263.85534794914241
 21
99.751239580997947
 31
0.0
  0
LINE
  5
2224
  8
7_ALL_FEATURES
  6
CONTINUOUS
 10
265.79284794914241
 20
99.815069580997942
 30
0.0
 11
265.79284794914241
 21
99.240601580997904
 31
0.0
  0
LINE
  5
2225
  8
7_ALL_FEATURES
  6
CONTINUOUS
 10
265.48034894914241
 20
99.304431580997914
 30
0.0
 11
265.48034894914241
 21
99.751239580997947
 31
0.0
  0
LINE
  5
2226
  8
7_ALL_FEATURES
  6
CONTINUOUS
 10
265.48034894914241
 20
99.751239580997947
 30
0.0
 11
265.41784794914241
 21
100.1342185809979
 31
0.0
  0
LINE
  5
2227
  8
7_ALL_FEATURES
  6
CONTINUOUS
 10
263.85534794914241
 20
99.304431580997914
 30
0.0
 11
263.91784794914241
 21
98.921452580997951
 31
0.0
  0
LINE
  5
2228
  8
7_ALL_FEATURES
  6
CONTINUOUS
 10
265.73034794914241
 20
100.1342185809979
 30
0.0
 11
265.79284794914241
 21
99.815069580997942
 31
0.0
  0
LINE
  5
2229
  8
7_ALL_FEATURES
  6
CONTINUOUS
 10
263.85534794914241
 20
99.751239580997947
 30
0.0
 11
263.85534794914241
 21
99.304431580997914
 31
0.0
  0
LINE
  5
222A
  8
7_ALL_FEATURES
  6
CONTINUOUS
 10
263.54284794914241
 20
99.240601580997904
 30
0.0
 11
263.54284794914241
 21
99.815069580997942
 31
0.0
  0
LINE
  5
222B
  8
7_ALL_FEATURES
  6
CONTINUOUS
 10
263.60534894914241
 20
98.921452580997951
 30
0.0
 11
263.54284794914241
 21
99.240601580997904
 31
0.0
  0
LINE
  5
222C
  8
7_ALL_FEATURES
  6
CONTINUOUS
 10
263.66784794914241
 20
98.729963580997946
 30
0.0
 11
263.60534894914241
 21
98.921452580997951
 31
0.0
  0
LINE
  5
222D
  8
7_ALL_FEATURES
  6
CONTINUOUS
 10
263.79284894914241
 20
98.474644580997932
 30
0.0
 11
263.66784794914241
 21
98.729963580997946
 31
0.0
  0
LINE
  5
222E
  8
7_ALL_FEATURES
  6
CONTINUOUS
 10
263.91784794914241
 20
98.921452580997951
 30
0.0
 11
264.16784894914241
 21
98.538474580997914
 31
0.0
  0
LINE
  5
222F
  8
7_ALL_FEATURES
  6
CONTINUOUS
 10
263.98034894914241
 20
98.283154580997916
 30
0.0
 11
263.79284894914241
 21
98.474644580997932
 31
0.0
  0
LINE
  5
2230
  8
7_ALL_FEATURES
  6
CONTINUOUS
 10
264.16784894914241
 20
98.538474580997914
 30
0.0
 11
264.35534894914241
 21
98.410814580997908
 31
0.0
  0
LINE
  5
2231
  8
7_ALL_FEATURES
  6
CONTINUOUS
 10
264.29284794914241
 20
98.091665580997926
 30
0.0
 11
263.98034894914241
 21
98.283154580997916
 31
0.0
  0
LINE
  5
2232
  8
7_ALL_FEATURES
  6
CONTINUOUS
 10
264.35534894914241
 20
98.410814580997908
 30
0.0
 11
264.66784794914241
 21
98.34698458099794
 31
0.0
  0
LINE
  5
2233
  8
7_ALL_FEATURES
  6
CONTINUOUS
 10
264.66784794914241
 20
98.02783558099793
 30
0.0
 11
264.29284794914241
 21
98.091665580997926
 31
0.0
  0
LINE
  5
2234
  8
7_ALL_FEATURES
  6
CONTINUOUS
 10
263.04284894914241
 20
98.02783558099793
 30
0.0
 11
262.66784894914241
 21
98.02783558099793
 31
0.0
  0
LINE
  5
2235
  8
7_ALL_FEATURES
  6
CONTINUOUS
 10
265.04284794914241
 20
98.091665580997926
 30
0.0
 11
264.66784794914241
 21
98.02783558099793
 31
0.0
  0
LINE
  5
2236
  8
7_ALL_FEATURES
  6
CONTINUOUS
 10
264.66784794914241
 20
98.34698458099794
 30
0.0
 11
264.98034794914241
 21
98.410814580997908
 31
0.0
  0
LINE
  5
2237
  8
7_ALL_FEATURES
  6
CONTINUOUS
 10
268.04284794914241
 20
98.02783558099793
 30
0.0
 11
267.54284894914241
 21
98.02783558099793
 31
0.0
  0
LINE
  5
2238
  8
7_ALL_FEATURES
  6
CONTINUOUS
 10
269.29284794914241
 20
98.02783558099793
 30
0.0
 11
268.91784794914241
 21
98.02783558099793
 31
0.0
  0
LINE
  5
2239
  8
7_ALL_FEATURES
  6
CONTINUOUS
 10
266.29284794914241
 20
101.0278355809979
 30
0.0
 11
266.85534794914241
 21
101.0278355809979
 31
0.0
  0
LINE
  5
223A
  8
7_ALL_FEATURES
  6
CONTINUOUS
 10
262.29284894914241
 20
100.5810275809979
 30
0.0
 11
262.66784894914241
 21
101.0278355809979
 31
0.0
  0
LINE
  5
223B
  8
7_ALL_FEATURES
  6
CONTINUOUS
 10
261.66784794914241
 20
101.0278355809979
 30
0.0
 11
261.66784794914241
 21
100.70868658099791
 31
0.0
  0
LINE
  5
223C
  8
7_ALL_FEATURES
  6
CONTINUOUS
 10
258.85534794914241
 20
100.5810275809979
 30
0.0
 11
258.98034794914241
 21
100.2618785809979
 31
0.0
  0
LINE
  5
223D
  8
7_ALL_FEATURES
  6
CONTINUOUS
 10
258.66784794914241
 20
100.2618785809979
 30
0.0
 11
258.54284794914241
 21
100.45336758099791
 31
0.0
  0
LINE
  5
223E
  8
7_ALL_FEATURES
  6
CONTINUOUS
 10
258.66784794914241
 20
100.7725165809979
 30
0.0
 11
258.85534794914241
 21
100.5810275809979
 31
0.0
  0
LINE
  5
223F
  8
7_ALL_FEATURES
  6
CONTINUOUS
 10
258.54284794914241
 20
100.45336758099791
 30
0.0
 11
258.29284794914241
 21
100.64485758099789
 31
0.0
  0
LINE
  5
2240
  8
7_ALL_FEATURES
  6
CONTINUOUS
 10
258.35534794914241
 20
100.96400558099791
 30
0.0
 11
258.66784794914241
 21
100.7725165809979
 31
0.0
  0
LINE
  5
2241
  8
7_ALL_FEATURES
  6
CONTINUOUS
 10
259.54284794914241
 20
101.0278355809979
 30
0.0
 11
261.66784794914241
 21
101.0278355809979
 31
0.0
  0
LINE
  5
2242
  8
7_ALL_FEATURES
  6
CONTINUOUS
 10
261.66784794914241
 20
100.70868658099791
 30
0.0
 11
259.85534794914241
 21
100.70868658099791
 31
0.0
  0
LINE
  5
2243
  8
7_ALL_FEATURES
  6
CONTINUOUS
 10
263.66784794914241
 20
100.3257085809979
 30
0.0
 11
263.79284894914241
 21
100.5810275809979
 31
0.0
  0
LINE
  5
2244
  8
7_ALL_FEATURES
  6
CONTINUOUS
 10
264.35534894914241
 20
100.64485758099789
 30
0.0
 11
264.16784894914241
 21
100.5171975809979
 31
0.0
  0
LINE
  5
2245
  8
7_ALL_FEATURES
  6
CONTINUOUS
 10
263.79284894914241
 20
100.5810275809979
 30
0.0
 11
263.98034894914241
 21
100.7725165809979
 31
0.0
  0
LINE
  5
2246
  8
7_ALL_FEATURES
  6
CONTINUOUS
 10
263.98034894914241
 20
100.7725165809979
 30
0.0
 11
264.29284794914241
 21
100.96400558099791
 31
0.0
  0
LINE
  5
2247
  8
7_ALL_FEATURES
  6
CONTINUOUS
 10
265.54284794914241
 20
100.5810275809979
 30
0.0
 11
265.66784894914241
 21
100.3257085809979
 31
0.0
  0
LINE
  5
2248
  8
7_ALL_FEATURES
  6
CONTINUOUS
 10
265.35534794914241
 20
100.7725165809979
 30
0.0
 11
265.54284794914241
 21
100.5810275809979
 31
0.0
  0
LINE
  5
2249
  8
7_ALL_FEATURES
  6
CONTINUOUS
 10
265.16784794914241
 20
100.5171975809979
 30
0.0
 11
264.98034794914241
 21
100.64485758099789
 31
0.0
  0
LINE
  5
224A
  8
7_ALL_FEATURES
  6
CONTINUOUS
 10
265.04284794914241
 20
100.96400558099791
 30
0.0
 11
265.35534794914241
 21
100.7725165809979
 31
0.0
  0
LINE
  5
224B
  8
7_ALL_FEATURES
  6
CONTINUOUS
 10
264.98034794914241
 20
100.64485758099789
 30
0.0
 11
264.66784794914241
 21
100.70868658099791
 31
0.0
  0
LINE
  5
224C
  8
7_ALL_FEATURES
  6
CONTINUOUS
 10
264.66784794914241
 20
101.0278355809979
 30
0.0
 11
265.04284794914241
 21
100.96400558099791
 31
0.0
  0
LINE
  5
224D
  8
7_ALL_FEATURES
  6
CONTINUOUS
 10
262.66784894914241
 20
101.0278355809979
 30
0.0
 11
263.04284894914241
 21
101.0278355809979
 31
0.0
  0
LINE
  5
224E
  8
7_ALL_FEATURES
  6
CONTINUOUS
 10
264.29284794914241
 20
100.96400558099791
 30
0.0
 11
264.66784794914241
 21
101.0278355809979
 31
0.0
  0
LINE
  5
224F
  8
7_ALL_FEATURES
  6
CONTINUOUS
 10
264.66784794914241
 20
100.70868658099791
 30
0.0
 11
264.35534894914241
 21
100.64485758099789
 31
0.0
  0
LINE
  5
2250
  8
7_ALL_FEATURES
  6
CONTINUOUS
 10
268.73034794914241
 20
101.0278355809979
 30
0.0
 11
269.29284794914241
 21
101.0278355809979
 31
0.0
  0
LINE
  5
2251
  8
0
  6
CONTINUOUS
 10
239.83034794914241
 20
150.1278355809979
 30
0.0
 11
271.33034794914249
 21
150.1278355809979
 31
0.0
  0
LINE
  5
2252
  8
7_ALL_FEATURES
  6
CONTINUOUS
 10
210.5303479491424
 20
140.22783558099789
 30
0.0
 11
210.9303479491424
 21
140.22783558099789
 31
0.0
  0
LINE
  5
2253
  8
7_ALL_FEATURES
  6
CONTINUOUS
 10
209.59701494914239
 20
140.22783558099789
 30
0.0
 11
209.9970149491424
 21
140.22783558099789
 31
0.0
  0
LINE
  5
2254
  8
7_ALL_FEATURES
  6
CONTINUOUS
 10
209.9970149491424
 20
137.0278355809979
 30
0.0
 11
209.59701494914239
 21
137.0278355809979
 31
0.0
  0
LINE
  5
2255
  8
7_ALL_FEATURES
  6
CONTINUOUS
 10
210.9303479491424
 20
137.0278355809979
 30
0.0
 11
210.5303479491424
 21
137.0278355809979
 31
0.0
  0
LINE
  5
2256
  8
7_ALL_FEATURES
  6
CONTINUOUS
 10
210.9303479491424
 20
140.22783558099789
 30
0.0
 11
210.9303479491424
 21
137.0278355809979
 31
0.0
  0
LINE
  5
2257
  8
7_ALL_FEATURES
  6
CONTINUOUS
 10
210.5303479491424
 20
137.0278355809979
 30
0.0
 11
210.5303479491424
 21
140.22783558099789
 31
0.0
  0
LINE
  5
2258
  8
7_ALL_FEATURES
  6
CONTINUOUS
 10
209.9970149491424
 20
140.22783558099789
 30
0.0
 11
209.9970149491424
 21
137.0278355809979
 31
0.0
  0
LINE
  5
2259
  8
7_ALL_FEATURES
  6
CONTINUOUS
 10
209.59701494914239
 20
138.93421858099791
 30
0.0
 11
209.59701494914239
 21
140.22783558099789
 31
0.0
  0
LINE
  5
225A
  8
7_ALL_FEATURES
  6
CONTINUOUS
 10
209.59701494914239
 20
137.0278355809979
 30
0.0
 11
209.59701494914239
 21
138.5257085809979
 31
0.0
  0
LINE
  5
225B
  8
0
  6
CONTINUOUS
 10
232.6827129491424
 20
151.19786958099789
 30
0.0
 11
237.7779839491424
 21
151.19786958099789
 31
0.0
  0
LINE
  5
225C
  8
0
  6
CONTINUOUS
 10
233.73034794914241
 20
151.4146955809978
 30
0.0
 11
232.6827129491424
 21
151.19786958099789
 31
0.0
  0
LINE
  5
225D
  8
0
  6
CONTINUOUS
 10
232.6827129491424
 20
151.19786958099789
 30
0.0
 11
232.58034794914241
 21
150.0278355809979
 31
0.0
  0
LINE
  5
225E
  8
0
  6
CONTINUOUS
 10
237.7779839491424
 20
151.19786958099789
 30
0.0
 11
237.88034794914239
 21
150.0278355809979
 31
0.0
  0
ARC
  5
225F
  8
0
  6
CONTINUOUS
 10
235.23034794914241
 20
141.5278355809979
 30
0.0
 40
9.9874919999999996
 50
81.362187000000247
 51
87.13042400000009
  0
ARC
  5
2260
  8
0
  6
CONTINUOUS
 10
235.23034794914241
 20
141.5278355809979
 30
0.0
 40
9.8868600000000004
 50
87.101191000000071
 51
92.898808999999915
  0
ARC
  5
2261
  8
0
  6
CONTINUOUS
 10
235.23034794914241
 20
141.5278355809979
 30
0.0
 40
9.9874919999999996
 50
92.869575999999924
 51
98.637812999999625
  0
LINE
  5
2262
  8
0
  6
CONTINUOUS
 10
236.73034794914241
 20
151.4146955809978
 30
0.0
 11
237.7779839491424
 21
151.19786958099789
 31
0.0
  0
LINE
  5
2263
  8
0
  6
CONTINUOUS
 10
236.73034794914241
 20
151.4146955809978
 30
0.0
 11
236.73034794914241
 21
151.4020445809978
 31
0.0
  0
LINE
  5
2264
  8
0
  6
CONTINUOUS
 10
235.73034794914241
 20
151.50280458099789
 30
0.0
 11
235.73034794914241
 21
151.4020445809978
 31
0.0
  0
LINE
  5
2265
  8
0
  6
CONTINUOUS
 10
234.73034794914241
 20
151.4020445809978
 30
0.0
 11
234.73034794914241
 21
151.50280458099789
 31
0.0
  0
LINE
  5
2266
  8
0
  6
CONTINUOUS
 10
233.73034794914241
 20
151.4020445809978
 30
0.0
 11
233.73034794914241
 21
151.4146955809978
 31
0.0
  0
LINE
  5
2267
  8
0
  6
CONTINUOUS
 10
239.83034794914241
 20
150.0278355809979
 30
0.0
 11
239.83034794914241
 21
150.1278355809979
 31
0.0
  0
LINE
  5
2268
  8
0
  6
CONTINUOUS
 10
243.33034794914241
 20
150.22783558099789
 30
0.0
 11
246.33034794914241
 21
150.22783558099789
 31
0.0
  0
LINE
  5
2269
  8
0
  6
CONTINUOUS
 10
243.33034794914241
 20
150.1278355809979
 30
0.0
 11
243.33034794914241
 21
150.22783558099789
 31
0.0
  0
LINE
  5
226A
  8
0
  6
CONTINUOUS
 10
246.33034794914241
 20
150.1278355809979
 30
0.0
 11
246.33034794914241
 21
150.22783558099789
 31
0.0
  0
LINE
  5
226B
  8
0
  6
CONTINUOUS
 10
271.33034794914249
 20
150.0278355809979
 30
0.0
 11
271.33034794914249
 21
150.1278355809979
 31
0.0
  0
LINE
  5
226C
  8
0
  6
CONTINUOUS
 10
305.20609094914238
 20
95.02783558099793
 30
0.0
 11
305.20609094914238
 21
145.0278355809979
 31
0.0
  0
LINE
  5
226D
  8
0
  6
CONTINUOUS
 10
283.33034794914249
 20
95.02783558099793
 30
0.0
 11
283.33034794914249
 21
145.0278355809979
 31
0.0
  0
LINE
  5
226E
  8
2_ALL_NOTES
  6
CONTINUOUS
 62
    40
 10
322.35609094914241
 20
125.5555925809979
 30
0.0
 11
301.43403294914248
 21
83.089190580997922
 31
0.0
  0
ARC
  5
226F
  8
0
  6
CONTINUOUS
 10
310.20609094914249
 20
95.02783558099793
 30
0.0
 40
5.0
 50
180.0
 51
270.0
  0
LINE
  5
2270
  8
2_ALL_NOTES
  6
CONTINUOUS
 62
    40
 10
299.43403294914248
 20
83.089190580997922
 30
0.0
 11
288.23403294914249
 21
83.089190580997922
 31
0.0
  0
TEXT
  5
2271
  8
2_ALL_NOTES
  6
CONTINUOUS
 62
    40
 10
288.23403294914249
 20
83.789190580997911
 30
0.0
 40
2.7999999999999989
  1
モニタ出力
 41
0.8
  0
LINE
  5
2272
  8
2_ALL_NOTES
  6
CONTINUOUS
 62
    40
 10
301.43403294914248
 20
83.089190580997922
 30
0.0
 11
299.43403294914248
 21
83.089190580997922
 31
0.0
  0
ARC
  5
2273
  8
0
  6
CONTINUOUS
 10
278.33034794914238
 20
95.02783558099793
 30
0.0
 40
5.0
 50
302.68785899999961
 51
0.0
  0
LINE
  5
2274
  8
0
  6
CONTINUOUS
 10
278.31217394914239
 20
90.02783558099793
 30
0.0
 11
278.9706489491424
 21
90.071024580997914
 31
0.0
  0
LINE
  5
2275
  8
0
  6
CONTINUOUS
 10
281.01114994914241
 20
90.807377580997908
 30
0.0
 11
281.03034794914248
 21
90.820173580997931
 31
0.0
  0
LINE
  5
2276
  8
0
  6
CONTINUOUS
 10
280.85390794914241
 20
90.71241258099792
 30
0.0
 11
281.01114994914241
 21
90.807377580997908
 31
0.0
  0
LINE
  5
2277
  8
0
  6
CONTINUOUS
 10
280.5458969491425
 20
90.547767580997913
 30
0.0
 11
280.85390794914241
 21
90.71241258099792
 31
0.0
  0
LINE
  5
2278
  8
0
  6
CONTINUOUS
 10
280.11367594914242
 20
90.359806580997926
 30
0.0
 11
280.5458969491425
 21
90.547767580997913
 31
0.0
  0
LINE
  5
2279
  8
0
  6
CONTINUOUS
 10
279.58380294914241
 20
90.190613580997933
 30
0.0
 11
280.11367594914242
 21
90.359806580997926
 31
0.0
  0
LINE
  5
227A
  8
0
  6
CONTINUOUS
 10
278.9706489491424
 20
90.071024580997914
 30
0.0
 11
279.58380294914241
 21
90.190613580997933
 31
0.0
  0
ARC
  5
227B
  8
0
  6
CONTINUOUS
 10
326.70609094914249
 20
98.527835580997944
 30
0.0
 40
9.9874919999999996
 50
272.86957599999988
 51
278.6378129999996
  0
ARC
  5
227C
  8
0
  6
CONTINUOUS
 10
326.70609094914249
 20
98.527835580997944
 30
0.0
 40
9.9874919999999996
 50
261.36218700000029
 51
267.130424
  0
LINE
  5
227D
  8
0
  6
CONTINUOUS
 10
327.20609094914249
 20
88.653626580997923
 30
0.0
 11
327.20609094914249
 21
88.55286758099794
 31
0.0
  0
LINE
  5
227E
  8
0
  6
CONTINUOUS
 10
326.20609094914238
 20
88.55286758099794
 30
0.0
 11
326.20609094914238
 21
88.653626580997923
 31
0.0
  0
LINE
  5
227F
  8
0
  6
CONTINUOUS
 10
324.15845494914242
 20
88.857801580997943
 30
0.0
 11
329.25372594914239
 21
88.857801580997943
 31
0.0
  0
ARC
  5
2280
  8
0
  6
CONTINUOUS
 10
326.70609094914249
 20
98.527835580997944
 30
0.0
 40
9.8868600000000004
 50
267.10119099999997
 51
272.89880899999991
  0
LINE
  5
2281
  8
0
  6
CONTINUOUS
 10
325.20609094914249
 20
88.640975580997903
 30
0.0
 11
325.20609094914249
 21
88.653626580997923
 31
0.0
  0
LINE
  5
2282
  8
0
  6
CONTINUOUS
 10
324.15845494914242
 20
88.857801580997943
 30
0.0
 11
324.0560909491424
 21
90.02783558099793
 31
0.0
  0
LINE
  5
2283
  8
0
  6
CONTINUOUS
 10
325.20609094914249
 20
88.640975580997903
 30
0.0
 11
324.15845494914242
 21
88.857801580997943
 31
0.0
  0
LINE
  5
2284
  8
0
  6
CONTINUOUS
 10
329.25372594914239
 20
88.857801580997943
 30
0.0
 11
329.35609094914241
 21
90.02783558099793
 31
0.0
  0
LINE
  5
2285
  8
0
  6
CONTINUOUS
 10
328.20609094914238
 20
88.653626580997923
 30
0.0
 11
328.20609094914238
 21
88.640975580997903
 31
0.0
  0
LINE
  5
2286
  8
0
  6
CONTINUOUS
 10
328.20609094914238
 20
88.640975580997903
 30
0.0
 11
329.25372594914239
 21
88.857801580997943
 31
0.0
  0
LINE
  5
2287
  8
0
  6
CONTINUOUS
 10
339.0311899491424
 20
90.71241258099792
 30
0.0
 11
339.81465894914243
 21
90.807377580997908
 31
0.0
  0
LINE
  5
2288
  8
0
  6
CONTINUOUS
 10
338.29797294914238
 20
90.547767580997913
 30
0.0
 11
339.0311899491424
 21
90.71241258099792
 31
0.0
  0
LINE
  5
2289
  8
0
  6
CONTINUOUS
 10
337.65793594914243
 20
90.359806580997926
 30
0.0
 11
338.29797294914238
 21
90.547767580997913
 31
0.0
  0
LINE
  5
228A
  8
0
  6
CONTINUOUS
 10
337.12715094914239
 20
90.190613580997933
 30
0.0
 11
337.65793594914243
 21
90.359806580997926
 31
0.0
  0
LINE
  5
228B
  8
0
  6
CONTINUOUS
 10
336.70820094914239
 20
90.071024580997914
 30
0.0
 11
337.12715094914239
 21
90.190613580997933
 31
0.0
  0
LINE
  5
228C
  8
0
  6
CONTINUOUS
 10
336.41703794914241
 20
90.02783558099793
 30
0.0
 11
336.70820094914239
 21
90.071024580997914
 31
0.0
  0
ARC
  5
228D
  8
0
  6
CONTINUOUS
 10
310.20609094914249
 20
145.0278355809979
 30
0.0
 40
5.0
 50
90.0
 51
180.0
  0
LINE
  5
228E
  8
0
  6
CONTINUOUS
 10
282.84103094914241
 20
122.87135258099789
 30
0.0
 11
282.80279694914242
 21
123.4936365809979
 31
0.0
  0
LINE
  5
228F
  8
0
  6
CONTINUOUS
 10
283.1037079491424
 20
123.4934605809979
 30
0.0
 11
283.07746894914243
 21
122.8711905809979
 31
0.0
  0
LINE
  5
2290
  8
0
  6
CONTINUOUS
 10
282.92623094914239
 20
122.12398658099789
 30
0.0
 11
282.8829089491424
 21
122.4088125809979
 31
0.0
  0
LINE
  5
2291
  8
0
  6
CONTINUOUS
 10
282.8829089491424
 20
122.4088125809979
 30
0.0
 11
282.84103094914241
 21
122.87135258099789
 31
0.0
  0
LINE
  5
2292
  8
0
  6
CONTINUOUS
 10
282.96893494914241
 20
122.0278355809979
 30
0.0
 11
282.92623094914239
 21
122.12398658099789
 31
0.0
  0
LINE
  5
2293
  8
0
  6
CONTINUOUS
 10
283.00925694914241
 20
122.1240085809979
 30
0.0
 11
282.96893494914241
 21
122.0278355809979
 31
0.0
  0
LINE
  5
2294
  8
0
  6
CONTINUOUS
 10
283.04577094914242
 20
122.4087675809979
 30
0.0
 11
283.00925694914241
 21
122.1240085809979
 31
0.0
  0
LINE
  5
2295
  8
0
  6
CONTINUOUS
 10
283.07746894914243
 20
122.8711905809979
 30
0.0
 11
283.04577094914242
 21
122.4087675809979
 31
0.0
  0
LINE
  5
2296
  8
0
  6
CONTINUOUS
 10
282.88286994914239
 20
131.64652558099789
 30
0.0
 11
282.92618994914238
 21
131.93150458099791
 31
0.0
  0
LINE
  5
2297
  8
0
  6
CONTINUOUS
 10
282.74562294914239
 20
128.9390055809979
 30
0.0
 11
282.7703369491424
 21
129.8034895809979
 31
0.0
  0
LINE
  5
2298
  8
0
  6
CONTINUOUS
 10
282.73014494914241
 20
128.00096858099781
 30
0.0
 11
282.74562294914239
 21
128.9390055809979
 31
0.0
  0
LINE
  5
2299
  8
0
  6
CONTINUOUS
 10
282.72488994914238
 20
127.0278355809979
 30
0.0
 11
282.73014494914241
 21
128.00096858099781
 31
0.0
  0
LINE
  5
229A
  8
0
  6
CONTINUOUS
 10
282.7301519491424
 20
126.0540935809979
 30
0.0
 11
282.72488994914238
 21
127.0278355809979
 31
0.0
  0
LINE
  5
229B
  8
0
  6
CONTINUOUS
 10
282.74563694914241
 20
125.1160195809978
 30
0.0
 11
282.7301519491424
 21
126.0540935809979
 31
0.0
  0
LINE
  5
229C
  8
0
  6
CONTINUOUS
 10
282.77035894914241
 20
124.2515565809979
 30
0.0
 11
282.74563694914241
 21
125.1160195809978
 31
0.0
  0
LINE
  5
229D
  8
0
  6
CONTINUOUS
 10
282.80279694914242
 20
123.4936365809979
 30
0.0
 11
282.77035894914241
 21
124.2515565809979
 31
0.0
  0
LINE
  5
229E
  8
0
  6
CONTINUOUS
 10
282.84099694914249
 20
131.18386358099789
 30
0.0
 11
282.88286994914239
 21
131.64652558099789
 31
0.0
  0
LINE
  5
229F
  8
0
  6
CONTINUOUS
 10
282.80276794914249
 20
130.56147858099791
 30
0.0
 11
282.84099694914249
 21
131.18386358099789
 31
0.0
  0
LINE
  5
22A0
  8
0
  6
CONTINUOUS
 10
282.7703369491424
 20
129.8034895809979
 30
0.0
 11
282.80276794914249
 21
130.56147858099791
 31
0.0
  0
LINE
  5
22A1
  8
0
  6
CONTINUOUS
 10
283.12414894914241
 20
129.80469158099791
 30
0.0
 11
283.13871994914251
 21
128.9399285809979
 31
0.0
  0
LINE
  5
22A2
  8
0
  6
CONTINUOUS
 10
283.14742294914248
 20
128.0016085809979
 30
0.0
 11
283.15030794914242
 21
127.0278355809979
 31
0.0
  0
LINE
  5
22A3
  8
0
  6
CONTINUOUS
 10
283.13871994914251
 20
128.9399285809979
 30
0.0
 11
283.14742294914248
 21
128.0016085809979
 31
0.0
  0
LINE
  5
22A4
  8
0
  6
CONTINUOUS
 10
283.12416194914249
 20
124.2515605809979
 30
0.0
 11
283.1037079491424
 21
123.4934605809979
 31
0.0
  0
LINE
  5
22A5
  8
0
  6
CONTINUOUS
 10
283.13872794914238
 20
125.11634358099791
 30
0.0
 11
283.12416194914249
 21
124.2515605809979
 31
0.0
  0
LINE
  5
22A6
  8
0
  6
CONTINUOUS
 10
283.14742594914242
 20
126.0546455809979
 30
0.0
 11
283.13872794914238
 21
125.11634358099791
 31
0.0
  0
LINE
  5
22A7
  8
0
  6
CONTINUOUS
 10
283.15030794914242
 20
127.0278355809979
 30
0.0
 11
283.14742594914242
 21
126.0546455809979
 31
0.0
  0
LINE
  5
22A8
  8
0
  6
CONTINUOUS
 10
283.1036909491425
 20
130.5627355809979
 30
0.0
 11
283.12414894914241
 21
129.80469158099791
 31
0.0
  0
LINE
  5
22A9
  8
0
  6
CONTINUOUS
 10
283.07744494914238
 20
131.18492258099789
 30
0.0
 11
283.1036909491425
 21
130.5627355809979
 31
0.0
  0
LINE
  5
22AA
  8
0
  6
CONTINUOUS
 10
283.0457409491425
 20
131.64723358099789
 30
0.0
 11
283.07744494914238
 21
131.18492258099789
 31
0.0
  0
LINE
  5
22AB
  8
0
  6
CONTINUOUS
 10
283.0092199491425
 20
131.93184258099791
 30
0.0
 11
283.0457409491425
 21
131.64723358099789
 31
0.0
  0
LINE
  5
22AC
  8
0
  6
CONTINUOUS
 10
282.96893494914241
 20
132.0278355809979
 30
0.0
 11
283.0092199491425
 21
131.93184258099791
 31
0.0
  0
LINE
  5
22AD
  8
0
  6
CONTINUOUS
 10
282.92618994914238
 20
131.93150458099791
 30
0.0
 11
282.96893494914241
 21
132.0278355809979
 31
0.0
  0
ARC
  5
22AE
  8
0
  6
CONTINUOUS
 10
278.33034794914238
 20
145.0278355809979
 30
0.0
 40
5.0
 50
0.0
 51
57.312138000000282
  0
LINE
  5
22AF
  8
0
  6
CONTINUOUS
 10
278.97070194914238
 20
149.98463958099791
 30
0.0
 11
278.31217394914239
 21
150.0278355809979
 31
0.0
  0
LINE
  5
22B0
  8
0
  6
CONTINUOUS
 10
279.5838739491424
 20
149.86503958099789
 30
0.0
 11
278.97070194914238
 21
149.98463958099791
 31
0.0
  0
LINE
  5
22B1
  8
0
  6
CONTINUOUS
 10
280.11374294914242
 20
149.6958395809979
 30
0.0
 11
279.5838739491424
 21
149.86503958099789
 31
0.0
  0
LINE
  5
22B2
  8
0
  6
CONTINUOUS
 10
280.54593194914241
 20
149.5078865809979
 30
0.0
 11
280.11374294914242
 21
149.6958395809979
 31
0.0
  0
LINE
  5
22B3
  8
0
  6
CONTINUOUS
 10
280.85391494914239
 20
149.34325558099789
 30
0.0
 11
280.54593194914241
 21
149.5078865809979
 31
0.0
  0
LINE
  5
22B4
  8
0
  6
CONTINUOUS
 10
281.0111509491424
 20
149.24829358099791
 30
0.0
 11
280.85391494914239
 21
149.34325558099789
 31
0.0
  0
LINE
  5
22B5
  8
0
  6
CONTINUOUS
 10
281.03034794914248
 20
149.2354975809979
 30
0.0
 11
281.0111509491424
 21
149.24829358099791
 31
0.0
  0
CIRCLE
  5
22B6
  8
0
  6
CONTINUOUS
 10
323.20609094914238
 20
127.0278355809979
 30
0.0
 40
3.0
  0
CIRCLE
  5
22B7
  8
0
  6
CONTINUOUS
 10
323.20609094914238
 20
127.0278355809979
 30
0.0
 40
5.0
  0
CIRCLE
  5
22B8
  8
0
  6
CONTINUOUS
 10
323.20609094914238
 20
127.0278355809979
 30
0.0
 40
1.399999999999999
  0
CIRCLE
  5
22B9
  8
0
  6
CONTINUOUS
 10
323.20609094914238
 20
127.0278355809979
 30
0.0
 40
1.7
  0
LINE
  5
22BA
  8
2_ALL_NOTES
  6
CONTINUOUS
 10
322.35609094914241
 20
125.5555925809979
 30
0.0
 11
320.91154394914241
 21
124.03772858099791
 31
0.0
  0
LINE
  5
22BB
  8
2_ALL_NOTES
  6
CONTINUOUS
 10
322.03284494914237
 20
123.4852935809979
 30
0.0
 11
322.35609094914241
 21
125.5555925809979
 31
0.0
  0
ARC
  5
22BC
  8
0
  6
CONTINUOUS
 10
327.40609094914242
 20
141.5278355809979
 30
0.0
 40
9.9874919999999996
 50
81.362187000000247
 51
87.13042400000009
  0
LINE
  5
22BD
  8
0
  6
CONTINUOUS
 10
324.85845494914241
 20
151.19786958099789
 30
0.0
 11
329.95372594914238
 21
151.19786958099789
 31
0.0
  0
ARC
  5
22BE
  8
0
  6
CONTINUOUS
 10
327.40609094914242
 20
141.5278355809979
 30
0.0
 40
9.8868600000000004
 50
87.101191000000071
 51
92.898808999999915
  0
ARC
  5
22BF
  8
0
  6
CONTINUOUS
 10
327.40609094914242
 20
141.5278355809979
 30
0.0
 40
9.9874919999999996
 50
92.869575999999924
 51
98.637812999999625
  0
LINE
  5
22C0
  8
0
  6
CONTINUOUS
 10
325.90609094914242
 20
151.4146955809978
 30
0.0
 11
324.85845494914241
 21
151.19786958099789
 31
0.0
  0
LINE
  5
22C1
  8
0
  6
CONTINUOUS
 10
327.90609094914242
 20
151.50280458099789
 30
0.0
 11
327.90609094914242
 21
151.4020445809978
 31
0.0
  0
LINE
  5
22C2
  8
0
  6
CONTINUOUS
 10
326.90609094914242
 20
151.4020445809978
 30
0.0
 11
326.90609094914242
 21
151.50280458099789
 31
0.0
  0
LINE
  5
22C3
  8
0
  6
CONTINUOUS
 10
325.90609094914242
 20
151.4020445809978
 30
0.0
 11
325.90609094914242
 21
151.4146955809978
 31
0.0
  0
LINE
  5
22C4
  8
0
  6
CONTINUOUS
 10
324.85845494914241
 20
151.19786958099789
 30
0.0
 11
324.7560909491425
 21
150.0278355809979
 31
0.0
  0
LINE
  5
22C5
  8
0
  6
CONTINUOUS
 10
328.90609094914242
 20
151.4146955809978
 30
0.0
 11
329.95372594914238
 21
151.19786958099789
 31
0.0
  0
LINE
  5
22C6
  8
0
  6
CONTINUOUS
 10
329.95372594914238
 20
151.19786958099789
 30
0.0
 11
330.0560909491424
 21
150.0278355809979
 31
0.0
  0
LINE
  5
22C7
  8
0
  6
CONTINUOUS
 10
328.90609094914242
 20
151.4146955809978
 30
0.0
 11
328.90609094914242
 21
151.4020445809978
 31
0.0
  0
LINE
  5
22C8
  8
0
  6
CONTINUOUS
 10
336.70822994914238
 20
149.98463958099791
 30
0.0
 11
336.41703794914241
 21
150.0278355809979
 31
0.0
  0
LINE
  5
22C9
  8
0
  6
CONTINUOUS
 10
337.12720994914241
 20
149.86503958099789
 30
0.0
 11
336.70822994914238
 21
149.98463958099791
 31
0.0
  0
LINE
  5
22CA
  8
0
  6
CONTINUOUS
 10
337.65801694914239
 20
149.6958395809979
 30
0.0
 11
337.12720994914241
 21
149.86503958099789
 31
0.0
  0
LINE
  5
22CB
  8
0
  6
CONTINUOUS
 10
338.29803694914239
 20
149.5078865809979
 30
0.0
 11
337.65801694914239
 21
149.6958395809979
 31
0.0
  0
LINE
  5
22CC
  8
0
  6
CONTINUOUS
 10
339.0312129491424
 20
149.34325558099789
 30
0.0
 11
338.29803694914239
 21
149.5078865809979
 31
0.0
  0
LINE
  5
22CD
  8
0
  6
CONTINUOUS
 10
339.81466994914251
 20
149.24829358099791
 30
0.0
 11
339.0312129491424
 21
149.34325558099789
 31
0.0
  0
ARC
  5
22CE
  8
0
  6
CONTINUOUS
 10
340.20609094914238
 20
144.5278355809979
 30
0.0
 40
9.9874919999999996
 50
92.869575999999924
 51
98.637812999999625
  0
LINE
  5
22CF
  8
0
  6
CONTINUOUS
 10
338.70609094914238
 20
154.41469558099789
 30
0.0
 11
337.65845494914242
 21
154.19786958099789
 31
0.0
  0
LINE
  5
22D0
  8
0
  6
CONTINUOUS
 10
339.70609094914249
 20
154.4020445809978
 30
0.0
 11
339.70609094914249
 21
154.50280458099789
 31
0.0
  0
LINE
  5
22D1
  8
0
  6
CONTINUOUS
 10
338.70609094914238
 20
154.4020445809978
 30
0.0
 11
338.70609094914238
 21
154.41469558099789
 31
0.0
  0
LINE
  5
22D2
  8
0
  6
CONTINUOUS
 10
337.65845494914242
 20
154.19786958099789
 30
0.0
 11
337.5560909491424
 21
153.0278355809979
 31
0.0
  0
LINE
  5
22D3
  8
0
  6
CONTINUOUS
 10
375.20609094914249
 20
145.0278355809979
 30
0.0
 11
375.20609094914249
 21
95.02783558099793
 31
0.0
  0
ARC
  5
22D4
  8
0
  6
CONTINUOUS
 10
370.20609094914249
 20
95.02783558099793
 30
0.0
 40
5.0
 50
270.0
 51
0.0
  0
ARC
  5
22D5
  8
0
  6
CONTINUOUS
 10
353.70609094914249
 20
98.527835580997944
 30
0.0
 40
9.9874919999999996
 50
272.86957599999988
 51
278.6378129999996
  0
ARC
  5
22D6
  8
0
  6
CONTINUOUS
 10
353.70609094914249
 20
98.527835580997944
 30
0.0
 40
9.9874919999999996
 50
261.36218700000029
 51
267.130424
  0
LINE
  5
22D7
  8
0
  6
CONTINUOUS
 10
354.20609094914249
 20
88.653626580997923
 30
0.0
 11
354.20609094914249
 21
88.55286758099794
 31
0.0
  0
LINE
  5
22D8
  8
0
  6
CONTINUOUS
 10
353.20609094914238
 20
88.55286758099794
 30
0.0
 11
353.20609094914238
 21
88.653626580997923
 31
0.0
  0
LINE
  5
22D9
  8
0
  6
CONTINUOUS
 10
343.70183694914249
 20
90.071534580997934
 30
0.0
 11
343.99514294914241
 21
90.02783558099793
 31
0.0
  0
LINE
  5
22DA
  8
0
  6
CONTINUOUS
 10
343.27818894914242
 20
90.192758580997918
 30
0.0
 11
343.70183694914249
 21
90.071534580997934
 31
0.0
  0
LINE
  5
22DB
  8
0
  6
CONTINUOUS
 10
342.73949894914239
 20
90.364442580997945
 30
0.0
 11
343.27818894914242
 21
90.192758580997918
 31
0.0
  0
LINE
  5
22DC
  8
0
  6
CONTINUOUS
 10
342.08863894914242
 20
90.554550580997926
 30
0.0
 11
342.73949894914239
 21
90.364442580997945
 31
0.0
  0
LINE
  5
22DD
  8
0
  6
CONTINUOUS
 10
341.3442969491424
 20
90.718854580997899
 30
0.0
 11
342.08863894914242
 21
90.554550580997926
 31
0.0
  0
LINE
  5
22DE
  8
0
  6
CONTINUOUS
 10
340.55823794914238
 20
90.809685580997964
 30
0.0
 11
341.3442969491424
 21
90.718854580997899
 31
0.0
  0
LINE
  5
22DF
  8
0
  6
CONTINUOUS
 10
351.15845494914242
 20
88.857801580997943
 30
0.0
 11
356.25372594914239
 21
88.857801580997943
 31
0.0
  0
LINE
  5
22E0
  8
0
  6
CONTINUOUS
 10
352.20609094914249
 20
88.640975580997903
 30
0.0
 11
352.20609094914249
 21
88.653626580997923
 31
0.0
  0
LINE
  5
22E1
  8
0
  6
CONTINUOUS
 10
351.15845494914242
 20
88.857801580997943
 30
0.0
 11
351.0560909491424
 21
90.02783558099793
 31
0.0
  0
LINE
  5
22E2
  8
0
  6
CONTINUOUS
 10
352.20609094914249
 20
88.640975580997903
 30
0.0
 11
351.15845494914242
 21
88.857801580997943
 31
0.0
  0
ARC
  5
22E3
  8
0
  6
CONTINUOUS
 10
353.70609094914249
 20
98.527835580997944
 30
0.0
 40
9.8868600000000004
 50
267.10119099999997
 51
272.89880899999991
  0
LINE
  5
22E4
  8
0
  6
CONTINUOUS
 10
356.25372594914239
 20
88.857801580997943
 30
0.0
 11
356.35609094914241
 21
90.02783558099793
 31
0.0
  0
LINE
  5
22E5
  8
0
  6
CONTINUOUS
 10
355.20609094914238
 20
88.653626580997923
 30
0.0
 11
355.20609094914238
 21
88.640975580997903
 31
0.0
  0
LINE
  5
22E6
  8
0
  6
CONTINUOUS
 10
355.20609094914238
 20
88.640975580997903
 30
0.0
 11
356.25372594914239
 21
88.857801580997943
 31
0.0
  0
ARC
  5
22E7
  8
0
  6
CONTINUOUS
 10
370.20609094914249
 20
145.0278355809979
 30
0.0
 40
5.0
 50
0.0
 51
90.0
  0
CIRCLE
  5
22E8
  8
0
  6
CONTINUOUS
 10
350.20609094914249
 20
120.0278355809979
 30
0.0
 40
3.0
  0
CIRCLE
  5
22E9
  8
0
  6
CONTINUOUS
 10
350.20609094914249
 20
120.0278355809979
 30
0.0
 40
2.75
  0
LINE
  5
22EA
  8
0
  6
CONTINUOUS
 10
348.45609094914238
 20
120.42783558099789
 30
0.0
 11
349.8060909491424
 21
120.42783558099789
 31
0.0
  0
LINE
  5
22EB
  8
0
  6
CONTINUOUS
 10
349.8060909491424
 20
119.6278355809979
 30
0.0
 11
348.45609094914238
 21
119.6278355809979
 31
0.0
  0
LINE
  5
22EC
  8
0
  6
CONTINUOUS
 10
348.45609094914238
 20
119.6278355809979
 30
0.0
 11
348.45609094914238
 21
120.42783558099789
 31
0.0
  0
LINE
  5
22ED
  8
0
  6
CONTINUOUS
 10
351.95609094914249
 20
120.42783558099789
 30
0.0
 11
351.95609094914249
 21
119.6278355809979
 31
0.0
  0
LINE
  5
22EE
  8
0
  6
CONTINUOUS
 10
350.60609094914241
 20
119.6278355809979
 30
0.0
 11
350.60609094914241
 21
118.2778355809979
 31
0.0
  0
LINE
  5
22EF
  8
0
  6
CONTINUOUS
 10
350.60609094914241
 20
121.7778355809979
 30
0.0
 11
350.60609094914241
 21
120.42783558099789
 31
0.0
  0
LINE
  5
22F0
  8
0
  6
CONTINUOUS
 10
349.8060909491424
 20
120.42783558099789
 30
0.0
 11
349.8060909491424
 21
121.7778355809979
 31
0.0
  0
LINE
  5
22F1
  8
0
  6
CONTINUOUS
 10
349.8060909491424
 20
118.2778355809979
 30
0.0
 11
349.8060909491424
 21
119.6278355809979
 31
0.0
  0
LINE
  5
22F2
  8
0
  6
CONTINUOUS
 10
349.8060909491424
 20
121.7778355809979
 30
0.0
 11
350.60609094914241
 21
121.7778355809979
 31
0.0
  0
LINE
  5
22F3
  8
0
  6
CONTINUOUS
 10
350.60609094914241
 20
120.42783558099789
 30
0.0
 11
351.95609094914249
 21
120.42783558099789
 31
0.0
  0
LINE
  5
22F4
  8
0
  6
CONTINUOUS
 10
351.95609094914249
 20
119.6278355809979
 30
0.0
 11
350.60609094914241
 21
119.6278355809979
 31
0.0
  0
LINE
  5
22F5
  8
0
  6
CONTINUOUS
 10
350.60609094914241
 20
118.2778355809979
 30
0.0
 11
349.8060909491424
 21
118.2778355809979
 31
0.0
  0
LINE
  5
22F6
  8
0
  6
CONTINUOUS
 10
341.3442739491424
 20
149.3368135809979
 30
0.0
 11
340.55821994914248
 21
149.24598458099791
 31
0.0
  0
LINE
  5
22F7
  8
0
  6
CONTINUOUS
 10
342.08856694914238
 20
149.50110158099781
 30
0.0
 11
341.3442739491424
 21
149.3368135809979
 31
0.0
  0
LINE
  5
22F8
  8
0
  6
CONTINUOUS
 10
342.73941694914242
 20
149.69120358099789
 30
0.0
 11
342.08856694914238
 21
149.50110158099781
 31
0.0
  0
LINE
  5
22F9
  8
0
  6
CONTINUOUS
 10
343.27812194914242
 20
149.86289158099791
 30
0.0
 11
342.73941694914242
 21
149.69120358099789
 31
0.0
  0
LINE
  5
22FA
  8
0
  6
CONTINUOUS
 10
343.7018049491424
 20
149.9841295809978
 30
0.0
 11
343.27812194914242
 21
149.86289158099791
 31
0.0
  0
LINE
  5
22FB
  8
0
  6
CONTINUOUS
 10
343.99514294914241
 20
150.0278355809979
 30
0.0
 11
343.7018049491424
 21
149.9841295809978
 31
0.0
  0
ARC
  5
22FC
  8
0
  6
CONTINUOUS
 10
340.20609094914238
 20
144.5278355809979
 30
0.0
 40
9.9874919999999996
 50
81.362187000000247
 51
87.13042400000009
  0
LINE
  5
22FD
  8
0
  6
CONTINUOUS
 10
341.70609094914249
 20
154.41469558099789
 30
0.0
 11
342.75372594914239
 21
154.19786958099789
 31
0.0
  0
LINE
  5
22FE
  8
0
  6
CONTINUOUS
 10
341.70609094914249
 20
154.41469558099789
 30
0.0
 11
341.70609094914249
 21
154.4020445809978
 31
0.0
  0
LINE
  5
22FF
  8
0
  6
CONTINUOUS
 10
342.75372594914239
 20
154.19786958099789
 30
0.0
 11
342.85609094914241
 21
153.0278355809979
 31
0.0
  0
LINE
  5
2300
  8
0
  6
CONTINUOUS
 10
340.70609094914238
 20
154.50280458099789
 30
0.0
 11
340.70609094914238
 21
154.4020445809978
 31
0.0
  0
LINE
  5
2301
  8
0
  6
CONTINUOUS
 10
323.70609094914238
 20
160.0278355809979
 30
0.0
 11
356.70609094914238
 21
160.0278355809979
 31
0.0
  0
ARC
  5
2303
  8
0
  6
CONTINUOUS
 10
-116.66965205085749
 20
220.98570358099781
 30
0.0
 40
400.0
 50
355.64422700000023
 51
4.3557729999997434
  0
LINE
  5
2304
  8
0
  6
CONTINUOUS
 10
273.33034794914249
 20
255.98570358099789
 30
0.0
 11
273.33034794914249
 21
185.98570358099781
 31
0.0
  0
ARC
  5
2305
  8
0
  6
CONTINUOUS
 10
274.33034794914238
 20
222.58570358099789
 30
0.0
 40
2.7000000000000002
 50
270.0
 51
63.198897999999772
  0
ARC
  5
2306
  8
0
  6
CONTINUOUS
 10
274.33034794914238
 20
222.58570358099789
 30
0.0
 40
3.5
 50
270.0
 51
43.547205999999228
  0
LINE
  5
2307
  8
0
  6
CONTINUOUS
 10
273.33034794914249
 20
224.98570358099781
 30
0.0
 11
277.03034794914242
 21
224.98570358099781
 31
0.0
  0
LINE
  5
2308
  8
0
  6
CONTINUOUS
 10
273.53034794914242
 20
223.98570358099789
 30
0.0
 11
275.03034794914242
 21
223.98570358099789
 31
0.0
  0
LINE
  5
2309
  8
DEFAULT_1
  6
CENTER
 10
212.23034794914241
 20
220.98570358099781
 30
0.0
 11
293.90397394914243
 21
220.98570358099781
 31
0.0
  0
LINE
  5
230A
  8
0
  6
CONTINUOUS
 10
273.53034794914242
 20
217.98570358099789
 30
0.0
 11
275.03034794914242
 21
217.98570358099789
 31
0.0
  0
LINE
  5
230B
  8
0
  6
CONTINUOUS
 10
273.33034794914249
 20
216.98570358099781
 30
0.0
 11
277.03034794914242
 21
216.98570358099781
 31
0.0
  0
LINE
  5
230D
  8
0
  6
CONTINUOUS
 10
271.33034794914249
 20
195.98570358099781
 30
0.0
 11
271.33034794914249
 21
245.98570358099781
 31
0.0
  0
LINE
  5
230E
  8
0
  6
CONTINUOUS
 10
243.6494969491425
 20
204.23570358099781
 30
0.0
 11
243.6494969491425
 21
205.23570358099781
 31
0.0
  0
LINE
  5
230F
  8
0
  6
CONTINUOUS
 10
243.33034794914241
 20
205.23570358099781
 30
0.0
 11
243.33034794914241
 21
202.86070358099789
 31
0.0
  0
LINE
  5
2310
  8
0
  6
CONTINUOUS
 10
239.83034794914241
 20
245.98570358099781
 30
0.0
 11
239.83034794914241
 21
195.98570358099781
 31
0.0
  0
LINE
  5
2311
  8
0
  6
CONTINUOUS
 10
225.73034794914241
 20
204.48570358099781
 30
0.0
 11
225.73034794914241
 21
237.48570358099781
 31
0.0
  0
LINE
  5
2312
  8
2_ALL_NOTES
  6
CONTINUOUS
 62
    40
 10
212.84838194914241
 20
219.08359058099791
 30
0.0
 11
247.39057894914239
 21
177.1195815809979
 31
0.0
  0
LINE
  5
2313
  8
0
  6
CONTINUOUS
 10
239.83034794914241
 20
195.98570358099781
 30
0.0
 11
271.33034794914249
 21
195.98570358099781
 31
0.0
  0
LINE
  5
2314
  8
2_ALL_NOTES
  6
CONTINUOUS
 62
    40
 10
223.54469194914239
 20
169.1077785809978
 30
0.0
 11
259.38469194914239
 21
169.1077785809978
 31
0.0
  0
TEXT
  5
2315
  8
2_ALL_NOTES
  6
CONTINUOUS
 62
    40
 10
223.54469194914239
 20
169.8077785809979
 30
0.0
 40
2.7999999999999989
  1
1/4-20UNCユニファイネジ
 41
0.8
  0
ARC
  5
2316
  8
0
  6
CONTINUOUS
 10
224.73034794914241
 20
159.0278355809979
 30
0.0
 40
1.0
 50
0.0
 51
90.0
  0
LINE
  5
2317
  8
2_ALL_NOTES
  6
CONTINUOUS
 10
221.54469194914239
 20
169.1077785809978
 30
0.0
 11
223.54469194914239
 21
169.1077785809978
 31
0.0
  0
ARC
  5
2319
  8
0
  6
CONTINUOUS
 10
224.73034794914241
 20
204.48570358099781
 30
0.0
 40
1.0
 50
270.0
 51
0.0
  0
LINE
  5
231A
  8
2_ALL_NOTES
  6
CONTINUOUS
 62
    40
 10
249.39057894914239
 20
177.1195815809979
 30
0.0
 11
258.3505789491424
 21
177.1195815809979
 31
0.0
  0
TEXT
  5
231B
  8
2_ALL_NOTES
  6
CONTINUOUS
 62
    40
 10
249.39057894914239
 20
177.81958158099789
 30
0.0
 40
2.7999999999999989
  1
M4ネジ
 41
0.8
  0
LINE
  5
231C
  8
2_ALL_NOTES
  6
CONTINUOUS
 62
    40
 10
247.39057894914239
 20
177.1195815809979
 30
0.0
 11
249.39057894914239
 21
177.1195815809979
 31
0.0
  0
LINE
  5
231D
  8
0
  6
CONTINUOUS
 10
246.33034794914241
 20
198.48570358099789
 30
0.0
 11
246.33034794914241
 21
198.86070358099781
 31
0.0
  0
LINE
  5
231E
  8
0
  6
CONTINUOUS
 10
243.33034794914241
 20
199.04820358099789
 30
0.0
 11
243.33034794914241
 21
198.48570358099789
 31
0.0
  0
LINE
  5
231F
  8
0
  6
CONTINUOUS
 10
243.33034794914241
 20
198.48570358099789
 30
0.0
 11
246.33034794914241
 21
198.48570358099789
 31
0.0
  0
LINE
  5
2320
  8
0
  6
CONTINUOUS
 10
243.9686459491424
 20
198.86070358099781
 30
0.0
 11
246.33034794914241
 21
199.73570358099789
 31
0.0
  0
LINE
  5
2321
  8
0
  6
CONTINUOUS
 10
246.0111989491424
 20
199.98570358099789
 30
0.0
 11
243.33034794914241
 21
199.04820358099789
 31
0.0
  0
LINE
  5
2322
  8
0
  6
CONTINUOUS
 10
246.33034794914241
 20
200.23570358099781
 30
0.0
 11
243.9686459491424
 21
201.11070358099781
 31
0.0
  0
LINE
  5
2323
  8
0
  6
CONTINUOUS
 10
243.33034794914241
 20
200.92320358099781
 30
0.0
 11
246.0111989491424
 21
199.98570358099789
 31
0.0
  0
LINE
  5
2324
  8
0
  6
CONTINUOUS
 10
246.33034794914241
 20
204.23570358099781
 30
0.0
 11
243.6494969491425
 21
204.23570358099781
 31
0.0
  0
LINE
  5
2325
  8
0
  6
CONTINUOUS
 10
243.6494969491425
 20
203.86070358099781
 30
0.0
 11
246.33034794914241
 21
203.86070358099781
 31
0.0
  0
LINE
  5
2326
  8
0
  6
CONTINUOUS
 10
246.33034794914241
 20
202.36070358099789
 30
0.0
 11
243.33034794914241
 21
202.36070358099789
 31
0.0
  0
LINE
  5
2327
  8
0
  6
CONTINUOUS
 10
243.33034794914241
 20
201.98570358099781
 30
0.0
 11
246.33034794914241
 21
201.98570358099781
 31
0.0
  0
LINE
  5
2328
  8
0
  6
CONTINUOUS
 10
246.33034794914241
 20
201.48570358099789
 30
0.0
 11
243.33034794914241
 21
201.48570358099789
 31
0.0
  0
LINE
  5
2329
  8
0
  6
CONTINUOUS
 10
243.9686459491424
 20
201.11070358099781
 30
0.0
 11
246.33034794914241
 21
201.11070358099781
 31
0.0
  0
LINE
  5
232A
  8
0
  6
CONTINUOUS
 10
246.33034794914241
 20
198.86070358099781
 30
0.0
 11
243.9686459491424
 21
198.86070358099781
 31
0.0
  0
LINE
  5
232B
  8
0
  6
CONTINUOUS
 10
243.6494969491425
 20
202.86070358099789
 30
0.0
 11
243.6494969491425
 21
203.86070358099781
 31
0.0
  0
LINE
  5
232C
  8
0
  6
CONTINUOUS
 10
243.33034794914241
 20
201.48570358099789
 30
0.0
 11
243.33034794914241
 21
200.92320358099781
 31
0.0
  0
LINE
  5
232D
  8
0
  6
CONTINUOUS
 10
243.33034794914241
 20
202.36070358099789
 30
0.0
 11
243.33034794914241
 21
201.98570358099781
 31
0.0
  0
LINE
  5
232E
  8
0
  6
CONTINUOUS
 10
243.33034794914241
 20
202.86070358099789
 30
0.0
 11
243.6494969491425
 21
202.86070358099789
 31
0.0
  0
LINE
  5
232F
  8
0
  6
CONTINUOUS
 10
246.33034794914241
 20
203.86070358099781
 30
0.0
 11
246.33034794914241
 21
204.23570358099781
 31
0.0
  0
LINE
  5
2330
  8
0
  6
CONTINUOUS
 10
246.33034794914241
 20
201.98570358099781
 30
0.0
 11
246.33034794914241
 21
202.36070358099789
 31
0.0
  0
LINE
  5
2331
  8
0
  6
CONTINUOUS
 10
246.33034794914241
 20
201.11070358099781
 30
0.0
 11
246.33034794914241
 21
201.48570358099789
 31
0.0
  0
LINE
  5
2332
  8
0
  6
CONTINUOUS
 10
246.33034794914241
 20
199.73570358099789
 30
0.0
 11
246.33034794914241
 21
200.23570358099781
 31
0.0
  0
LINE
  5
2333
  8
0
  6
CONTINUOUS
 10
271.33034794914249
 20
245.98570358099781
 30
0.0
 11
239.83034794914241
 21
245.98570358099781
 31
0.0
  0
LINE
  5
2334
  8
DEFAULT_1
  6
CENTER
 10
212.23034794914241
 20
225.48570358099781
 30
0.0
 11
212.23034794914241
 21
227.98570358099781
 31
0.0
  0
ARC
  5
2335
  8
0
  6
CONTINUOUS
 10
224.73034794914241
 20
225.98570358099781
 30
0.0
 40
1.0
 50
270.0
 51
0.0
  0
ARC
  5
2336
  8
0
  6
CONTINUOUS
 10
224.73034794914241
 20
215.98570358099789
 30
0.0
 40
1.0
 50
0.0
 51
90.0
  0
LINE
  5
2337
  8
DEFAULT_1
  6
CENTER
 10
212.23034794914241
 20
220.98570358099781
 30
0.0
 11
212.23034794914241
 21
213.98570358099789
 31
0.0
  0
CIRCLE
  5
2338
  8
0
  6
CONTINUOUS
 10
212.23034794914241
 20
220.98570358099781
 30
0.0
 40
2.0
  0
LINE
  5
2339
  8
DEFAULT_1
  6
CENTER
 10
212.23034794914241
 20
220.98570358099781
 30
0.0
 11
212.23034794914241
 21
225.48570358099781
 31
0.0
  0
LINE
  5
233A
  8
2_ALL_NOTES
  6
CONTINUOUS
 10
212.84838194914241
 20
219.08359058099791
 30
0.0
 11
213.63688794914239
 21
217.14222958099791
 31
0.0
  0
LINE
  5
233B
  8
2_ALL_NOTES
  6
CONTINUOUS
 10
214.6019859491424
 20
217.93663858099791
 30
0.0
 11
212.84838194914241
 21
219.08359058099791
 31
0.0
  0
ARC
  5
233C
  8
0
  6
CONTINUOUS
 10
222.5303479491424
 20
220.98570358099781
 30
0.0
 40
4.0
 50
90.0
 51
270.0
  0
CIRCLE
  5
233D
  8
0
  6
CONTINUOUS
 10
222.5303479491424
 20
220.98570358099781
 30
0.0
 40
2.5476349999999992
  0
CIRCLE
  5
233E
  8
0
  6
CONTINUOUS
 10
222.5303479491424
 20
220.98570358099781
 30
0.0
 40
2.649999999999999
  0
LINE
  5
233F
  8
0
  6
CONTINUOUS
 10
223.0303479491424
 20
222.48570358099789
 30
0.0
 11
223.0303479491424
 21
221.48570358099781
 31
0.0
  0
LINE
  5
2340
  8
0
  6
CONTINUOUS
 10
222.0303479491424
 20
221.48570358099781
 30
0.0
 11
222.0303479491424
 21
222.48570358099789
 31
0.0
  0
LINE
  5
2341
  8
0
  6
CONTINUOUS
 10
221.0303479491424
 20
221.48570358099781
 30
0.0
 11
222.0303479491424
 21
221.48570358099781
 31
0.0
  0
LINE
  5
2342
  8
0
  6
CONTINUOUS
 10
222.0303479491424
 20
220.48570358099789
 30
0.0
 11
221.0303479491424
 21
220.48570358099789
 31
0.0
  0
LINE
  5
2343
  8
0
  6
CONTINUOUS
 10
221.0303479491424
 20
220.48570358099789
 30
0.0
 11
221.0303479491424
 21
221.48570358099781
 31
0.0
  0
LINE
  5
2344
  8
0
  6
CONTINUOUS
 10
224.0303479491424
 20
221.48570358099781
 30
0.0
 11
224.0303479491424
 21
220.48570358099789
 31
0.0
  0
LINE
  5
2345
  8
0
  6
CONTINUOUS
 10
223.0303479491424
 20
220.48570358099789
 30
0.0
 11
223.0303479491424
 21
219.48570358099781
 31
0.0
  0
LINE
  5
2346
  8
0
  6
CONTINUOUS
 10
222.0303479491424
 20
219.48570358099781
 30
0.0
 11
222.0303479491424
 21
220.48570358099789
 31
0.0
  0
LINE
  5
2347
  8
0
  6
CONTINUOUS
 10
223.0303479491424
 20
221.48570358099781
 30
0.0
 11
224.0303479491424
 21
221.48570358099781
 31
0.0
  0
LINE
  5
2348
  8
0
  6
CONTINUOUS
 10
224.0303479491424
 20
220.48570358099789
 30
0.0
 11
223.0303479491424
 21
220.48570358099789
 31
0.0
  0
LINE
  5
2349
  8
0
  6
CONTINUOUS
 10
223.0303479491424
 20
219.48570358099781
 30
0.0
 11
222.0303479491424
 21
219.48570358099781
 31
0.0
  0
LINE
  5
234A
  8
0
  6
CONTINUOUS
 10
224.73034794914241
 20
216.98570358099781
 30
0.0
 11
222.5303479491424
 21
216.98570358099781
 31
0.0
  0
LINE
  5
234B
  8
0
  6
CONTINUOUS
 10
222.5303479491424
 20
224.98570358099781
 30
0.0
 11
224.73034794914241
 21
224.98570358099781
 31
0.0
  0
LINE
  5
234C
  8
0
  6
CONTINUOUS
 10
222.0303479491424
 20
222.48570358099789
 30
0.0
 11
223.0303479491424
 21
222.48570358099789
 31
0.0
  0
CIRCLE
  5
234D
  8
0
  6
CONTINUOUS
 10
235.23034794914241
 20
208.18570358099791
 30
0.0
 40
2.5476349999999992
  0
CIRCLE
  5
234E
  8
0
  6
CONTINUOUS
 10
235.23034794914241
 20
208.18570358099791
 30
0.0
 40
2.649999999999999
  0
LINE
  5
234F
  8
0
  6
CONTINUOUS
 10
236.73034794914241
 20
208.68570358099791
 30
0.0
 11
236.73034794914241
 21
207.68570358099791
 31
0.0
  0
LINE
  5
2350
  8
0
  6
CONTINUOUS
 10
235.73034794914241
 20
207.68570358099791
 30
0.0
 11
235.73034794914241
 21
206.68570358099791
 31
0.0
  0
LINE
  5
2351
  8
0
  6
CONTINUOUS
 10
235.73034794914241
 20
209.68570358099791
 30
0.0
 11
235.73034794914241
 21
208.68570358099791
 31
0.0
  0
LINE
  5
2352
  8
0
  6
CONTINUOUS
 10
234.73034794914241
 20
208.68570358099791
 30
0.0
 11
234.73034794914241
 21
209.68570358099791
 31
0.0
  0
LINE
  5
2353
  8
0
  6
CONTINUOUS
 10
234.73034794914241
 20
206.68570358099791
 30
0.0
 11
234.73034794914241
 21
207.68570358099791
 31
0.0
  0
LINE
  5
2354
  8
0
  6
CONTINUOUS
 10
233.73034794914241
 20
207.68570358099791
 30
0.0
 11
233.73034794914241
 21
208.68570358099791
 31
0.0
  0
LINE
  5
2355
  8
0
  6
CONTINUOUS
 10
234.73034794914241
 20
209.68570358099791
 30
0.0
 11
235.73034794914241
 21
209.68570358099791
 31
0.0
  0
LINE
  5
2356
  8
0
  6
CONTINUOUS
 10
235.73034794914241
 20
208.68570358099791
 30
0.0
 11
236.73034794914241
 21
208.68570358099791
 31
0.0
  0
LINE
  5
2357
  8
0
  6
CONTINUOUS
 10
233.73034794914241
 20
208.68570358099791
 30
0.0
 11
234.73034794914241
 21
208.68570358099791
 31
0.0
  0
LINE
  5
2358
  8
0
  6
CONTINUOUS
 10
234.73034794914241
 20
207.68570358099791
 30
0.0
 11
233.73034794914241
 21
207.68570358099791
 31
0.0
  0
LINE
  5
2359
  8
0
  6
CONTINUOUS
 10
236.73034794914241
 20
207.68570358099791
 30
0.0
 11
235.73034794914241
 21
207.68570358099791
 31
0.0
  0
LINE
  5
235A
  8
0
  6
CONTINUOUS
 10
235.73034794914241
 20
206.68570358099791
 30
0.0
 11
234.73034794914241
 21
206.68570358099791
 31
0.0
  0
ARC
  5
235B
  8
0
  6
CONTINUOUS
 10
224.73034794914241
 20
237.48570358099781
 30
0.0
 40
1.0
 50
0.0
 51
90.0
  0
LINE
  5
235C
  8
0
  6
CONTINUOUS
 10
246.33034794914241
 20
215.86070358099781
 30
0.0
 11
246.33034794914241
 21
216.3607045809978
 31
0.0
  0
LINE
  5
235D
  8
0
  6
CONTINUOUS
 10
245.9473699491424
 20
216.3607045809978
 30
0.0
 11
245.9473699491424
 21
215.86070358099781
 31
0.0
  0
LINE
  5
235E
  8
0
  6
CONTINUOUS
 10
244.9899229491424
 20
215.98570458099789
 30
0.0
 11
244.9899229491424
 21
216.3607045809978
 31
0.0
  0
LINE
  5
235F
  8
0
  6
CONTINUOUS
 10
244.60694394914239
 20
216.3607045809978
 30
0.0
 11
244.60694394914239
 21
215.98570458099789
 31
0.0
  0
LINE
  5
2360
  8
0
  6
CONTINUOUS
 10
243.71332694914241
 20
215.98570458099789
 30
0.0
 11
243.71332694914241
 21
216.3607045809978
 31
0.0
  0
LINE
  5
2361
  8
0
  6
CONTINUOUS
 10
243.33034794914241
 20
216.29820358099781
 30
0.0
 11
243.33034794914241
 21
215.98570458099789
 31
0.0
  0
LINE
  5
2362
  8
0
  6
CONTINUOUS
 10
243.33034794914241
 20
210.79820358099781
 30
0.0
 11
243.33034794914241
 21
210.42320358099789
 31
0.0
  0
LINE
  5
2363
  8
0
  6
CONTINUOUS
 10
246.13885894914239
 20
210.36070358099781
 30
0.0
 11
245.8835399491424
 21
210.61070358099789
 31
0.0
  0
LINE
  5
2364
  8
0
  6
CONTINUOUS
 10
245.75587994914241
 20
205.79820358099781
 30
0.0
 11
246.07502894914251
 21
205.98570358099789
 31
0.0
  0
LINE
  5
2365
  8
0
  6
CONTINUOUS
 10
245.8835399491424
 20
208.73570358099781
 30
0.0
 11
246.13885894914239
 21
208.98570358099781
 31
0.0
  0
LINE
  5
2366
  8
0
  6
CONTINUOUS
 10
246.13885894914239
 20
207.67320358099781
 30
0.0
 11
245.8835399491424
 21
207.92320358099789
 31
0.0
  0
LINE
  5
2367
  8
0
  6
CONTINUOUS
 10
245.18141194914239
 20
207.54820358099789
 30
0.0
 11
245.37290094914241
 21
207.67320358099781
 31
0.0
  0
LINE
  5
2368
  8
0
  6
CONTINUOUS
 10
243.84098594914241
 20
207.79820358099781
 30
0.0
 11
243.58566694914239
 21
207.61070358099781
 31
0.0
  0
LINE
  5
2369
  8
0
  6
CONTINUOUS
 10
245.8835399491424
 20
206.36070358099789
 30
0.0
 11
245.69204994914239
 21
206.17320358099789
 31
0.0
  0
LINE
  5
236A
  8
0
  6
CONTINUOUS
 10
244.54311394914239
 20
205.98570358099789
 30
0.0
 11
244.79843294914241
 21
206.23570358099781
 31
0.0
  0
LINE
  5
236B
  8
0
  6
CONTINUOUS
 10
245.0537519491424
 20
207.92320358099789
 30
0.0
 11
244.79843294914241
 21
207.67320358099781
 31
0.0
  0
LINE
  5
236C
  8
0
  6
CONTINUOUS
 10
243.77715694914241
 20
207.29820358099789
 30
0.0
 11
243.90481594914249
 21
207.42320358099781
 31
0.0
  0
LINE
  5
236D
  8
0
  6
CONTINUOUS
 10
243.58566694914239
 20
207.61070358099781
 30
0.0
 11
243.3941779491424
 21
207.36070358099781
 31
0.0
  0
LINE
  5
236E
  8
0
  6
CONTINUOUS
 10
244.54311394914239
 20
206.54820358099781
 30
0.0
 11
244.4154549491424
 21
206.36070358099789
 31
0.0
  0
LINE
  5
236F
  8
0
  6
CONTINUOUS
 10
245.0537519491424
 20
207.36070358099781
 30
0.0
 11
245.18141194914239
 21
207.54820358099789
 31
0.0
  0
LINE
  5
2370
  8
0
  6
CONTINUOUS
 10
245.8835399491424
 20
209.29820358099789
 30
0.0
 11
245.75587994914241
 21
209.11070358099789
 31
0.0
  0
LINE
  5
2371
  8
0
  6
CONTINUOUS
 10
244.79843294914241
 20
206.23570358099781
 30
0.0
 11
244.9260929491424
 21
206.48570358099781
 31
0.0
  0
LINE
  5
2372
  8
0
  6
CONTINUOUS
 10
244.79843294914241
 20
207.67320358099781
 30
0.0
 11
244.67077394914239
 21
207.42320358099781
 31
0.0
  0
LINE
  5
2373
  8
0
  6
CONTINUOUS
 10
245.69204994914239
 20
206.17320358099789
 30
0.0
 11
245.5005609491424
 21
206.11070358099781
 31
0.0
  0
LINE
  5
2374
  8
0
  6
CONTINUOUS
 10
244.4154549491424
 20
206.36070358099789
 30
0.0
 11
244.22396494914241
 21
206.29820358099781
 31
0.0
  0
LINE
  5
2375
  8
0
  6
CONTINUOUS
 10
244.03247594914239
 20
207.86070358099781
 30
0.0
 11
243.84098594914241
 21
207.79820358099781
 31
0.0
  0
LINE
  5
2376
  8
0
  6
CONTINUOUS
 10
245.30907194914249
 20
208.04820358099781
 30
0.0
 11
245.0537519491424
 21
207.92320358099789
 31
0.0
  0
LINE
  5
2377
  8
0
  6
CONTINUOUS
 10
243.90481594914249
 20
207.42320358099781
 30
0.0
 11
244.03247594914239
 21
207.48570358099789
 31
0.0
  0
LINE
  5
2378
  8
0
  6
CONTINUOUS
 10
245.62822094914239
 20
208.61070358099789
 30
0.0
 11
245.8835399491424
 21
208.73570358099781
 31
0.0
  0
LINE
  5
2379
  8
0
  6
CONTINUOUS
 10
245.75587994914241
 20
209.11070358099789
 30
0.0
 11
245.56439094914239
 21
208.98570358099781
 31
0.0
  0
LINE
  5
237A
  8
0
  6
CONTINUOUS
 10
244.60694394914239
 20
206.73570358099781
 30
0.0
 11
244.54311394914239
 21
206.54820358099781
 31
0.0
  0
LINE
  5
237B
  8
0
  6
CONTINUOUS
 10
243.71332694914241
 20
207.11070358099789
 30
0.0
 11
243.77715694914241
 21
207.29820358099789
 31
0.0
  0
LINE
  5
237C
  8
0
  6
CONTINUOUS
 10
245.9473699491424
 20
206.61070358099789
 30
0.0
 11
245.8835399491424
 21
206.36070358099789
 31
0.0
  0
LINE
  5
237D
  8
0
  6
CONTINUOUS
 10
245.9473699491424
 20
209.54820358099789
 30
0.0
 11
245.8835399491424
 21
209.29820358099789
 31
0.0
  0
LINE
  5
237E
  8
0
  6
CONTINUOUS
 10
244.9260929491424
 20
206.48570358099781
 30
0.0
 11
244.9899229491424
 21
206.73570358099781
 31
0.0
  0
LINE
  5
237F
  8
0
  6
CONTINUOUS
 10
244.9899229491424
 20
207.11070358099789
 30
0.0
 11
245.0537519491424
 21
207.36070358099781
 31
0.0
  0
LINE
  5
2380
  8
0
  6
CONTINUOUS
 10
244.67077394914239
 20
207.42320358099781
 30
0.0
 11
244.60694394914239
 21
207.11070358099789
 31
0.0
  0
LINE
  5
2381
  8
0
  6
CONTINUOUS
 10
243.3941779491424
 20
207.36070358099781
 30
0.0
 11
243.33034794914241
 21
207.04820358099789
 31
0.0
  0
LINE
  5
2382
  8
0
  6
CONTINUOUS
 10
245.9473699491424
 20
207.11070358099789
 30
0.0
 11
245.9473699491424
 21
206.61070358099789
 31
0.0
  0
LINE
  5
2383
  8
0
  6
CONTINUOUS
 10
245.9473699491424
 20
209.79820358099781
 30
0.0
 11
245.9473699491424
 21
209.54820358099789
 31
0.0
  0
LINE
  5
2384
  8
0
  6
CONTINUOUS
 10
245.5005609491424
 20
206.11070358099781
 30
0.0
 11
245.5005609491424
 21
205.73570358099789
 31
0.0
  0
LINE
  5
2385
  8
0
  6
CONTINUOUS
 10
244.9899229491424
 20
206.73570358099781
 30
0.0
 11
244.9899229491424
 21
207.11070358099789
 31
0.0
  0
LINE
  5
2386
  8
0
  6
CONTINUOUS
 10
244.60694394914239
 20
207.11070358099789
 30
0.0
 11
244.60694394914239
 21
206.73570358099781
 31
0.0
  0
LINE
  5
2387
  8
0
  6
CONTINUOUS
 10
244.03247594914239
 20
207.48570358099789
 30
0.0
 11
244.03247594914239
 21
207.86070358099781
 31
0.0
  0
LINE
  5
2388
  8
0
  6
CONTINUOUS
 10
243.71332694914241
 20
206.73570358099781
 30
0.0
 11
243.71332694914241
 21
207.11070358099789
 31
0.0
  0
LINE
  5
2389
  8
0
  6
CONTINUOUS
 10
243.33034794914241
 20
207.04820358099789
 30
0.0
 11
243.33034794914241
 21
206.73570358099781
 31
0.0
  0
LINE
  5
238A
  8
0
  6
CONTINUOUS
 10
243.33034794914241
 20
208.92320358099781
 30
0.0
 11
243.33034794914241
 21
208.54820358099781
 31
0.0
  0
LINE
  5
238B
  8
0
  6
CONTINUOUS
 10
245.8835399491424
 20
210.04820358099781
 30
0.0
 11
245.9473699491424
 21
209.79820358099781
 31
0.0
  0
LINE
  5
238C
  8
0
  6
CONTINUOUS
 10
245.8835399491424
 20
207.36070358099781
 30
0.0
 11
245.9473699491424
 21
207.11070358099789
 31
0.0
  0
LINE
  5
238D
  8
0
  6
CONTINUOUS
 10
243.33034794914241
 20
206.73570358099781
 30
0.0
 11
243.3941779491424
 21
206.48570358099781
 31
0.0
  0
LINE
  5
238E
  8
0
  6
CONTINUOUS
 10
243.77715694914241
 20
206.54820358099781
 30
0.0
 11
243.71332694914241
 21
206.73570358099781
 31
0.0
  0
LINE
  5
238F
  8
0
  6
CONTINUOUS
 10
243.3941779491424
 20
206.48570358099781
 30
0.0
 11
243.52183794914239
 21
206.23570358099781
 31
0.0
  0
LINE
  5
2390
  8
0
  6
CONTINUOUS
 10
245.75587994914241
 20
210.23570358099789
 30
0.0
 11
245.8835399491424
 21
210.04820358099781
 31
0.0
  0
LINE
  5
2391
  8
0
  6
CONTINUOUS
 10
245.75587994914241
 20
207.54820358099789
 30
0.0
 11
245.8835399491424
 21
207.36070358099781
 31
0.0
  0
LINE
  5
2392
  8
0
  6
CONTINUOUS
 10
243.90481594914249
 20
206.36070358099789
 30
0.0
 11
243.77715694914241
 21
206.54820358099781
 31
0.0
  0
LINE
  5
2393
  8
0
  6
CONTINUOUS
 10
243.52183794914239
 20
206.23570358099781
 30
0.0
 11
243.77715694914241
 21
205.98570358099789
 31
0.0
  0
LINE
  5
2394
  8
0
  6
CONTINUOUS
 10
245.56439094914239
 20
210.36070358099781
 30
0.0
 11
245.75587994914241
 21
210.23570358099789
 31
0.0
  0
LINE
  5
2395
  8
0
  6
CONTINUOUS
 10
245.56439094914239
 20
207.67320358099781
 30
0.0
 11
245.75587994914241
 21
207.54820358099789
 31
0.0
  0
LINE
  5
2396
  8
0
  6
CONTINUOUS
 10
245.8835399491424
 20
207.92320358099789
 30
0.0
 11
245.62822094914239
 21
208.04820358099781
 31
0.0
  0
LINE
  5
2397
  8
0
  6
CONTINUOUS
 10
244.09630594914239
 20
206.29820358099781
 30
0.0
 11
243.90481594914249
 21
206.36070358099789
 31
0.0
  0
LINE
  5
2398
  8
0
  6
CONTINUOUS
 10
245.30907194914249
 20
210.42320358099789
 30
0.0
 11
245.56439094914239
 21
210.36070358099781
 31
0.0
  0
LINE
  5
2399
  8
0
  6
CONTINUOUS
 10
243.77715694914241
 20
205.98570358099789
 30
0.0
 11
244.03247594914239
 21
205.92320358099789
 31
0.0
  0
LINE
  5
239A
  8
0
  6
CONTINUOUS
 10
243.33034794914241
 20
210.42320358099789
 30
0.0
 11
245.30907194914249
 21
210.42320358099789
 31
0.0
  0
LINE
  5
239B
  8
0
  6
CONTINUOUS
 10
245.30907194914249
 20
208.92320358099781
 30
0.0
 11
243.33034794914241
 21
208.92320358099781
 31
0.0
  0
LINE
  5
239C
  8
0
  6
CONTINUOUS
 10
243.33034794914241
 20
208.54820358099781
 30
0.0
 11
245.30907194914249
 21
208.54820358099781
 31
0.0
  0
LINE
  5
239D
  8
0
  6
CONTINUOUS
 10
245.62822094914239
 20
208.04820358099781
 30
0.0
 11
245.30907194914249
 21
208.04820358099781
 31
0.0
  0
LINE
  5
239E
  8
0
  6
CONTINUOUS
 10
245.37290094914241
 20
207.67320358099781
 30
0.0
 11
245.56439094914239
 21
207.67320358099781
 31
0.0
  0
LINE
  5
239F
  8
0
  6
CONTINUOUS
 10
244.22396494914241
 20
206.29820358099781
 30
0.0
 11
244.09630594914239
 21
206.29820358099781
 31
0.0
  0
LINE
  5
23A0
  8
0
  6
CONTINUOUS
 10
244.03247594914239
 20
205.92320358099789
 30
0.0
 11
244.28779494914241
 21
205.92320358099789
 31
0.0
  0
LINE
  5
23A1
  8
0
  6
CONTINUOUS
 10
243.6494969491425
 20
205.23570358099781
 30
0.0
 11
243.33034794914241
 21
205.23570358099781
 31
0.0
  0
LINE
  5
23A2
  8
0
  6
CONTINUOUS
 10
245.30907194914249
 20
208.54820358099781
 30
0.0
 11
245.62822094914239
 21
208.61070358099789
 31
0.0
  0
LINE
  5
23A3
  8
0
  6
CONTINUOUS
 10
245.56439094914239
 20
208.98570358099781
 30
0.0
 11
245.30907194914249
 21
208.92320358099781
 31
0.0
  0
LINE
  5
23A4
  8
0
  6
CONTINUOUS
 10
244.28779494914241
 20
205.92320358099789
 30
0.0
 11
244.54311394914239
 21
205.98570358099789
 31
0.0
  0
LINE
  5
23A5
  8
0
  6
CONTINUOUS
 10
245.5005609491424
 20
205.73570358099789
 30
0.0
 11
245.75587994914241
 21
205.79820358099781
 31
0.0
  0
LINE
  5
23A6
  8
0
  6
CONTINUOUS
 10
246.07502894914251
 20
205.98570358099789
 30
0.0
 11
246.2665179491425
 21
206.29820358099781
 31
0.0
  0
LINE
  5
23A7
  8
0
  6
CONTINUOUS
 10
246.13885894914239
 20
208.98570358099781
 30
0.0
 11
246.2665179491425
 21
209.23570358099781
 31
0.0
  0
LINE
  5
23A8
  8
0
  6
CONTINUOUS
 10
246.2665179491425
 20
206.29820358099781
 30
0.0
 11
246.33034794914241
 21
206.61070358099789
 31
0.0
  0
LINE
  5
23A9
  8
0
  6
CONTINUOUS
 10
246.2665179491425
 20
209.23570358099781
 30
0.0
 11
246.33034794914241
 21
209.54820358099789
 31
0.0
  0
LINE
  5
23AA
  8
0
  6
CONTINUOUS
 10
246.33034794914241
 20
209.54820358099789
 30
0.0
 11
246.33034794914241
 21
209.79820358099781
 31
0.0
  0
LINE
  5
23AB
  8
0
  6
CONTINUOUS
 10
246.33034794914241
 20
206.61070358099789
 30
0.0
 11
246.33034794914241
 21
207.11070358099789
 31
0.0
  0
LINE
  5
23AC
  8
0
  6
CONTINUOUS
 10
246.33034794914241
 20
209.79820358099781
 30
0.0
 11
246.2665179491425
 21
210.11070358099781
 31
0.0
  0
LINE
  5
23AD
  8
0
  6
CONTINUOUS
 10
246.33034794914241
 20
207.11070358099789
 30
0.0
 11
246.2665179491425
 21
207.42320358099781
 31
0.0
  0
LINE
  5
23AE
  8
0
  6
CONTINUOUS
 10
246.2665179491425
 20
210.11070358099781
 30
0.0
 11
246.13885894914239
 21
210.36070358099781
 31
0.0
  0
LINE
  5
23AF
  8
0
  6
CONTINUOUS
 10
246.2665179491425
 20
207.42320358099781
 30
0.0
 11
246.13885894914239
 21
207.67320358099781
 31
0.0
  0
LINE
  5
23B0
  8
0
  6
CONTINUOUS
 10
245.75587994914241
 20
215.04820458099789
 30
0.0
 11
246.07502894914251
 21
215.2357045809978
 31
0.0
  0
LINE
  5
23B1
  8
0
  6
CONTINUOUS
 10
246.07502894914251
 20
213.3607045809978
 30
0.0
 11
245.81970994914241
 21
213.54820458099789
 31
0.0
  0
LINE
  5
23B2
  8
0
  6
CONTINUOUS
 10
246.33034794914241
 20
214.4857045809978
 30
0.0
 11
243.33034794914241
 21
214.4857045809978
 31
0.0
  0
LINE
  5
23B3
  8
0
  6
CONTINUOUS
 10
243.33034794914241
 20
214.1107045809978
 30
0.0
 11
246.33034794914241
 21
214.1107045809978
 31
0.0
  0
LINE
  5
23B4
  8
0
  6
CONTINUOUS
 10
243.33034794914241
 20
211.29820458099789
 30
0.0
 11
246.33034794914241
 21
211.29820458099789
 31
0.0
  0
LINE
  5
23B5
  8
0
  6
CONTINUOUS
 10
245.11758194914239
 20
213.54820458099789
 30
0.0
 11
244.8622629491424
 21
213.3607045809978
 31
0.0
  0
LINE
  5
23B6
  8
0
  6
CONTINUOUS
 10
243.84098594914241
 20
213.54820458099789
 30
0.0
 11
243.58566694914239
 21
213.3607045809978
 31
0.0
  0
LINE
  5
23B7
  8
0
  6
CONTINUOUS
 10
245.0537519491424
 20
213.04820358099781
 30
0.0
 11
245.18141194914239
 21
213.1732045809978
 31
0.0
  0
LINE
  5
23B8
  8
0
  6
CONTINUOUS
 10
243.77715694914241
 20
213.04820358099781
 30
0.0
 11
243.90481594914249
 21
213.1732045809978
 31
0.0
  0
LINE
  5
23B9
  8
0
  6
CONTINUOUS
 10
245.8835399491424
 20
215.6107045809978
 30
0.0
 11
245.69204994914239
 21
215.4232045809978
 31
0.0
  0
LINE
  5
23BA
  8
0
  6
CONTINUOUS
 10
244.54311394914239
 20
215.2357045809978
 30
0.0
 11
244.79843294914241
 21
215.48570358099781
 31
0.0
  0
LINE
  5
23BB
  8
0
  6
CONTINUOUS
 10
243.58566694914239
 20
213.3607045809978
 30
0.0
 11
243.3941779491424
 21
213.11070358099789
 31
0.0
  0
LINE
  5
23BC
  8
0
  6
CONTINUOUS
 10
244.54311394914239
 20
215.7982045809978
 30
0.0
 11
244.4154549491424
 21
215.6107045809978
 31
0.0
  0
LINE
  5
23BD
  8
0
  6
CONTINUOUS
 10
244.8622629491424
 20
213.3607045809978
 30
0.0
 11
244.79843294914241
 21
213.23570358099781
 31
0.0
  0
LINE
  5
23BE
  8
0
  6
CONTINUOUS
 10
244.79843294914241
 20
215.48570358099781
 30
0.0
 11
244.9260929491424
 21
215.73570358099789
 31
0.0
  0
LINE
  5
23BF
  8
0
  6
CONTINUOUS
 10
244.9899229491424
 20
212.86070358099789
 30
0.0
 11
245.0537519491424
 21
213.04820358099781
 31
0.0
  0
LINE
  5
23C0
  8
0
  6
CONTINUOUS
 10
243.71332694914241
 20
212.86070358099789
 30
0.0
 11
243.77715694914241
 21
213.04820358099781
 31
0.0
  0
LINE
  5
23C1
  8
0
  6
CONTINUOUS
 10
244.60694394914239
 20
215.98570458099789
 30
0.0
 11
244.54311394914239
 21
215.7982045809978
 31
0.0
  0
LINE
  5
23C2
  8
0
  6
CONTINUOUS
 10
245.9473699491424
 20
215.86070358099781
 30
0.0
 11
245.8835399491424
 21
215.6107045809978
 31
0.0
  0
LINE
  5
23C3
  8
0
  6
CONTINUOUS
 10
244.9260929491424
 20
215.73570358099789
 30
0.0
 11
244.9899229491424
 21
215.98570458099789
 31
0.0
  0
LINE
  5
23C4
  8
0
  6
CONTINUOUS
 10
243.3941779491424
 20
213.11070358099789
 30
0.0
 11
243.33034794914241
 21
212.7982045809978
 31
0.0
  0
LINE
  5
23C5
  8
0
  6
CONTINUOUS
 10
245.9473699491424
 20
212.86070358099789
 30
0.0
 11
245.9473699491424
 21
211.6732045809978
 31
0.0
  0
LINE
  5
23C6
  8
0
  6
CONTINUOUS
 10
245.18141194914239
 20
213.1732045809978
 30
0.0
 11
245.37290094914241
 21
213.23570358099781
 31
0.0
  0
LINE
  5
23C7
  8
0
  6
CONTINUOUS
 10
245.30907194914249
 20
213.61070358099781
 30
0.0
 11
245.11758194914239
 21
213.54820458099789
 31
0.0
  0
LINE
  5
23C8
  8
0
  6
CONTINUOUS
 10
243.90481594914249
 20
213.1732045809978
 30
0.0
 11
244.09630594914239
 21
213.23570358099781
 31
0.0
  0
LINE
  5
23C9
  8
0
  6
CONTINUOUS
 10
244.03247594914239
 20
213.61070358099781
 30
0.0
 11
243.84098594914241
 21
213.54820458099789
 31
0.0
  0
LINE
  5
23CA
  8
0
  6
CONTINUOUS
 10
245.69204994914239
 20
215.4232045809978
 30
0.0
 11
245.5005609491424
 21
215.36070358099789
 31
0.0
  0
LINE
  5
23CB
  8
0
  6
CONTINUOUS
 10
245.5005609491424
 20
215.36070358099789
 30
0.0
 11
245.5005609491424
 21
214.98570358099781
 31
0.0
  0
LINE
  5
23CC
  8
0
  6
CONTINUOUS
 10
244.9899229491424
 20
211.6732045809978
 30
0.0
 11
244.9899229491424
 21
212.86070358099789
 31
0.0
  0
LINE
  5
23CD
  8
0
  6
CONTINUOUS
 10
244.60694394914239
 20
212.86070358099789
 30
0.0
 11
244.60694394914239
 21
211.6732045809978
 31
0.0
  0
LINE
  5
23CE
  8
0
  6
CONTINUOUS
 10
243.71332694914241
 20
211.6732045809978
 30
0.0
 11
243.71332694914241
 21
212.86070358099789
 31
0.0
  0
LINE
  5
23CF
  8
0
  6
CONTINUOUS
 10
243.33034794914241
 20
212.7982045809978
 30
0.0
 11
243.33034794914241
 21
211.29820458099789
 31
0.0
  0
LINE
  5
23D0
  8
0
  6
CONTINUOUS
 10
243.33034794914241
 20
214.4857045809978
 30
0.0
 11
243.33034794914241
 21
214.1107045809978
 31
0.0
  0
LINE
  5
23D1
  8
0
  6
CONTINUOUS
 10
243.33034794914241
 20
215.98570458099789
 30
0.0
 11
243.3941779491424
 21
215.73570358099789
 31
0.0
  0
LINE
  5
23D2
  8
0
  6
CONTINUOUS
 10
245.8835399491424
 20
213.04820358099781
 30
0.0
 11
245.9473699491424
 21
212.86070358099789
 31
0.0
  0
LINE
  5
23D3
  8
0
  6
CONTINUOUS
 10
243.77715694914241
 20
215.7982045809978
 30
0.0
 11
243.71332694914241
 21
215.98570458099789
 31
0.0
  0
LINE
  5
23D4
  8
0
  6
CONTINUOUS
 10
244.54311394914239
 20
213.04820358099781
 30
0.0
 11
244.60694394914239
 21
212.86070358099789
 31
0.0
  0
LINE
  5
23D5
  8
0
  6
CONTINUOUS
 10
244.4154549491424
 20
215.6107045809978
 30
0.0
 11
244.22396494914241
 21
215.54820358099789
 31
0.0
  0
LINE
  5
23D6
  8
0
  6
CONTINUOUS
 10
244.79843294914241
 20
213.23570358099781
 30
0.0
 11
244.73460394914241
 21
213.3607045809978
 31
0.0
  0
LINE
  5
23D7
  8
0
  6
CONTINUOUS
 10
243.3941779491424
 20
215.73570358099789
 30
0.0
 11
243.52183794914239
 21
215.48570358099781
 31
0.0
  0
LINE
  5
23D8
  8
0
  6
CONTINUOUS
 10
243.90481594914249
 20
215.6107045809978
 30
0.0
 11
243.77715694914241
 21
215.7982045809978
 31
0.0
  0
LINE
  5
23D9
  8
0
  6
CONTINUOUS
 10
243.52183794914239
 20
215.48570358099781
 30
0.0
 11
243.77715694914241
 21
215.2357045809978
 31
0.0
  0
LINE
  5
23DA
  8
0
  6
CONTINUOUS
 10
245.75587994914241
 20
213.1732045809978
 30
0.0
 11
245.8835399491424
 21
213.04820358099781
 31
0.0
  0
LINE
  5
23DB
  8
0
  6
CONTINUOUS
 10
244.4154549491424
 20
213.1732045809978
 30
0.0
 11
244.54311394914239
 21
213.04820358099781
 31
0.0
  0
LINE
  5
23DC
  8
0
  6
CONTINUOUS
 10
244.73460394914241
 20
213.3607045809978
 30
0.0
 11
244.4792839491424
 21
213.54820458099789
 31
0.0
  0
LINE
  5
23DD
  8
0
  6
CONTINUOUS
 10
245.8835399491424
 20
210.61070358099789
 30
0.0
 11
245.62822094914239
 21
210.7357045809978
 31
0.0
  0
LINE
  5
23DE
  8
0
  6
CONTINUOUS
 10
244.09630594914239
 20
215.54820358099789
 30
0.0
 11
243.90481594914249
 21
215.6107045809978
 31
0.0
  0
LINE
  5
23DF
  8
0
  6
CONTINUOUS
 10
245.81970994914241
 20
213.54820458099789
 30
0.0
 11
245.62822094914239
 21
213.61070358099781
 31
0.0
  0
LINE
  5
23E0
  8
0
  6
CONTINUOUS
 10
245.56439094914239
 20
213.23570358099781
 30
0.0
 11
245.75587994914241
 21
213.1732045809978
 31
0.0
  0
LINE
  5
23E1
  8
0
  6
CONTINUOUS
 10
244.4792839491424
 20
213.54820458099789
 30
0.0
 11
244.28779494914241
 21
213.61070358099781
 31
0.0
  0
LINE
  5
23E2
  8
0
  6
CONTINUOUS
 10
244.22396494914241
 20
213.23570358099781
 30
0.0
 11
244.4154549491424
 21
213.1732045809978
 31
0.0
  0
LINE
  5
23E3
  8
0
  6
CONTINUOUS
 10
243.77715694914241
 20
215.2357045809978
 30
0.0
 11
244.03247594914239
 21
215.17320358099781
 31
0.0
  0
LINE
  5
23E4
  8
0
  6
CONTINUOUS
 10
245.62822094914239
 20
210.7357045809978
 30
0.0
 11
245.30907194914249
 21
210.79820358099781
 31
0.0
  0
LINE
  5
23E5
  8
0
  6
CONTINUOUS
 10
244.22396494914241
 20
215.54820358099789
 30
0.0
 11
244.09630594914239
 21
215.54820358099789
 31
0.0
  0
LINE
  5
23E6
  8
0
  6
CONTINUOUS
 10
244.03247594914239
 20
215.17320358099781
 30
0.0
 11
244.28779494914241
 21
215.17320358099781
 31
0.0
  0
LINE
  5
23E7
  8
0
  6
CONTINUOUS
 10
244.28779494914241
 20
213.61070358099781
 30
0.0
 11
244.03247594914239
 21
213.61070358099781
 31
0.0
  0
LINE
  5
23E8
  8
0
  6
CONTINUOUS
 10
245.62822094914239
 20
213.61070358099781
 30
0.0
 11
245.30907194914249
 21
213.61070358099781
 31
0.0
  0
LINE
  5
23E9
  8
0
  6
CONTINUOUS
 10
245.37290094914241
 20
213.23570358099781
 30
0.0
 11
245.56439094914239
 21
213.23570358099781
 31
0.0
  0
LINE
  5
23EA
  8
0
  6
CONTINUOUS
 10
244.09630594914239
 20
213.23570358099781
 30
0.0
 11
244.22396494914241
 21
213.23570358099781
 31
0.0
  0
LINE
  5
23EB
  8
0
  6
CONTINUOUS
 10
244.60694394914239
 20
211.6732045809978
 30
0.0
 11
243.71332694914241
 21
211.6732045809978
 31
0.0
  0
LINE
  5
23EC
  8
0
  6
CONTINUOUS
 10
245.9473699491424
 20
211.6732045809978
 30
0.0
 11
244.9899229491424
 21
211.6732045809978
 31
0.0
  0
LINE
  5
23ED
  8
0
  6
CONTINUOUS
 10
245.30907194914249
 20
210.79820358099781
 30
0.0
 11
243.33034794914241
 21
210.79820358099781
 31
0.0
  0
LINE
  5
23EE
  8
0
  6
CONTINUOUS
 10
244.28779494914241
 20
215.17320358099781
 30
0.0
 11
244.54311394914239
 21
215.2357045809978
 31
0.0
  0
LINE
  5
23EF
  8
0
  6
CONTINUOUS
 10
245.5005609491424
 20
214.98570358099781
 30
0.0
 11
245.75587994914241
 21
215.04820458099789
 31
0.0
  0
LINE
  5
23F0
  8
0
  6
CONTINUOUS
 10
246.07502894914251
 20
215.2357045809978
 30
0.0
 11
246.2665179491425
 21
215.54820358099789
 31
0.0
  0
LINE
  5
23F1
  8
0
  6
CONTINUOUS
 10
246.2665179491425
 20
215.54820358099789
 30
0.0
 11
246.33034794914241
 21
215.86070358099781
 31
0.0
  0
LINE
  5
23F2
  8
0
  6
CONTINUOUS
 10
246.33034794914241
 20
214.1107045809978
 30
0.0
 11
246.33034794914241
 21
214.4857045809978
 31
0.0
  0
LINE
  5
23F3
  8
0
  6
CONTINUOUS
 10
246.33034794914241
 20
211.29820458099789
 30
0.0
 11
246.33034794914241
 21
212.7982045809978
 31
0.0
  0
LINE
  5
23F4
  8
0
  6
CONTINUOUS
 10
246.33034794914241
 20
212.7982045809978
 30
0.0
 11
246.2665179491425
 21
213.11070358099789
 31
0.0
  0
LINE
  5
23F5
  8
0
  6
CONTINUOUS
 10
246.2665179491425
 20
213.11070358099789
 30
0.0
 11
246.07502894914251
 21
213.3607045809978
 31
0.0
  0
LINE
  5
23F6
  8
0
  6
CONTINUOUS
 10
246.13885894914239
 20
216.9232045809978
 30
0.0
 11
245.8835399491424
 21
217.17320358099781
 31
0.0
  0
LINE
  5
23F7
  8
0
  6
CONTINUOUS
 10
246.33034794914241
 20
221.17320358099789
 30
0.0
 11
243.33034794914241
 21
221.17320358099789
 31
0.0
  0
LINE
  5
23F8
  8
0
  6
CONTINUOUS
 10
243.33034794914241
 20
220.79820358099781
 30
0.0
 11
246.33034794914241
 21
220.79820358099781
 31
0.0
  0
LINE
  5
23F9
  8
0
  6
CONTINUOUS
 10
246.33034794914241
 20
220.29820458099789
 30
0.0
 11
243.33034794914241
 21
220.29820458099789
 31
0.0
  0
LINE
  5
23FA
  8
0
  6
CONTINUOUS
 10
244.9260929491424
 20
219.92320458099789
 30
0.0
 11
246.33034794914241
 21
219.92320458099789
 31
0.0
  0
LINE
  5
23FB
  8
0
  6
CONTINUOUS
 10
246.33034794914241
 20
218.17320358099781
 30
0.0
 11
244.9260929491424
 21
218.17320358099781
 31
0.0
  0
LINE
  5
23FC
  8
0
  6
CONTINUOUS
 10
243.33034794914241
 20
217.79820358099789
 30
0.0
 11
246.33034794914241
 21
217.79820358099789
 31
0.0
  0
LINE
  5
23FD
  8
0
  6
CONTINUOUS
 10
245.0537519491424
 20
217.17320358099781
 30
0.0
 11
244.79843294914241
 21
216.9232045809978
 31
0.0
  0
LINE
  5
23FE
  8
0
  6
CONTINUOUS
 10
243.58566694914239
 20
216.86070358099789
 30
0.0
 11
243.3941779491424
 21
216.61070358099781
 31
0.0
  0
LINE
  5
23FF
  8
0
  6
CONTINUOUS
 10
245.0537519491424
 20
216.61070358099781
 30
0.0
 11
245.18141194914239
 21
216.79820358099781
 31
0.0
  0
LINE
  5
2400
  8
0
  6
CONTINUOUS
 10
244.79843294914241
 20
216.9232045809978
 30
0.0
 11
244.67077394914239
 21
216.67320358099789
 31
0.0
  0
LINE
  5
2401
  8
0
  6
CONTINUOUS
 10
243.71332694914241
 20
216.3607045809978
 30
0.0
 11
243.77715694914241
 21
216.5482045809978
 31
0.0
  0
LINE
  5
2402
  8
0
  6
CONTINUOUS
 10
244.9899229491424
 20
216.3607045809978
 30
0.0
 11
245.0537519491424
 21
216.61070358099781
 31
0.0
  0
LINE
  5
2403
  8
0
  6
CONTINUOUS
 10
244.67077394914239
 20
216.67320358099789
 30
0.0
 11
244.60694394914239
 21
216.3607045809978
 31
0.0
  0
LINE
  5
2404
  8
0
  6
CONTINUOUS
 10
245.8835399491424
 20
216.61070358099781
 30
0.0
 11
245.9473699491424
 21
216.3607045809978
 31
0.0
  0
LINE
  5
2405
  8
0
  6
CONTINUOUS
 10
245.30907194914249
 20
217.29820458099789
 30
0.0
 11
245.0537519491424
 21
217.17320358099781
 31
0.0
  0
LINE
  5
2406
  8
0
  6
CONTINUOUS
 10
243.90481594914249
 20
216.67320358099789
 30
0.0
 11
244.03247594914239
 21
216.7357045809978
 31
0.0
  0
LINE
  5
2407
  8
0
  6
CONTINUOUS
 10
245.18141194914239
 20
216.79820358099781
 30
0.0
 11
245.37290094914241
 21
216.9232045809978
 31
0.0
  0
LINE
  5
2408
  8
0
  6
CONTINUOUS
 10
243.84098594914241
 20
217.04820358099781
 30
0.0
 11
243.58566694914239
 21
216.86070358099789
 31
0.0
  0
LINE
  5
2409
  8
0
  6
CONTINUOUS
 10
243.77715694914241
 20
216.5482045809978
 30
0.0
 11
243.90481594914249
 21
216.67320358099789
 31
0.0
  0
LINE
  5
240A
  8
0
  6
CONTINUOUS
 10
243.3941779491424
 20
216.61070358099781
 30
0.0
 11
243.33034794914241
 21
216.29820358099781
 31
0.0
  0
LINE
  5
240B
  8
0
  6
CONTINUOUS
 10
244.9260929491424
 20
218.17320358099781
 30
0.0
 11
244.9260929491424
 21
219.92320458099789
 31
0.0
  0
LINE
  5
240C
  8
0
  6
CONTINUOUS
 10
244.54311394914239
 20
219.92320458099789
 30
0.0
 11
244.54311394914239
 21
218.17320358099781
 31
0.0
  0
LINE
  5
240D
  8
0
  6
CONTINUOUS
 10
244.03247594914239
 20
216.7357045809978
 30
0.0
 11
244.03247594914239
 21
217.11070458099789
 31
0.0
  0
LINE
  5
240E
  8
0
  6
CONTINUOUS
 10
243.33034794914241
 20
218.17320358099781
 30
0.0
 11
243.33034794914241
 21
217.79820358099789
 31
0.0
  0
LINE
  5
240F
  8
0
  6
CONTINUOUS
 10
243.33034794914241
 20
220.29820458099789
 30
0.0
 11
243.33034794914241
 21
219.92320458099789
 31
0.0
  0
LINE
  5
2410
  8
0
  6
CONTINUOUS
 10
243.33034794914241
 20
221.17320358099789
 30
0.0
 11
243.33034794914241
 21
220.79820358099781
 31
0.0
  0
LINE
  5
2411
  8
0
  6
CONTINUOUS
 10
244.03247594914239
 20
217.11070458099789
 30
0.0
 11
243.84098594914241
 21
217.04820358099781
 31
0.0
  0
LINE
  5
2412
  8
0
  6
CONTINUOUS
 10
245.75587994914241
 20
216.79820358099781
 30
0.0
 11
245.8835399491424
 21
216.61070358099781
 31
0.0
  0
LINE
  5
2413
  8
0
  6
CONTINUOUS
 10
245.56439094914239
 20
216.9232045809978
 30
0.0
 11
245.75587994914241
 21
216.79820358099781
 31
0.0
  0
LINE
  5
2414
  8
0
  6
CONTINUOUS
 10
245.8835399491424
 20
217.17320358099781
 30
0.0
 11
245.62822094914239
 21
217.29820458099789
 31
0.0
  0
LINE
  5
2415
  8
0
  6
CONTINUOUS
 10
243.33034794914241
 20
219.92320458099789
 30
0.0
 11
244.54311394914239
 21
219.92320458099789
 31
0.0
  0
LINE
  5
2416
  8
0
  6
CONTINUOUS
 10
244.54311394914239
 20
218.17320358099781
 30
0.0
 11
243.33034794914241
 21
218.17320358099781
 31
0.0
  0
LINE
  5
2417
  8
0
  6
CONTINUOUS
 10
245.62822094914239
 20
217.29820458099789
 30
0.0
 11
245.30907194914249
 21
217.29820458099789
 31
0.0
  0
LINE
  5
2418
  8
0
  6
CONTINUOUS
 10
245.37290094914241
 20
216.9232045809978
 30
0.0
 11
245.56439094914239
 21
216.9232045809978
 31
0.0
  0
LINE
  5
2419
  8
0
  6
CONTINUOUS
 10
246.33034794914241
 20
220.79820358099781
 30
0.0
 11
246.33034794914241
 21
221.17320358099789
 31
0.0
  0
LINE
  5
241A
  8
0
  6
CONTINUOUS
 10
246.33034794914241
 20
219.92320458099789
 30
0.0
 11
246.33034794914241
 21
220.29820458099789
 31
0.0
  0
LINE
  5
241B
  8
0
  6
CONTINUOUS
 10
246.33034794914241
 20
217.79820358099789
 30
0.0
 11
246.33034794914241
 21
218.17320358099781
 31
0.0
  0
LINE
  5
241C
  8
0
  6
CONTINUOUS
 10
246.33034794914241
 20
216.3607045809978
 30
0.0
 11
246.2665179491425
 21
216.67320358099789
 31
0.0
  0
LINE
  5
241D
  8
0
  6
CONTINUOUS
 10
246.2665179491425
 20
216.67320358099789
 30
0.0
 11
246.13885894914239
 21
216.9232045809978
 31
0.0
  0
LINE
  5
241E
  8
0
  6
CONTINUOUS
 10
273.53034794914242
 20
224.98570358099781
 30
0.0
 11
273.53034794914242
 21
219.8857035809979
 31
0.0
  0
LINE
  5
241F
  8
0
  6
CONTINUOUS
 10
273.53034794914242
 20
219.08570358099789
 30
0.0
 11
273.53034794914242
 21
216.98570358099781
 31
0.0
  0
LINE
  5
2420
  8
0
  6
CONTINUOUS
 10
274.33034794914238
 20
219.8857035809979
 30
0.0
 11
273.33034794914249
 21
219.8857035809979
 31
0.0
  0
LINE
  5
2421
  8
0
  6
CONTINUOUS
 10
273.33034794914249
 20
219.08570358099789
 30
0.0
 11
274.33034794914238
 21
219.08570358099789
 31
0.0
  0
ARC
  5
2422
  8
0
  6
CONTINUOUS
 10
277.18945994914242
 20
190.98570358099781
 30
0.0
 40
5.0
 50
270.0
 51
355.64422700000023
  0
ARC
  5
2423
  8
0
  6
CONTINUOUS
 10
323.70609094914238
 20
159.0278355809979
 30
0.0
 40
1.0
 50
90.0
 51
180.0
  0
ARC
  5
2424
  8
0
  6
CONTINUOUS
 10
335.20609094914249
 20
159.0278355809979
 30
0.0
 40
1.0
 50
0.0
 51
90.0
  0
ARC
  5
2425
  8
0
  6
CONTINUOUS
 10
277.03034794914242
 20
220.98570358099781
 30
0.0
 40
4.0
 50
270.0
 51
90.0
  0
ARC
  5
2426
  8
0
  6
CONTINUOUS
 10
266.9303479491424
 20
220.98570358099781
 30
0.0
 40
9.9874919999999996
 50
4.7590569999999301
 51
8.6378129999998237
  0
LINE
  5
2427
  8
0
  6
CONTINUOUS
 10
276.46191994914238
 20
220.94511358099791
 30
0.0
 11
276.46191994914238
 21
224.01045758099789
 31
0.0
  0
LINE
  5
2428
  8
0
  6
CONTINUOUS
 10
275.03034794914242
 20
220.0454745809979
 30
0.0
 11
275.03034794914242
 21
224.13275858099789
 31
0.0
  0
ARC
  5
2429
  8
0
  6
CONTINUOUS
 10
266.9303479491424
 20
220.98570358099781
 30
0.0
 40
9.9874919999999996
 50
351.36218700000012
 51
355.67301599999939
  0
LINE
  5
242A
  8
0
  6
CONTINUOUS
 10
276.81720794914241
 20
219.48570358099781
 30
0.0
 11
276.46191994914238
 21
217.96094958099789
 31
0.0
  0
LINE
  5
242B
  8
0
  6
CONTINUOUS
 10
276.46191994914238
 20
217.96094958099789
 30
0.0
 11
276.46191994914238
 21
219.88144358099791
 31
0.0
  0
LINE
  5
242C
  8
0
  6
CONTINUOUS
 10
275.03034794914242
 20
217.8386485809979
 30
0.0
 11
275.03034794914242
 21
219.22494258099789
 31
0.0
  0
LINE
  5
242D
  8
0
  6
CONTINUOUS
 10
276.81720794914241
 20
219.48570358099781
 30
0.0
 11
276.80455694914241
 21
219.48570358099781
 31
0.0
  0
LINE
  5
242E
  8
0
  6
CONTINUOUS
 10
276.46191994914238
 20
217.96094958099789
 30
0.0
 11
275.03034794914242
 21
217.83570358099789
 31
0.0
  0
LINE
  5
242F
  8
0
  6
CONTINUOUS
 10
276.81720794914241
 20
222.48570358099789
 30
0.0
 11
276.46191994914238
 21
224.01045758099789
 31
0.0
  0
LINE
  5
2430
  8
0
  6
CONTINUOUS
 10
276.46191994914238
 20
224.01045758099789
 30
0.0
 11
275.03034794914242
 21
224.1357035809979
 31
0.0
  0
LINE
  5
2431
  8
0
  6
CONTINUOUS
 10
276.80455694914241
 20
222.48570358099789
 30
0.0
 11
276.81720794914241
 21
222.48570358099789
 31
0.0
  0
ARC
  5
2434
  8
0
  6
CONTINUOUS
 10
277.18945994914242
 20
250.98570358099781
 30
0.0
 40
5.0
 50
4.3557729999997434
 51
90.0
  0
ARC
  5
2436
  8
0
  6
CONTINUOUS
 10
356.70609094914238
 20
159.0278355809979
 30
0.0
 40
1.0
 50
0.0
 51
90.0
  0
ARC
  5
2437
  8
0
  6
CONTINUOUS
 10
345.20609094914249
 20
159.0278355809979
 30
0.0
 40
1.0
 50
90.0
 51
180.0
  0
DIMENSION
  5
246F
  8
1_ALL_DRAFT_DIMS
 62
    40
  2
*D7
 10
125.98010294914241
 20
175.63153937749331
 30
0.0
 11
90.980102949142463
 21
177.53153937749329
 31
0.0
 70
     0
 13
55.980102949142463
 23
145.0278355809979
 33
0.0
 14
125.98010294914241
 24
145.0278355809979
 34
0.0
  0
DIMENSION
  5
24B0
  8
1_ALL_DRAFT_DIMS
 62
    40
  2
*D9
 10
39.818196589004849
 20
150.0278355809979
 30
0.0
 11
37.918196589004822
 21
155.0278355809979
 31
0.0
 70
     0
  1
(<>)
 13
74.480102949142463
 23
160.0278355809979
 33
0.0
 14
60.980102949142463
 24
150.0278355809979
 34
0.0
 50
90.0
  0
DIMENSION
  5
24C7
  8
1_ALL_DRAFT_DIMS
 62
    40
  2
*D10
 10
39.818196589004842
 20
90.02783558099793
 30
0.0
 11
37.918196589004822
 21
120.0278355809979
 31
0.0
 70
     0
 13
60.980102949142463
 23
150.0278355809979
 33
0.0
 14
60.980102949142463
 24
90.02783558099793
 34
0.0
 50
90.0
  0
DIMENSION
  5
24E7
  8
1_ALL_DRAFT_DIMS
 62
    40
  2
*D11
 10
140.73312985520121
 20
120.0278355809979
 30
0.0
 11
138.83312985520121
 21
140.0278355809979
 31
0.0
 70
     0
 13
107.48010294914241
 23
160.0278355809979
 33
0.0
 14
134.3415806776008
 24
120.0278355809979
 34
0.0
 50
90.0
  0
DIMENSION
  5
2507
  8
1_ALL_DRAFT_DIMS
 62
    40
  2
*D12
 10
282.17501832472311
 20
275.90338080734699
 30
0.0
 11
218.70268313693279
 21
277.80338080734703
 31
0.0
 70
     0
  1
128
 13
155.23034794914241
 23
236.48570358099789
 33
0.0
 14
282.17501832472311
 24
251.36544869175219
 34
0.0
  0
ENDSEC
  0
EOF
