  0
SECTION
  2
HEADER
  9
$ACADVER
  1
AC1015
  9
$ACADMAINTVER
 70
    13
  9
$DWGCODEPAGE
  3
ANSI_932
  9
$INSBASE
 10
0.0
 20
0.0
 30
0.0
  9
$EXTMIN
 10
-0.0128164049386896
 20
-0.0090630292066862
 30
-0.0000000000112498
  9
$EXTMAX
 10
420.0128183607161
 20
297.0090644122207
 30
0.0000000000002956
  9
$LIMMIN
 10
0.0
 20
0.0
  9
$LIMMAX
 10
420.0
 20
297.0
  9
$ORTHOMODE
 70
     0
  9
$REGENMODE
 70
     1
  9
$FILLMODE
 70
     1
  9
$QTEXTMODE
 70
     0
  9
$MIRRTEXT
 70
     0
  9
$LTSCALE
 40
23.1
  9
$ATTMODE
 70
     1
  9
$TEXTSIZE
 40
3.5
  9
$TRACEWID
 40
0.05
  9
$TEXTSTYLE
  7
STANDARD
  9
$CLAYER
  8
0
  9
$CELTYPE
  6
ByLayer
  9
$CECOLOR
 62
   256
  9
$CELTSCALE
 40
1.0
  9
$DISPSILH
 70
     0
  9
$DIMSCALE
 40
1.0
  9
$DIMASZ
 40
2.0
  9
$DIMEXO
 40
0.0
  9
$DIMDLI
 40
15.0
  9
$DIMRND
 40
0.0
  9
$DIMDLE
 40
0.0
  9
$DIMEXE
 40
1.0
  9
$DIMTP
 40
0.0
  9
$DIMTM
 40
0.0
  9
$DIMTXT
 40
3.5
  9
$DIMCEN
 40
3.779999999999998
  9
$DIMTSZ
 40
0.0
  9
$DIMTOL
 70
     0
  9
$DIMLIM
 70
     0
  9
$DIMTIH
 70
     0
  9
$DIMTOH
 70
     1
  9
$DIMSE1
 70
     0
  9
$DIMSE2
 70
     0
  9
$DIMTAD
 70
     3
  9
$DIMZIN
 70
     0
  9
$DIMBLK
  1
OPEN
  9
$DIMASO
 70
     1
  9
$DIMSHO
 70
     1
  9
$DIMPOST
  1

  9
$DIMAPOST
  1

  9
$DIMALT
 70
     0
  9
$DIMALTD
 70
     2
  9
$DIMALTF
 40
25.4
  9
$DIMLFAC
 40
1.0
  9
$DIMTOFL
 70
     0
  9
$DIMTVP
 40
0.0
  9
$DIMTIX
 70
     1
  9
$DIMSOXD
 70
     0
  9
$DIMSAH
 70
     0
  9
$DIMBLK1
  1

  9
$DIMBLK2
  1

  9
$DIMSTYLE
  2
Standard
  9
$DIMCLRD
 70
     0
  9
$DIMCLRE
 70
     0
  9
$DIMCLRT
 70
     0
  9
$DIMTFAC
 40
1.0
  9
$DIMGAP
 40
1.0
  9
$DIMJUST
 70
     0
  9
$DIMSD1
 70
     0
  9
$DIMSD2
 70
     0
  9
$DIMTOLJ
 70
     1
  9
$DIMTZIN
 70
     0
  9
$DIMALTZ
 70
     0
  9
$DIMALTTZ
 70
     0
  9
$DIMUPT
 70
     0
  9
$DIMDEC
 70
     1
  9
$DIMTDEC
 70
     1
  9
$DIMALTU
 70
     2
  9
$DIMALTTD
 70
     2
  9
$DIMTXSTY
  7
STANDARD
  9
$DIMAUNIT
 70
     0
  9
$DIMADEC
 70
     0
  9
$DIMALTRND
 40
0.0
  9
$DIMAZIN
 70
     0
  9
$DIMDSEP
 70
    46
  9
$DIMATFIT
 70
     3
  9
$DIMFRAC
 70
     0
  9
$DIMLDRBLK
  1
OPEN
  9
$DIMLUNIT
 70
     2
  9
$DIMLWD
 70
    -2
  9
$DIMLWE
 70
    -2
  9
$DIMTMOVE
 70
     0
  9
$LUNITS
 70
     2
  9
$LUPREC
 70
     4
  9
$SKETCHINC
 40
0.1
  9
$FILLETRAD
 40
0.0
  9
$AUNITS
 70
     0
  9
$AUPREC
 70
     0
  9
$MENU
  1
.
  9
$ELEVATION
 40
0.0
  9
$PELEVATION
 40
0.0
  9
$THICKNESS
 40
0.0
  9
$LIMCHECK
 70
     0
  9
$CHAMFERA
 40
0.0
  9
$CHAMFERB
 40
0.0
  9
$CHAMFERC
 40
0.0
  9
$CHAMFERD
 40
0.0
  9
$SKPOLY
 70
     0
  9
$TDCREATE
 40
2455496.512024421
  9
$TDUCREATE
 40
2455496.137024421
  9
$TDUPDATE
 40
2455502.431689699
  9
$TDUUPDATE
 40
2455502.056689699
  9
$TDINDWG
 40
0.0161571412
  9
$TDUSRTIMER
 40
0.0161567593
  9
$USRTIMER
 70
     1
  9
$ANGBASE
 50
0.0
  9
$ANGDIR
 70
     0
  9
$PDMODE
 70
     3
  9
$PDSIZE
 40
8.0
  9
$PLINEWID
 40
0.0
  9
$SPLFRAME
 70
     0
  9
$SPLINETYPE
 70
     6
  9
$SPLINESEGS
 70
     8
  9
$HANDSEED
  5
1FB8
  9
$SURFTAB1
 70
     6
  9
$SURFTAB2
 70
     6
  9
$SURFTYPE
 70
     6
  9
$SURFU
 70
     6
  9
$SURFV
 70
     6
  9
$UCSBASE
  2

  9
$UCSNAME
  2

  9
$UCSORG
 10
75.05044212600001
 20
214.0189707868
 30
0.0
  9
$UCSXDIR
 10
0.7449976870580885
 20
-0.6670670478131104
 30
0.0
  9
$UCSYDIR
 10
0.6670670478131104
 20
0.7449976870580885
 30
0.0
  9
$UCSORTHOREF
  2

  9
$UCSORTHOVIEW
 70
     0
  9
$UCSORGTOP
 10
0.0
 20
0.0
 30
0.0
  9
$UCSORGBOTTOM
 10
0.0
 20
0.0
 30
0.0
  9
$UCSORGLEFT
 10
0.0
 20
0.0
 30
0.0
  9
$UCSORGRIGHT
 10
0.0
 20
0.0
 30
0.0
  9
$UCSORGFRONT
 10
0.0
 20
0.0
 30
0.0
  9
$UCSORGBACK
 10
0.0
 20
0.0
 30
0.0
  9
$PUCSBASE
  2

  9
$PUCSNAME
  2

  9
$PUCSORG
 10
0.0
 20
0.0
 30
0.0
  9
$PUCSXDIR
 10
1.0
 20
0.0
 30
0.0
  9
$PUCSYDIR
 10
0.0
 20
1.0
 30
0.0
  9
$PUCSORTHOREF
  2

  9
$PUCSORTHOVIEW
 70
     0
  9
$PUCSORGTOP
 10
0.0
 20
0.0
 30
0.0
  9
$PUCSORGBOTTOM
 10
0.0
 20
0.0
 30
0.0
  9
$PUCSORGLEFT
 10
0.0
 20
0.0
 30
0.0
  9
$PUCSORGRIGHT
 10
0.0
 20
0.0
 30
0.0
  9
$PUCSORGFRONT
 10
0.0
 20
0.0
 30
0.0
  9
$PUCSORGBACK
 10
0.0
 20
0.0
 30
0.0
  9
$USERI1
 70
     0
  9
$USERI2
 70
     0
  9
$USERI3
 70
     0
  9
$USERI4
 70
     0
  9
$USERI5
 70
     0
  9
$USERR1
 40
0.0
  9
$USERR2
 40
0.0
  9
$USERR3
 40
0.0
  9
$USERR4
 40
0.0
  9
$USERR5
 40
0.0
  9
$WORLDVIEW
 70
     1
  9
$SHADEDGE
 70
     3
  9
$SHADEDIF
 70
    70
  9
$TILEMODE
 70
     1
  9
$MAXACTVP
 70
    64
  9
$PINSBASE
 10
0.0
 20
0.0
 30
0.0
  9
$PLIMCHECK
 70
     0
  9
$PEXTMIN
 10
1.000000000000000E+20
 20
1.000000000000000E+20
 30
1.000000000000000E+20
  9
$PEXTMAX
 10
-1.000000000000000E+20
 20
-1.000000000000000E+20
 30
-1.000000000000000E+20
  9
$PLIMMIN
 10
0.0
 20
0.0
  9
$PLIMMAX
 10
12.0
 20
9.0
  9
$UNITMODE
 70
     0
  9
$VISRETAIN
 70
     1
  9
$PLINEGEN
 70
     0
  9
$PSLTSCALE
 70
     1
  9
$TREEDEPTH
 70
  3020
  9
$CMLSTYLE
  2
Standard
  9
$CMLJUST
 70
     0
  9
$CMLSCALE
 40
1.0
  9
$PROXYGRAPHICS
 70
     1
  9
$MEASUREMENT
 70
     0
  9
$CELWEIGHT
370
    -1
  9
$ENDCAPS
280
     0
  9
$JOINSTYLE
280
     0
  9
$LWDISPLAY
290
     0
  9
$INSUNITS
 70
     0
  9
$HYPERLINKBASE
  1

  9
$STYLESHEET
  1

  9
$XEDIT
290
     1
  9
$CEPSNTYPE
380
     0
  9
$PSTYLEMODE
290
     1
  9
$FINGERPRINTGUID
  2
{A6CA6413-B975-4CA8-8F09-FE140D96C0C2}
  9
$VERSIONGUID
  2
{7B53087A-96AB-4C06-B4B6-F148D67A4DF5}
  9
$EXTNAMES
290
     1
  9
$PSVPSCALE
 40
0.0
  9
$OLESTARTUP
290
     0
  0
ENDSEC
  0
SECTION
  2
CLASSES
  0
CLASS
  1
ACDBDICTIONARYWDFLT
  2
AcDbDictionaryWithDefault
  3
AutoCAD 2000
 90
        0
280
     0
281
     0
  0
CLASS
  1
MATERIAL
  2
AcDbMaterial
  3
ObjectDBX Classes
 90
     1153
280
     0
281
     0
  0
CLASS
  1
VISUALSTYLE
  2
AcDbVisualStyle
  3
ObjectDBX Classes
 90
     4095
280
     0
281
     0
  0
CLASS
  1
SCALE
  2
AcDbScale
  3
ObjectDBX Classes
 90
     1153
280
     0
281
     0
  0
CLASS
  1
TABLESTYLE
  2
AcDbTableStyle
  3
ObjectDBX Classes
 90
     4095
280
     0
281
     0
  0
CLASS
  1
MLEADERSTYLE
  2
AcDbMLeaderStyle
  3
ACDB_MLEADERSTYLE_CLASS
 90
     4095
280
     0
281
     0
  0
CLASS
  1
DICTIONARYVAR
  2
AcDbDictionaryVar
  3
AutoCAD 2000
 90
        0
280
     0
281
     0
  0
CLASS
  1
CELLSTYLEMAP
  2
AcDbCellStyleMap
  3
ObjectDBX Classes
 90
     1152
280
     0
281
     0
  0
CLASS
  1
ACDBPLACEHOLDER
  2
AcDbPlaceHolder
  3
AutoCAD 2000
 90
        0
280
     0
281
     0
  0
CLASS
  1
LAYOUT
  2
AcDbLayout
  3
AutoCAD 2000
 90
        0
280
     0
281
     0
  0
CLASS
  1
SORTENTSTABLE
  2
AcDbSortentsTable
  3
AutoCAD 2000
 90
        0
280
     0
281
     0
  0
ENDSEC
  0
SECTION
  2
TABLES
  0
TABLE
  2
VPORT
  5
8
330
0
100
AcDbSymbolTable
 70
     2
  0
VPORT
  5
1FB7
330
8
100
AcDbSymbolTableRecord
100
AcDbViewportTableRecord
  2
*Active
 70
     0
 10
0.0
 20
0.0
 11
1.0
 21
1.0
 12
210.0000009778887
 22
148.5000006915069
 13
0.0
 23
0.0
 14
1.0
 24
1.0
 15
0.0
 25
0.0
 16
0.0
 26
0.0
 36
1.0
 17
0.0
 27
0.0
 37
0.0
 40
334.0876469385801
 41
1.264669163545568
 42
50.0
 43
0.0
 44
0.0
 50
0.0
 51
0.0
 71
     0
 72
   100
 73
     1
 74
     1
 75
     1
 76
     0
 77
     0
 78
     0
281
     0
 65
     1
110
75.05044212600001
120
214.0189707868
130
0.0
111
0.7449976870580885
121
-0.6670670478131104
131
0.0
112
0.6670670478131104
122
0.7449976870580885
132
0.0
 79
     0
146
0.0
  0
ENDTAB
  0
TABLE
  2
LTYPE
  5
5
330
0
100
AcDbSymbolTable
 70
     6
  0
LTYPE
  5
62
330
5
100
AcDbSymbolTableRecord
100
AcDbLinetypeTableRecord
  2
ByBlock
 70
     0
  3

 72
    65
 73
     0
 40
0.0
  0
LTYPE
  5
63
330
5
100
AcDbSymbolTableRecord
100
AcDbLinetypeTableRecord
  2
ByLayer
 70
     0
  3

 72
    65
 73
     0
 40
0.0
  0
LTYPE
  5
64
330
5
100
AcDbSymbolTableRecord
100
AcDbLinetypeTableRecord
  2
CONTINUOUS
 70
     0
  3
Solid line
 72
    65
 73
     0
 40
0.0
  0
LTYPE
  5
7A
330
5
100
AcDbSymbolTableRecord
100
AcDbLinetypeTableRecord
  2
CENTER
 70
     0
  3
____ _ ____ _ ____ _ ____ _ ____ _ ____ _ ____
 72
    65
 73
     4
 40
0.6
 49
0.375
 74
     0
 49
-0.075
 74
     0
 49
0.075
 74
     0
 49
-0.075
 74
     0
  0
LTYPE
  5
7B
330
5
100
AcDbSymbolTableRecord
100
AcDbLinetypeTableRecord
  2
HIDDEN
 70
     0
  3
- - - - - - - - - - - - - - - - - - - -
 72
    65
 73
     2
 40
0.2
 49
0.1
 74
     0
 49
-0.1
 74
     0
  0
LTYPE
  5
7C
330
5
100
AcDbSymbolTableRecord
100
AcDbLinetypeTableRecord
  2
PHANTOM
 70
     0
  3
_____ _ _ _____ _ _ _____ _ _ _____
 72
    65
 73
     6
 40
0.8
 49
0.45
 74
     0
 49
-0.05
 74
     0
 49
0.1
 74
     0
 49
-0.05
 74
     0
 49
0.1
 74
     0
 49
-0.05
 74
     0
  0
LTYPE
  5
7D
330
5
100
AcDbSymbolTableRecord
100
AcDbLinetypeTableRecord
  2
DOT
 70
     0
  3
. . . . . . . . . . . . . . . . . . . .
 72
    65
 73
     2
 40
0.2
 49
0.1
 74
     0
 49
-0.1
 74
     0
  0
LTYPE
  5
7E
330
5
100
AcDbSymbolTableRecord
100
AcDbLinetypeTableRecord
  2
DASHED
 70
     0
  3
- - - - - - - - - - - - - - - - - - - -
 72
    65
 73
     2
 40
0.2
 49
0.1
 74
     0
 49
-0.1
 74
     0
  0
ENDTAB
  0
TABLE
  2
LAYER
  5
2
102
{ACAD_XDICTIONARY
360
1EDA
102
}
330
0
100
AcDbSymbolTable
 70
    37
  0
LAYER
  5
5C
102
{ACAD_XDICTIONARY
360
1B92
102
}
330
2
100
AcDbSymbolTableRecord
100
AcDbLayerTableRecord
  2
0
 70
     0
 62
     7
  6
CONTINUOUS
370
    -3
390
F
  0
LAYER
  5
7F
102
{ACAD_XDICTIONARY
360
1B94
102
}
330
2
100
AcDbSymbolTableRecord
100
AcDbLayerTableRecord
  2
DEFAULT_1
 70
     0
 62
     7
  6
CENTER
370
    -3
390
F
  0
LAYER
  5
80
102
{ACAD_XDICTIONARY
360
1B96
102
}
330
2
100
AcDbSymbolTableRecord
100
AcDbLayerTableRecord
  2
DEFAULT_2
 70
     0
 62
     8
  6
HIDDEN
370
    -3
390
F
  0
LAYER
  5
81
102
{ACAD_XDICTIONARY
360
1B98
102
}
330
2
100
AcDbSymbolTableRecord
100
AcDbLayerTableRecord
  2
DEFAULT_3
 70
     0
 62
     7
  6
PHANTOM
370
    -3
390
F
  0
LAYER
  5
82
102
{ACAD_XDICTIONARY
360
1B9A
102
}
330
2
100
AcDbSymbolTableRecord
100
AcDbLayerTableRecord
  2
_BLACK_HOLE
 70
     0
 62
     7
  6
CONTINUOUS
370
    -3
390
F
  0
LAYER
  5
83
102
{ACAD_XDICTIONARY
360
1B9C
102
}
330
2
100
AcDbSymbolTableRecord
100
AcDbLayerTableRecord
  2
0_COMPONENTS
 70
     0
 62
     7
  6
CONTINUOUS
370
    -3
390
F
  0
LAYER
  5
84
102
{ACAD_XDICTIONARY
360
1B9E
102
}
330
2
100
AcDbSymbolTableRecord
100
AcDbLayerTableRecord
  2
1_ALL_DIMS
 70
     0
 62
     7
  6
CONTINUOUS
370
    -3
390
F
  0
LAYER
  5
85
102
{ACAD_XDICTIONARY
360
1BA0
102
}
330
2
100
AcDbSymbolTableRecord
100
AcDbLayerTableRecord
  2
1_ALL_DRAFT_DIMS
 70
     0
 62
     7
  6
CONTINUOUS
370
    -3
390
F
  0
LAYER
  5
86
102
{ACAD_XDICTIONARY
360
1BA2
102
}
330
2
100
AcDbSymbolTableRecord
100
AcDbLayerTableRecord
  2
1_ALL_PLANES
 70
     0
 62
     7
  6
CONTINUOUS
370
    -3
390
F
  0
LAYER
  5
87
102
{ACAD_XDICTIONARY
360
1BA4
102
}
330
2
100
AcDbSymbolTableRecord
100
AcDbLayerTableRecord
  2
1__ALL_DRIVEN_DIMS
 70
     0
 62
     7
  6
CONTINUOUS
370
    -3
390
F
  0
LAYER
  5
88
102
{ACAD_XDICTIONARY
360
1BA6
102
}
330
2
100
AcDbSymbolTableRecord
100
AcDbLayerTableRecord
  2
1__ALL_REF_DIMS
 70
     0
 62
     7
  6
CONTINUOUS
370
    -3
390
F
  0
LAYER
  5
89
102
{ACAD_XDICTIONARY
360
1BA8
102
}
330
2
100
AcDbSymbolTableRecord
100
AcDbLayerTableRecord
  2
1__DEF_ASM_PLN
 70
     0
 62
     7
  6
CONTINUOUS
370
    -3
390
F
  0
LAYER
  5
8A
102
{ACAD_XDICTIONARY
360
1BAA
102
}
330
2
100
AcDbSymbolTableRecord
100
AcDbLayerTableRecord
  2
1__DEF_PLANES
 70
     0
 62
     7
  6
CONTINUOUS
370
    -3
390
F
  0
LAYER
  5
8B
102
{ACAD_XDICTIONARY
360
1BAC
102
}
330
2
100
AcDbSymbolTableRecord
100
AcDbLayerTableRecord
  2
2_ALL_CSYS
 70
     0
 62
     7
  6
CONTINUOUS
370
    -3
390
F
  0
LAYER
  5
8C
102
{ACAD_XDICTIONARY
360
1BAE
102
}
330
2
100
AcDbSymbolTableRecord
100
AcDbLayerTableRecord
  2
2_ALL_NOTES
 70
     0
 62
     7
  6
CONTINUOUS
370
    -3
390
F
  0
LAYER
  5
8D
102
{ACAD_XDICTIONARY
360
1BB0
102
}
330
2
100
AcDbSymbolTableRecord
100
AcDbLayerTableRecord
  2
2__DEF_ASM_CSYS
 70
     0
 62
     7
  6
CONTINUOUS
370
    -3
390
F
  0
LAYER
  5
8E
102
{ACAD_XDICTIONARY
360
1BB2
102
}
330
2
100
AcDbSymbolTableRecord
100
AcDbLayerTableRecord
  2
2__DEF_CSYS
 70
     0
 62
     7
  6
CONTINUOUS
370
    -3
390
F
  0
LAYER
  5
8F
102
{ACAD_XDICTIONARY
360
1BB4
102
}
330
2
100
AcDbSymbolTableRecord
100
AcDbLayerTableRecord
  2
3_ALL_AXES
 70
     0
 62
     7
  6
CONTINUOUS
370
    -3
390
F
  0
LAYER
  5
90
102
{ACAD_XDICTIONARY
360
1BB6
102
}
330
2
100
AcDbSymbolTableRecord
100
AcDbLayerTableRecord
  2
3_ALL_SYMBOLS
 70
     0
 62
     7
  6
CONTINUOUS
370
    -3
390
F
  0
LAYER
  5
91
102
{ACAD_XDICTIONARY
360
1BB8
102
}
330
2
100
AcDbSymbolTableRecord
100
AcDbLayerTableRecord
  2
3__ALL_HOES
 70
     0
 62
     7
  6
CONTINUOUS
370
    -3
390
F
  0
LAYER
  5
92
102
{ACAD_XDICTIONARY
360
1BBA
102
}
330
2
100
AcDbSymbolTableRecord
100
AcDbLayerTableRecord
  2
3__ALL_HOLES
 70
     0
 62
     7
  6
CONTINUOUS
370
    -3
390
F
  0
LAYER
  5
93
102
{ACAD_XDICTIONARY
360
1BBC
102
}
330
2
100
AcDbSymbolTableRecord
100
AcDbLayerTableRecord
  2
4_ALL_POINTS
 70
     0
 62
     7
  6
CONTINUOUS
370
    -3
390
F
  0
LAYER
  5
94
102
{ACAD_XDICTIONARY
360
1BBE
102
}
330
2
100
AcDbSymbolTableRecord
100
AcDbLayerTableRecord
  2
5_ALL_CURVES
 70
     0
 62
     7
  6
CONTINUOUS
370
    -3
390
F
  0
LAYER
  5
95
102
{ACAD_XDICTIONARY
360
1BC0
102
}
330
2
100
AcDbSymbolTableRecord
100
AcDbLayerTableRecord
  2
6_ALL_SFINS
 70
     0
 62
     7
  6
CONTINUOUS
370
    -3
390
F
  0
LAYER
  5
96
102
{ACAD_XDICTIONARY
360
1BC2
102
}
330
2
100
AcDbSymbolTableRecord
100
AcDbLayerTableRecord
  2
6_ALL_SURFS
 70
     0
 62
     7
  6
CONTINUOUS
370
    -3
390
F
  0
LAYER
  5
97
102
{ACAD_XDICTIONARY
360
1BC4
102
}
330
2
100
AcDbSymbolTableRecord
100
AcDbLayerTableRecord
  2
7_ALL_COSMETICS
 70
     0
 62
     7
  6
CONTINUOUS
370
    -3
390
F
  0
LAYER
  5
98
102
{ACAD_XDICTIONARY
360
1BC6
102
}
330
2
100
AcDbSymbolTableRecord
100
AcDbLayerTableRecord
  2
7_ALL_DRAFT_GEOMS
 70
     0
 62
     7
  6
CONTINUOUS
370
    -3
390
F
  0
LAYER
  5
99
102
{ACAD_XDICTIONARY
360
1BC8
102
}
330
2
100
AcDbSymbolTableRecord
100
AcDbLayerTableRecord
  2
7_ALL_FEATURES
 70
     0
 62
     7
  6
CONTINUOUS
370
    -3
390
F
  0
LAYER
  5
9A
102
{ACAD_XDICTIONARY
360
1BCA
102
}
330
2
100
AcDbSymbolTableRecord
100
AcDbLayerTableRecord
  2
8_ALL_DTL_ITEMS
 70
     0
 62
     7
  6
CONTINUOUS
370
    -3
390
F
  0
LAYER
  5
9B
102
{ACAD_XDICTIONARY
360
1BCC
102
}
330
2
100
AcDbSymbolTableRecord
100
AcDbLayerTableRecord
  2
8_ALL_ROUNDS
 70
     0
 62
     7
  6
CONTINUOUS
370
    -3
390
F
  0
LAYER
  5
9C
102
{ACAD_XDICTIONARY
360
1BCE
102
}
330
2
100
AcDbSymbolTableRecord
100
AcDbLayerTableRecord
  2
8_ALL_ROUNS
 70
     0
 62
     7
  6
CONTINUOUS
370
    -3
390
F
  0
LAYER
  5
9D
102
{ACAD_XDICTIONARY
360
1BD0
102
}
330
2
100
AcDbSymbolTableRecord
100
AcDbLayerTableRecord
  2
AXIS
 70
     0
 62
     7
  6
CONTINUOUS
370
    -3
390
F
  0
LAYER
  5
9E
102
{ACAD_XDICTIONARY
360
1BD2
102
}
330
2
100
AcDbSymbolTableRecord
100
AcDbLayerTableRecord
  2
CSYS
 70
     0
 62
     7
  6
CONTINUOUS
370
    -3
390
F
  0
LAYER
  5
9F
102
{ACAD_XDICTIONARY
360
1BD4
102
}
330
2
100
AcDbSymbolTableRecord
100
AcDbLayerTableRecord
  2
PLN
 70
     0
 62
     7
  6
CONTINUOUS
370
    -3
390
F
  0
LAYER
  5
A0
102
{ACAD_XDICTIONARY
360
1BD6
102
}
330
2
100
AcDbSymbolTableRecord
100
AcDbLayerTableRecord
  2
PNT
 70
     0
 62
     7
  6
CONTINUOUS
370
    -3
390
F
  0
LAYER
  5
1F36
330
2
100
AcDbSymbolTableRecord
100
AcDbLayerTableRecord
  2
非表示
 70
     0
 62
     5
  6
CONTINUOUS
290
     0
370
    -3
390
F
  0
LAYER
  5
1F7C
330
2
100
AcDbSymbolTableRecord
100
AcDbLayerTableRecord
  2
Defpoints
 70
     0
 62
     7
  6
CONTINUOUS
290
     0
370
    -3
390
F
  0
ENDTAB
  0
TABLE
  2
STYLE
  5
3
330
0
100
AcDbSymbolTable
 70
     3
  0
STYLE
  5
5D
330
3
100
AcDbSymbolTableRecord
100
AcDbTextStyleTableRecord
  2
STANDARD
 70
     0
 40
0.0
 41
0.8
 50
0.0
 71
     0
 42
3.5
  3
txt
  4

  0
STYLE
  5
61
330
3
100
AcDbSymbolTableRecord
100
AcDbTextStyleTableRecord
  2
Annotative
 70
     0
 40
0.0
 41
1.0
 50
0.0
 71
     0
 42
0.2
  3
txt
  4

1001
AcadAnnotative
1000
AnnotativeData
1002
{
1070
     1
1070
     1
1002
}
  0
STYLE
  5
1F37
330
3
100
AcDbSymbolTableRecord
100
AcDbTextStyleTableRecord
  2
STANDARD1
 70
     0
 40
0.0
 41
1.0
 50
0.0
 71
     0
 42
4.0
  3
monotxt.shx
  4
bigfont.shx
  0
ENDTAB
  0
TABLE
  2
VIEW
  5
6
330
0
100
AcDbSymbolTable
 70
     0
  0
ENDTAB
  0
TABLE
  2
UCS
  5
7
330
0
100
AcDbSymbolTable
 70
     0
  0
ENDTAB
  0
TABLE
  2
APPID
  5
9
330
0
100
AcDbSymbolTable
 70
     3
  0
APPID
  5
5E
330
9
100
AcDbSymbolTableRecord
100
AcDbRegAppTableRecord
  2
ACAD
 70
     0
  0
APPID
  5
65
330
9
100
AcDbSymbolTableRecord
100
AcDbRegAppTableRecord
  2
AcadAnnotative
 70
     0
  0
APPID
  5
6F
330
9
100
AcDbSymbolTableRecord
100
AcDbRegAppTableRecord
  2
ACAD_MLEADERVER
 70
     0
  0
ENDTAB
  0
TABLE
  2
DIMSTYLE
  5
A
330
0
100
AcDbSymbolTable
 70
     2
100
AcDbDimStyleTable
 71
     1
340
5F
  0
DIMSTYLE
105
5F
102
{ACAD_REACTORS
330
1F7B
330
1F96
102
}
330
A
100
AcDbSymbolTableRecord
100
AcDbDimStyleTableRecord
  2
Standard
 70
     0
340
5D
  0
DIMSTYLE
105
60
330
A
100
AcDbSymbolTableRecord
100
AcDbDimStyleTableRecord
  2
Annotative
 70
     0
340
5D
1001
AcadAnnotative
1000
AnnotativeData
1002
{
1070
     1
1070
     1
1002
}
  0
ENDTAB
  0
TABLE
  2
BLOCK_RECORD
  5
1
330
0
100
AcDbSymbolTable
 70
    11
  0
BLOCK_RECORD
  5
74
102
{ACAD_XDICTIONARY
360
1BF4
102
}
330
1
100
AcDbSymbolTableRecord
100
AcDbBlockTableRecord
  2
*Model_Space
340
77
  0
BLOCK_RECORD
  5
70
330
1
100
AcDbSymbolTableRecord
100
AcDbBlockTableRecord
  2
*Paper_Space
340
73
  0
BLOCK_RECORD
  5
A3
330
1
100
AcDbSymbolTableRecord
100
AcDbBlockTableRecord
  2
*D0
340
0
  0
BLOCK_RECORD
  5
A8
330
1
100
AcDbSymbolTableRecord
100
AcDbBlockTableRecord
  2
_OPEN
340
0
102
{BLKREFS
331
A9
331
AA
331
B2
331
B3
331
BB
331
BC
331
C1
331
1F81
331
1F82
331
1F9B
331
1F9C
331
1FA7
331
1FB0
102
}
  0
BLOCK_RECORD
  5
AC
330
1
100
AcDbSymbolTableRecord
100
AcDbBlockTableRecord
  2
*D2
340
0
  0
BLOCK_RECORD
  5
B5
330
1
100
AcDbSymbolTableRecord
100
AcDbBlockTableRecord
  2
*D3
340
0
  0
BLOCK_RECORD
  5
BE
330
1
100
AcDbSymbolTableRecord
100
AcDbBlockTableRecord
  2
*D4
340
0
  0
BLOCK_RECORD
  5
C3
330
1
100
AcDbSymbolTableRecord
100
AcDbBlockTableRecord
  2
K_GAIKEI_JISB0405V_BL0
340
0
  0
BLOCK_RECORD
  5
1F5B
330
1
100
AcDbSymbolTableRecord
100
AcDbBlockTableRecord
  2
A$C79741FA8
340
0
  0
BLOCK_RECORD
  5
1F7D
330
1
100
AcDbSymbolTableRecord
100
AcDbBlockTableRecord
  2
*D8
340
0
  0
BLOCK_RECORD
  5
1F97
330
1
100
AcDbSymbolTableRecord
100
AcDbBlockTableRecord
  2
*D9
340
0
  0
BLOCK_RECORD
  5
1FA4
330
1
100
AcDbSymbolTableRecord
100
AcDbBlockTableRecord
  2
*D10
340
0
  0
ENDTAB
  0
ENDSEC
  0
SECTION
  2
BLOCKS
  0
BLOCK
  5
75
330
74
100
AcDbEntity
  8
0
100
AcDbBlockBegin
  2
*Model_Space
 70
     0
 10
0.0
 20
0.0
 30
0.0
  3
*Model_Space
  1

  0
ENDBLK
  5
76
330
74
100
AcDbEntity
  8
0
100
AcDbBlockEnd
  0
BLOCK
  5
71
330
70
100
AcDbEntity
 67
     1
  8
0
100
AcDbBlockBegin
  2
*Paper_Space
 70
     0
 10
0.0
 20
0.0
 30
0.0
  3
*Paper_Space
  1

  0
ENDBLK
  5
72
330
70
100
AcDbEntity
 67
     1
  8
0
100
AcDbBlockEnd
  0
BLOCK
  5
A4
330
A3
100
AcDbEntity
  8
1_ALL_DRAFT_DIMS
  6
Continuous
 62
     2
100
AcDbBlockBegin
  2
*D0
 70
     1
 10
0.0
 20
0.0
 30
0.0
  3
*D0
  1

  0
LINE
  5
A5
330
A3
100
AcDbEntity
  8
1_ALL_DRAFT_DIMS
  6
Continuous
 62
     2
100
AcDbLine
 10
89.18581401389999
 20
201.3622324388
 30
0.0
 11
136.7620141334999
 21
158.7627507070999
 31
0.0
  0
LINE
  5
A6
330
A3
100
AcDbEntity
  8
1_ALL_DRAFT_DIMS
  6
Continuous
 62
     2
100
AcDbLine
 10
136.7620141334999
 20
158.7627507070999
 30
0.0
 11
75.05044212600001
 21
214.0189707868
 31
0.0
  0
LINE
  5
A7
330
A3
100
AcDbEntity
  8
1_ALL_DRAFT_DIMS
  6
Continuous
 62
     2
100
AcDbLine
 10
184.3382142531
 20
116.1632689754
 30
0.0
 11
136.7620141334999
 21
158.7627507070999
 31
0.0
  0
INSERT
  5
A9
330
A3
100
AcDbEntity
  8
1_ALL_DRAFT_DIMS
  6
Continuous
 62
     2
100
AcDbBlockReference
  2
_OPEN
 10
89.18581401389999
 20
201.3622324388
 30
0.0
 41
2.0
 42
2.0
 43
2.0
 50
138.1588999999999
  0
INSERT
  5
AA
330
A3
100
AcDbEntity
  8
1_ALL_DRAFT_DIMS
  6
Continuous
 62
     2
100
AcDbBlockReference
  2
_OPEN
 10
184.3382142531
 20
116.1632689754
 30
0.0
 41
2.0
 42
2.0
 43
2.0
 50
318.1589
  0
ENDBLK
  5
AB
330
A3
100
AcDbEntity
  8
0
  6
ByBlock
 62
     0
100
AcDbBlockEnd
  0
BLOCK
  5
814
330
A8
100
AcDbEntity
  8
0
100
AcDbBlockBegin
  2
_OPEN
 70
     0
 10
0.0
 20
0.0
 30
0.0
  3
_OPEN
  1

  0
LINE
  5
815
330
A8
100
AcDbEntity
  8
0
  6
ByBlock
 62
     0
100
AcDbLine
 10
0.0
 20
0.0
 30
0.0
 11
-1.0
 21
0.3125
 31
0.0
  0
LINE
  5
816
330
A8
100
AcDbEntity
  8
0
  6
ByBlock
 62
     0
100
AcDbLine
 10
-1.0
 20
-0.3125
 30
0.0
 11
0.0
 21
0.0
 31
0.0
  0
LINE
  5
817
330
A8
100
AcDbEntity
  8
0
  6
ByBlock
 62
     0
100
AcDbLine
 10
-1.0
 20
0.0
 30
0.0
 11
0.0
 21
0.0
 31
0.0
  0
ENDBLK
  5
818
330
A8
100
AcDbEntity
  8
0
  6
ByBlock
 62
     0
100
AcDbBlockEnd
  0
BLOCK
  5
AD
330
AC
100
AcDbEntity
  8
1_ALL_DRAFT_DIMS
  6
Continuous
 62
     2
100
AcDbBlockBegin
  2
*D2
 70
     1
 10
0.0
 20
0.0
 30
0.0
  3
*D2
  1

  0
LINE
  5
AE
330
AC
100
AcDbEntity
  8
1_ALL_DRAFT_DIMS
  6
Continuous
 62
     2
100
AcDbLine
 10
335.0478709238
 20
219.4425288206999
 30
0.0
 11
335.0478709238
 21
235.0004380232999
 31
0.0
  0
LINE
  5
AF
330
AC
100
AcDbEntity
  8
1_ALL_DRAFT_DIMS
  6
Continuous
 62
     2
100
AcDbLine
 10
227.5478709238
 20
159.2627507071
 30
0.0
 11
227.5478709238
 21
235.0004380232999
 31
0.0
  0
LINE
  5
B0
330
AC
100
AcDbEntity
  8
1_ALL_DRAFT_DIMS
  6
Continuous
 62
     2
100
AcDbLine
 10
335.0478709238
 20
234.0004380233
 30
0.0
 11
281.2978709238
 21
234.0004380233
 31
0.0
  0
LINE
  5
B1
330
AC
100
AcDbEntity
  8
1_ALL_DRAFT_DIMS
  6
Continuous
 62
     2
100
AcDbLine
 10
227.5478709238
 20
234.0004380233
 30
0.0
 11
281.2978709238
 21
234.0004380233
 31
0.0
  0
INSERT
  5
B2
330
AC
100
AcDbEntity
  8
1_ALL_DRAFT_DIMS
  6
Continuous
 62
     2
100
AcDbBlockReference
  2
_OPEN
 10
335.0478709238
 20
234.0004380233
 30
0.0
 41
2.0
 42
2.0
 43
2.0
  0
INSERT
  5
B3
330
AC
100
AcDbEntity
  8
1_ALL_DRAFT_DIMS
  6
Continuous
 62
     2
100
AcDbBlockReference
  2
_OPEN
 10
227.5478709238
 20
234.0004380233
 30
0.0
 41
2.0
 42
2.0
 43
2.0
 50
180.0
  0
ENDBLK
  5
B4
330
AC
100
AcDbEntity
  8
0
  6
ByBlock
 62
     0
100
AcDbBlockEnd
  0
BLOCK
  5
B6
330
B5
100
AcDbEntity
  8
1_ALL_DRAFT_DIMS
  6
Continuous
 62
     2
100
AcDbBlockBegin
  2
*D3
 70
     1
 10
0.0
 20
0.0
 30
0.0
  3
*D3
  1

  0
LINE
  5
B7
330
B5
100
AcDbEntity
  8
1_ALL_DRAFT_DIMS
  6
Continuous
 62
     2
100
AcDbLine
 10
335.0478709238
 20
219.4425288206999
 30
0.0
 11
335.0478709238
 21
230.0004380233
 31
0.0
  0
LINE
  5
B8
330
B5
100
AcDbEntity
  8
1_ALL_DRAFT_DIMS
  6
Continuous
 62
     2
100
AcDbLine
 10
275.0478709238
 20
214.4174064227
 30
0.0
 11
275.0478709238
 21
230.0004380233
 31
0.0
  0
LINE
  5
B9
330
B5
100
AcDbEntity
  8
1_ALL_DRAFT_DIMS
  6
Continuous
 62
     2
100
AcDbLine
 10
335.0478709238
 20
229.0004380232999
 30
0.0
 11
305.0478709238
 21
229.0004380232999
 31
0.0
  0
LINE
  5
BA
330
B5
100
AcDbEntity
  8
1_ALL_DRAFT_DIMS
  6
Continuous
 62
     2
100
AcDbLine
 10
275.0478709238
 20
229.0004380232999
 30
0.0
 11
305.0478709238
 21
229.0004380232999
 31
0.0
  0
INSERT
  5
BB
330
B5
100
AcDbEntity
  8
1_ALL_DRAFT_DIMS
  6
Continuous
 62
     2
100
AcDbBlockReference
  2
_OPEN
 10
335.0478709238
 20
229.0004380232999
 30
0.0
 41
2.0
 42
2.0
 43
2.0
  0
INSERT
  5
BC
330
B5
100
AcDbEntity
  8
1_ALL_DRAFT_DIMS
  6
Continuous
 62
     2
100
AcDbBlockReference
  2
_OPEN
 10
275.0478709238
 20
229.0004380232999
 30
0.0
 41
2.0
 42
2.0
 43
2.0
 50
180.0
  0
ENDBLK
  5
BD
330
B5
100
AcDbEntity
  8
0
  6
ByBlock
 62
     0
100
AcDbBlockEnd
  0
BLOCK
  5
BF
330
BE
100
AcDbEntity
  8
0
  6
Continuous
 62
     2
100
AcDbBlockBegin
  2
*D4
 70
     1
 10
0.0
 20
0.0
 30
0.0
  3
*D4
  1

  0
LINE
  5
C0
330
BE
100
AcDbEntity
  8
0
  6
Continuous
 62
     2
100
AcDbLine
 10
248.3763377675999
 20
198.0677035641999
 30
0.0
 11
234.6610489041
 21
218.2794693838
 31
0.0
  0
INSERT
  5
C1
330
BE
100
AcDbEntity
  8
0
  6
Continuous
 62
     2
100
AcDbBlockReference
  2
_OPEN
 10
248.3763377675999
 20
198.0677035641999
 30
0.0
 41
2.0
 42
2.0
 43
2.0
 50
304.160009
  0
ENDBLK
  5
C2
330
BE
100
AcDbEntity
  8
0
  6
ByBlock
 62
     0
100
AcDbBlockEnd
  0
BLOCK
  5
C4
330
C3
100
AcDbEntity
  8
3_ALL_SYMBOLS
  6
Continuous
 62
     2
100
AcDbBlockBegin
  2
K_GAIKEI_JISB0405V_BL0
 70
     0
 10
387.8974053748999
 20
64.6673898473
 30
0.0
  3
K_GAIKEI_JISB0405V_BL0
  1

  0
LINE
  5
C5
330
C3
100
AcDbEntity
  8
3_ALL_SYMBOLS
  6
Continuous
 62
     2
100
AcDbLine
 10
374.3530444336
 20
77.33783294680001
 30
0.0
 11
374.9155480957
 21
77.33783294680001
 31
0.0
  0
LWPOLYLINE
  5
C6
330
C3
100
AcDbEntity
  8
3_ALL_SYMBOLS
  6
Continuous
 62
     2
100
AcDbPolyline
 90
        4
 70
     0
 43
0.0
 10
374.6655322266
 20
77.775335083
 10
374.6655322266
 20
76.0253329468
 10
374.603034668
 20
75.96283538819999
 10
374.3530444336
 20
76.0253329468
  0
LWPOLYLINE
  5
CC
330
C3
100
AcDbEntity
  8
3_ALL_SYMBOLS
  6
Continuous
 62
     2
100
AcDbPolyline
 90
        3
 70
     0
 43
0.0
 10
374.290546875
 20
76.58783660890001
 10
374.6655322266
 20
76.837833252
 10
374.9155480957
 20
77.0253323364
  0
LWPOLYLINE
  5
D1
330
C3
100
AcDbEntity
  8
3_ALL_SYMBOLS
  6
Continuous
 62
     2
100
AcDbPolyline
 90
        6
 70
     0
 43
0.0
 10
375.1030407715
 20
77.775335083
 10
375.1030407715
 20
77.0878363037
 10
375.1655383301001
 20
77.0253323364
 10
375.915534668
 20
77.0253323364
 10
376.0405554199
 20
77.0878363037
 10
376.0405554199
 20
77.27533538819999
  0
LINE
  5
D9
330
C3
100
AcDbEntity
  8
3_ALL_SYMBOLS
  6
Continuous
 62
     2
100
AcDbLine
 10
375.1030407715
 20
77.46283447270001
 30
0.0
 11
375.9780322266
 21
77.65033355709999
 31
0.0
  0
LWPOLYLINE
  5
DA
330
C3
100
AcDbEntity
  8
3_ALL_SYMBOLS
  6
Continuous
 62
     2
100
AcDbPolyline
 90
        5
 70
     0
 43
0.0
 10
375.1030407715
 20
76.77533569339998
 10
375.1030407715
 20
76.0253329468
 10
375.9780322266
 20
76.0253329468
 10
375.9780322266
 20
76.77533569339998
 10
375.1030407715
 20
76.77533569339998
  0
LINE
  5
E1
330
C3
100
AcDbEntity
  8
3_ALL_SYMBOLS
  6
Continuous
 62
     2
100
AcDbLine
 10
375.1030407715
 20
76.4003311157
 30
0.0
 11
375.9780322266
 21
76.4003311157
 31
0.0
  0
LWPOLYLINE
  5
E2
330
C3
100
AcDbEntity
  8
3_ALL_SYMBOLS
  6
Continuous
 62
     2
100
AcDbPolyline
 90
        6
 70
     0
 43
0.0
 10
376.3530432128999
 20
77.2128314209
 10
376.3530432128999
 20
77.5878359985
 10
377.9780310058999
 20
77.5878359985
 10
378.0405541991999
 20
77.5878359985
 10
378.1030517577999
 20
77.52533203129998
 10
378.0405541991999
 20
77.2128314209
  0
LINE
  5
EA
330
C3
100
AcDbEntity
  8
3_ALL_SYMBOLS
  6
Continuous
 62
     2
100
AcDbLine
 10
377.228034668
 20
77.5878359985
 30
0.0
 11
377.228034668
 21
77.775335083
 31
0.0
  0
LINE
  5
EB
330
C3
100
AcDbEntity
  8
3_ALL_SYMBOLS
  6
Continuous
 62
     2
100
AcDbLine
 10
376.6030334473001
 20
77.2128314209
 30
0.0
 11
377.8530358887
 21
77.2128314209
 31
0.0
  0
LINE
  5
EC
330
C3
100
AcDbEntity
  8
3_ALL_SYMBOLS
  6
Continuous
 62
     2
100
AcDbLine
 10
377.228034668
 20
77.2128314209
 30
0.0
 11
377.228034668
 21
76.0253329468
 31
0.0
  0
LINE
  5
ED
330
C3
100
AcDbEntity
  8
3_ALL_SYMBOLS
  6
Continuous
 62
     2
100
AcDbLine
 10
377.228034668
 20
76.6503341675
 30
0.0
 11
377.9780310058999
 21
76.6503341675
 31
0.0
  0
LWPOLYLINE
  5
EE
330
C3
100
AcDbEntity
  8
3_ALL_SYMBOLS
  6
Continuous
 62
     2
100
AcDbPolyline
 90
        4
 70
     0
 43
0.0
 10
376.7280541991999
 20
76.90033721919999
 10
376.6030334473001
 20
76.5253326416
 10
376.4780383301001
 20
76.21283203129998
 10
376.2905456542999
 20
75.96283538819999
  0
LWPOLYLINE
  5
F4
330
C3
100
AcDbEntity
  8
3_ALL_SYMBOLS
  6
Continuous
 62
     2
100
AcDbPolyline
 90
        5
 70
     0
 43
0.0
 10
376.6030334473001
 20
76.5253326416
 10
376.7905517577999
 20
76.2753359985
 10
376.9780444336
 20
76.0878369141
 10
377.228034668
 20
76.0253329468
 10
378.1030517577999
 20
75.96283538819999
  0
LINE
  5
FB
330
C3
100
AcDbEntity
  8
3_ALL_SYMBOLS
  6
Continuous
 62
     2
100
AcDbLine
 10
378.4780371094
 20
77.775335083
 30
0.0
 11
378.4780371094
 21
76.2753359985
 31
0.0
  0
LINE
  5
FC
330
C3
100
AcDbEntity
  8
3_ALL_SYMBOLS
  6
Continuous
 62
     2
100
AcDbLine
 10
378.2905444336
 20
76.0878369141
 30
0.0
 11
379.3530541991999
 21
76.71283172609999
 31
0.0
  0
LINE
  5
FD
330
C3
100
AcDbEntity
  8
3_ALL_SYMBOLS
  6
Continuous
 62
     2
100
AcDbLine
 10
378.4780371094
 20
76.2753359985
 30
0.0
 11
378.4780371094
 21
76.21283203129998
 31
0.0
  0
LINE
  5
FE
330
C3
100
AcDbEntity
  8
3_ALL_SYMBOLS
  6
Continuous
 62
     2
100
AcDbLine
 10
378.7905505371
 20
77.71283111569998
 30
0.0
 11
379.3530541991999
 21
77.0253323364
 31
0.0
  0
LWPOLYLINE
  5
FF
330
C3
100
AcDbEntity
  8
3_ALL_SYMBOLS
  6
Continuous
 62
     2
100
AcDbPolyline
 90
        7
 70
     0
 43
0.0
 10
378.6655554199
 20
75.96283538819999
 10
379.1030383301
 20
76.0878369141
 10
379.4155517577999
 20
76.21283203129998
 10
379.6030444336
 20
76.4003311157
 10
379.7280395508
 20
76.6503341675
 10
379.853034668
 20
77.0878363037
 10
379.853034668
 20
77.775335083
  0
LINE
  5
108
330
C3
100
AcDbEntity
  8
3_ALL_SYMBOLS
  6
Continuous
 62
     2
100
AcDbLine
 10
379.7280395508
 20
76.6503341675
 30
0.0
 11
380.1030505371
 21
75.96283538819999
 31
0.0
  0
LWPOLYLINE
  5
109
330
C3
100
AcDbEntity
  8
3_ALL_SYMBOLS
  6
Continuous
 62
     2
100
AcDbPolyline
 90
        9
 70
     0
 43
0.0
 10
380.2905432129
 20
76.837833252
 10
380.6030310058999
 20
77.52533203129998
 10
380.6030310058999
 20
77.775335083
 10
381.165534668
 20
77.775335083
 10
381.2905554198999
 20
77.65033355709999
 10
381.2280322266
 20
77.2128314209
 10
380.9780419922
 20
76.71283172609999
 10
380.6655541991999
 20
76.2753359985
 10
380.2905432129
 20
75.96283538819999
  0
LINE
  5
114
330
C3
100
AcDbEntity
  8
3_ALL_SYMBOLS
  6
Continuous
 62
     2
100
AcDbLine
 10
380.4780358887001
 20
77.1503338623
 30
0.0
 11
381.0405395508
 21
76.837833252
 31
0.0
  0
LINE
  5
115
330
C3
100
AcDbEntity
  8
3_ALL_SYMBOLS
  6
Continuous
 62
     2
100
AcDbLine
 10
381.6030432129
 20
77.775335083
 30
0.0
 11
381.6030432129
 21
75.96283538819999
 31
0.0
  0
LINE
  5
116
330
C3
100
AcDbEntity
  8
3_ALL_SYMBOLS
  6
Continuous
 62
     2
100
AcDbLine
 10
381.6030432129
 20
77.0253323364
 30
0.0
 11
382.1030493164
 21
76.77533569339998
 31
0.0
  0
LWPOLYLINE
  5
117
330
C3
100
AcDbEntity
  8
3_ALL_SYMBOLS
  6
Continuous
 62
     2
100
AcDbPolyline
 90
       23
 70
     0
 43
0.0
 10
383.2905541991999
 20
77.5878359985
 10
383.2280310058998
 20
77.0253323364
 10
383.1030358887001
 20
76.462835083
 10
382.9780407714999
 20
76.1503344727
 10
382.8530456542999
 20
76.0253329468
 10
382.7280505371
 20
76.0253329468
 10
382.5405322266
 20
76.1503344727
 10
382.478034668
 20
76.4003311157
 10
382.4155371094
 20
76.6503341675
 10
382.4155371094
 20
76.96283477779998
 10
382.5405322266
 20
77.33783294680001
 10
382.8530456542999
 20
77.5878359985
 10
383.2905541991999
 20
77.5878359985
 10
383.6030419922
 20
77.52533203129998
 10
383.8530322266
 20
77.40033691409999
 10
384.0405505370999
 20
77.1503338623
 10
384.1030480957
 20
76.90033721919999
 10
384.1030480957
 20
76.58783660890001
 10
384.0405505370999
 20
76.4003311157
 10
383.9155554198999
 20
76.21283203129998
 10
383.7280371094
 20
76.0878369141
 10
383.5405444336
 20
76.0253329468
 10
383.2905541991999
 20
75.96283538819999
  0
LINE
  5
130
330
C3
100
AcDbEntity
  8
3_ALL_SYMBOLS
  6
Continuous
 62
     2
100
AcDbLine
 10
384.2905407714999
 20
77.33783294680001
 30
0.0
 11
386.0405493164
 21
77.33783294680001
 31
0.0
  0
LWPOLYLINE
  5
131
330
C3
100
AcDbEntity
  8
3_ALL_SYMBOLS
  6
Continuous
 62
     2
100
AcDbPolyline
 90
        4
 70
     0
 43
0.0
 10
385.6030407715
 20
77.71283111569998
 10
385.6030407715
 20
76.0878369141
 10
385.4780456543
 20
75.96283538819999
 10
384.9155419922
 20
76.0878369141
  0
LINE
  5
137
330
C3
100
AcDbEntity
  8
3_ALL_SYMBOLS
  6
Continuous
 62
     2
100
AcDbLine
 10
384.7280493164
 20
77.0253323364
 30
0.0
 11
385.103034668
 21
76.5253326416
 31
0.0
  0
LINE
  5
138
330
C3
100
AcDbEntity
  8
3_ALL_SYMBOLS
  6
Continuous
 62
     2
100
AcDbLine
 10
386.415534668
 20
77.71283111569998
 30
0.0
 11
386.7280480956999
 21
77.40033691409999
 31
0.0
  0
LINE
  5
139
330
C3
100
AcDbEntity
  8
3_ALL_SYMBOLS
  6
Continuous
 62
     2
100
AcDbLine
 10
386.2905395508
 20
77.27533538819999
 30
0.0
 11
386.6030529785
 21
76.96283477779998
 31
0.0
  0
LWPOLYLINE
  5
13A
330
C3
100
AcDbEntity
  8
3_ALL_SYMBOLS
  6
Continuous
 62
     2
100
AcDbPolyline
 90
        3
 70
     0
 43
0.0
 10
386.2905395508
 20
76.0253329468
 10
386.5405554199
 20
76.3378335571
 10
386.7280480956999
 20
76.71283172609999
  0
LWPOLYLINE
  5
13F
330
C3
100
AcDbEntity
  8
3_ALL_SYMBOLS
  6
Continuous
 62
     2
100
AcDbPolyline
 90
        3
 70
     0
 43
0.0
 10
386.9155407715
 20
77.46283447270001
 10
387.9780505371
 20
77.46283447270001
 10
388.0405480957
 20
77.46283447270001
  0
LINE
  5
144
330
C3
100
AcDbEntity
  8
3_ALL_SYMBOLS
  6
Continuous
 62
     2
100
AcDbLine
 10
387.4780444336
 20
77.775335083
 30
0.0
 11
387.4780444336
 21
76.90033721919999
 31
0.0
  0
LINE
  5
145
330
C3
100
AcDbEntity
  8
3_ALL_SYMBOLS
  6
Continuous
 62
     2
100
AcDbLine
 10
386.8530432128999
 20
76.90033721919999
 30
0.0
 11
388.1030456542999
 21
76.90033721919999
 31
0.0
  0
LINE
  5
146
330
C3
100
AcDbEntity
  8
3_ALL_SYMBOLS
  6
Continuous
 62
     2
100
AcDbLine
 10
387.4780444336
 20
76.90033721919999
 30
0.0
 11
387.0405358887
 21
76.0253329468
 31
0.0
  0
LINE
  5
147
330
C3
100
AcDbEntity
  8
3_ALL_SYMBOLS
  6
Continuous
 62
     2
100
AcDbLine
 10
386.8530432128999
 20
75.96283538819999
 30
0.0
 11
387.9780505371
 21
76.21283203129998
 31
0.0
  0
LINE
  5
148
330
C3
100
AcDbEntity
  8
3_ALL_SYMBOLS
  6
Continuous
 62
     2
100
AcDbLine
 10
387.728034668
 20
76.58783660890001
 30
0.0
 11
388.1030456542999
 21
75.96283538819999
 31
0.0
  0
LWPOLYLINE
  5
149
330
C3
100
AcDbEntity
  8
3_ALL_SYMBOLS
  6
Continuous
 62
     2
100
AcDbPolyline
 90
        3
 70
     0
 43
0.0
 10
388.4780310058999
 20
77.775335083
 10
388.4155334473001
 20
76.77533569339998
 10
388.4780310058999
 20
75.96283538819999
  0
LWPOLYLINE
  5
14E
330
C3
100
AcDbEntity
  8
3_ALL_SYMBOLS
  6
Continuous
 62
     2
100
AcDbPolyline
 90
        4
 70
     0
 43
0.0
 10
388.7905444336
 20
77.52533203129998
 10
389.4155456542999
 20
77.52533203129998
 10
389.8530541991999
 20
77.46283447270001
 10
389.4780432129
 20
77.0878363037
  0
LWPOLYLINE
  5
154
330
C3
100
AcDbEntity
  8
3_ALL_SYMBOLS
  6
Continuous
 62
     2
100
AcDbPolyline
 90
        8
 70
     0
 43
0.0
 10
388.9155395508
 20
76.6503341675
 10
388.7905444336
 20
76.462835083
 10
388.728046875
 20
76.3378335571
 10
388.728046875
 20
76.21283203129998
 10
388.7905444336
 20
76.1503344727
 10
389.2280529784999
 20
76.0878369141
 10
389.6655358887
 20
76.0878369141
 10
390.040546875
 20
76.1503344727
  0
LWPOLYLINE
  5
15E
330
C3
100
AcDbEntity
  8
3_ALL_SYMBOLS
  6
Continuous
 62
     2
100
AcDbPolyline
 90
        3
 70
     0
 43
0.0
 10
390.353034668
 20
77.46283447270001
 10
391.1655541991999
 20
77.46283447270001
 10
391.2280517577999
 20
77.46283447270001
  0
LINE
  5
163
330
C3
100
AcDbEntity
  8
3_ALL_SYMBOLS
  6
Continuous
 62
     2
100
AcDbLine
 10
390.7905432129
 20
77.46283447270001
 30
0.0
 11
390.7905432129
 21
77.775335083
 31
0.0
  0
LWPOLYLINE
  5
164
330
C3
100
AcDbEntity
  8
3_ALL_SYMBOLS
  6
Continuous
 62
     2
100
AcDbPolyline
 90
        5
 70
     0
 43
0.0
 10
391.0405334473001
 20
77.46283447270001
 10
390.9155383301
 20
77.0253323364
 10
390.7905432129
 20
76.6503341675
 10
390.6030505370999
 20
76.3378335571
 10
390.2905371094
 20
75.96283538819999
  0
LINE
  5
16B
330
C3
100
AcDbEntity
  8
3_ALL_SYMBOLS
  6
Continuous
 62
     2
100
AcDbLine
 10
390.4155322266
 20
77.27533538819999
 30
0.0
 11
391.1030310058999
 21
76.1503344727
 31
0.0
  0
LINE
  5
16C
330
C3
100
AcDbEntity
  8
3_ALL_SYMBOLS
  6
Continuous
 62
     2
100
AcDbLine
 10
391.2905493164
 20
77.33783294680001
 30
0.0
 11
392.1030432129
 21
77.33783294680001
 31
0.0
  0
LWPOLYLINE
  5
16D
330
C3
100
AcDbEntity
  8
3_ALL_SYMBOLS
  6
Continuous
 62
     2
100
AcDbPolyline
 90
        5
 70
     0
 43
0.0
 10
391.8530529785
 20
77.775335083
 10
391.8530529785
 20
76.0253329468
 10
391.7905554198999
 20
75.96283538819999
 10
391.7280322266
 20
75.96283538819999
 10
391.353046875
 20
76.0878369141
  0
LINE
  5
174
330
C3
100
AcDbEntity
  8
3_ALL_SYMBOLS
  6
Continuous
 62
     2
100
AcDbLine
 10
391.2905493164
 20
77.0878363037
 30
0.0
 11
391.6030371094
 21
76.462835083
 31
0.0
  0
LINE
  5
175
330
C3
100
AcDbEntity
  8
3_ALL_SYMBOLS
  6
Continuous
 62
     2
100
AcDbLine
 10
392.3530334473
 20
77.46283447270001
 30
0.0
 11
394.1030419922
 21
77.46283447270001
 31
0.0
  0
LWPOLYLINE
  5
176
330
C3
100
AcDbEntity
  8
3_ALL_SYMBOLS
  6
Continuous
 62
     2
100
AcDbPolyline
 90
       17
 70
     0
 43
0.0
 10
393.6655334473
 20
77.775335083
 10
393.6655334473
 20
76.71283172609999
 10
393.6030358887001
 20
76.58783660890001
 10
393.4780407714999
 20
76.462835083
 10
393.2280505371
 20
76.4003311157
 10
392.978034668
 20
76.4003311157
 10
392.7905419922
 20
76.462835083
 10
392.665546875
 20
76.58783660890001
 10
392.6030493164
 20
76.71283172609999
 10
392.6030493164
 20
76.837833252
 10
392.665546875
 20
77.0253323364
 10
392.7905419922
 20
77.1503338623
 10
392.978034668
 20
77.2128314209
 10
393.2905480956999
 20
77.2128314209
 10
393.4780407714999
 20
77.1503338623
 10
393.6030358887001
 20
77.0253323364
 10
393.6655334473
 20
76.90033721919999
  0
LWPOLYLINE
  5
189
330
C3
100
AcDbEntity
  8
3_ALL_SYMBOLS
  6
Continuous
 62
     2
100
AcDbPolyline
 90
        6
 70
     0
 43
0.0
 10
393.6655334473
 20
76.71283172609999
 10
393.6655334473
 20
76.462835083
 10
393.6030358887001
 20
76.2753359985
 10
393.4780407714999
 20
76.1503344727
 10
393.2905480956999
 20
76.0253329468
 10
392.9155371094
 20
75.96283538819999
  0
LWPOLYLINE
  5
191
330
C3
100
AcDbEntity
  8
3_ALL_SYMBOLS
  6
Continuous
 62
     2
100
AcDbPolyline
 90
       25
 70
     0
 43
0.0
 10
394.6030480956999
 20
77.5878359985
 10
395.7280554199
 20
77.5878359985
 10
394.4155554198999
 20
76.6503341675
 10
395.1030541991999
 20
77.0253323364
 10
395.4780395508
 20
77.0878363037
 10
395.7905529785
 20
77.0878363037
 10
395.9780456543
 20
77.0253323364
 10
396.1030407715
 20
76.837833252
 10
396.1030407715
 20
76.6503341675
 10
396.1030407715
 20
76.58783660890001
 10
396.0405432128999
 20
76.462835083
 10
395.9155480956999
 20
76.2753359985
 10
395.7280554199
 20
76.1503344727
 10
395.4780395508
 20
76.0878369141
 10
395.1655517577999
 20
76.0878369141
 10
394.9155358887001
 20
76.1503344727
 10
394.7280432128999
 20
76.2753359985
 10
394.6655456543
 20
76.3378335571
 10
394.6655456543
 20
76.4003311157
 10
394.7280432128999
 20
76.462835083
 10
394.8530383301001
 20
76.5253326416
 10
395.0405310058998
 20
76.5253326416
 10
395.2280493164
 20
76.462835083
 10
395.3530444336
 20
76.3378335571
 10
395.4780395508
 20
76.0878369141
  0
LINE
  5
1AC
330
C3
100
AcDbEntity
  8
3_ALL_SYMBOLS
  6
Continuous
 62
     2
100
AcDbLine
 10
396.2905334473001
 20
77.33783294680001
 30
0.0
 11
398.0405419922
 21
77.33783294680001
 31
0.0
  0
LWPOLYLINE
  5
1AD
330
C3
100
AcDbEntity
  8
3_ALL_SYMBOLS
  6
Continuous
 62
     2
100
AcDbPolyline
 90
        4
 70
     0
 43
0.0
 10
397.6030334473001
 20
77.71283111569998
 10
397.6030334473001
 20
76.0878369141
 10
397.4780383301001
 20
75.96283538819999
 10
396.915534668
 20
76.0878369141
  0
LINE
  5
1B3
330
C3
100
AcDbEntity
  8
3_ALL_SYMBOLS
  6
Continuous
 62
     2
100
AcDbLine
 10
396.7280419922
 20
77.0253323364
 30
0.0
 11
397.1030529785
 21
76.5253326416
 31
0.0
  0
LINE
  5
1B4
330
C3
100
AcDbEntity
  8
3_ALL_SYMBOLS
  6
Continuous
 62
     2
100
AcDbLine
 10
398.4155529784999
 20
77.71283111569998
 30
0.0
 11
398.7280407715
 21
77.40033691409999
 31
0.0
  0
LINE
  5
1B5
330
C3
100
AcDbEntity
  8
3_ALL_SYMBOLS
  6
Continuous
 62
     2
100
AcDbLine
 10
398.2905322266
 20
77.27533538819999
 30
0.0
 11
398.6030456542999
 21
76.96283477779998
 31
0.0
  0
LWPOLYLINE
  5
1B6
330
C3
100
AcDbEntity
  8
3_ALL_SYMBOLS
  6
Continuous
 62
     2
100
AcDbPolyline
 90
        3
 70
     0
 43
0.0
 10
398.2905322266
 20
76.0253329468
 10
398.5405480957
 20
76.3378335571
 10
398.7280407715
 20
76.71283172609999
  0
LWPOLYLINE
  5
1BB
330
C3
100
AcDbEntity
  8
3_ALL_SYMBOLS
  6
Continuous
 62
     2
100
AcDbPolyline
 90
        3
 70
     0
 43
0.0
 10
398.9155334473
 20
77.46283447270001
 10
399.9780432129
 20
77.46283447270001
 10
400.0405407715
 20
77.46283447270001
  0
LINE
  5
1C0
330
C3
100
AcDbEntity
  8
3_ALL_SYMBOLS
  6
Continuous
 62
     2
100
AcDbLine
 10
399.4780371094
 20
77.775335083
 30
0.0
 11
399.4780371094
 21
76.90033721919999
 31
0.0
  0
LINE
  5
1C1
330
C3
100
AcDbEntity
  8
3_ALL_SYMBOLS
  6
Continuous
 62
     2
100
AcDbLine
 10
398.8530358887
 20
76.90033721919999
 30
0.0
 11
400.1030383301
 21
76.90033721919999
 31
0.0
  0
LINE
  5
1C2
330
C3
100
AcDbEntity
  8
3_ALL_SYMBOLS
  6
Continuous
 62
     2
100
AcDbLine
 10
399.4780371094
 20
76.90033721919999
 30
0.0
 11
399.0405541991999
 21
76.0253329468
 31
0.0
  0
LINE
  5
1C3
330
C3
100
AcDbEntity
  8
3_ALL_SYMBOLS
  6
Continuous
 62
     2
100
AcDbLine
 10
398.8530358887
 20
75.96283538819999
 30
0.0
 11
399.9780432129
 21
76.21283203129998
 31
0.0
  0
LINE
  5
1C4
330
C3
100
AcDbEntity
  8
3_ALL_SYMBOLS
  6
Continuous
 62
     2
100
AcDbLine
 10
399.7280529784999
 20
76.58783660890001
 30
0.0
 11
400.1030383301
 21
75.96283538819999
 31
0.0
  0
LINE
  5
1C5
330
C3
100
AcDbEntity
  8
3_ALL_SYMBOLS
  6
Continuous
 62
     2
100
AcDbLine
 10
400.4780493164
 20
77.1503338623
 30
0.0
 11
401.9155444336
 21
77.1503338623
 31
0.0
  0
LINE
  5
1C6
330
C3
100
AcDbEntity
  8
3_ALL_SYMBOLS
  6
Continuous
 62
     2
100
AcDbLine
 10
400.3530541991999
 20
76.837833252
 30
0.0
 11
402.0405395507998
 21
76.837833252
 31
0.0
  0
LINE
  5
1C7
330
C3
100
AcDbEntity
  8
3_ALL_SYMBOLS
  6
Continuous
 62
     2
100
AcDbLine
 10
401.2280456543
 20
77.46283447270001
 30
0.0
 11
401.2280456543
 21
76.837833252
 31
0.0
  0
LINE
  5
1C8
330
C3
100
AcDbEntity
  8
3_ALL_SYMBOLS
  6
Continuous
 62
     2
100
AcDbLine
 10
401.7280517577999
 20
77.775335083
 30
0.0
 11
401.5405334473
 21
77.46283447270001
 31
0.0
  0
LINE
  5
1C9
330
C3
100
AcDbEntity
  8
3_ALL_SYMBOLS
  6
Continuous
 62
     2
100
AcDbLine
 10
400.9155322266
 20
77.46283447270001
 30
0.0
 11
400.7280395508
 21
77.775335083
 31
0.0
  0
LINE
  5
1CA
330
C3
100
AcDbEntity
  8
3_ALL_SYMBOLS
  6
Continuous
 62
     2
100
AcDbLine
 10
400.4155517577999
 20
77.46283447270001
 30
0.0
 11
401.9780419922
 21
77.46283447270001
 31
0.0
  0
LINE
  5
1CB
330
C3
100
AcDbEntity
  8
3_ALL_SYMBOLS
  6
Continuous
 62
     2
100
AcDbLine
 10
400.9155322266
 20
76.837833252
 30
0.0
 11
400.2905310058999
 21
75.96283538819999
 31
0.0
  0
LINE
  5
1CC
330
C3
100
AcDbEntity
  8
3_ALL_SYMBOLS
  6
Continuous
 62
     2
100
AcDbLine
 10
400.9780554198997
 20
76.58783660890001
 30
0.0
 11
401.9780419922
 21
76.58783660890001
 31
0.0
  0
LINE
  5
1CD
330
C3
100
AcDbEntity
  8
3_ALL_SYMBOLS
  6
Continuous
 62
     2
100
AcDbLine
 10
401.4780358887
 20
76.58783660890001
 30
0.0
 11
401.4780358887
 21
76.0253329468
 31
0.0
  0
LINE
  5
1CE
330
C3
100
AcDbEntity
  8
3_ALL_SYMBOLS
  6
Continuous
 62
     2
100
AcDbLine
 10
400.7280395508
 20
76.0253329468
 30
0.0
 11
402.1030371094
 21
76.0253329468
 31
0.0
  0
LWPOLYLINE
  5
1CF
330
C3
100
AcDbEntity
  8
3_ALL_SYMBOLS
  6
Continuous
 62
     2
100
AcDbPolyline
 90
       10
 70
     0
 43
0.0
 10
372.4155432128999
 20
74.77533691409999
 10
372.2280505370999
 20
74.65033538819999
 10
372.1030554198999
 20
74.5253338623
 10
371.978034668
 20
74.3378347778
 10
371.9155371094
 20
74.0253341675
 10
371.9155371094
 20
73.7128335571
 10
371.978034668
 20
73.40033294680001
 10
372.1030554198999
 20
73.2128338623
 10
372.2280505370999
 20
73.08783233639998
 10
372.4155432128999
 20
72.9628372192
  0
LWPOLYLINE
  5
1DB
330
C3
100
AcDbEntity
  8
3_ALL_SYMBOLS
  6
Continuous
 62
     2
100
AcDbPolyline
 90
       11
 70
     0
 43
0.0
 10
374.7280554198999
 20
74.77533691409999
 10
374.7280554198999
 20
73.52533447270001
 10
374.6655322266
 20
73.2753314209
 10
374.603034668
 20
73.1503363037
 10
374.4780395508
 20
73.02533477779999
 10
374.3530444336
 20
72.9628372192
 10
374.0405310058998
 20
72.9628372192
 10
373.8530383301001
 20
73.02533477779999
 10
373.7280432128999
 20
73.1503363037
 10
373.6655456543
 20
73.2753314209
 10
373.6030480956999
 20
73.4628369141
  0
LINE
  5
1E8
330
C3
100
AcDbEntity
  8
3_ALL_SYMBOLS
  6
Continuous
 62
     2
100
AcDbLine
 10
376.2280480957
 20
74.77533691409999
 30
0.0
 11
376.2280480957
 21
72.9628372192
 31
0.0
  0
LINE
  5
1E9
330
C3
100
AcDbEntity
  8
3_ALL_SYMBOLS
  6
Continuous
 62
     2
100
AcDbLine
 10
376.0405554199
 20
72.9628372192
 30
0.0
 11
376.4155407715
 21
72.9628372192
 31
0.0
  0
LINE
  5
1EA
330
C3
100
AcDbEntity
  8
3_ALL_SYMBOLS
  6
Continuous
 62
     2
100
AcDbLine
 10
376.0405554199
 20
74.77533691409999
 30
0.0
 11
376.4155407715
 21
74.77533691409999
 31
0.0
  0
LWPOLYLINE
  5
1EB
330
C3
100
AcDbEntity
  8
3_ALL_SYMBOLS
  6
Continuous
 62
     2
100
AcDbPolyline
 90
       22
 70
     0
 43
0.0
 10
378.9155456542999
 20
74.4003323364
 10
378.7905505371
 20
74.5878314209
 10
378.6030322266
 20
74.7128329468
 10
378.3530419922
 20
74.77533691409999
 10
378.0405541991999
 20
74.77533691409999
 10
377.7280407715
 20
74.7128329468
 10
377.6030456542999
 20
74.5878314209
 10
377.5405480957
 20
74.4003323364
 10
377.5405480957
 20
74.212833252
 10
377.7280407715
 20
74.0253341675
 10
377.9155334473001
 20
73.9628366089
 10
378.4780371094
 20
73.837835083
 10
378.7905505371
 20
73.7128335571
 10
378.9155456542999
 20
73.52533447270001
 10
378.9155456542999
 20
73.2753314209
 10
378.8530480957
 20
73.1503363037
 10
378.7280529784999
 20
73.02533477779999
 10
378.4155395508
 20
72.9628372192
 10
378.1030517577999
 20
72.9628372192
 10
377.7905383301
 20
73.02533477779999
 10
377.6030456542999
 20
73.1503363037
 10
377.4780505370999
 20
73.33783538819999
  0
LWPOLYLINE
  5
203
330
C3
100
AcDbEntity
  8
3_ALL_SYMBOLS
  6
Continuous
 62
     2
100
AcDbPolyline
 90
       11
 70
     0
 43
0.0
 10
381.6030432129
 20
74.77533691409999
 10
381.6030432129
 20
73.02533477779999
 10
382.6030554198999
 20
73.02533477779999
 10
382.7905480956999
 20
73.08783233639998
 10
382.9155432128999
 20
73.2128338623
 10
382.9780407714999
 20
73.40033294680001
 10
382.9780407714999
 20
73.52533447270001
 10
382.9155432128999
 20
73.7128335571
 10
382.7905480956999
 20
73.837835083
 10
382.6030554198999
 20
73.9003326416
 10
381.6030432129
 20
73.9003326416
  0
LWPOLYLINE
  5
210
330
C3
100
AcDbEntity
  8
3_ALL_SYMBOLS
  6
Continuous
 62
     2
100
AcDbPolyline
 90
        9
 70
     0
 43
0.0
 10
381.6030432129
 20
74.77533691409999
 10
382.6030554198999
 20
74.77533691409999
 10
382.7905480956999
 20
74.7128329468
 10
382.9155432128999
 20
74.5878314209
 10
382.9780407714999
 20
74.4003323364
 10
382.9780407714999
 20
74.27533721919998
 10
382.9155432128999
 20
74.08783172609999
 10
382.7905480956999
 20
73.9628366089
 10
382.6030554198999
 20
73.9003326416
  0
LWPOLYLINE
  5
21B
330
C3
100
AcDbEntity
  8
3_ALL_SYMBOLS
  6
Continuous
 62
     2
100
AcDbPolyline
 90
       25
 70
     0
 43
0.0
 10
386.2905395508
 20
74.77533691409999
 10
386.103046875
 20
74.77533691409999
 10
385.9155541991999
 20
74.7128329468
 10
385.7905334473
 20
74.65033538819999
 10
385.6655383301001
 20
74.5253338623
 10
385.5405432128999
 20
74.3378347778
 10
385.4780456543
 20
74.0253341675
 10
385.4780456543
 20
73.7128335571
 10
385.5405432128999
 20
73.40033294680001
 10
385.6655383301001
 20
73.2128338623
 10
385.7905334473
 20
73.08783233639998
 10
385.9155541991999
 20
73.02533477779999
 10
386.103046875
 20
72.9628372192
 10
386.2905395508
 20
72.9628372192
 10
386.4780322266
 20
73.02533477779999
 10
386.6030529785
 20
73.08783233639998
 10
386.7280480956999
 20
73.2128338623
 10
386.8530432128999
 20
73.40033294680001
 10
386.9155407715
 20
73.7128335571
 10
386.9155407715
 20
74.0253341675
 10
386.8530432128999
 20
74.3378347778
 10
386.7280480956999
 20
74.5253338623
 10
386.6030529785
 20
74.65033538819999
 10
386.4780322266
 20
74.7128329468
 10
386.2905395508
 20
74.77533691409999
  0
LWPOLYLINE
  5
236
330
C3
100
AcDbEntity
  8
3_ALL_SYMBOLS
  6
Continuous
 62
     2
100
AcDbPolyline
 90
        4
 70
     0
 43
0.0
 10
388.6030517577999
 20
72.9628372192
 10
388.6030517577999
 20
74.77533691409999
 10
387.415546875
 20
73.40033294680001
 10
388.9155395508
 20
73.40033294680001
  0
LWPOLYLINE
  5
23C
330
C3
100
AcDbEntity
  8
3_ALL_SYMBOLS
  6
Continuous
 62
     2
100
AcDbPolyline
 90
       25
 70
     0
 43
0.0
 10
390.2905371094
 20
74.77533691409999
 10
390.1030444336
 20
74.77533691409999
 10
389.9155517577999
 20
74.7128329468
 10
389.7905310058999
 20
74.65033538819999
 10
389.6655358887
 20
74.5253338623
 10
389.5405407715
 20
74.3378347778
 10
389.4780432129
 20
74.0253341675
 10
389.4780432129
 20
73.7128335571
 10
389.5405407715
 20
73.40033294680001
 10
389.6655358887
 20
73.2128338623
 10
389.7905310058999
 20
73.08783233639998
 10
389.9155517577999
 20
73.02533477779999
 10
390.1030444336
 20
72.9628372192
 10
390.2905371094
 20
72.9628372192
 10
390.4780554199
 20
73.02533477779999
 10
390.6030505370999
 20
73.08783233639998
 10
390.7280456542999
 20
73.2128338623
 10
390.8530407714999
 20
73.40033294680001
 10
390.9155383301
 20
73.7128335571
 10
390.9155383301
 20
74.0253341675
 10
390.8530407714999
 20
74.3378347778
 10
390.7280456542999
 20
74.5253338623
 10
390.6030505370999
 20
74.65033538819999
 10
390.4780554199
 20
74.7128329468
 10
390.2905371094
 20
74.77533691409999
  0
LINE
  5
257
330
C3
100
AcDbEntity
  8
3_ALL_SYMBOLS
  6
Continuous
 62
     2
100
AcDbLine
 10
391.4780419922
 20
74.77533691409999
 30
0.0
 11
392.9155371094
 21
74.77533691409999
 31
0.0
  0
LWPOLYLINE
  5
258
330
C3
100
AcDbEntity
  8
3_ALL_SYMBOLS
  6
Continuous
 62
     2
100
AcDbPolyline
 90
       19
 70
     0
 43
0.0
 10
391.4780419922
 20
74.77533691409999
 10
391.4780419922
 20
73.9003326416
 10
391.665534668
 20
74.0253341675
 10
391.7905554198999
 20
74.08783172609999
 10
392.0405456542999
 20
74.1503356934
 10
392.2905358887001
 20
74.1503356934
 10
392.5405517577999
 20
74.08783172609999
 10
392.7280444336
 20
73.9628366089
 10
392.8530395508
 20
73.837835083
 10
392.9155371094
 20
73.7128335571
 10
392.9155371094
 20
73.4628369141
 10
392.8530395508
 20
73.2753314209
 10
392.7280444336
 20
73.1503363037
 10
392.5405517577999
 20
73.02533477779999
 10
392.2905358887001
 20
72.9628372192
 10
392.0405456542999
 20
72.9628372192
 10
391.8530529785
 20
73.02533477779999
 10
391.6030371094
 20
73.1503363037
 10
391.4780419922
 20
73.2753314209
  0
LWPOLYLINE
  5
26D
330
C3
100
AcDbEntity
  8
3_ALL_SYMBOLS
  6
Continuous
 62
     2
100
AcDbPolyline
 90
        3
 70
     0
 43
0.0
 10
395.4780395508
 20
74.77533691409999
 10
396.1655383301001
 20
72.9628372192
 10
396.915534668
 20
74.77533691409999
  0
LINE
  5
272
330
C3
100
AcDbEntity
  8
3_ALL_SYMBOLS
  6
Continuous
 62
     2
100
AcDbLine
 10
397.6655310058998
 20
74.77533691409999
 30
0.0
 11
397.4780383301001
 21
74.4003323364
 31
0.0
  0
LINE
  5
273
330
C3
100
AcDbEntity
  8
3_ALL_SYMBOLS
  6
Continuous
 62
     2
100
AcDbLine
 10
397.3530432128999
 20
74.5253338623
 30
0.0
 11
397.6030334473001
 21
74.1503356934
 31
0.0
  0
LINE
  5
274
330
C3
100
AcDbEntity
  8
3_ALL_SYMBOLS
  6
Continuous
 62
     2
100
AcDbLine
 10
397.915546875
 20
74.5878314209
 30
0.0
 11
397.4155407715
 21
73.837835083
 31
0.0
  0
LINE
  5
275
330
C3
100
AcDbEntity
  8
3_ALL_SYMBOLS
  6
Continuous
 62
     2
100
AcDbLine
 10
397.2905456543
 20
73.837835083
 30
0.0
 11
397.8530493164
 21
73.9003326416
 31
0.0
  0
LINE
  5
276
330
C3
100
AcDbEntity
  8
3_ALL_SYMBOLS
  6
Continuous
 62
     2
100
AcDbLine
 10
397.8530493164
 20
74.08783172609999
 30
0.0
 11
397.9780444336
 21
73.7753311157
 31
0.0
  0
LINE
  5
277
330
C3
100
AcDbEntity
  8
3_ALL_SYMBOLS
  6
Continuous
 62
     2
100
AcDbLine
 10
397.8530493164
 20
73.9003326416
 30
0.0
 11
397.915546875
 21
73.9003326416
 31
0.0
  0
LINE
  5
278
330
C3
100
AcDbEntity
  8
3_ALL_SYMBOLS
  6
Continuous
 62
     2
100
AcDbLine
 10
397.6655310058998
 20
73.837835083
 30
0.0
 11
397.6655310058998
 21
72.9628372192
 31
0.0
  0
LINE
  5
279
330
C3
100
AcDbEntity
  8
3_ALL_SYMBOLS
  6
Continuous
 62
     2
100
AcDbLine
 10
397.2905456543
 20
73.02533477779999
 30
0.0
 11
397.4780383301001
 21
73.6503359985
 31
0.0
  0
LINE
  5
27A
330
C3
100
AcDbEntity
  8
3_ALL_SYMBOLS
  6
Continuous
 62
     2
100
AcDbLine
 10
397.8530493164
 20
73.7128335571
 30
0.0
 11
397.915546875
 21
73.40033294680001
 31
0.0
  0
LWPOLYLINE
  5
27B
330
C3
100
AcDbEntity
  8
3_ALL_SYMBOLS
  6
Continuous
 62
     2
100
AcDbPolyline
 90
        5
 70
     0
 43
0.0
 10
397.7905517577999
 20
73.02533477779999
 10
398.0405419922
 20
73.40033294680001
 10
398.2280346679999
 20
73.7753311157
 10
398.3530554198999
 20
74.27533721919998
 10
398.3530554198999
 20
74.7128329468
  0
LWPOLYLINE
  5
282
330
C3
100
AcDbEntity
  8
3_ALL_SYMBOLS
  6
Continuous
 62
     2
100
AcDbPolyline
 90
        9
 70
     0
 43
0.0
 10
398.0405419922
 20
74.7128329468
 10
398.8530358887
 20
74.7128329468
 10
398.7280407715
 20
74.212833252
 10
398.9780310058999
 20
74.212833252
 10
399.0405541991999
 20
74.1503356934
 10
398.9780310058999
 20
73.837835083
 10
398.7280407715
 20
73.4628369141
 10
398.4155529784999
 20
73.1503363037
 10
398.1030395508
 20
72.9628372192
  0
LWPOLYLINE
  5
28D
330
C3
100
AcDbEntity
  8
3_ALL_SYMBOLS
  6
Continuous
 62
     2
100
AcDbPolyline
 90
        5
 70
     0
 43
0.0
 10
398.3530554198999
 20
74.27533721919998
 10
398.4780505370999
 20
73.837835083
 10
398.6655432128999
 20
73.40033294680001
 10
398.8530358887
 20
73.1503363037
 10
399.1030517577999
 20
72.9628372192
  0
LINE
  5
294
330
C3
100
AcDbEntity
  8
3_ALL_SYMBOLS
  6
Continuous
 62
     2
100
AcDbLine
 10
399.3530419922
 20
74.7128329468
 30
0.0
 11
399.6655554199
 21
74.4628363037
 31
0.0
  0
LINE
  5
295
330
C3
100
AcDbEntity
  8
3_ALL_SYMBOLS
  6
Continuous
 62
     2
100
AcDbLine
 10
399.2905444336
 20
74.3378347778
 30
0.0
 11
399.6030322266
 21
74.08783172609999
 31
0.0
  0
LWPOLYLINE
  5
296
330
C3
100
AcDbEntity
  8
3_ALL_SYMBOLS
  6
Continuous
 62
     2
100
AcDbPolyline
 90
        3
 70
     0
 43
0.0
 10
399.2905444336
 20
73.52533447270001
 10
399.6030322266
 20
73.7753311157
 10
399.7905505370999
 20
74.0253341675
  0
LWPOLYLINE
  5
29B
330
C3
100
AcDbEntity
  8
3_ALL_SYMBOLS
  6
Continuous
 62
     2
100
AcDbPolyline
 90
        3
 70
     0
 43
0.0
 10
399.6655554199
 20
74.27533721919998
 10
399.9780432129
 20
74.5253338623
 10
400.1030383301
 20
74.77533691409999
  0
LWPOLYLINE
  5
2A0
330
C3
100
AcDbEntity
  8
3_ALL_SYMBOLS
  6
Continuous
 62
     2
100
AcDbPolyline
 90
        3
 70
     0
 43
0.0
 10
399.9780432129
 20
74.5253338623
 10
399.9780432129
 20
73.58783203129998
 10
401.0405529785
 20
73.58783203129998
  0
LINE
  5
2A5
330
C3
100
AcDbEntity
  8
3_ALL_SYMBOLS
  6
Continuous
 62
     2
100
AcDbLine
 10
399.9780432129
 20
73.9003326416
 30
0.0
 11
400.9780554198997
 21
73.9003326416
 31
0.0
  0
LINE
  5
2A6
330
C3
100
AcDbEntity
  8
3_ALL_SYMBOLS
  6
Continuous
 62
     2
100
AcDbLine
 10
399.9780432129
 20
74.212833252
 30
0.0
 11
400.9780554198997
 21
74.212833252
 31
0.0
  0
LINE
  5
2A7
330
C3
100
AcDbEntity
  8
3_ALL_SYMBOLS
  6
Continuous
 62
     2
100
AcDbLine
 10
399.9780432129
 20
74.5253338623
 30
0.0
 11
401.0405529785
 21
74.5253338623
 31
0.0
  0
LINE
  5
2A8
330
C3
100
AcDbEntity
  8
3_ALL_SYMBOLS
  6
Continuous
 62
     2
100
AcDbLine
 10
400.4780493164
 20
74.5253338623
 30
0.0
 11
400.4780493164
 21
73.58783203129998
 31
0.0
  0
LINE
  5
2A9
330
C3
100
AcDbEntity
  8
3_ALL_SYMBOLS
  6
Continuous
 62
     2
100
AcDbLine
 10
400.4780493164
 20
74.5253338623
 30
0.0
 11
400.6030444335998
 21
74.77533691409999
 31
0.0
  0
LINE
  5
2AA
330
C3
100
AcDbEntity
  8
3_ALL_SYMBOLS
  6
Continuous
 62
     2
100
AcDbLine
 10
399.2905444336
 20
73.33783538819999
 30
0.0
 11
401.1030505371
 21
73.33783538819999
 31
0.0
  0
LINE
  5
2AB
330
C3
100
AcDbEntity
  8
3_ALL_SYMBOLS
  6
Continuous
 62
     2
100
AcDbLine
 10
400.1655358887
 20
73.58783203129998
 30
0.0
 11
400.1655358887
 21
72.9628372192
 31
0.0
  0
LWPOLYLINE
  5
2AC
330
C3
100
AcDbEntity
  8
3_ALL_SYMBOLS
  6
Continuous
 62
     2
100
AcDbPolyline
 90
        5
 70
     0
 43
0.0
 10
401.5405334473
 20
74.77533691409999
 10
401.5405334473
 20
73.02533477779999
 10
401.4780358887
 20
72.9628372192
 10
401.4155383301
 20
72.9628372192
 10
401.2905432129
 20
73.02533477779999
  0
LINE
  5
2B3
330
C3
100
AcDbEntity
  8
3_ALL_SYMBOLS
  6
Continuous
 62
     2
100
AcDbLine
 10
401.2905432129
 20
73.52533447270001
 30
0.0
 11
401.7280517577999
 21
73.837835083
 31
0.0
  0
LINE
  5
2B4
330
C3
100
AcDbEntity
  8
3_ALL_SYMBOLS
  6
Continuous
 62
     2
100
AcDbLine
 10
401.2905432129
 20
74.3378347778
 30
0.0
 11
401.7280517577999
 21
74.3378347778
 31
0.0
  0
LWPOLYLINE
  5
2B5
330
C3
100
AcDbEntity
  8
3_ALL_SYMBOLS
  6
Continuous
 62
     2
100
AcDbPolyline
 90
       10
 70
     0
 43
0.0
 10
401.7280517577999
 20
73.9628366089
 10
401.8530468749998
 20
74.212833252
 10
401.9155444336
 20
74.4628363037
 10
401.9155444336
 20
74.7128329468
 10
402.2280322265999
 20
74.7128329468
 10
402.2280322265999
 20
74.27533721919998
 10
402.165534668
 20
73.9003326416
 10
402.0405395507998
 20
73.52533447270001
 10
401.8530468749998
 20
73.1503363037
 10
401.7280517577999
 20
72.9628372192
  0
LWPOLYLINE
  5
2C1
330
C3
100
AcDbEntity
  8
3_ALL_SYMBOLS
  6
Continuous
 62
     2
100
AcDbPolyline
 90
        7
 70
     0
 43
0.0
 10
401.9155444336
 20
74.4628363037
 10
401.9155444336
 20
74.0253341675
 10
402.0405395507998
 20
73.52533447270001
 10
402.165534668
 20
73.2753314209
 10
402.3530529784999
 20
73.1503363037
 10
402.6655407715
 20
73.02533477779999
 10
403.1030493164
 20
72.9628372192
  0
LWPOLYLINE
  5
2CA
330
C3
100
AcDbEntity
  8
3_ALL_SYMBOLS
  6
Continuous
 62
     2
100
AcDbPolyline
 90
       11
 70
     0
 43
0.0
 10
402.2905554199
 20
73.40033294680001
 10
402.4155505370996
 20
73.6503359985
 10
402.4780480957
 20
73.9628366089
 10
402.4780480957
 20
74.7128329468
 10
402.7905358887
 20
74.7128329468
 10
402.7905358887
 20
73.58783203129998
 10
402.7905358887
 20
73.4628369141
 10
402.8530334473
 20
73.40033294680001
 10
403.0405517578
 20
73.40033294680001
 10
403.1030493164
 20
73.4628369141
 10
403.1030493164
 20
73.837835083
  0
LWPOLYLINE
  5
2D7
330
C3
100
AcDbEntity
  8
3_ALL_SYMBOLS
  6
Continuous
 62
     2
100
AcDbPolyline
 90
       10
 70
     0
 43
0.0
 10
403.9155432129
 20
74.77533691409999
 10
404.1030358887
 20
74.65033538819999
 10
404.2280310058997
 20
74.5253338623
 10
404.3530517577998
 20
74.3378347778
 10
404.4155493164
 20
74.0253341675
 10
404.4155493164
 20
73.7128335571
 10
404.3530517577998
 20
73.40033294680001
 10
404.2280310058997
 20
73.2128338623
 10
404.1030358887
 20
73.08783233639998
 10
403.9155432129
 20
72.9628372192
  0
LWPOLYLINE
  5
2E3
330
C3
100
AcDbEntity
  8
3_ALL_SYMBOLS
  6
Continuous
 62
     2
100
AcDbPolyline
 90
        5
 70
     0
 43
0.0
 10
379.3530541991999
 20
71.7128347778
 10
379.3530541991999
 20
70.33783721919999
 10
379.7280395508
 20
70.33783721919999
 10
379.7280395508
 20
71.7128347778
 10
379.3530541991999
 20
71.7128347778
  0
LWPOLYLINE
  5
2EA
330
C3
100
AcDbEntity
  8
3_ALL_SYMBOLS
  6
Continuous
 62
     2
100
AcDbPolyline
 90
        3
 70
     0
 43
0.0
 10
379.9780554198999
 20
71.7128347778
 10
380.5405334473001
 20
71.7128347778
 10
380.9780419922
 20
71.7753323364
  0
LWPOLYLINE
  5
2EF
330
C3
100
AcDbEntity
  8
3_ALL_SYMBOLS
  6
Continuous
 62
     2
100
AcDbPolyline
 90
        5
 70
     0
 43
0.0
 10
380.5405334473001
 20
71.7128347778
 10
380.5405334473001
 20
70.02533660890001
 10
380.4780358887001
 20
69.9628326416
 10
380.4155383301
 20
69.9628326416
 10
380.0405529784999
 20
70.15033172609999
  0
LINE
  5
2F6
330
C3
100
AcDbEntity
  8
3_ALL_SYMBOLS
  6
Continuous
 62
     2
100
AcDbLine
 10
379.9780554198999
 20
70.6503314209
 30
0.0
 11
381.1030371094
 21
70.6503314209
 31
0.0
  0
LINE
  5
2F7
330
C3
100
AcDbEntity
  8
3_ALL_SYMBOLS
  6
Continuous
 62
     2
100
AcDbLine
 10
380.0405529784999
 20
71.46283172609999
 30
0.0
 11
380.2280456543
 21
70.83783691409999
 31
0.0
  0
LINE
  5
2F8
330
C3
100
AcDbEntity
  8
3_ALL_SYMBOLS
  6
Continuous
 62
     2
100
AcDbLine
 10
380.7905493164
 20
70.83783691409999
 30
0.0
 11
381.0405395508
 21
71.46283172609999
 31
0.0
  0
LWPOLYLINE
  5
2F9
330
C3
100
AcDbEntity
  8
3_ALL_SYMBOLS
  6
Continuous
 62
     2
100
AcDbPolyline
 90
       21
 70
     0
 43
0.0
 10
381.2905554198999
 20
71.58783325199998
 10
382.1030493164
 20
71.7128347778
 10
381.7280383301
 20
71.3378366089
 10
381.6655407714999
 20
71.2753326416
 10
381.5405456543
 20
71.08783355709999
 10
381.4780480956999
 20
70.96283203129998
 10
381.4155505371
 20
70.71283538819999
 10
381.4155505371
 20
70.4628323364
 10
381.4780480956999
 20
70.275333252
 10
381.5405456543
 20
70.15033172609999
 10
381.6655407714999
 20
70.02533660890001
 10
381.8530334473
 20
69.9628326416
 10
382.1030493164
 20
69.9628326416
 10
382.2280444336
 20
70.02533660890001
 10
382.3530395508
 20
70.15033172609999
 10
382.478034668
 20
70.33783721919999
 10
382.5405322266
 20
70.5253363037
 10
382.6030554198999
 20
70.77533294680001
 10
382.6030554198999
 20
71.0253359985
 10
382.5405322266
 20
71.5253356934
 10
383.1030358887001
 20
70.83783691409999
  0
LINE
  5
310
330
C3
100
AcDbEntity
  8
3_ALL_SYMBOLS
  6
Continuous
 62
     2
100
AcDbLine
 10
382.9155432128999
 20
71.7753323364
 30
0.0
 11
383.1030358887001
 21
71.58783325199998
 31
0.0
  0
LINE
  5
311
330
C3
100
AcDbEntity
  8
3_ALL_SYMBOLS
  6
Continuous
 62
     2
100
AcDbLine
 10
382.7905480956999
 20
71.7128347778
 30
0.0
 11
382.9780407714999
 21
71.5253356934
 31
0.0
  0
LINE
  5
312
330
C3
100
AcDbEntity
  8
3_ALL_SYMBOLS
  6
Continuous
 62
     2
100
AcDbLine
 10
383.2905541991999
 20
71.3378366089
 30
0.0
 11
385.0405371094
 21
71.3378366089
 31
0.0
  0
LWPOLYLINE
  5
313
330
C3
100
AcDbEntity
  8
3_ALL_SYMBOLS
  6
Continuous
 62
     2
100
AcDbPolyline
 90
        4
 70
     0
 43
0.0
 10
384.6030541991999
 20
71.7128347778
 10
384.6030541991999
 20
70.0878341675
 10
384.4780334473
 20
69.9628326416
 10
383.9155554198999
 20
70.0878341675
  0
LINE
  5
319
330
C3
100
AcDbEntity
  8
3_ALL_SYMBOLS
  6
Continuous
 62
     2
100
AcDbLine
 10
383.7280371094
 20
71.0253359985
 30
0.0
 11
384.1030480957
 21
70.5253363037
 31
0.0
  0
LINE
  5
31A
330
C3
100
AcDbEntity
  8
3_ALL_SYMBOLS
  6
Continuous
 62
     2
100
AcDbLine
 10
385.4155480957
 20
71.7128347778
 30
0.0
 11
385.7280358887
 21
71.4003341675
 31
0.0
  0
LINE
  5
31B
330
C3
100
AcDbEntity
  8
3_ALL_SYMBOLS
  6
Continuous
 62
     2
100
AcDbLine
 10
385.2905529785
 20
71.2753326416
 30
0.0
 11
385.6030407715
 21
70.96283203129998
 31
0.0
  0
LWPOLYLINE
  5
31C
330
C3
100
AcDbEntity
  8
3_ALL_SYMBOLS
  6
Continuous
 62
     2
100
AcDbPolyline
 90
        3
 70
     0
 43
0.0
 10
385.2905529785
 20
70.02533660890001
 10
385.5405432128999
 20
70.33783721919999
 10
385.7280358887
 20
70.71283538819999
  0
LWPOLYLINE
  5
321
330
C3
100
AcDbEntity
  8
3_ALL_SYMBOLS
  6
Continuous
 62
     2
100
AcDbPolyline
 90
        3
 70
     0
 43
0.0
 10
385.9155541991999
 20
71.46283172609999
 10
386.9780383301001
 20
71.46283172609999
 10
387.0405358887
 20
71.46283172609999
  0
LINE
  5
326
330
C3
100
AcDbEntity
  8
3_ALL_SYMBOLS
  6
Continuous
 62
     2
100
AcDbLine
 10
386.4780322266
 20
71.7753323364
 30
0.0
 11
386.4780322266
 21
70.90033447270001
 31
0.0
  0
LINE
  5
327
330
C3
100
AcDbEntity
  8
3_ALL_SYMBOLS
  6
Continuous
 62
     2
100
AcDbLine
 10
385.8530310058998
 20
70.90033447270001
 30
0.0
 11
387.1030334473001
 21
70.90033447270001
 31
0.0
  0
LINE
  5
328
330
C3
100
AcDbEntity
  8
3_ALL_SYMBOLS
  6
Continuous
 62
     2
100
AcDbLine
 10
386.4780322266
 20
70.90033447270001
 30
0.0
 11
386.0405493164
 21
70.02533660890001
 31
0.0
  0
LINE
  5
329
330
C3
100
AcDbEntity
  8
3_ALL_SYMBOLS
  6
Continuous
 62
     2
100
AcDbLine
 10
385.8530310058998
 20
69.9628326416
 30
0.0
 11
386.9780383301001
 21
70.21283569339999
 31
0.0
  0
LINE
  5
32A
330
C3
100
AcDbEntity
  8
3_ALL_SYMBOLS
  6
Continuous
 62
     2
100
AcDbLine
 10
386.7280480956999
 20
70.5878338623
 30
0.0
 11
387.1030334473001
 21
69.9628326416
 31
0.0
  0
LINE
  5
32B
330
C3
100
AcDbEntity
  8
3_ALL_SYMBOLS
  6
Continuous
 62
     2
100
AcDbLine
 10
400.540546875
 20
71.212835083
 30
0.0
 11
400.2905310058999
 21
70.96283203129998
 31
0.0
  0
LINE
  5
32C
330
C3
100
AcDbEntity
  8
3_ALL_SYMBOLS
  6
Continuous
 62
     2
100
AcDbLine
 10
400.540546875
 20
71.212835083
 30
0.0
 11
400.7280395508
 21
71.58783325199998
 31
0.0
  0
LWPOLYLINE
  5
32D
330
C3
100
AcDbEntity
  8
3_ALL_SYMBOLS
  6
Continuous
 62
     2
100
AcDbPolyline
 90
        5
 70
     0
 43
0.0
 10
400.7905371094
 20
71.7753323364
 10
401.5405334473
 20
71.7753323364
 10
401.6030310058998
 20
71.7128347778
 10
401.8530468749998
 20
71.2753326416
 10
402.1030371094
 20
70.90033447270001
  0
LINE
  5
334
330
C3
100
AcDbEntity
  8
3_ALL_SYMBOLS
  6
Continuous
 62
     2
100
AcDbLine
 10
401.1030505371
 20
71.15033111569998
 30
0.0
 11
400.540546875
 21
70.0878341675
 31
0.0
  0
LINE
  5
335
330
C3
100
AcDbEntity
  8
3_ALL_SYMBOLS
  6
Continuous
 62
     2
100
AcDbLine
 10
400.2905310058999
 20
70.0878341675
 30
0.0
 11
401.8530468749998
 21
70.21283569339999
 31
0.0
  0
LINE
  5
336
330
C3
100
AcDbEntity
  8
3_ALL_SYMBOLS
  6
Continuous
 62
     2
100
AcDbLine
 10
401.4780358887
 20
70.83783691409999
 30
0.0
 11
402.1030371094
 21
69.9628326416
 31
0.0
  0
LINE
  5
337
330
C3
100
AcDbEntity
  8
3_ALL_SYMBOLS
  6
Continuous
 62
     2
100
AcDbLine
 10
402.4780480957
 20
71.15033111569998
 30
0.0
 11
403.9155432129
 21
71.15033111569998
 31
0.0
  0
LINE
  5
338
330
C3
100
AcDbEntity
  8
3_ALL_SYMBOLS
  6
Continuous
 62
     2
100
AcDbLine
 10
402.3530529784999
 20
70.83783691409999
 30
0.0
 11
404.0405383301
 21
70.83783691409999
 31
0.0
  0
LINE
  5
339
330
C3
100
AcDbEntity
  8
3_ALL_SYMBOLS
  6
Continuous
 62
     2
100
AcDbLine
 10
403.2280444336
 20
71.46283172609999
 30
0.0
 11
403.2280444336
 21
70.83783691409999
 31
0.0
  0
LINE
  5
33A
330
C3
100
AcDbEntity
  8
3_ALL_SYMBOLS
  6
Continuous
 62
     2
100
AcDbLine
 10
403.7280505371
 20
71.7753323364
 30
0.0
 11
403.5405322266
 21
71.46283172609999
 31
0.0
  0
LINE
  5
33B
330
C3
100
AcDbEntity
  8
3_ALL_SYMBOLS
  6
Continuous
 62
     2
100
AcDbLine
 10
402.9155310058999
 20
71.46283172609999
 30
0.0
 11
402.7280383301
 21
71.7753323364
 31
0.0
  0
LINE
  5
33C
330
C3
100
AcDbEntity
  8
3_ALL_SYMBOLS
  6
Continuous
 62
     2
100
AcDbLine
 10
402.4155505370996
 20
71.46283172609999
 30
0.0
 11
403.9780407714999
 21
71.46283172609999
 31
0.0
  0
LINE
  5
33D
330
C3
100
AcDbEntity
  8
3_ALL_SYMBOLS
  6
Continuous
 62
     2
100
AcDbLine
 10
402.9155310058999
 20
70.83783691409999
 30
0.0
 11
402.2905554199
 21
69.9628326416
 31
0.0
  0
LINE
  5
33E
330
C3
100
AcDbEntity
  8
3_ALL_SYMBOLS
  6
Continuous
 62
     2
100
AcDbLine
 10
402.9780541991999
 20
70.5878338623
 30
0.0
 11
403.9780407714999
 21
70.5878338623
 31
0.0
  0
LINE
  5
33F
330
C3
100
AcDbEntity
  8
3_ALL_SYMBOLS
  6
Continuous
 62
     2
100
AcDbLine
 10
403.4780346679998
 20
70.5878338623
 30
0.0
 11
403.4780346679998
 21
70.02533660890001
 31
0.0
  0
LINE
  5
340
330
C3
100
AcDbEntity
  8
3_ALL_SYMBOLS
  6
Continuous
 62
     2
100
AcDbLine
 10
402.7280383301
 20
70.02533660890001
 30
0.0
 11
404.1030358887
 21
70.02533660890001
 31
0.0
  0
LWPOLYLINE
  5
341
330
C3
100
AcDbEntity
  8
3_ALL_SYMBOLS
  6
Continuous
 62
     2
100
AcDbPolyline
 90
       30
 70
     0
 43
0.0
 10
390.9155383301
 20
68.40033599849999
 10
390.7905432129
 20
68.587835083
 10
390.6030505370999
 20
68.7128366089
 10
390.353034668
 20
68.77533416750001
 10
390.1655419922
 20
68.77533416750001
 10
389.9155517577999
 20
68.7128366089
 10
389.7280334473001
 20
68.587835083
 10
389.6030383301
 20
68.40033599849999
 10
389.4780432129
 20
68.0253314209
 10
389.4780432129
 20
67.650333252
 10
389.5405407715
 20
67.4003366089
 10
389.6030383301
 20
67.275335083
 10
389.7280334473001
 20
67.1503335571
 10
389.9155517577999
 20
67.02533203129999
 10
390.1030444336
 20
66.96283447270001
 10
390.353034668
 20
66.96283447270001
 10
390.6030505370999
 20
67.02533203129999
 10
390.7280456542999
 20
67.0878359985
 10
390.8530407714999
 20
67.275335083
 10
390.9155383301
 20
67.4628341675
 10
390.9155383301
 20
67.650333252
 10
390.8530407714999
 20
67.8378323364
 10
390.7280456542999
 20
67.9628338623
 10
390.5405529784999
 20
68.08783538819999
 10
390.353034668
 20
68.1503329468
 10
390.1030444336
 20
68.1503329468
 10
389.9155517577999
 20
68.08783538819999
 10
389.7280334473001
 20
67.9628338623
 10
389.6030383301
 20
67.8378323364
 10
389.4780432129
 20
67.650333252
  0
LINE
  5
361
330
C3
100
AcDbEntity
  8
3_ALL_SYMBOLS
  6
Continuous
 62
     2
100
AcDbLine
 10
391.4780419922
 20
68.77533416750001
 30
0.0
 11
391.4780419922
 21
67.275335083
 31
0.0
  0
LINE
  5
362
330
C3
100
AcDbEntity
  8
3_ALL_SYMBOLS
  6
Continuous
 62
     2
100
AcDbLine
 10
391.2905493164
 20
67.0878359985
 30
0.0
 11
392.3530334473
 21
67.71283721919999
 31
0.0
  0
LINE
  5
363
330
C3
100
AcDbEntity
  8
3_ALL_SYMBOLS
  6
Continuous
 62
     2
100
AcDbLine
 10
391.4780419922
 20
67.275335083
 30
0.0
 11
391.4780419922
 21
67.2128311157
 31
0.0
  0
LINE
  5
364
330
C3
100
AcDbEntity
  8
3_ALL_SYMBOLS
  6
Continuous
 62
     2
100
AcDbLine
 10
391.7905554198999
 20
68.7128366089
 30
0.0
 11
392.3530334473
 21
68.0253314209
 31
0.0
  0
LWPOLYLINE
  5
365
330
C3
100
AcDbEntity
  8
3_ALL_SYMBOLS
  6
Continuous
 62
     2
100
AcDbPolyline
 90
        7
 70
     0
 43
0.0
 10
391.665534668
 20
66.96283447270001
 10
392.1030432129
 20
67.0878359985
 10
392.4155310058999
 20
67.2128311157
 10
392.6030493164
 20
67.4003366089
 10
392.7280444336
 20
67.650333252
 10
392.8530395508
 20
68.08783538819999
 10
392.8530395508
 20
68.77533416750001
  0
LINE
  5
36E
330
C3
100
AcDbEntity
  8
3_ALL_SYMBOLS
  6
Continuous
 62
     2
100
AcDbLine
 10
392.7280444336
 20
67.650333252
 30
0.0
 11
393.1030554198999
 21
66.96283447270001
 31
0.0
  0
LINE
  5
36F
330
C3
100
AcDbEntity
  8
3_ALL_SYMBOLS
  6
Continuous
 62
     2
100
AcDbLine
 10
393.2905480956999
 20
68.587835083
 30
0.0
 11
395.0405310058998
 21
68.587835083
 31
0.0
  0
LINE
  5
370
330
C3
100
AcDbEntity
  8
3_ALL_SYMBOLS
  6
Continuous
 62
     2
100
AcDbLine
 10
394.1030419922
 20
68.587835083
 30
0.0
 11
394.1030419922
 21
66.96283447270001
 31
0.0
  0
LINE
  5
371
330
C3
100
AcDbEntity
  8
3_ALL_SYMBOLS
  6
Continuous
 62
     2
100
AcDbLine
 10
394.1030419922
 20
68.27533447270001
 30
0.0
 11
394.9155358887001
 21
67.650333252
 31
0.0
  0
LINE
  5
372
330
C3
100
AcDbEntity
  8
3_ALL_SYMBOLS
  6
Continuous
 62
     2
100
AcDbLine
 10
397.5405358887
 20
67.9003363037
 30
0.0
 11
398.7905383301001
 21
67.9003363037
 31
0.0
  0
LINE
  5
373
330
C3
100
AcDbEntity
  8
3_ALL_SYMBOLS
  6
Continuous
 62
     2
100
AcDbLine
 10
398.1655371094
 20
68.46283355709998
 30
0.0
 11
398.1655371094
 21
67.3378326416
 31
0.0
  0
LINE
  5
374
330
C3
100
AcDbEntity
  8
3_ALL_SYMBOLS
  6
Continuous
 62
     2
100
AcDbLine
 10
397.5405358887
 20
67.2128311157
 30
0.0
 11
398.7905383301001
 21
67.2128311157
 31
0.0
  0
LWPOLYLINE
  5
375
330
C3
100
AcDbEntity
  8
3_ALL_SYMBOLS
  6
Continuous
 62
     2
100
AcDbPolyline
 90
       25
 70
     0
 43
0.0
 10
400.2905310058999
 20
68.77533416750001
 10
400.1030383301
 20
68.77533416750001
 10
399.9155456542999
 20
68.7128366089
 10
399.7905505370999
 20
68.6503326416
 10
399.6655554199
 20
68.5253311157
 10
399.540534668
 20
68.3378320313
 10
399.4780371094
 20
68.0253314209
 10
399.4780371094
 20
67.71283721919999
 10
399.540534668
 20
67.4003366089
 10
399.6655554199
 20
67.2128311157
 10
399.7905505370999
 20
67.0878359985
 10
399.9155456542999
 20
67.02533203129999
 10
400.1030383301
 20
66.96283447270001
 10
400.2905310058999
 20
66.96283447270001
 10
400.4780493164
 20
67.02533203129999
 10
400.6030444335998
 20
67.0878359985
 10
400.7280395508
 20
67.2128311157
 10
400.853034668
 20
67.4003366089
 10
400.9155322266
 20
67.71283721919999
 10
400.9155322266
 20
68.0253314209
 10
400.853034668
 20
68.3378320313
 10
400.7280395508
 20
68.5253311157
 10
400.6030444335998
 20
68.6503326416
 10
400.4780493164
 20
68.7128366089
 10
400.2905310058999
 20
68.77533416750001
  0
LINE
  5
390
330
C3
100
AcDbEntity
  8
3_ALL_SYMBOLS
  6
Continuous
 62
     2
100
AcDbLine
 10
401.4155383301
 20
67.1503335571
 30
0.0
 11
401.5405334473
 21
67.1503335571
 31
0.0
  0
LWPOLYLINE
  5
391
330
C3
100
AcDbEntity
  8
3_ALL_SYMBOLS
  6
Continuous
 62
     2
100
AcDbPolyline
 90
        6
 70
     0
 43
0.0
 10
401.4780358887
 20
67.2128311157
 10
401.4780358887
 20
67.0878359985
 10
401.4155383301
 20
67.1503335571
 10
401.4780358887
 20
67.2128311157
 10
401.5405334473
 20
67.1503335571
 10
401.4780358887
 20
67.0878359985
  0
LINE
  5
399
330
C3
100
AcDbEntity
  8
3_ALL_SYMBOLS
  6
Continuous
 62
     2
100
AcDbLine
 10
403.4780346679998
 20
68.77533416750001
 30
0.0
 11
404.9155554199
 21
68.77533416750001
 31
0.0
  0
LWPOLYLINE
  5
39A
330
C3
100
AcDbEntity
  8
3_ALL_SYMBOLS
  6
Continuous
 62
     2
100
AcDbPolyline
 90
       19
 70
     0
 43
0.0
 10
403.4780346679998
 20
68.77533416750001
 10
403.4780346679998
 20
67.9003363037
 10
403.6655529784999
 20
68.0253314209
 10
403.7905480956998
 20
68.08783538819999
 10
404.0405383301
 20
68.1503329468
 10
404.2905541991999
 20
68.1503329468
 10
404.5405444336
 20
68.08783538819999
 10
404.7280371094
 20
67.9628338623
 10
404.8530322266
 20
67.8378323364
 10
404.9155554199
 20
67.71283721919999
 10
404.9155554199
 20
67.4628341675
 10
404.8530322266
 20
67.275335083
 10
404.7280371094
 20
67.1503335571
 10
404.5405444336
 20
67.02533203129999
 10
404.2905541991999
 20
66.96283447270001
 10
404.0405383301
 20
66.96283447270001
 10
403.8530456542998
 20
67.02533203129999
 10
403.6030554198998
 20
67.1503335571
 10
403.4780346679998
 20
67.275335083
  0
LWPOLYLINE
  5
3AF
330
C3
100
AcDbEntity
  8
3_ALL_SYMBOLS
  6
Continuous
 62
     2
100
AcDbPolyline
 90
       30
 70
     0
 43
0.0
 10
376.915546875
 20
65.4003314209
 10
376.7905517577999
 20
65.58783691409999
 10
376.6030334473001
 20
65.7128320313
 10
376.3530432128999
 20
65.77533599849999
 10
376.1655505370999
 20
65.77533599849999
 10
375.915534668
 20
65.7128320313
 10
375.7280419922
 20
65.58783691409999
 10
375.603046875
 20
65.4003314209
 10
375.4780517577999
 20
65.02533325199998
 10
375.4780517577999
 20
64.650335083
 10
375.5405493164
 20
64.40033203129999
 10
375.603046875
 20
64.27533691409999
 10
375.7280419922
 20
64.15033538819999
 10
375.915534668
 20
64.0253338623
 10
376.1030529784999
 20
63.9628363037
 10
376.3530432128999
 20
63.9628363037
 10
376.6030334473001
 20
64.0253338623
 10
376.7280541991999
 20
64.0878314209
 10
376.8530493164
 20
64.27533691409999
 10
376.915546875
 20
64.4628359985
 10
376.915546875
 20
64.650335083
 10
376.8530493164
 20
64.8378341675
 10
376.7280541991999
 20
64.9628356934
 10
376.5405358887
 20
65.0878372192
 10
376.3530432128999
 20
65.1503347778
 10
376.1030529784999
 20
65.1503347778
 10
375.915534668
 20
65.0878372192
 10
375.7280419922
 20
64.9628356934
 10
375.603046875
 20
64.8378341675
 10
375.4780517577999
 20
64.650335083
  0
LINE
  5
3CF
330
C3
100
AcDbEntity
  8
3_ALL_SYMBOLS
  6
Continuous
 62
     2
100
AcDbLine
 10
377.4155529784999
 20
65.46283538819999
 30
0.0
 11
379.0405407714999
 21
65.46283538819999
 31
0.0
  0
LINE
  5
3D0
330
C3
100
AcDbEntity
  8
3_ALL_SYMBOLS
  6
Continuous
 62
     2
100
AcDbLine
 10
378.1655493164
 20
65.77533599849999
 30
0.0
 11
377.4780505370999
 21
64.58783111569999
 31
0.0
  0
LWPOLYLINE
  5
3D1
330
C3
100
AcDbEntity
  8
3_ALL_SYMBOLS
  6
Continuous
 62
     2
100
AcDbPolyline
 90
        7
 70
     0
 43
0.0
 10
377.6655432129
 20
64.90033172609999
 10
378.0405541991999
 20
65.0878372192
 10
378.228046875
 20
65.1503347778
 10
378.4155395508
 20
65.1503347778
 10
378.540534668
 20
65.0878372192
 10
378.6030322266
 20
64.90033172609999
 10
378.6030322266
 20
64.33783447270001
  0
LWPOLYLINE
  5
3DA
330
C3
100
AcDbEntity
  8
3_ALL_SYMBOLS
  6
Continuous
 62
     2
100
AcDbPolyline
 90
        9
 70
     0
 43
0.0
 10
379.1030383301
 20
64.90033172609999
 10
378.6030322266
 20
64.7753366089
 10
378.1655493164
 20
64.58783111569999
 10
377.9780310058999
 20
64.40033203129999
 10
377.9155334473001
 20
64.27533691409999
 10
377.9155334473001
 20
64.15033538819999
 10
378.1030517577999
 20
64.0253338623
 10
378.4780371094
 20
63.9628363037
 10
378.9780432129
 20
63.9628363037
  0
LWPOLYLINE
  5
3E5
330
C3
100
AcDbEntity
  8
3_ALL_SYMBOLS
  6
Continuous
 62
     2
100
AcDbPolyline
 90
        5
 70
     0
 43
0.0
 10
379.540546875
 20
65.58783691409999
 10
380.1030505371
 20
65.58783691409999
 10
380.4780358887001
 20
65.5253329468
 10
380.7280517577999
 20
65.4003314209
 10
380.3530407714999
 20
65.1503347778
  0
LWPOLYLINE
  5
3EC
330
C3
100
AcDbEntity
  8
3_ALL_SYMBOLS
  6
Continuous
 62
     2
100
AcDbPolyline
 90
        9
 70
     0
 43
0.0
 10
379.6655419922
 20
64.7753366089
 10
379.4155517577999
 20
64.52533355709999
 10
379.3530541991999
 20
64.40033203129999
 10
379.3530541991999
 20
64.21283294680001
 10
379.4780493164
 20
64.0878314209
 10
379.7905371094
 20
64.0253338623
 10
380.2280456543
 20
63.9628363037
 10
380.6030310058999
 20
63.9628363037
 10
381.0405395508
 20
64.0253338623
  0
LINE
  5
3F7
330
C3
100
AcDbEntity
  8
3_ALL_SYMBOLS
  6
Continuous
 62
     2
100
AcDbLine
 10
381.9155310058998
 20
65.7128320313
 30
0.0
 11
382.8530456542999
 21
65.58783691409999
 31
0.0
  0
LWPOLYLINE
  5
3F8
330
C3
100
AcDbEntity
  8
3_ALL_SYMBOLS
  6
Continuous
 62
     2
100
AcDbPolyline
 90
       12
 70
     0
 43
0.0
 10
381.6030432129
 20
65.2753363037
 10
382.7905480956999
 20
65.2753363037
 10
381.3530529784999
 20
64.0253338623
 10
382.0405517577999
 20
64.52533355709999
 10
382.2280444336
 20
64.58783111569999
 10
382.3530395508
 20
64.58783111569999
 10
382.4155371094
 20
64.52533355709999
 10
382.4155371094
 20
64.40033203129999
 10
382.4155371094
 20
64.15033538819999
 10
382.478034668
 20
64.0253338623
 10
382.6655529785
 20
63.9628363037
 10
383.1030358887001
 20
63.9628363037
  0
LWPOLYLINE
  5
406
330
C3
100
AcDbEntity
  8
3_ALL_SYMBOLS
  6
Continuous
 62
     2
100
AcDbPolyline
 90
       15
 70
     0
 43
0.0
 10
387.4780444336
 20
65.4003314209
 10
387.5405419922
 20
65.5253329468
 10
387.6655371094
 20
65.65033447270001
 10
387.7905322266
 20
65.7128320313
 10
388.0405480957
 20
65.77533599849999
 10
388.3530358887
 20
65.77533599849999
 10
388.6030517577999
 20
65.7128320313
 10
388.728046875
 20
65.65033447270001
 10
388.8530419922
 20
65.5253329468
 10
388.9155395508
 20
65.4003314209
 10
388.9155395508
 20
65.2128323364
 10
388.8530419922
 20
65.0878372192
 10
388.728046875
 20
64.9628356934
 10
388.4780310058999
 20
64.90033172609999
 10
387.8530554199
 20
64.90033172609999
  0
LWPOLYLINE
  5
417
330
C3
100
AcDbEntity
  8
3_ALL_SYMBOLS
  6
Continuous
 62
     2
100
AcDbPolyline
 90
       13
 70
     0
 43
0.0
 10
388.4780310058999
 20
64.90033172609999
 10
388.728046875
 20
64.7753366089
 10
388.8530419922
 20
64.650335083
 10
388.9155395508
 20
64.52533355709999
 10
388.9155395508
 20
64.33783447270001
 10
388.8530419922
 20
64.21283294680001
 10
388.728046875
 20
64.0878314209
 10
388.6030517577999
 20
64.0253338623
 10
388.3530358887
 20
63.9628363037
 10
388.0405480957
 20
63.9628363037
 10
387.7905322266
 20
64.0253338623
 10
387.6030395508
 20
64.15033538819999
 10
387.4780444336
 20
64.27533691409999
  0
LWPOLYLINE
  5
426
330
C3
100
AcDbEntity
  8
3_ALL_SYMBOLS
  6
Continuous
 62
     2
100
AcDbPolyline
 90
       25
 70
     0
 43
0.0
 10
390.2905371094
 20
65.77533599849999
 10
390.1030444336
 20
65.77533599849999
 10
389.9155517577999
 20
65.7128320313
 10
389.7905310058999
 20
65.65033447270001
 10
389.6655358887
 20
65.5253329468
 10
389.5405407715
 20
65.3378338623
 10
389.4780432129
 20
65.02533325199998
 10
389.4780432129
 20
64.7128326416
 10
389.5405407715
 20
64.40033203129999
 10
389.6655358887
 20
64.21283294680001
 10
389.7905310058999
 20
64.0878314209
 10
389.9155517577999
 20
64.0253338623
 10
390.1030444336
 20
63.9628363037
 10
390.2905371094
 20
63.9628363037
 10
390.4780554199
 20
64.0253338623
 10
390.6030505370999
 20
64.0878314209
 10
390.7280456542999
 20
64.21283294680001
 10
390.8530407714999
 20
64.40033203129999
 10
390.9155383301
 20
64.7128326416
 10
390.9155383301
 20
65.02533325199998
 10
390.8530407714999
 20
65.3378338623
 10
390.7280456542999
 20
65.5253329468
 10
390.6030505370999
 20
65.65033447270001
 10
390.4780554199
 20
65.7128320313
 10
390.2905371094
 20
65.77533599849999
  0
LINE
  5
441
330
C3
100
AcDbEntity
  8
3_ALL_SYMBOLS
  6
Continuous
 62
     2
100
AcDbLine
 10
391.4780419922
 20
65.77533599849999
 30
0.0
 11
391.4780419922
 21
64.27533691409999
 31
0.0
  0
LINE
  5
442
330
C3
100
AcDbEntity
  8
3_ALL_SYMBOLS
  6
Continuous
 62
     2
100
AcDbLine
 10
391.2905493164
 20
64.0878314209
 30
0.0
 11
392.3530334473
 21
64.7128326416
 31
0.0
  0
LINE
  5
443
330
C3
100
AcDbEntity
  8
3_ALL_SYMBOLS
  6
Continuous
 62
     2
100
AcDbLine
 10
391.4780419922
 20
64.27533691409999
 30
0.0
 11
391.4780419922
 21
64.21283294680001
 31
0.0
  0
LINE
  5
444
330
C3
100
AcDbEntity
  8
3_ALL_SYMBOLS
  6
Continuous
 62
     2
100
AcDbLine
 10
391.7905554198999
 20
65.7128320313
 30
0.0
 11
392.3530334473
 21
65.02533325199998
 31
0.0
  0
LWPOLYLINE
  5
445
330
C3
100
AcDbEntity
  8
3_ALL_SYMBOLS
  6
Continuous
 62
     2
100
AcDbPolyline
 90
        7
 70
     0
 43
0.0
 10
391.665534668
 20
63.9628363037
 10
392.1030432129
 20
64.0878314209
 10
392.4155310058999
 20
64.21283294680001
 10
392.6030493164
 20
64.40033203129999
 10
392.7280444336
 20
64.650335083
 10
392.8530395508
 20
65.0878372192
 10
392.8530395508
 20
65.77533599849999
  0
LINE
  5
44E
330
C3
100
AcDbEntity
  8
3_ALL_SYMBOLS
  6
Continuous
 62
     2
100
AcDbLine
 10
392.7280444336
 20
64.650335083
 30
0.0
 11
393.1030554198999
 21
63.9628363037
 31
0.0
  0
LINE
  5
44F
330
C3
100
AcDbEntity
  8
3_ALL_SYMBOLS
  6
Continuous
 62
     2
100
AcDbLine
 10
393.2905480956999
 20
65.58783691409999
 30
0.0
 11
395.0405310058998
 21
65.58783691409999
 31
0.0
  0
LINE
  5
450
330
C3
100
AcDbEntity
  8
3_ALL_SYMBOLS
  6
Continuous
 62
     2
100
AcDbLine
 10
394.1030419922
 20
65.58783691409999
 30
0.0
 11
394.1030419922
 21
63.9628363037
 31
0.0
  0
LINE
  5
451
330
C3
100
AcDbEntity
  8
3_ALL_SYMBOLS
  6
Continuous
 62
     2
100
AcDbLine
 10
394.1030419922
 20
65.2753363037
 30
0.0
 11
394.9155358887001
 21
64.650335083
 31
0.0
  0
LINE
  5
452
330
C3
100
AcDbEntity
  8
3_ALL_SYMBOLS
  6
Continuous
 62
     2
100
AcDbLine
 10
397.5405358887
 20
64.90033172609999
 30
0.0
 11
398.7905383301001
 21
64.90033172609999
 31
0.0
  0
LINE
  5
453
330
C3
100
AcDbEntity
  8
3_ALL_SYMBOLS
  6
Continuous
 62
     2
100
AcDbLine
 10
398.1655371094
 20
65.46283538819999
 30
0.0
 11
398.1655371094
 21
64.33783447270001
 31
0.0
  0
LINE
  5
454
330
C3
100
AcDbEntity
  8
3_ALL_SYMBOLS
  6
Continuous
 62
     2
100
AcDbLine
 10
397.5405358887
 20
64.21283294680001
 30
0.0
 11
398.7905383301001
 21
64.21283294680001
 31
0.0
  0
LWPOLYLINE
  5
455
330
C3
100
AcDbEntity
  8
3_ALL_SYMBOLS
  6
Continuous
 62
     2
100
AcDbPolyline
 90
        3
 70
     0
 43
0.0
 10
400.3530541991999
 20
63.9628363037
 10
400.3530541991999
 20
65.77533599849999
 10
399.8530480957
 20
65.2753363037
  0
LWPOLYLINE
  5
45A
330
C3
100
AcDbEntity
  8
3_ALL_SYMBOLS
  6
Continuous
 62
     2
100
AcDbPolyline
 90
       15
 70
     0
 43
0.0
 10
373.4780529785
 20
62.40033325199998
 10
373.5405505370999
 20
62.5253347778
 10
373.6655456543
 20
62.6503363037
 10
373.7905407715
 20
62.71283386229999
 10
374.0405310058998
 20
62.7753314209
 10
374.3530444336
 20
62.7753314209
 10
374.603034668
 20
62.71283386229999
 10
374.7280554198999
 20
62.6503363037
 10
374.8530505370999
 20
62.5253347778
 10
374.9155480957
 20
62.40033325199998
 10
374.9155480957
 20
62.2128341675
 10
374.8530505370999
 20
62.0878326416
 10
374.7280554198999
 20
61.9628311157
 10
374.4780395508
 20
61.90033355709999
 10
373.8530383301001
 20
61.90033355709999
  0
LWPOLYLINE
  5
46B
330
C3
100
AcDbEntity
  8
3_ALL_SYMBOLS
  6
Continuous
 62
     2
100
AcDbPolyline
 90
       13
 70
     0
 43
0.0
 10
374.4780395508
 20
61.90033355709999
 10
374.7280554198999
 20
61.7753320312
 10
374.8530505370999
 20
61.65033691409998
 10
374.9155480957
 20
61.5253353882
 10
374.9155480957
 20
61.3378363037
 10
374.8530505370999
 20
61.2128347778
 10
374.7280554198999
 20
61.087833252
 10
374.603034668
 20
61.0253356934
 10
374.3530444336
 20
60.9628317261
 10
374.0405310058998
 20
60.9628317261
 10
373.7905407715
 20
61.0253356934
 10
373.6030480956999
 20
61.1503372192
 10
373.4780529785
 20
61.27533233640001
  0
LWPOLYLINE
  5
47A
330
C3
100
AcDbEntity
  8
3_ALL_SYMBOLS
  6
Continuous
 62
     2
100
AcDbPolyline
 90
       25
 70
     0
 43
0.0
 10
376.2905456542999
 20
62.7753314209
 10
376.1030529784999
 20
62.7753314209
 10
375.915534668
 20
62.71283386229999
 10
375.7905395508
 20
62.6503363037
 10
375.6655444336
 20
62.5253347778
 10
375.5405493164
 20
62.3378356934
 10
375.4780517577999
 20
62.025335083
 10
375.4780517577999
 20
61.7128344727
 10
375.5405493164
 20
61.40033386229999
 10
375.6655444336
 20
61.2128347778
 10
375.7905395508
 20
61.087833252
 10
375.915534668
 20
61.0253356934
 10
376.1030529784999
 20
60.9628317261
 10
376.2905456542999
 20
60.9628317261
 10
376.4780383301001
 20
61.0253356934
 10
376.6030334473001
 20
61.087833252
 10
376.7280541991999
 20
61.2128347778
 10
376.8530493164
 20
61.40033386229999
 10
376.915546875
 20
61.7128344727
 10
376.915546875
 20
62.025335083
 10
376.8530493164
 20
62.3378356934
 10
376.7280541991999
 20
62.5253347778
 10
376.6030334473001
 20
62.6503363037
 10
376.4780383301001
 20
62.71283386229999
 10
376.2905456542999
 20
62.7753314209
  0
LINE
  5
495
330
C3
100
AcDbEntity
  8
3_ALL_SYMBOLS
  6
Continuous
 62
     2
100
AcDbLine
 10
377.4155529784999
 20
62.46283721920001
 30
0.0
 11
379.0405407714999
 21
62.46283721920001
 31
0.0
  0
LINE
  5
496
330
C3
100
AcDbEntity
  8
3_ALL_SYMBOLS
  6
Continuous
 62
     2
100
AcDbLine
 10
378.1655493164
 20
62.7753314209
 30
0.0
 11
377.4780505370999
 21
61.5878329468
 31
0.0
  0
LWPOLYLINE
  5
497
330
C3
100
AcDbEntity
  8
3_ALL_SYMBOLS
  6
Continuous
 62
     2
100
AcDbPolyline
 90
        7
 70
     0
 43
0.0
 10
377.6655432129
 20
61.90033355709999
 10
378.0405541991999
 20
62.0878326416
 10
378.228046875
 20
62.1503366089
 10
378.4155395508
 20
62.1503366089
 10
378.540534668
 20
62.0878326416
 10
378.6030322266
 20
61.90033355709999
 10
378.6030322266
 20
61.3378363037
  0
LWPOLYLINE
  5
4A0
330
C3
100
AcDbEntity
  8
3_ALL_SYMBOLS
  6
Continuous
 62
     2
100
AcDbPolyline
 90
        9
 70
     0
 43
0.0
 10
379.1030383301
 20
61.90033355709999
 10
378.6030322266
 20
61.7753320312
 10
378.1655493164
 20
61.5878329468
 10
377.9780310058999
 20
61.40033386229999
 10
377.9155334473001
 20
61.27533233640001
 10
377.9155334473001
 20
61.1503372192
 10
378.1030517577999
 20
61.0253356934
 10
378.4780371094
 20
60.9628317261
 10
378.9780432129
 20
60.9628317261
  0
LWPOLYLINE
  5
4AB
330
C3
100
AcDbEntity
  8
3_ALL_SYMBOLS
  6
Continuous
 62
     2
100
AcDbPolyline
 90
        5
 70
     0
 43
0.0
 10
379.540546875
 20
62.5878323364
 10
380.1030505371
 20
62.5878323364
 10
380.4780358887001
 20
62.5253347778
 10
380.7280517577999
 20
62.40033325199998
 10
380.3530407714999
 20
62.1503366089
  0
LWPOLYLINE
  5
4B2
330
C3
100
AcDbEntity
  8
3_ALL_SYMBOLS
  6
Continuous
 62
     2
100
AcDbPolyline
 90
        9
 70
     0
 43
0.0
 10
379.6655419922
 20
61.7753320312
 10
379.4155517577999
 20
61.5253353882
 10
379.3530541991999
 20
61.40033386229999
 10
379.3530541991999
 20
61.2128347778
 10
379.4780493164
 20
61.087833252
 10
379.7905371094
 20
61.0253356934
 10
380.2280456543
 20
60.9628317261
 10
380.6030310058999
 20
60.9628317261
 10
381.0405395508
 20
61.0253356934
  0
LINE
  5
4BD
330
C3
100
AcDbEntity
  8
3_ALL_SYMBOLS
  6
Continuous
 62
     2
100
AcDbLine
 10
381.9155310058998
 20
62.71283386229999
 30
0.0
 11
382.8530456542999
 21
62.5878323364
 31
0.0
  0
LWPOLYLINE
  5
4BE
330
C3
100
AcDbEntity
  8
3_ALL_SYMBOLS
  6
Continuous
 62
     2
100
AcDbPolyline
 90
       12
 70
     0
 43
0.0
 10
381.6030432129
 20
62.2753317261
 10
382.7905480956999
 20
62.2753317261
 10
381.3530529784999
 20
61.0253356934
 10
382.0405517577999
 20
61.5253353882
 10
382.2280444336
 20
61.5878329468
 10
382.3530395508
 20
61.5878329468
 10
382.4155371094
 20
61.5253353882
 10
382.4155371094
 20
61.40033386229999
 10
382.4155371094
 20
61.1503372192
 10
382.478034668
 20
61.0253356934
 10
382.6655529785
 20
60.9628317261
 10
383.1030358887001
 20
60.9628317261
  0
LWPOLYLINE
  5
4CC
330
C3
100
AcDbEntity
  8
3_ALL_SYMBOLS
  6
Continuous
 62
     2
100
AcDbPolyline
 90
        3
 70
     0
 43
0.0
 10
386.3530371094
 20
60.9628317261
 10
386.3530371094
 20
62.7753314209
 10
385.8530310058998
 20
62.2753317261
  0
LWPOLYLINE
  5
4D1
330
C3
100
AcDbEntity
  8
3_ALL_SYMBOLS
  6
Continuous
 62
     2
100
AcDbPolyline
 90
       19
 70
     0
 43
0.0
 10
387.4780444336
 20
62.3378356934
 10
387.5405419922
 20
62.46283721920001
 10
387.6655371094
 20
62.5878323364
 10
387.8530554199
 20
62.71283386229999
 10
388.1030456542999
 20
62.7753314209
 10
388.3530358887
 20
62.7753314209
 10
388.6030517577999
 20
62.71283386229999
 10
388.7905444336
 20
62.5878323364
 10
388.9155395508
 20
62.40033325199998
 10
388.9155395508
 20
62.2128341675
 10
388.8530419922
 20
62.0878326416
 10
388.728046875
 20
61.9628311157
 10
388.4155334473001
 20
61.8378359985
 10
388.1030456542999
 20
61.7128344727
 10
387.8530554199
 20
61.5253353882
 10
387.6655371094
 20
61.3378363037
 10
387.5405419922
 20
61.1503372192
 10
387.4780444336
 20
60.9628317261
 10
388.9155395508
 20
60.9628317261
  0
LWPOLYLINE
  5
4E6
330
C3
100
AcDbEntity
  8
3_ALL_SYMBOLS
  6
Continuous
 62
     2
100
AcDbPolyline
 90
       25
 70
     0
 43
0.0
 10
390.2905371094
 20
62.7753314209
 10
390.1030444336
 20
62.7753314209
 10
389.9155517577999
 20
62.71283386229999
 10
389.7905310058999
 20
62.6503363037
 10
389.6655358887
 20
62.5253347778
 10
389.5405407715
 20
62.3378356934
 10
389.4780432129
 20
62.025335083
 10
389.4780432129
 20
61.7128344727
 10
389.5405407715
 20
61.40033386229999
 10
389.6655358887
 20
61.2128347778
 10
389.7905310058999
 20
61.087833252
 10
389.9155517577999
 20
61.0253356934
 10
390.1030444336
 20
60.9628317261
 10
390.2905371094
 20
60.9628317261
 10
390.4780554199
 20
61.0253356934
 10
390.6030505370999
 20
61.087833252
 10
390.7280456542999
 20
61.2128347778
 10
390.8530407714999
 20
61.40033386229999
 10
390.9155383301
 20
61.7128344727
 10
390.9155383301
 20
62.025335083
 10
390.8530407714999
 20
62.3378356934
 10
390.7280456542999
 20
62.5253347778
 10
390.6030505370999
 20
62.6503363037
 10
390.4780554199
 20
62.71283386229999
 10
390.2905371094
 20
62.7753314209
  0
LINE
  5
501
330
C3
100
AcDbEntity
  8
3_ALL_SYMBOLS
  6
Continuous
 62
     2
100
AcDbLine
 10
391.4780419922
 20
62.7753314209
 30
0.0
 11
391.4780419922
 21
61.27533233640001
 31
0.0
  0
LINE
  5
502
330
C3
100
AcDbEntity
  8
3_ALL_SYMBOLS
  6
Continuous
 62
     2
100
AcDbLine
 10
391.2905493164
 20
61.087833252
 30
0.0
 11
392.3530334473
 21
61.7128344727
 31
0.0
  0
LINE
  5
503
330
C3
100
AcDbEntity
  8
3_ALL_SYMBOLS
  6
Continuous
 62
     2
100
AcDbLine
 10
391.4780419922
 20
61.27533233640001
 30
0.0
 11
391.4780419922
 21
61.2128347778
 31
0.0
  0
LINE
  5
504
330
C3
100
AcDbEntity
  8
3_ALL_SYMBOLS
  6
Continuous
 62
     2
100
AcDbLine
 10
391.7905554198999
 20
62.71283386229999
 30
0.0
 11
392.3530334473
 21
62.025335083
 31
0.0
  0
LWPOLYLINE
  5
505
330
C3
100
AcDbEntity
  8
3_ALL_SYMBOLS
  6
Continuous
 62
     2
100
AcDbPolyline
 90
        7
 70
     0
 43
0.0
 10
391.665534668
 20
60.9628317261
 10
392.1030432129
 20
61.087833252
 10
392.4155310058999
 20
61.2128347778
 10
392.6030493164
 20
61.40033386229999
 10
392.7280444336
 20
61.65033691409998
 10
392.8530395508
 20
62.0878326416
 10
392.8530395508
 20
62.7753314209
  0
LINE
  5
50E
330
C3
100
AcDbEntity
  8
3_ALL_SYMBOLS
  6
Continuous
 62
     2
100
AcDbLine
 10
392.7280444336
 20
61.65033691409998
 30
0.0
 11
393.1030554198999
 21
60.9628317261
 31
0.0
  0
LINE
  5
50F
330
C3
100
AcDbEntity
  8
3_ALL_SYMBOLS
  6
Continuous
 62
     2
100
AcDbLine
 10
393.2905480956999
 20
62.5878323364
 30
0.0
 11
395.0405310058998
 21
62.5878323364
 31
0.0
  0
LINE
  5
510
330
C3
100
AcDbEntity
  8
3_ALL_SYMBOLS
  6
Continuous
 62
     2
100
AcDbLine
 10
394.1030419922
 20
62.5878323364
 30
0.0
 11
394.1030419922
 21
60.9628317261
 31
0.0
  0
LINE
  5
511
330
C3
100
AcDbEntity
  8
3_ALL_SYMBOLS
  6
Continuous
 62
     2
100
AcDbLine
 10
394.1030419922
 20
62.2753317261
 30
0.0
 11
394.9155358887001
 21
61.65033691409998
 31
0.0
  0
LINE
  5
512
330
C3
100
AcDbEntity
  8
3_ALL_SYMBOLS
  6
Continuous
 62
     2
100
AcDbLine
 10
397.5405358887
 20
61.90033355709999
 30
0.0
 11
398.7905383301001
 21
61.90033355709999
 31
0.0
  0
LINE
  5
513
330
C3
100
AcDbEntity
  8
3_ALL_SYMBOLS
  6
Continuous
 62
     2
100
AcDbLine
 10
398.1655371094
 20
62.46283721920001
 30
0.0
 11
398.1655371094
 21
61.3378363037
 31
0.0
  0
LINE
  5
514
330
C3
100
AcDbEntity
  8
3_ALL_SYMBOLS
  6
Continuous
 62
     2
100
AcDbLine
 10
397.5405358887
 20
61.2128347778
 30
0.0
 11
398.7905383301001
 21
61.2128347778
 31
0.0
  0
LWPOLYLINE
  5
515
330
C3
100
AcDbEntity
  8
3_ALL_SYMBOLS
  6
Continuous
 62
     2
100
AcDbPolyline
 90
        3
 70
     0
 43
0.0
 10
400.3530541991999
 20
60.9628317261
 10
400.3530541991999
 20
62.7753314209
 10
399.8530480957
 20
62.2753317261
  0
LINE
  5
51A
330
C3
100
AcDbEntity
  8
3_ALL_SYMBOLS
  6
Continuous
 62
     2
100
AcDbLine
 10
401.4155383301
 20
61.1503372192
 30
0.0
 11
401.5405334473
 21
61.1503372192
 31
0.0
  0
LWPOLYLINE
  5
51B
330
C3
100
AcDbEntity
  8
3_ALL_SYMBOLS
  6
Continuous
 62
     2
100
AcDbPolyline
 90
        6
 70
     0
 43
0.0
 10
401.4780358887
 20
61.2128347778
 10
401.4780358887
 20
61.087833252
 10
401.4155383301
 20
61.1503372192
 10
401.4780358887
 20
61.2128347778
 10
401.5405334473
 20
61.1503372192
 10
401.4780358887
 20
61.087833252
  0
LINE
  5
523
330
C3
100
AcDbEntity
  8
3_ALL_SYMBOLS
  6
Continuous
 62
     2
100
AcDbLine
 10
403.4780346679998
 20
62.7753314209
 30
0.0
 11
404.9155554199
 21
62.7753314209
 31
0.0
  0
LWPOLYLINE
  5
524
330
C3
100
AcDbEntity
  8
3_ALL_SYMBOLS
  6
Continuous
 62
     2
100
AcDbPolyline
 90
       19
 70
     0
 43
0.0
 10
403.4780346679998
 20
62.7753314209
 10
403.4780346679998
 20
61.90033355709999
 10
403.6655529784999
 20
62.025335083
 10
403.7905480956998
 20
62.0878326416
 10
404.0405383301
 20
62.1503366089
 10
404.2905541991999
 20
62.1503366089
 10
404.5405444336
 20
62.0878326416
 10
404.7280371094
 20
61.9628311157
 10
404.8530322266
 20
61.8378359985
 10
404.9155554199
 20
61.7128344727
 10
404.9155554199
 20
61.4628314209
 10
404.8530322266
 20
61.27533233640001
 10
404.7280371094
 20
61.1503372192
 10
404.5405444336
 20
61.0253356934
 10
404.2905541991999
 20
60.9628317261
 10
404.0405383301
 20
60.9628317261
 10
403.8530456542998
 20
61.0253356934
 10
403.6030554198998
 20
61.1503372192
 10
403.4780346679998
 20
61.27533233640001
  0
LWPOLYLINE
  5
539
330
C3
100
AcDbEntity
  8
3_ALL_SYMBOLS
  6
Continuous
 62
     2
100
AcDbPolyline
 90
        3
 70
     0
 43
0.0
 10
372.3530456543
 20
57.96283355709999
 10
372.3530456543
 20
59.77533325199999
 10
371.8530395508
 20
59.2753335571
  0
LWPOLYLINE
  5
53E
330
C3
100
AcDbEntity
  8
3_ALL_SYMBOLS
  6
Continuous
 62
     2
100
AcDbPolyline
 90
       19
 70
     0
 43
0.0
 10
373.4780529785
 20
59.3378311157
 10
373.5405505370999
 20
59.46283264159998
 10
373.6655456543
 20
59.5878341675
 10
373.8530383301001
 20
59.7128356934
 10
374.1030541991999
 20
59.77533325199999
 10
374.3530444336
 20
59.77533325199999
 10
374.603034668
 20
59.7128356934
 10
374.7905529785
 20
59.5878341675
 10
374.9155480957
 20
59.400335083
 10
374.9155480957
 20
59.2128359985
 10
374.8530505370999
 20
59.0878344727
 10
374.7280554198999
 20
58.9628329468
 10
374.4155419922
 20
58.8378314209
 10
374.1030541991999
 20
58.7128363037
 10
373.8530383301001
 20
58.5253372192
 10
373.6655456543
 20
58.3378317261
 10
373.5405505370999
 20
58.1503326416
 10
373.4780529785
 20
57.96283355709999
 10
374.9155480957
 20
57.96283355709999
  0
LWPOLYLINE
  5
553
330
C3
100
AcDbEntity
  8
3_ALL_SYMBOLS
  6
Continuous
 62
     2
100
AcDbPolyline
 90
       25
 70
     0
 43
0.0
 10
376.2905456542999
 20
59.77533325199999
 10
376.1030529784999
 20
59.77533325199999
 10
375.915534668
 20
59.7128356934
 10
375.7905395508
 20
59.6503317261
 10
375.6655444336
 20
59.52533660890001
 10
375.5405493164
 20
59.3378311157
 10
375.4780517577999
 20
59.02533691409999
 10
375.4780517577999
 20
58.7128363037
 10
375.5405493164
 20
58.4003356934
 10
375.6655444336
 20
58.2128366089
 10
375.7905395508
 20
58.087835083
 10
375.915534668
 20
58.02533111569999
 10
376.1030529784999
 20
57.96283355709999
 10
376.2905456542999
 20
57.96283355709999
 10
376.4780383301001
 20
58.02533111569999
 10
376.6030334473001
 20
58.087835083
 10
376.7280541991999
 20
58.2128366089
 10
376.8530493164
 20
58.4003356934
 10
376.915546875
 20
58.7128363037
 10
376.915546875
 20
59.02533691409999
 10
376.8530493164
 20
59.3378311157
 10
376.7280541991999
 20
59.52533660890001
 10
376.6030334473001
 20
59.6503317261
 10
376.4780383301001
 20
59.7128356934
 10
376.2905456542999
 20
59.77533325199999
  0
LINE
  5
56E
330
C3
100
AcDbEntity
  8
3_ALL_SYMBOLS
  6
Continuous
 62
     2
100
AcDbLine
 10
377.4155529784999
 20
59.46283264159998
 30
0.0
 11
379.0405407714999
 21
59.46283264159998
 31
0.0
  0
LINE
  5
56F
330
C3
100
AcDbEntity
  8
3_ALL_SYMBOLS
  6
Continuous
 62
     2
100
AcDbLine
 10
378.1655493164
 20
59.77533325199999
 30
0.0
 11
377.4780505370999
 21
58.5878347778
 31
0.0
  0
LWPOLYLINE
  5
570
330
C3
100
AcDbEntity
  8
3_ALL_SYMBOLS
  6
Continuous
 62
     2
100
AcDbPolyline
 90
        7
 70
     0
 43
0.0
 10
377.6655432129
 20
58.9003353882
 10
378.0405541991999
 20
59.0878344727
 10
378.228046875
 20
59.1503320312
 10
378.4155395508
 20
59.1503320312
 10
378.540534668
 20
59.0878344727
 10
378.6030322266
 20
58.9003353882
 10
378.6030322266
 20
58.3378317261
  0
LWPOLYLINE
  5
579
330
C3
100
AcDbEntity
  8
3_ALL_SYMBOLS
  6
Continuous
 62
     2
100
AcDbPolyline
 90
        9
 70
     0
 43
0.0
 10
379.1030383301
 20
58.9003353882
 10
378.6030322266
 20
58.77533386229999
 10
378.1655493164
 20
58.5878347778
 10
377.9780310058999
 20
58.4003356934
 10
377.9155334473001
 20
58.2753341675
 10
377.9155334473001
 20
58.1503326416
 10
378.1030517577999
 20
58.02533111569999
 10
378.4780371094
 20
57.96283355709999
 10
378.9780432129
 20
57.96283355709999
  0
LWPOLYLINE
  5
584
330
C3
100
AcDbEntity
  8
3_ALL_SYMBOLS
  6
Continuous
 62
     2
100
AcDbPolyline
 90
        5
 70
     0
 43
0.0
 10
379.540546875
 20
59.5878341675
 10
380.1030505371
 20
59.5878341675
 10
380.4780358887001
 20
59.52533660890001
 10
380.7280517577999
 20
59.400335083
 10
380.3530407714999
 20
59.1503320312
  0
LWPOLYLINE
  5
58B
330
C3
100
AcDbEntity
  8
3_ALL_SYMBOLS
  6
Continuous
 62
     2
100
AcDbPolyline
 90
        9
 70
     0
 43
0.0
 10
379.6655419922
 20
58.77533386229999
 10
379.4155517577999
 20
58.5253372192
 10
379.3530541991999
 20
58.4003356934
 10
379.3530541991999
 20
58.2128366089
 10
379.4780493164
 20
58.087835083
 10
379.7905371094
 20
58.02533111569999
 10
380.2280456543
 20
57.96283355709999
 10
380.6030310058999
 20
57.96283355709999
 10
381.0405395508
 20
58.02533111569999
  0
LINE
  5
596
330
C3
100
AcDbEntity
  8
3_ALL_SYMBOLS
  6
Continuous
 62
     2
100
AcDbLine
 10
381.9155310058998
 20
59.7128356934
 30
0.0
 11
382.8530456542999
 21
59.5878341675
 31
0.0
  0
LWPOLYLINE
  5
597
330
C3
100
AcDbEntity
  8
3_ALL_SYMBOLS
  6
Continuous
 62
     2
100
AcDbPolyline
 90
       12
 70
     0
 43
0.0
 10
381.6030432129
 20
59.2753335571
 10
382.7905480956999
 20
59.2753335571
 10
381.3530529784999
 20
58.02533111569999
 10
382.0405517577999
 20
58.5253372192
 10
382.2280444336
 20
58.5878347778
 10
382.3530395508
 20
58.5878347778
 10
382.4155371094
 20
58.5253372192
 10
382.4155371094
 20
58.4003356934
 10
382.4155371094
 20
58.1503326416
 10
382.478034668
 20
58.02533111569999
 10
382.6655529785
 20
57.96283355709999
 10
383.1030358887001
 20
57.96283355709999
  0
LWPOLYLINE
  5
5A5
330
C3
100
AcDbEntity
  8
3_ALL_SYMBOLS
  6
Continuous
 62
     2
100
AcDbPolyline
 90
        4
 70
     0
 43
0.0
 10
386.6030529785
 20
57.96283355709999
 10
386.6030529785
 20
59.77533325199999
 10
385.4155480957
 20
58.4003356934
 10
386.9155407715
 20
58.4003356934
  0
LWPOLYLINE
  5
5AB
330
C3
100
AcDbEntity
  8
3_ALL_SYMBOLS
  6
Continuous
 62
     2
100
AcDbPolyline
 90
       25
 70
     0
 43
0.0
 10
388.2905383301001
 20
59.77533325199999
 10
388.1030456542999
 20
59.77533325199999
 10
387.9155529784999
 20
59.7128356934
 10
387.7905322266
 20
59.6503317261
 10
387.6655371094
 20
59.52533660890001
 10
387.5405419922
 20
59.3378311157
 10
387.4780444336
 20
59.02533691409999
 10
387.4780444336
 20
58.7128363037
 10
387.5405419922
 20
58.4003356934
 10
387.6655371094
 20
58.2128366089
 10
387.7905322266
 20
58.087835083
 10
387.9155529784999
 20
58.02533111569999
 10
388.1030456542999
 20
57.96283355709999
 10
388.2905383301001
 20
57.96283355709999
 10
388.4780310058999
 20
58.02533111569999
 10
388.6030517577999
 20
58.087835083
 10
388.728046875
 20
58.2128366089
 10
388.8530419922
 20
58.4003356934
 10
388.9155395508
 20
58.7128363037
 10
388.9155395508
 20
59.02533691409999
 10
388.8530419922
 20
59.3378311157
 10
388.728046875
 20
59.52533660890001
 10
388.6030517577999
 20
59.6503317261
 10
388.4780310058999
 20
59.7128356934
 10
388.2905383301001
 20
59.77533325199999
  0
LWPOLYLINE
  5
5C6
330
C3
100
AcDbEntity
  8
3_ALL_SYMBOLS
  6
Continuous
 62
     2
100
AcDbPolyline
 90
       25
 70
     0
 43
0.0
 10
390.2905371094
 20
59.77533325199999
 10
390.1030444336
 20
59.77533325199999
 10
389.9155517577999
 20
59.7128356934
 10
389.7905310058999
 20
59.6503317261
 10
389.6655358887
 20
59.52533660890001
 10
389.5405407715
 20
59.3378311157
 10
389.4780432129
 20
59.02533691409999
 10
389.4780432129
 20
58.7128363037
 10
389.5405407715
 20
58.4003356934
 10
389.6655358887
 20
58.2128366089
 10
389.7905310058999
 20
58.087835083
 10
389.9155517577999
 20
58.02533111569999
 10
390.1030444336
 20
57.96283355709999
 10
390.2905371094
 20
57.96283355709999
 10
390.4780554199
 20
58.02533111569999
 10
390.6030505370999
 20
58.087835083
 10
390.7280456542999
 20
58.2128366089
 10
390.8530407714999
 20
58.4003356934
 10
390.9155383301
 20
58.7128363037
 10
390.9155383301
 20
59.02533691409999
 10
390.8530407714999
 20
59.3378311157
 10
390.7280456542999
 20
59.52533660890001
 10
390.6030505370999
 20
59.6503317261
 10
390.4780554199
 20
59.7128356934
 10
390.2905371094
 20
59.77533325199999
  0
LINE
  5
5E1
330
C3
100
AcDbEntity
  8
3_ALL_SYMBOLS
  6
Continuous
 62
     2
100
AcDbLine
 10
391.4780419922
 20
59.77533325199999
 30
0.0
 11
391.4780419922
 21
58.2753341675
 31
0.0
  0
LINE
  5
5E2
330
C3
100
AcDbEntity
  8
3_ALL_SYMBOLS
  6
Continuous
 62
     2
100
AcDbLine
 10
391.2905493164
 20
58.087835083
 30
0.0
 11
392.3530334473
 21
58.7128363037
 31
0.0
  0
LINE
  5
5E3
330
C3
100
AcDbEntity
  8
3_ALL_SYMBOLS
  6
Continuous
 62
     2
100
AcDbLine
 10
391.4780419922
 20
58.2753341675
 30
0.0
 11
391.4780419922
 21
58.2128366089
 31
0.0
  0
LINE
  5
5E4
330
C3
100
AcDbEntity
  8
3_ALL_SYMBOLS
  6
Continuous
 62
     2
100
AcDbLine
 10
391.7905554198999
 20
59.7128356934
 30
0.0
 11
392.3530334473
 21
59.02533691409999
 31
0.0
  0
LWPOLYLINE
  5
5E5
330
C3
100
AcDbEntity
  8
3_ALL_SYMBOLS
  6
Continuous
 62
     2
100
AcDbPolyline
 90
        7
 70
     0
 43
0.0
 10
391.665534668
 20
57.96283355709999
 10
392.1030432129
 20
58.087835083
 10
392.4155310058999
 20
58.2128366089
 10
392.6030493164
 20
58.4003356934
 10
392.7280444336
 20
58.65033233640001
 10
392.8530395508
 20
59.0878344727
 10
392.8530395508
 20
59.77533325199999
  0
LINE
  5
5EE
330
C3
100
AcDbEntity
  8
3_ALL_SYMBOLS
  6
Continuous
 62
     2
100
AcDbLine
 10
392.7280444336
 20
58.65033233640001
 30
0.0
 11
393.1030554198999
 21
57.96283355709999
 31
0.0
  0
LINE
  5
5EF
330
C3
100
AcDbEntity
  8
3_ALL_SYMBOLS
  6
Continuous
 62
     2
100
AcDbLine
 10
393.2905480956999
 20
59.5878341675
 30
0.0
 11
395.0405310058998
 21
59.5878341675
 31
0.0
  0
LINE
  5
5F0
330
C3
100
AcDbEntity
  8
3_ALL_SYMBOLS
  6
Continuous
 62
     2
100
AcDbLine
 10
394.1030419922
 20
59.5878341675
 30
0.0
 11
394.1030419922
 21
57.96283355709999
 31
0.0
  0
LINE
  5
5F1
330
C3
100
AcDbEntity
  8
3_ALL_SYMBOLS
  6
Continuous
 62
     2
100
AcDbLine
 10
394.1030419922
 20
59.2753335571
 30
0.0
 11
394.9155358887001
 21
58.65033233640001
 31
0.0
  0
LINE
  5
5F2
330
C3
100
AcDbEntity
  8
3_ALL_SYMBOLS
  6
Continuous
 62
     2
100
AcDbLine
 10
397.5405358887
 20
58.9003353882
 30
0.0
 11
398.7905383301001
 21
58.9003353882
 31
0.0
  0
LINE
  5
5F3
330
C3
100
AcDbEntity
  8
3_ALL_SYMBOLS
  6
Continuous
 62
     2
100
AcDbLine
 10
398.1655371094
 20
59.46283264159998
 30
0.0
 11
398.1655371094
 21
58.3378317261
 31
0.0
  0
LINE
  5
5F4
330
C3
100
AcDbEntity
  8
3_ALL_SYMBOLS
  6
Continuous
 62
     2
100
AcDbLine
 10
397.5405358887
 20
58.2128366089
 30
0.0
 11
398.7905383301001
 21
58.2128366089
 31
0.0
  0
LWPOLYLINE
  5
5F5
330
C3
100
AcDbEntity
  8
3_ALL_SYMBOLS
  6
Continuous
 62
     2
100
AcDbPolyline
 90
       19
 70
     0
 43
0.0
 10
399.4780371094
 20
59.3378311157
 10
399.540534668
 20
59.46283264159998
 10
399.6655554199
 20
59.5878341675
 10
399.8530480957
 20
59.7128356934
 10
400.1030383301
 20
59.77533325199999
 10
400.3530541991999
 20
59.77533325199999
 10
400.6030444335998
 20
59.7128356934
 10
400.7905371094
 20
59.5878341675
 10
400.9155322266
 20
59.400335083
 10
400.9155322266
 20
59.2128359985
 10
400.853034668
 20
59.0878344727
 10
400.7280395508
 20
58.9628329468
 10
400.4155517577999
 20
58.8378314209
 10
400.1030383301
 20
58.7128363037
 10
399.8530480957
 20
58.5253372192
 10
399.6655554199
 20
58.3378317261
 10
399.540534668
 20
58.1503326416
 10
399.4780371094
 20
57.96283355709999
 10
400.9155322266
 20
57.96283355709999
  0
LINE
  5
60A
330
C3
100
AcDbEntity
  8
3_ALL_SYMBOLS
  6
Continuous
 62
     2
100
AcDbLine
 10
401.4155383301
 20
58.1503326416
 30
0.0
 11
401.5405334473
 21
58.1503326416
 31
0.0
  0
LWPOLYLINE
  5
60B
330
C3
100
AcDbEntity
  8
3_ALL_SYMBOLS
  6
Continuous
 62
     2
100
AcDbPolyline
 90
        6
 70
     0
 43
0.0
 10
401.4780358887
 20
58.2128366089
 10
401.4780358887
 20
58.087835083
 10
401.4155383301
 20
58.1503326416
 10
401.4780358887
 20
58.2128366089
 10
401.5405334473
 20
58.1503326416
 10
401.4780358887
 20
58.087835083
  0
LINE
  5
613
330
C3
100
AcDbEntity
  8
3_ALL_SYMBOLS
  6
Continuous
 62
     2
100
AcDbLine
 10
403.4780346679998
 20
59.77533325199999
 30
0.0
 11
404.9155554199
 21
59.77533325199999
 31
0.0
  0
LWPOLYLINE
  5
614
330
C3
100
AcDbEntity
  8
3_ALL_SYMBOLS
  6
Continuous
 62
     2
100
AcDbPolyline
 90
       19
 70
     0
 43
0.0
 10
403.4780346679998
 20
59.77533325199999
 10
403.4780346679998
 20
58.9003353882
 10
403.6655529784999
 20
59.02533691409999
 10
403.7905480956998
 20
59.0878344727
 10
404.0405383301
 20
59.1503320312
 10
404.2905541991999
 20
59.1503320312
 10
404.5405444336
 20
59.0878344727
 10
404.7280371094
 20
58.9628329468
 10
404.8530322266
 20
58.8378314209
 10
404.9155554199
 20
58.7128363037
 10
404.9155554199
 20
58.46283325199999
 10
404.8530322266
 20
58.2753341675
 10
404.7280371094
 20
58.1503326416
 10
404.5405444336
 20
58.02533111569999
 10
404.2905541991999
 20
57.96283355709999
 10
404.0405383301
 20
57.96283355709999
 10
403.8530456542998
 20
58.02533111569999
 10
403.6030554198998
 20
58.1503326416
 10
403.4780346679998
 20
58.2753341675
  0
LWPOLYLINE
  5
629
330
C3
100
AcDbEntity
  8
3_ALL_SYMBOLS
  6
Continuous
 62
     2
100
AcDbPolyline
 90
        4
 70
     0
 43
0.0
 10
372.6030358887001
 20
54.9628353882
 10
372.6030358887001
 20
56.775335083
 10
371.4155310058998
 20
55.4003311157
 10
372.9155493164
 20
55.4003311157
  0
LWPOLYLINE
  5
62F
330
C3
100
AcDbEntity
  8
3_ALL_SYMBOLS
  6
Continuous
 62
     2
100
AcDbPolyline
 90
       25
 70
     0
 43
0.0
 10
374.290546875
 20
56.775335083
 10
374.1030541991999
 20
56.775335083
 10
373.9155358887
 20
56.7128311157
 10
373.7905407715
 20
56.6503335571
 10
373.6655456543
 20
56.5253320312
 10
373.5405505370999
 20
56.3378329468
 10
373.4780529785
 20
56.0253323364
 10
373.4780529785
 20
55.7128317261
 10
373.5405505370999
 20
55.4003311157
 10
373.6655456543
 20
55.2128320312
 10
373.7905407715
 20
55.08783691409998
 10
373.9155358887
 20
55.0253329468
 10
374.1030541991999
 20
54.9628353882
 10
374.290546875
 20
54.9628353882
 10
374.4780395508
 20
55.0253329468
 10
374.603034668
 20
55.08783691409998
 10
374.7280554198999
 20
55.2128320312
 10
374.8530505370999
 20
55.4003311157
 10
374.9155480957
 20
55.7128317261
 10
374.9155480957
 20
56.0253323364
 10
374.8530505370999
 20
56.3378329468
 10
374.7280554198999
 20
56.5253320312
 10
374.603034668
 20
56.6503335571
 10
374.4780395508
 20
56.7128311157
 10
374.290546875
 20
56.775335083
  0
LWPOLYLINE
  5
64A
330
C3
100
AcDbEntity
  8
3_ALL_SYMBOLS
  6
Continuous
 62
     2
100
AcDbPolyline
 90
       25
 70
     0
 43
0.0
 10
376.2905456542999
 20
56.775335083
 10
376.1030529784999
 20
56.775335083
 10
375.915534668
 20
56.7128311157
 10
375.7905395508
 20
56.6503335571
 10
375.6655444336
 20
56.5253320312
 10
375.5405493164
 20
56.3378329468
 10
375.4780517577999
 20
56.0253323364
 10
375.4780517577999
 20
55.7128317261
 10
375.5405493164
 20
55.4003311157
 10
375.6655444336
 20
55.2128320312
 10
375.7905395508
 20
55.08783691409998
 10
375.915534668
 20
55.0253329468
 10
376.1030529784999
 20
54.9628353882
 10
376.2905456542999
 20
54.9628353882
 10
376.4780383301001
 20
55.0253329468
 10
376.6030334473001
 20
55.08783691409998
 10
376.7280541991999
 20
55.2128320312
 10
376.8530493164
 20
55.4003311157
 10
376.915546875
 20
55.7128317261
 10
376.915546875
 20
56.0253323364
 10
376.8530493164
 20
56.3378329468
 10
376.7280541991999
 20
56.5253320312
 10
376.6030334473001
 20
56.6503335571
 10
376.4780383301001
 20
56.7128311157
 10
376.2905456542999
 20
56.775335083
  0
LINE
  5
665
330
C3
100
AcDbEntity
  8
3_ALL_SYMBOLS
  6
Continuous
 62
     2
100
AcDbLine
 10
377.4155529784999
 20
56.4628344727
 30
0.0
 11
379.0405407714999
 21
56.4628344727
 31
0.0
  0
LINE
  5
666
330
C3
100
AcDbEntity
  8
3_ALL_SYMBOLS
  6
Continuous
 62
     2
100
AcDbLine
 10
378.1655493164
 20
56.775335083
 30
0.0
 11
377.4780505370999
 21
55.5878366089
 31
0.0
  0
LWPOLYLINE
  5
667
330
C3
100
AcDbEntity
  8
3_ALL_SYMBOLS
  6
Continuous
 62
     2
100
AcDbPolyline
 90
        7
 70
     0
 43
0.0
 10
377.6655432129
 20
55.90033721920001
 10
378.0405541991999
 20
56.0878363037
 10
378.228046875
 20
56.15033386229999
 10
378.4155395508
 20
56.15033386229999
 10
378.540534668
 20
56.0878363037
 10
378.6030322266
 20
55.90033721920001
 10
378.6030322266
 20
55.33783355709999
  0
LWPOLYLINE
  5
670
330
C3
100
AcDbEntity
  8
3_ALL_SYMBOLS
  6
Continuous
 62
     2
100
AcDbPolyline
 90
        9
 70
     0
 43
0.0
 10
379.1030383301
 20
55.90033721920001
 10
378.6030322266
 20
55.7753356934
 10
378.1655493164
 20
55.5878366089
 10
377.9780310058999
 20
55.4003311157
 10
377.9155334473001
 20
55.2753359985
 10
377.9155334473001
 20
55.1503344727
 10
378.1030517577999
 20
55.0253329468
 10
378.4780371094
 20
54.9628353882
 10
378.9780432129
 20
54.9628353882
  0
LWPOLYLINE
  5
67B
330
C3
100
AcDbEntity
  8
3_ALL_SYMBOLS
  6
Continuous
 62
     2
100
AcDbPolyline
 90
        5
 70
     0
 43
0.0
 10
379.540546875
 20
56.5878359985
 10
380.1030505371
 20
56.5878359985
 10
380.4780358887001
 20
56.5253320312
 10
380.7280517577999
 20
56.4003369141
 10
380.3530407714999
 20
56.15033386229999
  0
LWPOLYLINE
  5
682
330
C3
100
AcDbEntity
  8
3_ALL_SYMBOLS
  6
Continuous
 62
     2
100
AcDbPolyline
 90
        9
 70
     0
 43
0.0
 10
379.6655419922
 20
55.7753356934
 10
379.4155517577999
 20
55.5253326416
 10
379.3530541991999
 20
55.4003311157
 10
379.3530541991999
 20
55.2128320312
 10
379.4780493164
 20
55.08783691409998
 10
379.7905371094
 20
55.0253329468
 10
380.2280456543
 20
54.9628353882
 10
380.6030310058999
 20
54.9628353882
 10
381.0405395508
 20
55.0253329468
  0
LINE
  5
68D
330
C3
100
AcDbEntity
  8
3_ALL_SYMBOLS
  6
Continuous
 62
     2
100
AcDbLine
 10
381.9155310058998
 20
56.7128311157
 30
0.0
 11
382.8530456542999
 21
56.5878359985
 31
0.0
  0
LWPOLYLINE
  5
68E
330
C3
100
AcDbEntity
  8
3_ALL_SYMBOLS
  6
Continuous
 62
     2
100
AcDbPolyline
 90
       12
 70
     0
 43
0.0
 10
381.6030432129
 20
56.27533538819999
 10
382.7905480956999
 20
56.27533538819999
 10
381.3530529784999
 20
55.0253329468
 10
382.0405517577999
 20
55.5253326416
 10
382.2280444336
 20
55.5878366089
 10
382.3530395508
 20
55.5878366089
 10
382.4155371094
 20
55.5253326416
 10
382.4155371094
 20
55.4003311157
 10
382.4155371094
 20
55.1503344727
 10
382.478034668
 20
55.0253329468
 10
382.6655529785
 20
54.9628353882
 10
383.1030358887001
 20
54.9628353882
  0
LWPOLYLINE
  5
69C
330
C3
100
AcDbEntity
  8
3_ALL_SYMBOLS
  6
Continuous
 62
     2
100
AcDbPolyline
 90
        3
 70
     0
 43
0.0
 10
384.3530383301001
 20
54.9628353882
 10
384.3530383301001
 20
56.775335083
 10
383.8530322266
 20
56.27533538819999
  0
LWPOLYLINE
  5
6A1
330
C3
100
AcDbEntity
  8
3_ALL_SYMBOLS
  6
Continuous
 62
     2
100
AcDbPolyline
 90
       25
 70
     0
 43
0.0
 10
386.2905395508
 20
56.775335083
 10
386.103046875
 20
56.775335083
 10
385.9155541991999
 20
56.7128311157
 10
385.7905334473
 20
56.6503335571
 10
385.6655383301001
 20
56.5253320312
 10
385.5405432128999
 20
56.3378329468
 10
385.4780456543
 20
56.0253323364
 10
385.4780456543
 20
55.7128317261
 10
385.5405432128999
 20
55.4003311157
 10
385.6655383301001
 20
55.2128320312
 10
385.7905334473
 20
55.08783691409998
 10
385.9155541991999
 20
55.0253329468
 10
386.103046875
 20
54.9628353882
 10
386.2905395508
 20
54.9628353882
 10
386.4780322266
 20
55.0253329468
 10
386.6030529785
 20
55.08783691409998
 10
386.7280480956999
 20
55.2128320312
 10
386.8530432128999
 20
55.4003311157
 10
386.9155407715
 20
55.7128317261
 10
386.9155407715
 20
56.0253323364
 10
386.8530432128999
 20
56.3378329468
 10
386.7280480956999
 20
56.5253320312
 10
386.6030529785
 20
56.6503335571
 10
386.4780322266
 20
56.7128311157
 10
386.2905395508
 20
56.775335083
  0
LWPOLYLINE
  5
6BC
330
C3
100
AcDbEntity
  8
3_ALL_SYMBOLS
  6
Continuous
 62
     2
100
AcDbPolyline
 90
       25
 70
     0
 43
0.0
 10
388.2905383301001
 20
56.775335083
 10
388.1030456542999
 20
56.775335083
 10
387.9155529784999
 20
56.7128311157
 10
387.7905322266
 20
56.6503335571
 10
387.6655371094
 20
56.5253320312
 10
387.5405419922
 20
56.3378329468
 10
387.4780444336
 20
56.0253323364
 10
387.4780444336
 20
55.7128317261
 10
387.5405419922
 20
55.4003311157
 10
387.6655371094
 20
55.2128320312
 10
387.7905322266
 20
55.08783691409998
 10
387.9155529784999
 20
55.0253329468
 10
388.1030456542999
 20
54.9628353882
 10
388.2905383301001
 20
54.9628353882
 10
388.4780310058999
 20
55.0253329468
 10
388.6030517577999
 20
55.08783691409998
 10
388.728046875
 20
55.2128320312
 10
388.8530419922
 20
55.4003311157
 10
388.9155395508
 20
55.7128317261
 10
388.9155395508
 20
56.0253323364
 10
388.8530419922
 20
56.3378329468
 10
388.728046875
 20
56.5253320312
 10
388.6030517577999
 20
56.6503335571
 10
388.4780310058999
 20
56.7128311157
 10
388.2905383301001
 20
56.775335083
  0
LWPOLYLINE
  5
6D7
330
C3
100
AcDbEntity
  8
3_ALL_SYMBOLS
  6
Continuous
 62
     2
100
AcDbPolyline
 90
       25
 70
     0
 43
0.0
 10
390.2905371094
 20
56.775335083
 10
390.1030444336
 20
56.775335083
 10
389.9155517577999
 20
56.7128311157
 10
389.7905310058999
 20
56.6503335571
 10
389.6655358887
 20
56.5253320312
 10
389.5405407715
 20
56.3378329468
 10
389.4780432129
 20
56.0253323364
 10
389.4780432129
 20
55.7128317261
 10
389.5405407715
 20
55.4003311157
 10
389.6655358887
 20
55.2128320312
 10
389.7905310058999
 20
55.08783691409998
 10
389.9155517577999
 20
55.0253329468
 10
390.1030444336
 20
54.9628353882
 10
390.2905371094
 20
54.9628353882
 10
390.4780554199
 20
55.0253329468
 10
390.6030505370999
 20
55.08783691409998
 10
390.7280456542999
 20
55.2128320312
 10
390.8530407714999
 20
55.4003311157
 10
390.9155383301
 20
55.7128317261
 10
390.9155383301
 20
56.0253323364
 10
390.8530407714999
 20
56.3378329468
 10
390.7280456542999
 20
56.5253320312
 10
390.6030505370999
 20
56.6503335571
 10
390.4780554199
 20
56.7128311157
 10
390.2905371094
 20
56.775335083
  0
LINE
  5
6F2
330
C3
100
AcDbEntity
  8
3_ALL_SYMBOLS
  6
Continuous
 62
     2
100
AcDbLine
 10
391.4780419922
 20
56.775335083
 30
0.0
 11
391.4780419922
 21
55.2753359985
 31
0.0
  0
LINE
  5
6F3
330
C3
100
AcDbEntity
  8
3_ALL_SYMBOLS
  6
Continuous
 62
     2
100
AcDbLine
 10
391.2905493164
 20
55.08783691409998
 30
0.0
 11
392.3530334473
 21
55.7128317261
 31
0.0
  0
LINE
  5
6F4
330
C3
100
AcDbEntity
  8
3_ALL_SYMBOLS
  6
Continuous
 62
     2
100
AcDbLine
 10
391.4780419922
 20
55.2753359985
 30
0.0
 11
391.4780419922
 21
55.2128320312
 31
0.0
  0
LINE
  5
6F5
330
C3
100
AcDbEntity
  8
3_ALL_SYMBOLS
  6
Continuous
 62
     2
100
AcDbLine
 10
391.7905554198999
 20
56.7128311157
 30
0.0
 11
392.3530334473
 21
56.0253323364
 31
0.0
  0
LWPOLYLINE
  5
6F6
330
C3
100
AcDbEntity
  8
3_ALL_SYMBOLS
  6
Continuous
 62
     2
100
AcDbPolyline
 90
        7
 70
     0
 43
0.0
 10
391.665534668
 20
54.9628353882
 10
392.1030432129
 20
55.08783691409998
 10
392.4155310058999
 20
55.2128320312
 10
392.6030493164
 20
55.4003311157
 10
392.7280444336
 20
55.6503341675
 10
392.8530395508
 20
56.0878363037
 10
392.8530395508
 20
56.775335083
  0
LINE
  5
6FF
330
C3
100
AcDbEntity
  8
3_ALL_SYMBOLS
  6
Continuous
 62
     2
100
AcDbLine
 10
392.7280444336
 20
55.6503341675
 30
0.0
 11
393.1030554198999
 21
54.9628353882
 31
0.0
  0
LINE
  5
700
330
C3
100
AcDbEntity
  8
3_ALL_SYMBOLS
  6
Continuous
 62
     2
100
AcDbLine
 10
393.2905480956999
 20
56.5878359985
 30
0.0
 11
395.0405310058998
 21
56.5878359985
 31
0.0
  0
LINE
  5
701
330
C3
100
AcDbEntity
  8
3_ALL_SYMBOLS
  6
Continuous
 62
     2
100
AcDbLine
 10
394.1030419922
 20
56.5878359985
 30
0.0
 11
394.1030419922
 21
54.9628353882
 31
0.0
  0
LINE
  5
702
330
C3
100
AcDbEntity
  8
3_ALL_SYMBOLS
  6
Continuous
 62
     2
100
AcDbLine
 10
394.1030419922
 20
56.27533538819999
 30
0.0
 11
394.9155358887001
 21
55.6503341675
 31
0.0
  0
LINE
  5
703
330
C3
100
AcDbEntity
  8
3_ALL_SYMBOLS
  6
Continuous
 62
     2
100
AcDbLine
 10
397.5405358887
 20
55.90033721920001
 30
0.0
 11
398.7905383301001
 21
55.90033721920001
 31
0.0
  0
LINE
  5
704
330
C3
100
AcDbEntity
  8
3_ALL_SYMBOLS
  6
Continuous
 62
     2
100
AcDbLine
 10
398.1655371094
 20
56.4628344727
 30
0.0
 11
398.1655371094
 21
55.33783355709999
 31
0.0
  0
LINE
  5
705
330
C3
100
AcDbEntity
  8
3_ALL_SYMBOLS
  6
Continuous
 62
     2
100
AcDbLine
 10
397.5405358887
 20
55.2128320312
 30
0.0
 11
398.7905383301001
 21
55.2128320312
 31
0.0
  0
LWPOLYLINE
  5
706
330
C3
100
AcDbEntity
  8
3_ALL_SYMBOLS
  6
Continuous
 62
     2
100
AcDbPolyline
 90
        4
 70
     0
 43
0.0
 10
400.6030444335998
 20
54.9628353882
 10
400.6030444335998
 20
56.775335083
 10
399.4155395508
 20
55.4003311157
 10
400.9155322266
 20
55.4003311157
  0
LWPOLYLINE
  5
70C
330
C3
100
AcDbEntity
  8
3_ALL_SYMBOLS
  6
Continuous
 62
     2
100
AcDbPolyline
 90
        3
 70
     0
 43
0.0
 10
370.353046875
 20
51.9628372192
 10
370.353046875
 20
53.7753369141
 10
369.8530407714999
 20
53.2753372192
  0
LWPOLYLINE
  5
711
330
C3
100
AcDbEntity
  8
3_ALL_SYMBOLS
  6
Continuous
 62
     2
100
AcDbPolyline
 90
       25
 70
     0
 43
0.0
 10
372.2905480956999
 20
53.7753369141
 10
372.1030554198999
 20
53.7753369141
 10
371.9155371094
 20
53.71283294680001
 10
371.7905419922
 20
53.6503353882
 10
371.665546875
 20
53.5253338623
 10
371.5405517577999
 20
53.33783477779999
 10
371.4780541991999
 20
53.0253341675
 10
371.4780541991999
 20
52.7128335571
 10
371.5405517577999
 20
52.4003329468
 10
371.665546875
 20
52.21283386229999
 10
371.7905419922
 20
52.08783233640001
 10
371.9155371094
 20
52.0253347778
 10
372.1030554198999
 20
51.9628372192
 10
372.2905480956999
 20
51.9628372192
 10
372.4780407714999
 20
52.0253347778
 10
372.6030358887001
 20
52.08783233640001
 10
372.7280310058998
 20
52.21283386229999
 10
372.8530517577999
 20
52.4003329468
 10
372.9155493164
 20
52.7128335571
 10
372.9155493164
 20
53.0253341675
 10
372.8530517577999
 20
53.33783477779999
 10
372.7280310058998
 20
53.5253338623
 10
372.6030358887001
 20
53.6503353882
 10
372.4780407714999
 20
53.71283294680001
 10
372.2905480956999
 20
53.7753369141
  0
LWPOLYLINE
  5
72C
330
C3
100
AcDbEntity
  8
3_ALL_SYMBOLS
  6
Continuous
 62
     2
100
AcDbPolyline
 90
       25
 70
     0
 43
0.0
 10
374.290546875
 20
53.7753369141
 10
374.1030541991999
 20
53.7753369141
 10
373.9155358887
 20
53.71283294680001
 10
373.7905407715
 20
53.6503353882
 10
373.6655456543
 20
53.5253338623
 10
373.5405505370999
 20
53.33783477779999
 10
373.4780529785
 20
53.0253341675
 10
373.4780529785
 20
52.7128335571
 10
373.5405505370999
 20
52.4003329468
 10
373.6655456543
 20
52.21283386229999
 10
373.7905407715
 20
52.08783233640001
 10
373.9155358887
 20
52.0253347778
 10
374.1030541991999
 20
51.9628372192
 10
374.290546875
 20
51.9628372192
 10
374.4780395508
 20
52.0253347778
 10
374.603034668
 20
52.08783233640001
 10
374.7280554198999
 20
52.21283386229999
 10
374.8530505370999
 20
52.4003329468
 10
374.9155480957
 20
52.7128335571
 10
374.9155480957
 20
53.0253341675
 10
374.8530505370999
 20
53.33783477779999
 10
374.7280554198999
 20
53.5253338623
 10
374.603034668
 20
53.6503353882
 10
374.4780395508
 20
53.71283294680001
 10
374.290546875
 20
53.7753369141
  0
LWPOLYLINE
  5
747
330
C3
100
AcDbEntity
  8
3_ALL_SYMBOLS
  6
Continuous
 62
     2
100
AcDbPolyline
 90
       25
 70
     0
 43
0.0
 10
376.2905456542999
 20
53.7753369141
 10
376.1030529784999
 20
53.7753369141
 10
375.915534668
 20
53.71283294680001
 10
375.7905395508
 20
53.6503353882
 10
375.6655444336
 20
53.5253338623
 10
375.5405493164
 20
53.33783477779999
 10
375.4780517577999
 20
53.0253341675
 10
375.4780517577999
 20
52.7128335571
 10
375.5405493164
 20
52.4003329468
 10
375.6655444336
 20
52.21283386229999
 10
375.7905395508
 20
52.08783233640001
 10
375.915534668
 20
52.0253347778
 10
376.1030529784999
 20
51.9628372192
 10
376.2905456542999
 20
51.9628372192
 10
376.4780383301001
 20
52.0253347778
 10
376.6030334473001
 20
52.08783233640001
 10
376.7280541991999
 20
52.21283386229999
 10
376.8530493164
 20
52.4003329468
 10
376.915546875
 20
52.7128335571
 10
376.915546875
 20
53.0253341675
 10
376.8530493164
 20
53.33783477779999
 10
376.7280541991999
 20
53.5253338623
 10
376.6030334473001
 20
53.6503353882
 10
376.4780383301001
 20
53.71283294680001
 10
376.2905456542999
 20
53.7753369141
  0
LINE
  5
762
330
C3
100
AcDbEntity
  8
3_ALL_SYMBOLS
  6
Continuous
 62
     2
100
AcDbLine
 10
377.4155529784999
 20
53.4628363037
 30
0.0
 11
379.0405407714999
 21
53.4628363037
 31
0.0
  0
LINE
  5
763
330
C3
100
AcDbEntity
  8
3_ALL_SYMBOLS
  6
Continuous
 62
     2
100
AcDbLine
 10
378.1655493164
 20
53.7753369141
 30
0.0
 11
377.4780505370999
 21
52.5878320312
 31
0.0
  0
LWPOLYLINE
  5
764
330
C3
100
AcDbEntity
  8
3_ALL_SYMBOLS
  6
Continuous
 62
     2
100
AcDbPolyline
 90
        7
 70
     0
 43
0.0
 10
377.6655432129
 20
52.90033264159998
 10
378.0405541991999
 20
53.0878317261
 10
378.228046875
 20
53.1503356934
 10
378.4155395508
 20
53.1503356934
 10
378.540534668
 20
53.0878317261
 10
378.6030322266
 20
52.90033264159998
 10
378.6030322266
 20
52.3378353882
  0
LWPOLYLINE
  5
76D
330
C3
100
AcDbEntity
  8
3_ALL_SYMBOLS
  6
Continuous
 62
     2
100
AcDbPolyline
 90
        9
 70
     0
 43
0.0
 10
379.1030383301
 20
52.90033264159998
 10
378.6030322266
 20
52.7753311157
 10
378.1655493164
 20
52.5878320312
 10
377.9780310058999
 20
52.4003329468
 10
377.9155334473001
 20
52.2753314209
 10
377.9155334473001
 20
52.1503363037
 10
378.1030517577999
 20
52.0253347778
 10
378.4780371094
 20
51.9628372192
 10
378.9780432129
 20
51.9628372192
  0
LWPOLYLINE
  5
778
330
C3
100
AcDbEntity
  8
3_ALL_SYMBOLS
  6
Continuous
 62
     2
100
AcDbPolyline
 90
        5
 70
     0
 43
0.0
 10
379.540546875
 20
53.5878314209
 10
380.1030505371
 20
53.5878314209
 10
380.4780358887001
 20
53.5253338623
 10
380.7280517577999
 20
53.4003323364
 10
380.3530407714999
 20
53.1503356934
  0
LWPOLYLINE
  5
77F
330
C3
100
AcDbEntity
  8
3_ALL_SYMBOLS
  6
Continuous
 62
     2
100
AcDbPolyline
 90
        9
 70
     0
 43
0.0
 10
379.6655419922
 20
52.7753311157
 10
379.4155517577999
 20
52.5253344727
 10
379.3530541991999
 20
52.4003329468
 10
379.3530541991999
 20
52.21283386229999
 10
379.4780493164
 20
52.08783233640001
 10
379.7905371094
 20
52.0253347778
 10
380.2280456543
 20
51.9628372192
 10
380.6030310058999
 20
51.9628372192
 10
381.0405395508
 20
52.0253347778
  0
LINE
  5
78A
330
C3
100
AcDbEntity
  8
3_ALL_SYMBOLS
  6
Continuous
 62
     2
100
AcDbLine
 10
381.9155310058998
 20
53.71283294680001
 30
0.0
 11
382.8530456542999
 21
53.5878314209
 31
0.0
  0
LWPOLYLINE
  5
78B
330
C3
100
AcDbEntity
  8
3_ALL_SYMBOLS
  6
Continuous
 62
     2
100
AcDbPolyline
 90
       12
 70
     0
 43
0.0
 10
381.6030432129
 20
53.2753372192
 10
382.7905480956999
 20
53.2753372192
 10
381.3530529784999
 20
52.0253347778
 10
382.0405517577999
 20
52.5253344727
 10
382.2280444336
 20
52.5878320312
 10
382.3530395508
 20
52.5878320312
 10
382.4155371094
 20
52.5253344727
 10
382.4155371094
 20
52.4003329468
 10
382.4155371094
 20
52.1503363037
 10
382.478034668
 20
52.0253347778
 10
382.6655529785
 20
51.9628372192
 10
383.1030358887001
 20
51.9628372192
  0
LWPOLYLINE
  5
799
330
C3
100
AcDbEntity
  8
3_ALL_SYMBOLS
  6
Continuous
 62
     2
100
AcDbPolyline
 90
       25
 70
     0
 43
0.0
 10
383.6030419922
 20
53.5878314209
 10
384.7280493164
 20
53.5878314209
 10
383.4155493164
 20
52.6503359985
 10
384.1030480957
 20
53.0253341675
 10
384.4780334473
 20
53.0878317261
 10
384.7905468749999
 20
53.0878317261
 10
384.9780395508
 20
53.0253341675
 10
385.103034668
 20
52.837835083
 10
385.103034668
 20
52.6503359985
 10
385.103034668
 20
52.5878320312
 10
385.0405371094
 20
52.46283691409999
 10
384.9155419922
 20
52.2753314209
 10
384.7280493164
 20
52.1503363037
 10
384.4780334473
 20
52.08783233640001
 10
384.1655456543
 20
52.08783233640001
 10
383.9155554198999
 20
52.1503363037
 10
383.7280371094
 20
52.2753314209
 10
383.6655395508
 20
52.3378353882
 10
383.6655395508
 20
52.4003329468
 10
383.7280371094
 20
52.46283691409999
 10
383.8530322266
 20
52.5253344727
 10
384.0405505370999
 20
52.5253344727
 10
384.2280432128999
 20
52.46283691409999
 10
384.3530383301001
 20
52.3378353882
 10
384.4780334473
 20
52.08783233640001
  0
LINE
  5
7B4
330
C3
100
AcDbEntity
  8
3_ALL_SYMBOLS
  6
Continuous
 62
     2
100
AcDbLine
 10
385.4155480957
 20
53.4003323364
 30
0.0
 11
386.7280480956999
 21
53.4003323364
 31
0.0
  0
LWPOLYLINE
  5
7B5
330
C3
100
AcDbEntity
  8
3_ALL_SYMBOLS
  6
Continuous
 62
     2
100
AcDbPolyline
 90
        7
 70
     0
 43
0.0
 10
385.4780456543
 20
53.0878317261
 10
385.3530505370999
 20
52.96283660890001
 10
385.2905529785
 20
52.90033264159998
 10
385.2905529785
 20
52.837835083
 10
385.3530505370999
 20
52.7753311157
 10
385.9155541991999
 20
52.7128335571
 10
386.5405554199
 20
52.837835083
  0
LWPOLYLINE
  5
7BE
330
C3
100
AcDbEntity
  8
3_ALL_SYMBOLS
  6
Continuous
 62
     2
100
AcDbPolyline
 90
       11
 70
     0
 43
0.0
 10
385.9780517577999
 20
53.7753369141
 10
385.8530310058998
 20
52.1503363037
 10
385.8530310058998
 20
52.08783233640001
 10
385.9155541991999
 20
52.0253347778
 10
386.0405493164
 20
51.9628372192
 10
386.7905456542999
 20
51.9628372192
 10
386.9155407715
 20
52.08783233640001
 10
386.9780383301001
 20
52.21283386229999
 10
386.9780383301001
 20
52.3378353882
 10
386.9155407715
 20
52.5253344727
 10
386.7905456542999
 20
52.837835083
  0
LWPOLYLINE
  5
7CB
330
C3
100
AcDbEntity
  8
3_ALL_SYMBOLS
  6
Continuous
 62
     2
100
AcDbPolyline
 90
       23
 70
     0
 43
0.0
 10
388.2905383301001
 20
53.5878314209
 10
388.2280407715
 20
53.0253341675
 10
388.1030456542999
 20
52.46283691409999
 10
387.9780505371
 20
52.1503363037
 10
387.8530554199
 20
52.0253347778
 10
387.728034668
 20
52.0253347778
 10
387.5405419922
 20
52.1503363037
 10
387.4780444336
 20
52.4003329468
 10
387.415546875
 20
52.6503359985
 10
387.415546875
 20
52.96283660890001
 10
387.5405419922
 20
53.33783477779999
 10
387.8530554199
 20
53.5878314209
 10
388.2905383301001
 20
53.5878314209
 10
388.6030517577999
 20
53.5253338623
 10
388.8530419922
 20
53.4003323364
 10
389.040534668
 20
53.1503356934
 10
389.1030322266
 20
52.90033264159998
 10
389.1030322266
 20
52.5878320312
 10
389.040534668
 20
52.4003329468
 10
388.9155395508
 20
52.21283386229999
 10
388.728046875
 20
52.08783233640001
 10
388.5405541991999
 20
52.0253347778
 10
388.2905383301001
 20
51.9628372192
  0
LINE
  5
7E4
330
C3
100
AcDbEntity
  8
3_ALL_SYMBOLS
  6
Continuous
 62
     2
100
AcDbLine
 10
397.5405358887
 20
52.90033264159998
 30
0.0
 11
398.7905383301001
 21
52.90033264159998
 31
0.0
  0
LINE
  5
7E5
330
C3
100
AcDbEntity
  8
3_ALL_SYMBOLS
  6
Continuous
 62
     2
100
AcDbLine
 10
398.1655371094
 20
53.4628363037
 30
0.0
 11
398.1655371094
 21
52.3378353882
 31
0.0
  0
LINE
  5
7E6
330
C3
100
AcDbEntity
  8
3_ALL_SYMBOLS
  6
Continuous
 62
     2
100
AcDbLine
 10
397.5405358887
 20
52.21283386229999
 30
0.0
 11
398.7905383301001
 21
52.21283386229999
 31
0.0
  0
LWPOLYLINE
  5
7E7
330
C3
100
AcDbEntity
  8
3_ALL_SYMBOLS
  6
Continuous
 62
     2
100
AcDbPolyline
 90
       30
 70
     0
 43
0.0
 10
400.9155322266
 20
53.4003323364
 10
400.7905371094
 20
53.5878314209
 10
400.6030444335998
 20
53.71283294680001
 10
400.3530541991999
 20
53.7753369141
 10
400.1655358887
 20
53.7753369141
 10
399.9155456542999
 20
53.71283294680001
 10
399.7280529784999
 20
53.5878314209
 10
399.6030322266
 20
53.4003323364
 10
399.4780371094
 20
53.0253341675
 10
399.4780371094
 20
52.6503359985
 10
399.540534668
 20
52.4003329468
 10
399.6030322266
 20
52.2753314209
 10
399.7280529784999
 20
52.1503363037
 10
399.9155456542999
 20
52.0253347778
 10
400.1030383301
 20
51.9628372192
 10
400.3530541991999
 20
51.9628372192
 10
400.6030444335998
 20
52.0253347778
 10
400.7280395508
 20
52.08783233640001
 10
400.853034668
 20
52.2753314209
 10
400.9155322266
 20
52.46283691409999
 10
400.9155322266
 20
52.6503359985
 10
400.853034668
 20
52.837835083
 10
400.7280395508
 20
52.96283660890001
 10
400.540546875
 20
53.0878317261
 10
400.3530541991999
 20
53.1503356934
 10
400.1030383301
 20
53.1503356934
 10
399.9155456542999
 20
53.0878317261
 10
399.7280529784999
 20
52.96283660890001
 10
399.6030322266
 20
52.837835083
 10
399.4780371094
 20
52.6503359985
  0
LINE
  5
807
330
C3
100
AcDbEntity
  8
3_ALL_SYMBOLS
  6
Continuous
 62
     7
100
AcDbLine
 10
368.8974053748999
 20
51.16738984729999
 30
0.0
 11
368.8974053748999
 21
78.1673898473
 31
0.0
  0
LINE
  5
808
330
C3
100
AcDbEntity
  8
3_ALL_SYMBOLS
  6
Continuous
 62
     7
100
AcDbLine
 10
406.8974053748998
 20
51.16738984729999
 30
0.0
 11
368.8974053748999
 21
51.16738984729999
 31
0.0
  0
LINE
  5
809
330
C3
100
AcDbEntity
  8
3_ALL_SYMBOLS
  6
Continuous
 62
     7
100
AcDbLine
 10
368.8974053748999
 20
54.16738984729999
 30
0.0
 11
406.8974053748998
 21
54.16738984729999
 31
0.0
  0
LINE
  5
80A
330
C3
100
AcDbEntity
  8
3_ALL_SYMBOLS
  6
Continuous
 62
     7
100
AcDbLine
 10
368.8974053748999
 20
57.1673898473
 30
0.0
 11
406.8974053748998
 21
57.1673898473
 31
0.0
  0
LINE
  5
80B
330
C3
100
AcDbEntity
  8
3_ALL_SYMBOLS
  6
Continuous
 62
     7
100
AcDbLine
 10
368.8974053748999
 20
60.16738984729999
 30
0.0
 11
406.8974053748998
 21
60.16738984729999
 31
0.0
  0
LINE
  5
80C
330
C3
100
AcDbEntity
  8
3_ALL_SYMBOLS
  6
Continuous
 62
     7
100
AcDbLine
 10
368.8974053748999
 20
63.16738984729999
 30
0.0
 11
406.8974053748998
 21
63.16738984729999
 31
0.0
  0
LINE
  5
80D
330
C3
100
AcDbEntity
  8
3_ALL_SYMBOLS
  6
Continuous
 62
     7
100
AcDbLine
 10
368.8974053748999
 20
66.1673898473
 30
0.0
 11
406.8974053748998
 21
66.1673898473
 31
0.0
  0
LINE
  5
80E
330
C3
100
AcDbEntity
  8
3_ALL_SYMBOLS
  6
Continuous
 62
     7
100
AcDbLine
 10
368.8974053748999
 20
69.1673898473
 30
0.0
 11
406.8974053748998
 21
69.1673898473
 31
0.0
  0
LINE
  5
80F
330
C3
100
AcDbEntity
  8
3_ALL_SYMBOLS
  6
Continuous
 62
     7
100
AcDbLine
 10
396.8974053748999
 20
72.1673898473
 30
0.0
 11
396.8974053748999
 21
51.16738984729999
 31
0.0
  0
LINE
  5
810
330
C3
100
AcDbEntity
  8
3_ALL_SYMBOLS
  6
Continuous
 62
     7
100
AcDbLine
 10
368.8974053748999
 20
72.1673898473
 30
0.0
 11
406.8974053748998
 21
72.1673898473
 31
0.0
  0
LINE
  5
811
330
C3
100
AcDbEntity
  8
3_ALL_SYMBOLS
  6
Continuous
 62
     7
100
AcDbLine
 10
368.8974053748999
 20
78.1673898473
 30
0.0
 11
406.8974053748998
 21
78.1673898473
 31
0.0
  0
LINE
  5
812
330
C3
100
AcDbEntity
  8
3_ALL_SYMBOLS
  6
Continuous
 62
     7
100
AcDbLine
 10
406.8974053748998
 20
78.1673898473
 30
0.0
 11
406.8974053748998
 21
51.16738984729999
 31
0.0
  0
ENDBLK
  5
813
330
C3
100
AcDbEntity
  8
0
  6
ByBlock
 62
     0
100
AcDbBlockEnd
  0
BLOCK
  5
1F6A
330
1F5B
100
AcDbEntity
  8
0
100
AcDbBlockBegin
  2
A$C79741FA8
 70
     0
 10
0.0
 20
0.0
 30
0.0
  3
A$C79741FA8
  1

  0
LINE
  5
1F5C
330
1F5B
100
AcDbEntity
  8
非表示
100
AcDbLine
 10
0.00000033449669
 20
0.0000000858238423
 30
0.0
 11
420.0000003344968
 21
0.0000000858238423
 31
0.0
  0
LINE
  5
1F5D
330
1F5B
100
AcDbEntity
  8
非表示
100
AcDbLine
 10
420.0000003344968
 20
0.0000000858238423
 30
0.0
 11
420.0000003344968
 21
297.0000000858238
 31
0.0
  0
LINE
  5
1F5E
330
1F5B
100
AcDbEntity
  8
0
100
AcDbLine
 10
410.0000003344964
 20
10.00000008582382
 30
0.0
 11
320.0000003344965
 21
10.00000008582382
 31
0.0
  0
LINE
  5
1F5F
330
1F5B
100
AcDbEntity
  8
0
100
AcDbLine
 10
410.0000003344964
 20
18.00000008582382
 30
0.0
 11
320.0000003344965
 21
18.00000008582382
 31
0.0
  0
LINE
  5
1F60
330
1F5B
100
AcDbEntity
  8
0
100
AcDbLine
 10
410.0000003344964
 20
26.00000008582384
 30
0.0
 11
320.0000003344965
 21
26.00000008582384
 31
0.0
  0
LINE
  5
1F61
330
1F5B
100
AcDbEntity
  8
0
100
AcDbLine
 10
340.0000003344966
 20
26.00000008582384
 30
0.0
 11
340.0000003344966
 21
10.00000008582382
 31
0.0
  0
TEXT
  5
1F62
330
1F5B
100
AcDbEntity
  8
0
100
AcDbText
 10
325.9352903344966
 20
19.67168608582382
 30
0.0
 40
4.0
  1
品名
  7
STANDARD1
100
AcDbText
  0
TEXT
  5
1F63
330
1F5B
100
AcDbEntity
  8
0
100
AcDbText
 10
325.9352903344966
 20
11.67168608582382
 30
0.0
 40
4.0
  1
型名
  7
STANDARD1
100
AcDbText
  0
TEXT
  5
1F64
330
1F5B
100
AcDbEntity
  8
0
100
AcDbText
 10
341.9352903344966
 20
19.67168608582382
 30
0.0
 40
4.0
  1
埋込みユニット
  7
STANDARD1
100
AcDbText
  0
TEXT
  5
1F65
330
1F5B
100
AcDbEntity
  8
0
100
AcDbText
 10
341.9352903344966
 20
11.67168608582382
 30
0.0
 40
4.0
  1
K-9660
  7
STANDARD1
100
AcDbText
  0
LINE
  5
1F66
330
1F5B
100
AcDbEntity
  8
0
100
AcDbLine
 10
410.0000003344964
 20
26.00000008582384
 30
0.0
 11
410.0000003344964
 21
10.00000008582382
 31
0.0
  0
LINE
  5
1F67
330
1F5B
100
AcDbEntity
  8
非表示
100
AcDbLine
 10
0.00000033449669
 20
0.0000000858238423
 30
0.0
 11
0.00000033449669
 21
297.0000000858238
 31
0.0
  0
LINE
  5
1F68
330
1F5B
100
AcDbEntity
  8
非表示
100
AcDbLine
 10
0.00000033449669
 20
297.0000000858238
 30
0.0
 11
420.0000003344968
 21
297.0000000858238
 31
0.0
  0
LINE
  5
1F69
330
1F5B
100
AcDbEntity
  8
0
100
AcDbLine
 10
320.0000003344965
 20
26.00000008582384
 30
0.0
 11
320.0000003344965
 21
10.00000008582382
 31
0.0
  0
ENDBLK
  5
1F6B
330
1F5B
100
AcDbEntity
  8
0
100
AcDbBlockEnd
  0
BLOCK
  5
1F87
330
1F7D
100
AcDbEntity
  8
0
100
AcDbBlockBegin
  2
*D8
 70
     1
 10
0.0
 20
0.0
 30
0.0
  3
*D8
  1

  0
LINE
  5
1F7E
330
1F7D
100
AcDbEntity
  8
0
 62
     0
370
    -2
100
AcDbLine
 10
227.5478709238
 20
235.0004380232999
 30
0.0
 11
227.5478709238
 21
233.0004380232999
 31
0.0
  0
LINE
  5
1F7F
330
1F7D
100
AcDbEntity
  8
0
 62
     0
370
    -2
100
AcDbLine
 10
335.0478709238
 20
235.0004380232999
 30
0.0
 11
335.0478709238
 21
233.0004380232999
 31
0.0
  0
LINE
  5
1F80
330
1F7D
100
AcDbEntity
  8
0
 62
     0
370
    -2
100
AcDbLine
 10
229.5478709238
 20
234.0004380233
 30
0.0
 11
333.0478709238
 21
234.0004380233
 31
0.0
  0
INSERT
  5
1F81
330
1F7D
100
AcDbEntity
  8
0
 62
     0
370
    -2
100
AcDbBlockReference
  2
_OPEN
 10
227.5478709238
 20
234.0004380233
 30
0.0
 41
2.0
 42
2.0
 43
2.0
 50
180.0
  0
INSERT
  5
1F82
330
1F7D
100
AcDbEntity
  8
0
 62
     0
370
    -2
100
AcDbBlockReference
  2
_OPEN
 10
335.0478709238
 20
234.0004380233
 30
0.0
 41
2.0
 42
2.0
 43
2.0
  0
MTEXT
  5
1F83
330
1F7D
100
AcDbEntity
  8
0
 62
     0
100
AcDbMText
 10
281.2978709238
 20
236.7504380233
 30
0.0
 40
3.5
 41
0.0
 71
     5
 72
     1
  1
\A1;108
 73
     1
 44
1.0
  0
POINT
  5
1F84
330
1F7D
100
AcDbEntity
  8
Defpoints
 62
     0
100
AcDbPoint
 10
227.5478709238
 20
235.0004380232999
 30
0.0
  0
POINT
  5
1F85
330
1F7D
100
AcDbEntity
  8
Defpoints
 62
     0
100
AcDbPoint
 10
335.0478709238
 20
235.0004380232999
 30
0.0
  0
POINT
  5
1F86
330
1F7D
100
AcDbEntity
  8
Defpoints
 62
     0
100
AcDbPoint
 10
335.0478709238
 20
234.0004380233
 30
0.0
  0
ENDBLK
  5
1F88
330
1F7D
100
AcDbEntity
  8
0
100
AcDbBlockEnd
  0
BLOCK
  5
1FA1
330
1F97
100
AcDbEntity
  8
0
100
AcDbBlockBegin
  2
*D9
 70
     1
 10
0.0
 20
0.0
 30
0.0
  3
*D9
  1

  0
LINE
  5
1F98
330
1F97
100
AcDbEntity
  8
0
 62
     0
370
    -2
100
AcDbLine
 10
275.0478709238
 20
213.9174065554
 30
0.0
 11
275.0478709238
 21
230.0004380233
 31
0.0
  0
LINE
  5
1F99
330
1F97
100
AcDbEntity
  8
0
 62
     0
370
    -2
100
AcDbLine
 10
335.0478709238
 20
219.0021681738
 30
0.0
 11
335.0478709238
 21
230.0004380233
 31
0.0
  0
LINE
  5
1F9A
330
1F97
100
AcDbEntity
  8
0
 62
     0
370
    -2
100
AcDbLine
 10
277.0478709238
 20
229.0004380232999
 30
0.0
 11
333.0478709238
 21
229.0004380232999
 31
0.0
  0
INSERT
  5
1F9B
330
1F97
100
AcDbEntity
  8
0
 62
     0
370
    -2
100
AcDbBlockReference
  2
_OPEN
 10
275.0478709238
 20
229.0004380232999
 30
0.0
 41
2.0
 42
2.0
 43
2.0
 50
180.0
  0
INSERT
  5
1F9C
330
1F97
100
AcDbEntity
  8
0
 62
     0
370
    -2
100
AcDbBlockReference
  2
_OPEN
 10
335.0478709238
 20
229.0004380232999
 30
0.0
 41
2.0
 42
2.0
 43
2.0
  0
MTEXT
  5
1F9D
330
1F97
100
AcDbEntity
  8
0
 62
     0
100
AcDbMText
 10
305.0478709238
 20
231.7504380233
 30
0.0
 40
3.5
 41
0.0
 71
     5
 72
     1
  1
\A1;60
 73
     1
 44
1.0
  0
POINT
  5
1F9E
330
1F97
100
AcDbEntity
  8
Defpoints
 62
     0
100
AcDbPoint
 10
275.0478709238
 20
213.9174065554
 30
0.0
  0
POINT
  5
1F9F
330
1F97
100
AcDbEntity
  8
Defpoints
 62
     0
100
AcDbPoint
 10
335.0478709238
 20
219.0021681738
 30
0.0
  0
POINT
  5
1FA0
330
1F97
100
AcDbEntity
  8
Defpoints
 62
     0
100
AcDbPoint
 10
335.0478709238
 20
229.0004380232999
 30
0.0
  0
ENDBLK
  5
1FA2
330
1F97
100
AcDbEntity
  8
0
100
AcDbBlockEnd
  0
BLOCK
  5
1FAC
330
1FA4
100
AcDbEntity
  8
0
100
AcDbBlockBegin
  2
*D10
 70
     1
 10
0.0
 20
0.0
 30
0.0
  3
*D10
  1

  0
LINE
  5
1FA5
330
1FA4
100
AcDbEntity
  8
0
 62
     0
370
    -2
100
AcDbLine
 10
242.1203385134581
 20
214.4571634373361
 30
0.0
 11
249.8560184614829
 21
201.3728500911292
 31
0.0
  0
MTEXT
  5
1FA6
330
1FA4
100
AcDbEntity
  8
0
 62
     0
100
AcDbMText
 10
247.8464799186576
 20
210.1753642118165
 30
0.0
 40
3.5
 41
0.0
 71
     5
 72
     1
  1
\A1;R47.5
 11
0.508926312370051
 21
-0.8608100885662421
 31
0.0
 73
     1
 44
1.0
  0
INSERT
  5
1FA7
330
1FA4
100
AcDbEntity
  8
0
 62
     0
370
    -2
100
AcDbBlockReference
  2
_OPEN
 10
250.873871086223
 20
199.6512299139967
 30
0.0
 41
2.0
 42
2.0
 43
2.0
 50
300.5923383813588
  0
LINE
  5
1FA8
330
1FA4
100
AcDbEntity
  8
0
 62
     0
370
    -2
100
AcDbLine
 10
271.2678709238003
 20
158.7627507071003
 30
0.0
 11
278.8278709238003
 21
158.7627507071003
 31
0.0
  0
LINE
  5
1FA9
330
1FA4
100
AcDbEntity
  8
0
 62
     0
370
    -2
100
AcDbLine
 10
275.0478709238003
 20
154.9827507071003
 30
0.0
 11
275.0478709238004
 21
162.5427507071003
 31
0.0
  0
POINT
  5
1FAA
330
1FA4
100
AcDbEntity
  8
Defpoints
 62
     0
100
AcDbPoint
 10
250.873871086223
 20
199.6512299139967
 30
0.0
  0
POINT
  5
1FAB
330
1FA4
100
AcDbEntity
  8
Defpoints
 62
     0
100
AcDbPoint
 10
275.0478709238004
 20
158.7627507071003
 30
0.0
  0
ENDBLK
  5
1FAD
330
1FA4
100
AcDbEntity
  8
0
100
AcDbBlockEnd
  0
ENDSEC
  0
SECTION
  2
ENTITIES
  0
LINE
  5
143F
330
74
100
AcDbEntity
  8
2_ALL_NOTES
  6
Continuous
100
AcDbLine
 10
254.4383933158
 20
115.9667294816999
 30
0.0
 11
246.9956945313
 21
99.84515205790001
 31
0.0
  0
LINE
  5
1440
330
74
100
AcDbEntity
  8
2_ALL_NOTES
  6
Continuous
100
AcDbLine
 10
246.9956945313
 20
99.84515205790001
 30
0.0
 11
244.9956945313
 21
99.84515205790001
 31
0.0
  0
LINE
  5
1851
330
74
100
AcDbEntity
  8
0
  6
Continuous
100
AcDbLine
 10
136.4620141334999
 20
218.2954785400999
 30
0.0
 11
136.4620141334999
 21
218.461307819
 31
0.0
  0
LINE
  5
1852
330
74
100
AcDbEntity
  8
0
  6
Continuous
100
AcDbLine
 10
136.6620141335
 20
218.1573599052
 30
0.0
 11
136.6620141335
 21
218.6627507070999
 31
0.0
  0
LINE
  5
1853
330
74
100
AcDbEntity
  8
0
  6
Continuous
100
AcDbLine
 10
136.8620141335
 20
218.6627507070999
 30
0.0
 11
136.8620141335
 21
218.1573599052
 31
0.0
  0
LINE
  5
1854
330
74
100
AcDbEntity
  8
0
  6
Continuous
100
AcDbLine
 10
137.0620141335
 20
218.461307819
 30
0.0
 11
137.0620141335
 21
218.2954785400999
 31
0.0
  0
LINE
  5
1885
330
74
100
AcDbEntity
  8
0
  6
Continuous
100
AcDbLine
 10
81.16170686850002
 20
190.4582682456
 30
0.0
 11
81.3954687552
 21
190.3064615013999
 31
0.0
  0
LINE
  5
1886
330
74
100
AcDbEntity
  8
0
  6
Continuous
100
AcDbLine
 10
93.93765532659999
 20
206.3240195375999
 30
0.0
 11
94.0307517587
 21
206.2206254749999
 31
0.0
  0
LINE
  5
1887
330
74
100
AcDbEntity
  8
0
  6
Continuous
100
AcDbLine
 10
85.42579761430001
 20
196.5126237041999
 30
0.0
 11
85.30891624209997
 21
196.5885273548
 31
0.0
  0
LINE
  5
1962
330
74
100
AcDbEntity
  8
0
  6
Continuous
100
AcDbLine
 10
136.8620141335
 20
218.1573599052
 30
0.0
 11
136.6620141335
 21
218.1573599052
 31
0.0
  0
LINE
  5
1963
330
74
100
AcDbEntity
  8
0
  6
Continuous
100
AcDbLine
 10
136.6620141335
 20
218.6627507070999
 30
0.0
 11
136.8620141335
 21
218.6627507070999
 31
0.0
  0
LINE
  5
1A11
330
74
100
AcDbEntity
  8
0
  6
Continuous
100
AcDbLine
 10
278.4694804764999
 20
215.5580743234
 30
0.0
 11
275.3708459097999
 21
214.3850198088999
 31
0.0
  0
LINE
  5
1A21
330
74
100
AcDbEntity
  8
0
  6
Continuous
100
AcDbLine
 10
319.0139665541999
 20
99.36484612
 30
0.0
 11
335.0478709238
 21
98.5232813836
 31
0.0
  0
LINE
  5
1A22
330
74
100
AcDbEntity
  8
0
  6
Continuous
100
AcDbLine
 10
289.5748754329
 20
100.9069697679999
 30
0.0
 11
319.0139665541999
 21
99.36484612
 31
0.0
  0
LINE
  5
1A28
330
74
100
AcDbEntity
  8
0
  6
Continuous
100
AcDbLine
 10
283.2830392736
 20
101.5482278641
 30
0.0
 11
288.3592294236
 21
101.0857647280999
 31
0.0
  0
LINE
  5
1A29
330
74
100
AcDbEntity
  8
0
  6
Continuous
100
AcDbLine
 10
278.4352707526999
 20
101.9803779148
 30
0.0
 11
283.2830392736
 21
101.5482278641
 31
0.0
  0
LINE
  5
1A2A
330
74
100
AcDbEntity
  8
0
  6
Continuous
100
AcDbLine
 10
278.6973141593999
 20
101.9197107112
 30
0.0
 11
282.7811890538
 21
101.5374363767
 31
0.0
  0
LINE
  5
1A2B
330
74
100
AcDbEntity
  8
0
  6
Continuous
100
AcDbLine
 10
282.7811890538
 20
101.5374363767
 30
0.0
 11
286.5117580759999
 21
101.1833223191
 31
0.0
  0
LINE
  5
1A2C
330
74
100
AcDbEntity
  8
0
  6
Continuous
100
AcDbLine
 10
286.5117580759999
 20
101.1833223191
 30
0.0
 11
288.8474093324999
 21
100.9603139359
 31
0.0
  0
LINE
  5
1A33
330
74
100
AcDbEntity
  8
0
  6
Continuous
100
AcDbLine
 10
288.3592294237
 20
101.0857616270999
 30
0.0
 11
288.7209167495
 21
101.0376179739999
 31
0.0
  0
LINE
  5
1A34
330
74
100
AcDbEntity
  8
0
  6
Continuous
100
AcDbLine
 10
278.4694805329
 20
101.9674270694
 30
0.0
 11
275.3708459097999
 21
103.1404816053
 31
0.0
  0
LINE
  5
1A53
330
74
100
AcDbEntity
  8
0
  6
Continuous
100
AcDbLine
 10
275.0478709238
 20
213.9174065554
 30
0.0
 11
275.0478709238
 21
103.6080948587
 31
0.0
  0
LINE
  5
1A54
330
74
100
AcDbEntity
  8
0
  6
Continuous
100
AcDbLine
 10
275.3708459097999
 20
214.3850198088999
 30
0.0
 11
275.3708459097999
 21
103.1404816053
 31
0.0
  0
LINE
  5
1AED
330
74
100
AcDbEntity
  8
0
  6
Continuous
100
AcDbLine
 10
288.3592291213
 20
216.4397366672
 30
0.0
 11
288.3592259563
 21
177.1576411705
 31
0.0
  0
LINE
  5
1AEE
330
74
100
AcDbEntity
  8
0
  6
Continuous
100
AcDbLine
 10
288.3592256991
 20
140.3678605097999
 30
0.0
 11
288.3592294236
 21
101.0857647280999
 31
0.0
  0
LINE
  5
1AEF
330
74
100
AcDbEntity
  8
0
  6
Continuous
100
AcDbLine
 10
289.7824631085
 20
216.580384986
 30
0.0
 11
289.7824631080999
 21
177.7358313456
 31
0.0
  0
LINE
  5
1AF0
330
74
100
AcDbEntity
  8
0
  6
Continuous
100
AcDbLine
 10
289.7824631085
 20
139.7896700686
 30
0.0
 11
289.7824631080999
 21
100.9451164281999
 31
0.0
  0
LINE
  5
1B1A
330
74
100
AcDbEntity
  8
0
  6
Continuous
100
AcDbLine
 10
335.0478709238
 20
98.52333423530001
 30
0.0
 11
335.0478709238
 21
219.0021681738
 31
0.0
  0
LINE
  5
1B4B
330
74
100
AcDbEntity
  8
0
  6
Continuous
100
AcDbLine
 10
335.0478709238
 20
219.0022200306
 30
0.0
 11
289.5867598491999
 21
216.6192437848
 31
0.0
  0
LINE
  5
1B4C
330
74
100
AcDbEntity
  8
0
  6
Continuous
100
AcDbLine
 10
335.0478709239
 20
218.9425288209999
 30
0.0
 11
304.3639899342
 21
217.3398707686
 31
0.0
  0
LINE
  5
1B4D
330
74
100
AcDbEntity
  8
0
  6
Continuous
100
AcDbLine
 10
304.3639899342
 20
217.3398707686
 30
0.0
 11
289.7824631085
 21
216.580384986
 31
0.0
  0
LINE
  5
1B5F
330
74
100
AcDbEntity
  8
0
  6
Continuous
100
AcDbLine
 10
288.7209160473
 20
216.4878833579
 30
0.0
 11
288.3592291214
 21
216.4397397347999
 31
0.0
  0
LINE
  5
1B60
330
74
100
AcDbEntity
  8
0
  6
Continuous
100
AcDbLine
 10
288.6174324086999
 20
216.5441248111999
 30
0.0
 11
284.5283011041998
 21
216.1533211636999
 31
0.0
  0
LINE
  5
1B66
330
74
100
AcDbEntity
  8
0
  6
Continuous
100
AcDbLine
 10
288.3592291213
 20
216.4397366672
 30
0.0
 11
283.2876415095
 21
215.9776881745
 31
0.0
  0
LINE
  5
1B67
330
74
100
AcDbEntity
  8
0
  6
Continuous
100
AcDbLine
 10
283.2876415095
 20
215.9776881745
 30
0.0
 11
278.4352707084
 21
215.5451234827
 31
0.0
  0
CIRCLE
  5
1B72
330
74
100
AcDbEntity
  8
0
  6
Continuous
100
AcDbCircle
 10
136.7620141334999
 20
158.7627507070999
 30
0.0
 40
47.5
  0
CIRCLE
  5
1B73
330
74
100
AcDbEntity
  8
0
  6
Continuous
100
AcDbCircle
 10
136.7620141334999
 20
158.7627507070999
 30
0.0
 40
47.6
  0
CIRCLE
  5
1B74
330
74
100
AcDbEntity
  8
0
  6
Continuous
100
AcDbCircle
 10
136.7620141334999
 20
158.7627507070999
 30
0.0
 40
47.7
  0
CIRCLE
  5
1B75
330
74
100
AcDbEntity
  8
0
  6
Continuous
100
AcDbCircle
 10
89.73360505909999
 20
137.5286098030999
 30
0.0
 40
1.5
  0
ARC
  5
1B76
330
74
100
AcDbEntity
  8
0
  6
Continuous
100
AcDbCircle
 10
136.7620141334999
 20
158.7627507070999
 30
0.0
 40
64.0
100
AcDbArc
 50
19.89648061089999
 51
70.1035193891
  0
ARC
  5
1B77
330
74
100
AcDbEntity
  8
0
  6
Continuous
100
AcDbCircle
 10
136.7620141334999
 20
158.7627507070999
 30
0.0
 40
64.0
100
AcDbArc
 50
289.8964806106
 51
340.1035193890999
  0
ARC
  5
1B78
330
74
100
AcDbEntity
  8
0
  6
Continuous
100
AcDbCircle
 10
136.7620141334999
 20
158.7627507070999
 30
0.0
 40
64.0
100
AcDbArc
 50
199.8964806106
 51
250.1035193893999
  0
ARC
  5
1B79
330
74
100
AcDbEntity
  8
0
  6
Continuous
100
AcDbCircle
 10
136.7620141334999
 20
158.7627507070999
 30
0.0
 40
63.8608695652
100
AcDbArc
 50
132.0
 51
143.6785110939999
  0
ARC
  5
1B7A
330
74
100
AcDbEntity
  8
0
  6
Continuous
100
AcDbCircle
 10
136.7620141334999
 20
158.7627507070999
 30
0.0
 40
64.0
100
AcDbArc
 50
109.8964806109
 51
132.0
  0
ARC
  5
1B7B
330
74
100
AcDbEntity
  8
0
  6
Continuous
100
AcDbCircle
 10
136.7620141334999
 20
158.7627507070999
 30
0.0
 40
64.0
100
AcDbArc
 50
150.3142602048999
 51
160.1035193893999
  0
ARC
  5
1B7C
330
74
100
AcDbEntity
  8
0
  6
Continuous
100
AcDbCircle
 10
136.7620141334999
 20
158.7627507070999
 30
0.0
 40
63.72173913040001
100
AcDbArc
 50
143.6712507731999
 51
150.3287492267999
  0
ARC
  5
1B7D
330
74
100
AcDbEntity
  8
0
  6
Continuous
100
AcDbCircle
 10
-281.5764474049
 20
158.7627507070999
 30
0.0
 40
358.7384615384999
100
AcDbArc
 50
356.5832208928
 51
3.4167791072
  0
ARC
  5
1B7E
330
74
100
AcDbEntity
  8
0
  6
Continuous
100
AcDbCircle
 10
136.7620141334999
 20
-259.5757108313999
 30
0.0
 40
358.7384615384999
100
AcDbArc
 50
86.5832208928
 51
93.41677910719999
  0
ARC
  5
1B7F
330
74
100
AcDbEntity
  8
0
  6
Continuous
100
AcDbCircle
 10
555.100475672
 20
158.7627507070999
 30
0.0
 40
358.7384615384999
100
AcDbArc
 50
176.5832208928
 51
183.4167791071999
  0
ARC
  5
1B80
330
74
100
AcDbEntity
  8
0
  6
Continuous
100
AcDbCircle
 10
136.7620141334999
 20
577.1012122455998
 30
0.0
 40
358.7384615384999
100
AcDbArc
 50
270.0479143852999
 51
273.4167791072
  0
ARC
  5
1B81
330
74
100
AcDbEntity
  8
0
  6
Continuous
100
AcDbCircle
 10
136.7620141334999
 20
577.1012122455998
 30
0.0
 40
358.7384615384999
100
AcDbArc
 50
266.5832208928
 51
269.9520856147
  0
ARC
  5
1B82
330
74
100
AcDbEntity
  8
0
  6
Continuous
100
AcDbCircle
 10
136.7620141334999
 20
158.7627507070999
 30
0.0
 40
60.5392890573
100
AcDbArc
 50
287.6890182586
 51
342.3109853099
  0
ARC
  5
1B83
330
74
100
AcDbEntity
  8
0
  6
Continuous
100
AcDbCircle
 10
136.7620141334999
 20
158.7627507070999
 30
0.0
 40
60.5392890573
100
AcDbArc
 50
197.6890149164
 51
252.3109820211999
  0
ARC
  5
1B84
330
74
100
AcDbEntity
  8
0
  6
Continuous
100
AcDbCircle
 10
136.7620141334999
 20
158.7627507070999
 30
0.0
 40
60.8511020668
100
AcDbArc
 50
288.1674500378999
 51
341.8325499621
  0
CIRCLE
  5
1B85
330
74
100
AcDbEntity
  8
0
  6
Continuous
100
AcDbCircle
 10
136.7620141334999
 20
158.7627507070999
 30
0.0
 40
55.6222690837
  0
ARC
  5
1B86
330
74
100
AcDbEntity
  8
0
  6
Continuous
100
AcDbCircle
 10
136.7620141334999
 20
158.7627507070999
 30
0.0
 40
60.5392890573
100
AcDbArc
 50
107.6890182596999
 51
162.3109853012
  0
ARC
  5
1B87
330
74
100
AcDbEntity
  8
0
  6
Continuous
100
AcDbCircle
 10
136.7620141334999
 20
158.7627507070999
 30
0.0
 40
60.5392890573
100
AcDbArc
 50
17.6890149251
 51
72.3109820222
  0
ARC
  5
1B88
330
74
100
AcDbEntity
  8
0
  6
Continuous
100
AcDbCircle
 10
136.7620141334999
 20
158.7627507070999
 30
0.0
 40
60.8511020668
100
AcDbArc
 50
198.1674500379
 51
251.8325499621
  0
ARC
  5
1B89
330
74
100
AcDbEntity
  8
0
  6
Continuous
100
AcDbCircle
 10
136.7620141334999
 20
158.7627507070999
 30
0.0
 40
60.8511020668
100
AcDbArc
 50
18.1674500379
 51
71.8325499621
  0
ARC
  5
1B8A
330
74
100
AcDbEntity
  8
0
  6
Continuous
100
AcDbCircle
 10
136.7620141334999
 20
158.7627507070999
 30
0.0
 40
60.8511020668
100
AcDbArc
 50
108.1674500379
 51
161.8325499620999
  0
CIRCLE
  5
1B8B
330
74
100
AcDbEntity
  8
0
  6
Continuous
100
AcDbCircle
 10
136.7620141334999
 20
158.7627507070999
 30
0.0
 40
55.1546557156
  0
ARC
  5
1B8C
330
74
100
AcDbEntity
  8
0
  6
Continuous
100
AcDbCircle
 10
275.0478709238
 20
158.7627507070999
 30
0.0
 40
47.5
100
AcDbArc
 50
90.0
 51
270.0
  0
ARC
  5
1B8D
330
74
100
AcDbEntity
  8
0
  6
Continuous
100
AcDbCircle
 10
275.5478709238
 20
103.6080948476
 30
0.0
 40
0.5
100
AcDbArc
 50
180.0
 51
249.2647659646999
  0
ARC
  5
1B8E
330
74
100
AcDbEntity
  8
0
  6
Continuous
100
AcDbCircle
 10
275.5478709238
 20
213.9174065665999
 30
0.0
 40
0.5
100
AcDbArc
 50
110.7352340353
 51
180.0
  0
ARC
  5
1B8F
330
74
100
AcDbEntity
  8
0
  6
Continuous
100
AcDbCircle
 10
278.7898521750999
 20
102.9154198319
 30
0.0
 40
0.9999999937
100
AcDbArc
 50
249.2652030450999
 51
264.6903656340999
  0
ARC
  5
1B90
330
74
100
AcDbEntity
  8
0
  6
Continuous
100
AcDbCircle
 10
278.7898521746
 20
214.6100815822
 30
0.0
 40
0.9999999937
100
AcDbArc
 50
95.30963436230001
 51
110.7347969572999
  0
LINE
  5
1BF6
330
74
100
AcDbEntity
  8
0
  6
Continuous
100
AcDbLine
 10
284.5283011041998
 20
216.1533211636999
 30
0.0
 11
279.3329562738999
 21
215.6649211877
 31
0.0
  0
LINE
  5
1BF7
330
74
100
AcDbEntity
  8
0
  6
Continuous
100
AcDbLine
 10
279.3329562738999
 20
215.6649211877
 30
0.0
 11
278.697314159
 21
215.6057907029
 31
0.0
  0
LINE
  5
1C06
330
74
100
AcDbEntity
  8
0
  6
Continuous
100
AcDbLine
 10
289.7824631085
 20
216.5803849865
 30
0.0
 11
289.4417994863
 21
216.5582461176
 31
0.0
  0
LINE
  5
1C07
330
74
100
AcDbEntity
  8
0
  6
Continuous
100
AcDbLine
 10
289.4417994863
 20
216.5582461176
 30
0.0
 11
289.0845577909
 21
216.5274742922999
 31
0.0
  0
LINE
  5
1C08
330
74
100
AcDbEntity
  8
0
  6
Continuous
100
AcDbLine
 10
289.0845577909
 20
216.5274742922999
 30
0.0
 11
288.7209160473
 21
216.4878833579
 31
0.0
  0
LINE
  5
1C09
330
74
100
AcDbEntity
  8
0
  6
Continuous
100
AcDbLine
 10
289.5867598491999
 20
216.6192437848
 30
0.0
 11
289.2175067778999
 21
216.5947617183999
 31
0.0
  0
LINE
  5
1C0A
330
74
100
AcDbEntity
  8
0
  6
Continuous
100
AcDbLine
 10
289.2175067778999
 20
216.5947617183999
 30
0.0
 11
288.8573690855
 21
216.5660519001999
 31
0.0
  0
LINE
  5
1C0B
330
74
100
AcDbEntity
  8
0
  6
Continuous
100
AcDbLine
 10
288.8573690855
 20
216.5660519001999
 30
0.0
 11
288.6174505944
 21
216.5441273618
 31
0.0
  0
LINE
  5
1C29
330
74
100
AcDbEntity
  8
0
  6
Continuous
100
AcDbLine
 10
289.8030108652999
 20
177.3732897334999
 30
0.0
 11
304.3781394736
 21
178.2884939758
 31
0.0
  0
LINE
  5
1C2A
330
74
100
AcDbEntity
  8
0
  6
Continuous
100
AcDbLine
 10
304.3781394736
 20
178.2884939758
 30
0.0
 11
319.4470458706999
 21
179.210759644
 31
0.0
  0
LINE
  5
1C2B
330
74
100
AcDbEntity
  8
0
  6
Continuous
100
AcDbLine
 10
319.4470458706999
 20
179.210759644
 30
0.0
 11
335.0478709238
 21
180.1430988895
 31
0.0
  0
LINE
  5
1C2C
330
74
100
AcDbEntity
  8
0
  6
Continuous
100
AcDbLine
 10
289.7824631080999
 20
177.7358313456
 30
0.0
 11
304.3639899337
 21
178.6639385677999
 31
0.0
  0
LINE
  5
1C2D
330
74
100
AcDbEntity
  8
0
  6
Continuous
100
AcDbLine
 10
304.3639899337
 20
178.6639385677999
 30
0.0
 11
319.4397371304
 21
179.5987560768999
 31
0.0
  0
LINE
  5
1C2E
330
74
100
AcDbEntity
  8
0
  6
Continuous
100
AcDbLine
 10
319.4397371304
 20
179.5987560768999
 30
0.0
 11
335.0478709239
 21
180.5433454225999
 31
0.0
  0
LINE
  5
1C2F
330
74
100
AcDbEntity
  8
0
  6
Continuous
100
AcDbLine
 10
288.359196171
 20
177.1576183458
 30
0.0
 11
288.4554734129
 21
177.0496248072999
 31
0.0
  0
LINE
  5
1C30
330
74
100
AcDbEntity
  8
0
  6
Continuous
100
AcDbLine
 10
288.4554734129
 20
177.0496248072999
 30
0.0
 11
288.5580428515
 21
176.937330732
 31
0.0
  0
LINE
  5
1C31
330
74
100
AcDbEntity
  8
0
  6
Continuous
100
AcDbLine
 10
288.5580428515
 20
176.937330732
 30
0.0
 11
288.6644007576999
 21
176.8234772538999
 31
0.0
  0
LINE
  5
1C32
330
74
100
AcDbEntity
  8
0
  6
Continuous
100
AcDbLine
 10
288.3592002322
 20
140.3678863266999
 30
0.0
 11
288.4554755934
 21
140.4758785675999
 31
0.0
  0
LINE
  5
1C33
330
74
100
AcDbEntity
  8
0
  6
Continuous
100
AcDbLine
 10
288.4554755934
 20
140.4758785675999
 30
0.0
 11
288.558043739
 21
140.5881716087999
 31
0.0
  0
LINE
  5
1C34
330
74
100
AcDbEntity
  8
0
  6
Continuous
100
AcDbLine
 10
288.558043739
 20
140.5881716087999
 30
0.0
 11
288.6644007706
 21
140.7020241470999
 31
0.0
  0
LINE
  5
1C35
330
74
100
AcDbEntity
  8
0
  6
Continuous
100
AcDbLine
 10
289.7824646536999
 20
139.7896768695999
 30
0.0
 11
289.7883912185
 21
139.9082295154999
 31
0.0
  0
LINE
  5
1C36
330
74
100
AcDbEntity
  8
0
  6
Continuous
100
AcDbLine
 10
289.7883912185
 20
139.9082295154999
 30
0.0
 11
289.7952745467999
 21
140.0296848585
 31
0.0
  0
LINE
  5
1C37
330
74
100
AcDbEntity
  8
0
  6
Continuous
100
AcDbLine
 10
289.7952745467999
 20
140.0296848585
 30
0.0
 11
289.8030108704999
 21
140.1522116752
 31
0.0
  0
LINE
  5
1C38
330
74
100
AcDbEntity
  8
0
  6
Continuous
100
AcDbLine
 10
289.7824631334
 20
177.7358313472999
 30
0.0
 11
289.7883901109
 21
177.6172756713999
 31
0.0
  0
LINE
  5
1C39
330
74
100
AcDbEntity
  8
0
  6
Continuous
100
AcDbLine
 10
289.7883901109
 20
177.6172756713999
 30
0.0
 11
289.7952739472
 21
177.4958181162999
 31
0.0
  0
LINE
  5
1C3A
330
74
100
AcDbEntity
  8
0
  6
Continuous
100
AcDbLine
 10
289.7952739472
 20
177.4958181162999
 30
0.0
 11
289.8030108652999
 21
177.3732897334999
 31
0.0
  0
LINE
  5
1C3B
330
74
100
AcDbEntity
  8
0
  6
Continuous
100
AcDbLine
 10
289.7824631334
 20
100.9451164263999
 30
0.0
 11
289.7883901109
 21
100.91373046
 31
0.0
  0
LINE
  5
1C3C
330
74
100
AcDbEntity
  8
0
  6
Continuous
100
AcDbLine
 10
289.7883901109
 20
100.91373046
 30
0.0
 11
289.7952739472
 21
100.8971072483999
 31
0.0
  0
LINE
  5
1C3D
330
74
100
AcDbEntity
  8
0
  6
Continuous
100
AcDbLine
 10
289.7952739472
 20
100.8971072483999
 30
0.0
 11
289.7996631193
 21
100.894338256
 31
0.0
  0
LINE
  5
1C4E
330
74
100
AcDbEntity
  8
0
  6
Continuous
100
AcDbLine
 10
288.3592256991
 20
140.3678605097999
 30
0.0
 11
285.7194115176
 21
143.0719432884999
 31
0.0
  0
LINE
  5
1C4F
330
74
100
AcDbEntity
  8
0
  6
Continuous
100
AcDbLine
 10
285.7194115176
 20
143.0719432884999
 30
0.0
 11
283.5576691467999
 21
145.6521749332999
 31
0.0
  0
LINE
  5
1C50
330
74
100
AcDbEntity
  8
0
  6
Continuous
100
AcDbLine
 10
283.5576691467999
 20
145.6521749332999
 30
0.0
 11
281.8208043207
 21
148.135469136
 31
0.0
  0
LINE
  5
1C51
330
74
100
AcDbEntity
  8
0
  6
Continuous
100
AcDbLine
 10
281.8208043207
 20
148.135469136
 30
0.0
 11
280.5071788698
 21
150.4678371848999
 31
0.0
  0
LINE
  5
1C52
330
74
100
AcDbEntity
  8
0
  6
Continuous
100
AcDbLine
 10
280.5071788698
 20
150.4678371848999
 30
0.0
 11
279.5579954402
 21
152.6670593877
 31
0.0
  0
LINE
  5
1C53
330
74
100
AcDbEntity
  8
0
  6
Continuous
100
AcDbLine
 10
279.5579954402
 20
152.6670593877
 30
0.0
 11
278.9211568869
 21
154.7581134246999
 31
0.0
  0
LINE
  5
1C54
330
74
100
AcDbEntity
  8
0
  6
Continuous
100
AcDbLine
 10
278.9211568869
 20
154.7581134246999
 30
0.0
 11
278.5551613956
 21
156.7776999033999
 31
0.0
  0
LINE
  5
1C55
330
74
100
AcDbEntity
  8
0
  6
Continuous
100
AcDbLine
 10
278.5551613956
 20
156.7776999033999
 30
0.0
 11
278.4357447635
 21
158.7627507070999
 31
0.0
  0
LINE
  5
1C56
330
74
100
AcDbEntity
  8
0
  6
Continuous
100
AcDbLine
 10
288.6644007659999
 20
140.7020241519
 30
0.0
 11
286.0245670407
 21
143.3610532190999
 31
0.0
  0
LINE
  5
1C57
330
74
100
AcDbEntity
  8
0
  6
Continuous
100
AcDbLine
 10
286.0245670407
 20
143.3610532190999
 30
0.0
 11
283.8628476424
 21
145.8965820497
 31
0.0
  0
LINE
  5
1C58
330
74
100
AcDbEntity
  8
0
  6
Continuous
100
AcDbLine
 10
283.8628476424
 20
145.8965820497
 30
0.0
 11
282.1260010267999
 21
148.3354701298999
 31
0.0
  0
LINE
  5
1C59
330
74
100
AcDbEntity
  8
0
  6
Continuous
100
AcDbLine
 10
282.1260010267999
 20
148.3354701298999
 30
0.0
 11
280.8123900641999
 21
150.6250649675
 31
0.0
  0
LINE
  5
1C5A
330
74
100
AcDbEntity
  8
0
  6
Continuous
100
AcDbLine
 10
280.8123900641999
 20
150.6250649675
 30
0.0
 11
279.8632110452999
 21
152.7831947812999
 31
0.0
  0
LINE
  5
1C5B
330
74
100
AcDbEntity
  8
0
  6
Continuous
100
AcDbLine
 10
279.8632110452999
 20
152.7831947812999
 30
0.0
 11
279.2263703383
 21
154.8346597394
 31
0.0
  0
LINE
  5
1C5C
330
74
100
AcDbEntity
  8
0
  6
Continuous
100
AcDbLine
 10
279.2263703383
 20
154.8346597394
 30
0.0
 11
278.8603691849
 21
156.8156862103
 31
0.0
  0
LINE
  5
1C5D
330
74
100
AcDbEntity
  8
0
  6
Continuous
100
AcDbLine
 10
278.8603691849
 20
156.8156862103
 30
0.0
 11
278.7409450203
 21
158.7627507070999
 31
0.0
  0
LINE
  5
1C5E
330
74
100
AcDbEntity
  8
0
  6
Continuous
100
AcDbLine
 10
289.8030108652999
 20
140.1522116807
 30
0.0
 11
289.5304905704999
 21
140.1955963910999
 31
0.0
  0
LINE
  5
1C5F
330
74
100
AcDbEntity
  8
0
  6
Continuous
100
AcDbLine
 10
289.5304905704999
 20
140.1955963910999
 30
0.0
 11
289.2446891274
 21
140.2982944721999
 31
0.0
  0
LINE
  5
1C60
330
74
100
AcDbEntity
  8
0
  6
Continuous
100
AcDbLine
 10
289.2446891274
 20
140.2982944721999
 30
0.0
 11
288.9537488140999
 21
140.4662622093
 31
0.0
  0
LINE
  5
1C61
330
74
100
AcDbEntity
  8
0
  6
Continuous
100
AcDbLine
 10
288.9537488140999
 20
140.4662622093
 30
0.0
 11
288.6644007659999
 21
140.7020241519
 31
0.0
  0
LINE
  5
1C62
330
74
100
AcDbEntity
  8
0
  6
Continuous
100
AcDbLine
 10
289.7824631085
 20
139.7896700701
 30
0.0
 11
289.4417994863
 21
139.8359621863999
 31
0.0
  0
LINE
  5
1C63
330
74
100
AcDbEntity
  8
0
  6
Continuous
100
AcDbLine
 10
289.4417994863
 20
139.8359621863999
 30
0.0
 11
289.0845577909
 21
139.9442948401
 31
0.0
  0
LINE
  5
1C64
330
74
100
AcDbEntity
  8
0
  6
Continuous
100
AcDbLine
 10
289.0845577909
 20
139.9442948401
 30
0.0
 11
288.7209160473
 21
140.1207382780999
 31
0.0
  0
LINE
  5
1C65
330
74
100
AcDbEntity
  8
0
  6
Continuous
100
AcDbLine
 10
288.7209160473
 20
140.1207382780999
 30
0.0
 11
288.3592256991
 21
140.3678688320999
 31
0.0
  0
LINE
  5
1C66
330
74
100
AcDbEntity
  8
0
  6
Continuous
100
AcDbLine
 10
335.0478709239
 20
136.9821559915999
 30
0.0
 11
319.4397371307
 21
137.9267453371999
 31
0.0
  0
LINE
  5
1C67
330
74
100
AcDbEntity
  8
0
  6
Continuous
100
AcDbLine
 10
319.4397371307
 20
137.9267453371999
 30
0.0
 11
304.3639899342
 21
138.8615628463
 31
0.0
  0
LINE
  5
1C68
330
74
100
AcDbEntity
  8
0
  6
Continuous
100
AcDbLine
 10
304.3639899342
 20
138.8615628463
 30
0.0
 11
289.7824631085
 21
139.7896700686
 31
0.0
  0
LINE
  5
1C69
330
74
100
AcDbEntity
  8
0
  6
Continuous
100
AcDbLine
 10
335.0478709238
 20
137.3824025246999
 30
0.0
 11
319.4470458709
 21
138.3147417702
 31
0.0
  0
LINE
  5
1C6A
330
74
100
AcDbEntity
  8
0
  6
Continuous
100
AcDbLine
 10
319.4470458709
 20
138.3147417702
 30
0.0
 11
304.3781394740999
 21
139.2370074383
 31
0.0
  0
LINE
  5
1C6B
330
74
100
AcDbEntity
  8
0
  6
Continuous
100
AcDbLine
 10
304.3781394740999
 20
139.2370074383
 30
0.0
 11
289.8030108652999
 21
140.1522116807
 31
0.0
  0
LINE
  5
1C6C
330
74
100
AcDbEntity
  8
0
  6
Continuous
100
AcDbLine
 10
288.3592259564
 20
177.1576327629999
 30
0.0
 11
288.7209167495
 21
177.4047635522
 31
0.0
  0
LINE
  5
1C6D
330
74
100
AcDbEntity
  8
0
  6
Continuous
100
AcDbLine
 10
288.7209167495
 20
177.4047635522
 30
0.0
 11
289.0845572341999
 21
177.5812063464
 31
0.0
  0
LINE
  5
1C6E
330
74
100
AcDbEntity
  8
0
  6
Continuous
100
AcDbLine
 10
289.0845572341999
 20
177.5812063464
 30
0.0
 11
289.4417977431999
 21
177.6895387027999
 31
0.0
  0
LINE
  5
1C6F
330
74
100
AcDbEntity
  8
0
  6
Continuous
100
AcDbLine
 10
289.4417977431999
 20
177.6895387027999
 30
0.0
 11
289.7824631080999
 21
177.735831344
 31
0.0
  0
LINE
  5
1C70
330
74
100
AcDbEntity
  8
0
  6
Continuous
100
AcDbLine
 10
288.6644007659999
 20
176.8234772623
 30
0.0
 11
288.9537493601
 21
177.0592396216999
 31
0.0
  0
LINE
  5
1C71
330
74
100
AcDbEntity
  8
0
  6
Continuous
100
AcDbLine
 10
288.9537493601
 20
177.0592396216999
 30
0.0
 11
289.2446886775999
 21
177.2272067388
 31
0.0
  0
LINE
  5
1C72
330
74
100
AcDbEntity
  8
0
  6
Continuous
100
AcDbLine
 10
289.2446886775999
 20
177.2272067388
 30
0.0
 11
289.5304891708
 21
177.3299045965
 31
0.0
  0
LINE
  5
1C73
330
74
100
AcDbEntity
  8
0
  6
Continuous
100
AcDbLine
 10
289.5304891708
 20
177.3299045965
 30
0.0
 11
289.8030108652999
 21
177.3732897334999
 31
0.0
  0
LINE
  5
1C8D
330
74
100
AcDbEntity
  8
0
  6
Continuous
100
AcDbLine
 10
289.7824646536999
 20
216.5803642627
 30
0.0
 11
289.7883912185
 21
216.6117586481
 31
0.0
  0
LINE
  5
1C8E
330
74
100
AcDbEntity
  8
0
  6
Continuous
100
AcDbLine
 10
289.7883912185
 20
216.6117586481
 30
0.0
 11
289.7952745467999
 21
216.6283887770999
 31
0.0
  0
LINE
  5
1C8F
330
74
100
AcDbEntity
  8
0
  6
Continuous
100
AcDbLine
 10
289.7952745467999
 20
216.6283887770999
 30
0.0
 11
289.7996633443999
 21
216.6311610363
 31
0.0
  0
LINE
  5
1C90
330
74
100
AcDbEntity
  8
0
  6
Continuous
100
AcDbLine
 10
278.7409450203
 20
158.7627507070999
 30
0.0
 11
278.8603468016999
 21
160.7096320392999
 31
0.0
  0
LINE
  5
1C91
330
74
100
AcDbEntity
  8
0
  6
Continuous
100
AcDbLine
 10
278.8603468016999
 20
160.7096320392999
 30
0.0
 11
279.2262270049
 21
162.6902602682999
 31
0.0
  0
LINE
  5
1C92
330
74
100
AcDbEntity
  8
0
  6
Continuous
100
AcDbLine
 10
279.2262270049
 20
162.6902602682999
 30
0.0
 11
279.8628448973
 21
164.7413276994
 31
0.0
  0
LINE
  5
1C93
330
74
100
AcDbEntity
  8
0
  6
Continuous
100
AcDbLine
 10
279.8628448973
 20
164.7413276994
 30
0.0
 11
280.811722512
 21
166.8991157447999
 31
0.0
  0
LINE
  5
1C94
330
74
100
AcDbEntity
  8
0
  6
Continuous
100
AcDbLine
 10
280.811722512
 20
166.8991157447999
 30
0.0
 11
282.1253988315
 21
169.1890927384
 31
0.0
  0
LINE
  5
1C95
330
74
100
AcDbEntity
  8
0
  6
Continuous
100
AcDbLine
 10
282.1253988315
 20
169.1890927384
 30
0.0
 11
283.8624656508999
 21
171.628430842
 31
0.0
  0
LINE
  5
1C96
330
74
100
AcDbEntity
  8
0
  6
Continuous
100
AcDbLine
 10
283.8624656508999
 20
171.628430842
 30
0.0
 11
286.0243331177
 21
174.1641944561999
 31
0.0
  0
LINE
  5
1C97
330
74
100
AcDbEntity
  8
0
  6
Continuous
100
AcDbLine
 10
286.0243331177
 20
174.1641944561999
 30
0.0
 11
288.6644007659999
 21
176.8234772623
 31
0.0
  0
LINE
  5
1C98
330
74
100
AcDbEntity
  8
0
  6
Continuous
100
AcDbLine
 10
278.4357447635
 20
158.7627507070999
 30
0.0
 11
278.5551384319
 21
160.7476098907
 31
0.0
  0
LINE
  5
1C99
330
74
100
AcDbEntity
  8
0
  6
Continuous
100
AcDbLine
 10
278.5551384319
 20
160.7476098907
 30
0.0
 11
278.9210122834999
 21
162.7667901867
 31
0.0
  0
LINE
  5
1C9A
330
74
100
AcDbEntity
  8
0
  6
Continuous
100
AcDbLine
 10
278.9210122834999
 20
162.7667901867
 30
0.0
 11
279.5576272436999
 21
164.8574387727
 31
0.0
  0
LINE
  5
1C9B
330
74
100
AcDbEntity
  8
0
  6
Continuous
100
AcDbLine
 10
279.5576272436999
 20
164.8574387727
 30
0.0
 11
280.5065085100999
 21
167.0563129441999
 31
0.0
  0
LINE
  5
1C9C
330
74
100
AcDbEntity
  8
0
  6
Continuous
100
AcDbLine
 10
280.5065085100999
 20
167.0563129441999
 30
0.0
 11
281.8201990461
 21
169.3890714972
 31
0.0
  0
LINE
  5
1C9D
330
74
100
AcDbEntity
  8
0
  6
Continuous
100
AcDbLine
 10
281.8201990461
 20
169.3890714972
 30
0.0
 11
283.5572852906
 21
171.8728267524
 31
0.0
  0
LINE
  5
1C9E
330
74
100
AcDbEntity
  8
0
  6
Continuous
100
AcDbLine
 10
283.5572852906
 20
171.8728267524
 30
0.0
 11
285.7191766625999
 21
174.4532989677999
 31
0.0
  0
LINE
  5
1C9F
330
74
100
AcDbEntity
  8
0
  6
Continuous
100
AcDbLine
 10
285.7191766625999
 20
174.4532989677999
 30
0.0
 11
288.3592259563
 21
177.1576411705
 31
0.0
  0
LINE
  5
1CA2
330
74
100
AcDbEntity
  8
0
  6
Continuous
100
AcDbLine
 10
288.359196171
 20
101.0857557136
 30
0.0
 11
288.4554734129
 21
101.0267624345999
 31
0.0
  0
LINE
  5
1CA3
330
74
100
AcDbEntity
  8
0
  6
Continuous
100
AcDbLine
 10
288.4554734129
 20
101.0267624345999
 30
0.0
 11
288.5580428515
 21
100.9909591801
 31
0.0
  0
LINE
  5
1CA4
330
74
100
AcDbEntity
  8
0
  6
Continuous
100
AcDbLine
 10
288.5580428515
 20
100.9909591801
 30
0.0
 11
288.617432327
 21
100.9813758376
 31
0.0
  0
LINE
  5
1CA5
330
74
100
AcDbEntity
  8
0
  6
Continuous
100
AcDbLine
 10
288.3592001972999
 20
216.4397355686999
 30
0.0
 11
288.4554755735999
 21
216.4987338003999
 31
0.0
  0
LINE
  5
1CA6
330
74
100
AcDbEntity
  8
0
  6
Continuous
100
AcDbLine
 10
288.4554755735999
 20
216.4987338003999
 30
0.0
 11
288.5580437310999
 21
216.5345403903999
 31
0.0
  0
LINE
  5
1CA7
330
74
100
AcDbEntity
  8
0
  6
Continuous
100
AcDbLine
 10
288.5580437310999
 20
216.5345403903999
 30
0.0
 11
288.6174324086999
 21
216.5441248111999
 31
0.0
  0
LINE
  5
1CAF
330
74
100
AcDbEntity
  8
0
  6
Continuous
100
AcDbLine
 10
288.7209167495
 20
101.0376179739999
 30
0.0
 11
289.0845572341999
 21
100.9980271728
 31
0.0
  0
LINE
  5
1CB0
330
74
100
AcDbEntity
  8
0
  6
Continuous
100
AcDbLine
 10
289.0845572341999
 20
100.9980271728
 30
0.0
 11
289.4417977431999
 21
100.9672553793
 31
0.0
  0
LINE
  5
1CB1
330
74
100
AcDbEntity
  8
0
  6
Continuous
100
AcDbLine
 10
289.4417977431999
 20
100.9672553793
 30
0.0
 11
289.7824631080999
 21
100.9451164277
 31
0.0
  0
LINE
  5
1CB2
330
74
100
AcDbEntity
  8
0
  6
Continuous
100
AcDbLine
 10
288.8474093324999
 20
100.9603139359
 30
0.0
 11
289.2064057058
 21
100.9315519778
 31
0.0
  0
LINE
  5
1CB3
330
74
100
AcDbEntity
  8
0
  6
Continuous
100
AcDbLine
 10
289.2064057058
 20
100.9315519778
 30
0.0
 11
289.5748754329
 21
100.9069697679999
 31
0.0
  0
LINE
  5
1CB4
330
74
100
AcDbEntity
  8
0
  6
Continuous
100
AcDbLine
 10
289.7824631080999
 20
100.9451164281999
 30
0.0
 11
319.4397084978
 21
99.398962286
 31
0.0
  0
LINE
  5
1CB5
330
74
100
AcDbEntity
  8
0
  6
Continuous
100
AcDbLine
 10
319.4397084978
 20
99.398962286
 30
0.0
 11
335.0478709238
 21
98.5829725932
 31
0.0
  0
LINE
  5
1CE8
330
74
100
AcDbEntity
  8
0
  6
Continuous
100
AcDbLine
 10
196.9417922472
 20
180.5433454233
 30
0.0
 11
196.9911662265
 21
180.3462367724
 31
0.0
  0
LINE
  5
1CE9
330
74
100
AcDbEntity
  8
0
  6
Continuous
100
AcDbLine
 10
196.9911662265
 20
180.3462367724
 30
0.0
 11
196.9997014498
 21
180.1430988886
 31
0.0
  0
LINE
  5
1CEA
330
74
100
AcDbEntity
  8
0
  6
Continuous
100
AcDbLine
 10
114.9814194173
 20
218.9425288208
 30
0.0
 11
115.1785280681999
 21
218.9919028000999
 31
0.0
  0
LINE
  5
1CEB
330
74
100
AcDbEntity
  8
0
  6
Continuous
100
AcDbLine
 10
115.1785280681999
 20
218.9919028000999
 30
0.0
 11
115.3816659520999
 21
219.0004380233
 31
0.0
  0
LINE
  5
1CEC
330
74
100
AcDbEntity
  8
0
  6
Continuous
100
AcDbLine
 10
194.5796484141999
 20
177.7358313472999
 30
0.0
 11
194.6110343806
 21
177.6172756713999
 31
0.0
  0
LINE
  5
1CED
330
74
100
AcDbEntity
  8
0
  6
Continuous
100
AcDbLine
 10
194.6110343806
 20
177.6172756713999
 30
0.0
 11
194.6276575922999
 21
177.4958181162999
 31
0.0
  0
LINE
  5
1CEE
330
74
100
AcDbEntity
  8
0
  6
Continuous
100
AcDbLine
 10
194.6276575922999
 20
177.4958181162999
 30
0.0
 11
194.6292674437
 21
177.3732897334999
 31
0.0
  0
LINE
  5
1CEF
330
74
100
AcDbEntity
  8
0
  6
Continuous
100
AcDbLine
 10
194.439009127
 20
177.1576183458
 30
0.0
 11
194.4980024059999
 21
177.0496248072999
 31
0.0
  0
LINE
  5
1CF0
330
74
100
AcDbEntity
  8
0
  6
Continuous
100
AcDbLine
 10
194.4980024059999
 20
177.0496248072999
 30
0.0
 11
194.5338056604999
 21
176.937330732
 31
0.0
  0
LINE
  5
1CF1
330
74
100
AcDbEntity
  8
0
  6
Continuous
100
AcDbLine
 10
194.5338056604999
 20
176.937330732
 30
0.0
 11
194.5455449266
 21
176.8234772538999
 31
0.0
  0
LINE
  5
1CF2
330
74
100
AcDbEntity
  8
0
  6
Continuous
100
AcDbLine
 10
155.1568785419
 20
216.4397355686999
 30
0.0
 11
155.0488862884
 21
216.4987338003999
 31
0.0
  0
LINE
  5
1CF3
330
74
100
AcDbEntity
  8
0
  6
Continuous
100
AcDbLine
 10
155.0488862884
 20
216.4987338003999
 30
0.0
 11
154.9365932379999
 21
216.5345403903999
 31
0.0
  0
LINE
  5
1CF4
330
74
100
AcDbEntity
  8
0
  6
Continuous
100
AcDbLine
 10
154.9365932379999
 20
216.5345403903999
 30
0.0
 11
154.822740694
 21
216.5462812265
 31
0.0
  0
LINE
  5
1CF5
330
74
100
AcDbEntity
  8
0
  6
Continuous
100
AcDbLine
 10
155.735087971
 20
216.5803642627
 30
0.0
 11
155.6165353251
 21
216.6117586481
 31
0.0
  0
LINE
  5
1CF6
330
74
100
AcDbEntity
  8
0
  6
Continuous
100
AcDbLine
 10
155.6165353251
 20
216.6117586481
 30
0.0
 11
155.4950799820999
 21
216.6283887770999
 31
0.0
  0
LINE
  5
1CF7
330
74
100
AcDbEntity
  8
0
  6
Continuous
100
AcDbLine
 10
155.4950799820999
 20
216.6283887770999
 30
0.0
 11
155.3725531654
 21
216.6300039124
 31
0.0
  0
LINE
  5
1CF8
330
74
100
AcDbEntity
  8
0
  6
Continuous
100
AcDbLine
 10
136.8620141335
 20
218.6627507070999
 30
0.0
 11
136.9382872752
 21
218.6475265099999
 31
0.0
  0
LINE
  5
1CF9
330
74
100
AcDbEntity
  8
0
  6
Continuous
100
AcDbLine
 10
136.9382872752
 20
218.6475265099999
 30
0.0
 11
137.0031499928
 21
218.6040364285
 31
0.0
  0
LINE
  5
1CFA
330
74
100
AcDbEntity
  8
0
  6
Continuous
100
AcDbLine
 10
137.0031499928
 20
218.6040364285
 30
0.0
 11
137.0466807304
 21
218.5386619405
 31
0.0
  0
LINE
  5
1CFB
330
74
100
AcDbEntity
  8
0
  6
Continuous
100
AcDbLine
 10
137.0466807304
 20
218.5386619405
 30
0.0
 11
137.0620141335
 21
218.461307819
 31
0.0
  0
LINE
  5
1CFC
330
74
100
AcDbEntity
  8
0
  6
Continuous
100
AcDbLine
 10
158.142362315
 20
219.0004380233
 30
0.0
 11
158.3454863745999
 21
218.9919048000999
 31
0.0
  0
LINE
  5
1CFD
330
74
100
AcDbEntity
  8
0
  6
Continuous
100
AcDbLine
 10
158.3454863745999
 20
218.9919048000999
 30
0.0
 11
158.5426088498
 21
218.9425288208
 31
0.0
  0
LINE
  5
1CFE
330
74
100
AcDbEntity
  8
0
  6
Continuous
100
AcDbLine
 10
136.6620141335
 20
218.1573599052
 30
0.0
 11
136.6506221767999
 21
218.1575894908999
 31
0.0
  0
LINE
  5
1CFF
330
74
100
AcDbEntity
  8
0
  6
Continuous
100
AcDbLine
 10
136.6506221767999
 20
218.1575894908999
 30
0.0
 11
136.6417455921
 21
218.1580805088999
 31
0.0
  0
LINE
  5
1D00
330
74
100
AcDbEntity
  8
0
  6
Continuous
100
AcDbLine
 10
136.6417455921
 20
218.1580805088999
 30
0.0
 11
136.6344076592
 21
218.1586949636999
 31
0.0
  0
LINE
  5
1D01
330
74
100
AcDbEntity
  8
0
  6
Continuous
100
AcDbLine
 10
136.6344076592
 20
218.1586949636999
 30
0.0
 11
136.6278078213999
 21
218.1594110407
 31
0.0
  0
LINE
  5
1D02
330
74
100
AcDbEntity
  8
0
  6
Continuous
100
AcDbLine
 10
136.6278078213999
 20
218.1594110407
 30
0.0
 11
136.6217250679
 21
218.1602102393999
 31
0.0
  0
LINE
  5
1D03
330
74
100
AcDbEntity
  8
0
  6
Continuous
100
AcDbLine
 10
136.6217250679
 20
218.1602102393999
 30
0.0
 11
136.6162234237
 21
218.1610501264
 31
0.0
  0
LINE
  5
1D04
330
74
100
AcDbEntity
  8
0
  6
Continuous
100
AcDbLine
 10
136.6162234237
 20
218.1610501264
 30
0.0
 11
136.6113433945
 21
218.1618898836
 31
0.0
  0
LINE
  5
1D05
330
74
100
AcDbEntity
  8
0
  6
Continuous
100
AcDbLine
 10
136.6113433945
 20
218.1618898836
 30
0.0
 11
136.6068302069
 21
218.1627473295999
 31
0.0
  0
LINE
  5
1D06
330
74
100
AcDbEntity
  8
0
  6
Continuous
100
AcDbLine
 10
136.6068302069
 20
218.1627473295999
 30
0.0
 11
136.6025581094999
 21
218.1636319175999
 31
0.0
  0
LINE
  5
1D07
330
74
100
AcDbEntity
  8
0
  6
Continuous
100
AcDbLine
 10
136.6025581094999
 20
218.1636319175999
 30
0.0
 11
136.5984668767
 21
218.1645469047
 31
0.0
  0
LINE
  5
1D08
330
74
100
AcDbEntity
  8
0
  6
Continuous
100
AcDbLine
 10
136.5984668767
 20
218.1645469047
 30
0.0
 11
136.5945100965999
 21
218.1654962994
 31
0.0
  0
LINE
  5
1D09
330
74
100
AcDbEntity
  8
0
  6
Continuous
100
AcDbLine
 10
136.5945100965999
 20
218.1654962994
 30
0.0
 11
136.590652361
 21
218.1664843148999
 31
0.0
  0
LINE
  5
1D0A
330
74
100
AcDbEntity
  8
0
  6
Continuous
100
AcDbLine
 10
136.590652361
 20
218.1664843148999
 30
0.0
 11
136.5868660646999
 21
218.1675153136
 31
0.0
  0
LINE
  5
1D0B
330
74
100
AcDbEntity
  8
0
  6
Continuous
100
AcDbLine
 10
136.5868660646999
 20
218.1675153136
 30
0.0
 11
136.5831293656999
 21
218.1685937750999
 31
0.0
  0
LINE
  5
1D0C
330
74
100
AcDbEntity
  8
0
  6
Continuous
100
AcDbLine
 10
136.5831293656999
 20
218.1685937750999
 30
0.0
 11
136.57942483
 21
218.1697242758999
 31
0.0
  0
LINE
  5
1D0D
330
74
100
AcDbEntity
  8
0
  6
Continuous
100
AcDbLine
 10
136.57942483
 20
218.1697242758999
 30
0.0
 11
136.5757384998999
 21
218.1709114758
 31
0.0
  0
LINE
  5
1D0E
330
74
100
AcDbEntity
  8
0
  6
Continuous
100
AcDbLine
 10
136.5757384998999
 20
218.1709114758
 30
0.0
 11
136.5720592370999
 21
218.1721601078999
 31
0.0
  0
LINE
  5
1D0F
330
74
100
AcDbEntity
  8
0
  6
Continuous
100
AcDbLine
 10
136.5720592370999
 20
218.1721601078999
 30
0.0
 11
136.5683782519
 21
218.1734749684
 31
0.0
  0
LINE
  5
1D10
330
74
100
AcDbEntity
  8
0
  6
Continuous
100
AcDbLine
 10
136.5683782519
 20
218.1734749684
 30
0.0
 11
136.5646887610999
 21
218.1748609047
 31
0.0
  0
LINE
  5
1D11
330
74
100
AcDbEntity
  8
0
  6
Continuous
100
AcDbLine
 10
136.5646887610999
 20
218.1748609047
 30
0.0
 11
136.5609857402
 21
218.1763228003
 31
0.0
  0
LINE
  5
1D12
330
74
100
AcDbEntity
  8
0
  6
Continuous
100
AcDbLine
 10
136.5609857402
 20
218.1763228003
 30
0.0
 11
136.5572657438999
 21
218.1778655538999
 31
0.0
  0
LINE
  5
1D13
330
74
100
AcDbEntity
  8
0
  6
Continuous
100
AcDbLine
 10
136.5572657438999
 20
218.1778655538999
 30
0.0
 11
136.5535267779999
 21
218.1794940527999
 31
0.0
  0
LINE
  5
1D14
330
74
100
AcDbEntity
  8
0
  6
Continuous
100
AcDbLine
 10
136.5535267779999
 20
218.1794940527999
 30
0.0
 11
136.5497682094
 21
218.1812131388
 31
0.0
  0
LINE
  5
1D15
330
74
100
AcDbEntity
  8
0
  6
Continuous
100
AcDbLine
 10
136.5497682094
 20
218.1812131388
 30
0.0
 11
136.5459907026
 21
218.1830275670999
 31
0.0
  0
LINE
  5
1D16
330
74
100
AcDbEntity
  8
0
  6
Continuous
100
AcDbLine
 10
136.5459907026
 20
218.1830275670999
 30
0.0
 11
136.5421961734
 21
218.1849419574
 31
0.0
  0
LINE
  5
1D17
330
74
100
AcDbEntity
  8
0
  6
Continuous
100
AcDbLine
 10
136.5421961734
 20
218.1849419574
 30
0.0
 11
136.5383877493
 21
218.1869607408
 31
0.0
  0
LINE
  5
1D18
330
74
100
AcDbEntity
  8
0
  6
Continuous
100
AcDbLine
 10
136.5383877493
 20
218.1869607408
 30
0.0
 11
136.534569727
 21
218.1890881050999
 31
0.0
  0
LINE
  5
1D19
330
74
100
AcDbEntity
  8
0
  6
Continuous
100
AcDbLine
 10
136.534569727
 20
218.1890881050999
 30
0.0
 11
136.5307475157
 21
218.1913279434999
 31
0.0
  0
LINE
  5
1D1A
330
74
100
AcDbEntity
  8
0
  6
Continuous
100
AcDbLine
 10
136.5307475157
 20
218.1913279434999
 30
0.0
 11
136.5269275548999
 21
218.1936838179
 31
0.0
  0
LINE
  5
1D1B
330
74
100
AcDbEntity
  8
0
  6
Continuous
100
AcDbLine
 10
136.5269275548999
 20
218.1936838179
 30
0.0
 11
136.5231171952
 21
218.1961589472
 31
0.0
  0
LINE
  5
1D1C
330
74
100
AcDbEntity
  8
0
  6
Continuous
100
AcDbLine
 10
136.5231171952
 20
218.1961589472
 30
0.0
 11
136.5193246014999
 21
218.1987561900999
 31
0.0
  0
LINE
  5
1D1D
330
74
100
AcDbEntity
  8
0
  6
Continuous
100
AcDbLine
 10
136.5193246014999
 20
218.1987561900999
 30
0.0
 11
136.5155564191
 21
218.2014796949
 31
0.0
  0
LINE
  5
1D1E
330
74
100
AcDbEntity
  8
0
  6
Continuous
100
AcDbLine
 10
136.5155564191
 20
218.2014796949
 30
0.0
 11
136.511795811
 21
218.2043525527999
 31
0.0
  0
LINE
  5
1D1F
330
74
100
AcDbEntity
  8
0
  6
Continuous
100
AcDbLine
 10
136.511795811
 20
218.2043525527999
 30
0.0
 11
136.5080066345999
 21
218.207419014
 31
0.0
  0
LINE
  5
1D20
330
74
100
AcDbEntity
  8
0
  6
Continuous
100
AcDbLine
 10
136.5080066345999
 20
218.207419014
 30
0.0
 11
136.5041646663999
 21
218.210723377
 31
0.0
  0
LINE
  5
1D21
330
74
100
AcDbEntity
  8
0
  6
Continuous
100
AcDbLine
 10
136.5041646663999
 20
218.210723377
 30
0.0
 11
136.5002575768
 21
218.214309925
 31
0.0
  0
LINE
  5
1D22
330
74
100
AcDbEntity
  8
0
  6
Continuous
100
AcDbLine
 10
136.5002575768
 20
218.214309925
 30
0.0
 11
136.4962850152
 21
218.2182229602999
 31
0.0
  0
LINE
  5
1D23
330
74
100
AcDbEntity
  8
0
  6
Continuous
100
AcDbLine
 10
136.4962850152
 20
218.2182229602999
 30
0.0
 11
136.4922589108999
 21
218.2225068006999
 31
0.0
  0
LINE
  5
1D24
330
74
100
AcDbEntity
  8
0
  6
Continuous
100
AcDbLine
 10
136.4922589108999
 20
218.2225068006999
 30
0.0
 11
136.4882039118999
 21
218.2272057747999
 31
0.0
  0
LINE
  5
1D25
330
74
100
AcDbEntity
  8
0
  6
Continuous
100
AcDbLine
 10
136.4882039118999
 20
218.2272057747999
 30
0.0
 11
136.4841579673
 21
218.232364215
 31
0.0
  0
LINE
  5
1D26
330
74
100
AcDbEntity
  8
0
  6
Continuous
100
AcDbLine
 10
136.4841579673
 20
218.232364215
 30
0.0
 11
136.4801730929
 21
218.2380264477
 31
0.0
  0
LINE
  5
1D27
330
74
100
AcDbEntity
  8
0
  6
Continuous
100
AcDbLine
 10
136.4801730929
 20
218.2380264477
 30
0.0
 11
136.4763163894
 21
218.2442367774999
 31
0.0
  0
LINE
  5
1D28
330
74
100
AcDbEntity
  8
0
  6
Continuous
100
AcDbLine
 10
136.4763163894
 20
218.2442367774999
 30
0.0
 11
136.472671421
 21
218.2510394633
 31
0.0
  0
LINE
  5
1D29
330
74
100
AcDbEntity
  8
0
  6
Continuous
100
AcDbLine
 10
136.472671421
 20
218.2510394633
 30
0.0
 11
136.4693401091999
 21
218.2584786845999
 31
0.0
  0
LINE
  5
1D2A
330
74
100
AcDbEntity
  8
0
  6
Continuous
100
AcDbLine
 10
136.4693401091999
 20
218.2584786845999
 30
0.0
 11
136.4664453642999
 21
218.2665984922
 31
0.0
  0
LINE
  5
1D2B
330
74
100
AcDbEntity
  8
0
  6
Continuous
100
AcDbLine
 10
136.4664453642999
 20
218.2665984922
 30
0.0
 11
136.4641347869
 21
218.2754427433
 31
0.0
  0
LINE
  5
1D2C
330
74
100
AcDbEntity
  8
0
  6
Continuous
100
AcDbLine
 10
136.4641347869
 20
218.2754427433
 30
0.0
 11
136.462585955
 21
218.2850550136
 31
0.0
  0
LINE
  5
1D2D
330
74
100
AcDbEntity
  8
0
  6
Continuous
100
AcDbLine
 10
136.462585955
 20
218.2850550136
 30
0.0
 11
136.4620141334999
 21
218.2954785400999
 31
0.0
  0
LINE
  5
1D2E
330
74
100
AcDbEntity
  8
0
  6
Continuous
100
AcDbLine
 10
117.7889334932999
 20
216.5803849877999
 30
0.0
 11
117.9074891691999
 21
216.6117709541
 31
0.0
  0
LINE
  5
1D2F
330
74
100
AcDbEntity
  8
0
  6
Continuous
100
AcDbLine
 10
117.9074891691999
 20
216.6117709541
 30
0.0
 11
118.0289467244
 21
216.6283941658
 31
0.0
  0
LINE
  5
1D30
330
74
100
AcDbEntity
  8
0
  6
Continuous
100
AcDbLine
 10
118.0289467244
 20
216.6283941658
 30
0.0
 11
118.1514751071
 21
216.6300040173
 31
0.0
  0
LINE
  5
1D31
330
74
100
AcDbEntity
  8
0
  6
Continuous
100
AcDbLine
 10
155.1568817721999
 20
101.0857557136
 30
0.0
 11
155.0488882337
 21
101.0267624345999
 31
0.0
  0
LINE
  5
1D32
330
74
100
AcDbEntity
  8
0
  6
Continuous
100
AcDbLine
 10
155.0488882337
 20
101.0267624345999
 30
0.0
 11
154.9365941583999
 21
100.9909591801
 31
0.0
  0
LINE
  5
1D33
330
74
100
AcDbEntity
  8
0
  6
Continuous
100
AcDbLine
 10
154.9365941583999
 20
100.9909591801
 30
0.0
 11
154.8227406802999
 21
100.9792199140999
 31
0.0
  0
LINE
  5
1D34
330
74
100
AcDbEntity
  8
0
  6
Continuous
100
AcDbLine
 10
194.4389989072
 20
140.3678863266999
 30
0.0
 11
194.4979971710999
 21
140.4758785675999
 31
0.0
  0
LINE
  5
1D35
330
74
100
AcDbEntity
  8
0
  6
Continuous
100
AcDbLine
 10
194.4979971710999
 20
140.4758785675999
 30
0.0
 11
194.5338037939
 21
140.5881716087999
 31
0.0
  0
LINE
  5
1D36
330
74
100
AcDbEntity
  8
0
  6
Continuous
100
AcDbLine
 10
194.5338037939
 20
140.5881716087999
 30
0.0
 11
194.5455446625999
 21
140.7020241470999
 31
0.0
  0
LINE
  5
1D37
330
74
100
AcDbEntity
  8
0
  6
Continuous
100
AcDbLine
 10
194.5796276891
 20
139.7896768695999
 30
0.0
 11
194.6110220745
 21
139.9082295154999
 31
0.0
  0
LINE
  5
1D38
330
74
100
AcDbEntity
  8
0
  6
Continuous
100
AcDbLine
 10
194.6110220745
 20
139.9082295154999
 30
0.0
 11
194.6276522035
 21
140.0296848585
 31
0.0
  0
LINE
  5
1D39
330
74
100
AcDbEntity
  8
0
  6
Continuous
100
AcDbLine
 10
194.6276522035
 20
140.0296848585
 30
0.0
 11
194.6292673389
 21
140.1522116752
 31
0.0
  0
LINE
  5
1D3A
330
74
100
AcDbEntity
  8
0
  6
Continuous
100
AcDbLine
 10
196.9997014498
 20
137.3824025255999
 30
0.0
 11
196.9911682264999
 21
137.1792784659999
 31
0.0
  0
LINE
  5
1D3B
330
74
100
AcDbEntity
  8
0
  6
Continuous
100
AcDbLine
 10
196.9911682264999
 20
137.1792784659999
 30
0.0
 11
196.9417922472
 21
136.9821559908
 31
0.0
  0
LINE
  5
1D3C
330
74
100
AcDbEntity
  8
0
  6
Continuous
100
AcDbLine
 10
118.3671296380999
 20
216.4397397873
 30
0.0
 11
118.1200012884999
 21
216.4878834401999
 31
0.0
  0
LINE
  5
1D3D
330
74
100
AcDbEntity
  8
0
  6
Continuous
100
AcDbLine
 10
118.1200012884999
 20
216.4878834401999
 30
0.0
 11
117.9435584942
 21
216.5274742414
 31
0.0
  0
LINE
  5
1D3E
330
74
100
AcDbEntity
  8
0
  6
Continuous
100
AcDbLine
 10
117.9435584942
 20
216.5274742414
 30
0.0
 11
117.8352261378
 21
216.5582460347999
 31
0.0
  0
LINE
  5
1D3F
330
74
100
AcDbEntity
  8
0
  6
Continuous
100
AcDbLine
 10
117.8352261378
 20
216.5582460347999
 30
0.0
 11
117.7889334966
 21
216.5803849865
 31
0.0
  0
LINE
  5
1D40
330
74
100
AcDbEntity
  8
0
  6
Continuous
100
AcDbLine
 10
118.7012875783
 20
216.5462813316
 30
0.0
 11
118.4655252189999
 21
216.5723380098
 31
0.0
  0
LINE
  5
1D41
330
74
100
AcDbEntity
  8
0
  6
Continuous
100
AcDbLine
 10
118.4655252189999
 20
216.5723380098
 30
0.0
 11
118.2975581018
 21
216.5951493636
 31
0.0
  0
LINE
  5
1D42
330
74
100
AcDbEntity
  8
0
  6
Continuous
100
AcDbLine
 10
118.2975581018
 20
216.5951493636
 30
0.0
 11
118.1948602440999
 21
216.6144205286999
 31
0.0
  0
LINE
  5
1D43
330
74
100
AcDbEntity
  8
0
  6
Continuous
100
AcDbLine
 10
118.1948602440999
 20
216.6144205286999
 30
0.0
 11
118.1514751071
 21
216.6300040173
 31
0.0
  0
LINE
  5
1D44
330
74
100
AcDbEntity
  8
0
  6
Continuous
100
AcDbLine
 10
155.1569080340999
 20
216.4397366672
 30
0.0
 11
152.2643217128
 21
216.1824881265
 31
0.0
  0
LINE
  5
1D45
330
74
100
AcDbEntity
  8
0
  6
Continuous
100
AcDbLine
 10
152.2643217128
 20
216.1824881265
 30
0.0
 11
149.5165487973
 21
215.9776881745
 31
0.0
  0
LINE
  5
1D46
330
74
100
AcDbEntity
  8
0
  6
Continuous
100
AcDbLine
 10
149.5165487973
 20
215.9776881745
 30
0.0
 11
146.9120429029999
 21
215.8196569245999
 31
0.0
  0
LINE
  5
1D47
330
74
100
AcDbEntity
  8
0
  6
Continuous
100
AcDbLine
 10
146.9120429029999
 20
215.8196569245999
 30
0.0
 11
144.4549192479
 21
215.703129252
 31
0.0
  0
LINE
  5
1D48
330
74
100
AcDbEntity
  8
0
  6
Continuous
100
AcDbLine
 10
144.4549192479
 20
215.703129252
 30
0.0
 11
142.1488564773
 21
215.6227667767999
 31
0.0
  0
LINE
  5
1D49
330
74
100
AcDbEntity
  8
0
  6
Continuous
100
AcDbLine
 10
142.1488564773
 20
215.6227667767999
 30
0.0
 11
139.9509780420999
 21
215.5724674118
 31
0.0
  0
LINE
  5
1D4A
330
74
100
AcDbEntity
  8
0
  6
Continuous
100
AcDbLine
 10
139.9509780420999
 20
215.5724674118
 30
0.0
 11
137.8199246526
 21
215.5482933566999
 31
0.0
  0
LINE
  5
1D4B
330
74
100
AcDbEntity
  8
0
  6
Continuous
100
AcDbLine
 10
137.8199246526
 20
215.5482933566999
 30
0.0
 11
135.7100821336
 21
215.5482596539
 31
0.0
  0
LINE
  5
1D4C
330
74
100
AcDbEntity
  8
0
  6
Continuous
100
AcDbLine
 10
135.7100821336
 20
215.5482596539
 30
0.0
 11
133.5790729965999
 21
215.5723649350999
 31
0.0
  0
LINE
  5
1D4D
330
74
100
AcDbEntity
  8
0
  6
Continuous
100
AcDbLine
 10
133.5790729965999
 20
215.5723649350999
 30
0.0
 11
131.3814600933999
 21
215.6225861999999
 31
0.0
  0
LINE
  5
1D4E
330
74
100
AcDbEntity
  8
0
  6
Continuous
100
AcDbLine
 10
131.3814600933999
 20
215.6225861999999
 30
0.0
 11
129.0758090688999
 21
215.7028549885999
 31
0.0
  0
LINE
  5
1D4F
330
74
100
AcDbEntity
  8
0
  6
Continuous
100
AcDbLine
 10
129.0758090688999
 20
215.7028549885999
 30
0.0
 11
126.6200191232
 21
215.8192242456999
 31
0.0
  0
LINE
  5
1D50
330
74
100
AcDbEntity
  8
0
  6
Continuous
100
AcDbLine
 10
126.6200191232
 20
215.8192242456999
 30
0.0
 11
124.0137059714
 21
215.9772683156
 31
0.0
  0
LINE
  5
1D51
330
74
100
AcDbEntity
  8
0
  6
Continuous
100
AcDbLine
 10
124.0137059714
 20
215.9772683156
 30
0.0
 11
121.2632593915
 21
216.1821982915999
 31
0.0
  0
LINE
  5
1D52
330
74
100
AcDbEntity
  8
0
  6
Continuous
100
AcDbLine
 10
121.2632593915
 20
216.1821982915999
 30
0.0
 11
118.3671199143
 21
216.4397366862
 31
0.0
  0
LINE
  5
1D53
330
74
100
AcDbEntity
  8
0
  6
Continuous
100
AcDbLine
 10
154.8227406887999
 20
216.5462813316
 30
0.0
 11
151.9784026815
 21
216.2775034962999
 31
0.0
  0
LINE
  5
1D54
330
74
100
AcDbEntity
  8
0
  6
Continuous
100
AcDbLine
 10
151.9784026815
 20
216.2775034962999
 30
0.0
 11
149.2783900197999
 21
216.0630696367999
 31
0.0
  0
LINE
  5
1D55
330
74
100
AcDbEntity
  8
0
  6
Continuous
100
AcDbLine
 10
149.2783900197999
 20
216.0630696367999
 30
0.0
 11
146.7206608312999
 21
215.8973092854
 31
0.0
  0
LINE
  5
1D56
330
74
100
AcDbEntity
  8
0
  6
Continuous
100
AcDbLine
 10
146.7206608312999
 20
215.8973092854
 30
0.0
 11
144.3088032082
 21
215.7749089583
 31
0.0
  0
LINE
  5
1D57
330
74
100
AcDbEntity
  8
0
  6
Continuous
100
AcDbLine
 10
144.3088032082
 20
215.7749089583
 30
0.0
 11
142.0460206341999
 21
215.6904074233999
 31
0.0
  0
LINE
  5
1D58
330
74
100
AcDbEntity
  8
0
  6
Continuous
100
AcDbLine
 10
142.0460206341999
 20
215.6904074233999
 30
0.0
 11
139.8899051157
 21
215.6374792253
 31
0.0
  0
LINE
  5
1D59
330
74
100
AcDbEntity
  8
0
  6
Continuous
100
AcDbLine
 10
139.8899051157
 20
215.6374792253
 30
0.0
 11
137.7996329337999
 21
215.6120310991
 31
0.0
  0
LINE
  5
1D5A
330
74
100
AcDbEntity
  8
0
  6
Continuous
100
AcDbLine
 10
137.7996329337999
 20
215.6120310991
 30
0.0
 11
135.7302591584999
 21
215.6119956159999
 31
0.0
  0
LINE
  5
1D5B
330
74
100
AcDbEntity
  8
0
  6
Continuous
100
AcDbLine
 10
135.7302591584999
 20
215.6119956159999
 30
0.0
 11
133.6400309075999
 21
215.6373713644
 31
0.0
  0
LINE
  5
1D5C
330
74
100
AcDbEntity
  8
0
  6
Continuous
100
AcDbLine
 10
133.6400309075999
 20
215.6373713644
 30
0.0
 11
131.4841769892
 21
215.6902174658
 31
0.0
  0
LINE
  5
1D5D
330
74
100
AcDbEntity
  8
0
  6
Continuous
100
AcDbLine
 10
131.4841769892
 20
215.6902174658
 30
0.0
 11
129.2218002006999
 21
215.7746207038
 31
0.0
  0
LINE
  5
1D5E
330
74
100
AcDbEntity
  8
0
  6
Continuous
100
AcDbLine
 10
129.2218002006999
 20
215.7746207038
 30
0.0
 11
126.8112552138999
 21
215.8968550561
 31
0.0
  0
LINE
  5
1D5F
330
74
100
AcDbEntity
  8
0
  6
Continuous
100
AcDbLine
 10
126.8112552138999
 20
215.8968550561
 30
0.0
 11
124.251754761
 21
216.0626295727
 31
0.0
  0
LINE
  5
1D60
330
74
100
AcDbEntity
  8
0
  6
Continuous
100
AcDbLine
 10
124.251754761
 20
216.0626295727
 30
0.0
 11
121.5491180756999
 21
216.2772003066999
 31
0.0
  0
LINE
  5
1D61
330
74
100
AcDbEntity
  8
0
  6
Continuous
100
AcDbLine
 10
121.5491180756999
 20
216.2772003066999
 30
0.0
 11
118.7012875783
 21
216.5462813316
 31
0.0
  0
LINE
  5
1D62
330
74
100
AcDbEntity
  8
0
  6
Continuous
100
AcDbLine
 10
194.4390026134999
 20
177.1576327629999
 30
0.0
 11
194.4871468666
 21
177.4047635522
 31
0.0
  0
LINE
  5
1D63
330
74
100
AcDbEntity
  8
0
  6
Continuous
100
AcDbLine
 10
194.4871468666
 20
177.4047635522
 30
0.0
 11
194.5267376677999
 21
177.5812063464
 31
0.0
  0
LINE
  5
1D64
330
74
100
AcDbEntity
  8
0
  6
Continuous
100
AcDbLine
 10
194.5267376677999
 20
177.5812063464
 30
0.0
 11
194.5575094613
 21
177.6895387027999
 31
0.0
  0
LINE
  5
1D65
330
74
100
AcDbEntity
  8
0
  6
Continuous
100
AcDbLine
 10
194.5575094613
 20
177.6895387027999
 30
0.0
 11
194.5796484129999
 21
177.735831344
 31
0.0
  0
LINE
  5
1D66
330
74
100
AcDbEntity
  8
0
  6
Continuous
100
AcDbLine
 10
194.545544758
 20
176.8234772623
 30
0.0
 11
194.5716014361999
 21
177.0592396216999
 31
0.0
  0
LINE
  5
1D67
330
74
100
AcDbEntity
  8
0
  6
Continuous
100
AcDbLine
 10
194.5716014361999
 20
177.0592396216999
 30
0.0
 11
194.5944127899999
 21
177.2272067388
 31
0.0
  0
LINE
  5
1D68
330
74
100
AcDbEntity
  8
0
  6
Continuous
100
AcDbLine
 10
194.5944127899999
 20
177.2272067388
 30
0.0
 11
194.6136839552
 21
177.3299045965
 31
0.0
  0
LINE
  5
1D69
330
74
100
AcDbEntity
  8
0
  6
Continuous
100
AcDbLine
 10
194.6136839552
 20
177.3299045965
 30
0.0
 11
194.6292674438
 21
177.3732897334999
 31
0.0
  0
LINE
  5
1D6A
330
74
100
AcDbEntity
  8
0
  6
Continuous
100
AcDbLine
 10
193.6081460249
 20
158.7627507070999
 30
0.0
 11
193.6192285071
 21
160.7096320392999
 31
0.0
  0
LINE
  5
1D6B
330
74
100
AcDbEntity
  8
0
  6
Continuous
100
AcDbLine
 10
193.6192285071
 20
160.7096320392999
 30
0.0
 11
193.6532179318
 21
162.6902602682999
 31
0.0
  0
LINE
  5
1D6C
330
74
100
AcDbEntity
  8
0
  6
Continuous
100
AcDbLine
 10
193.6532179318
 20
162.6902602682999
 30
0.0
 11
193.7124656172999
 21
164.7413276994
 31
0.0
  0
LINE
  5
1D6D
330
74
100
AcDbEntity
  8
0
  6
Continuous
100
AcDbLine
 10
193.7124656172999
 20
164.7413276994
 30
0.0
 11
193.8010266888999
 21
166.8991157447999
 31
0.0
  0
LINE
  5
1D6E
330
74
100
AcDbEntity
  8
0
  6
Continuous
100
AcDbLine
 10
193.8010266888999
 20
166.8991157447999
 30
0.0
 11
193.9241345183
 21
169.1890927384
 31
0.0
  0
LINE
  5
1D6F
330
74
100
AcDbEntity
  8
0
  6
Continuous
100
AcDbLine
 10
193.9241345183
 20
169.1890927384
 30
0.0
 11
194.087809392
 21
171.628430842
 31
0.0
  0
LINE
  5
1D70
330
74
100
AcDbEntity
  8
0
  6
Continuous
100
AcDbLine
 10
194.087809392
 20
171.628430842
 30
0.0
 11
194.2929268159
 21
174.1641944561999
 31
0.0
  0
LINE
  5
1D71
330
74
100
AcDbEntity
  8
0
  6
Continuous
100
AcDbLine
 10
194.2929268159
 20
174.1641944561999
 30
0.0
 11
194.545544758
 21
176.8234772623
 31
0.0
  0
LINE
  5
1D72
330
74
100
AcDbEntity
  8
0
  6
Continuous
100
AcDbLine
 10
193.5445663727999
 20
158.7627507070999
 30
0.0
 11
193.5550916036
 21
160.7476098907
 31
0.0
  0
LINE
  5
1D73
330
74
100
AcDbEntity
  8
0
  6
Continuous
100
AcDbLine
 10
193.5550916036
 20
160.7476098907
 30
0.0
 11
193.5873827742
 21
162.7667901867
 31
0.0
  0
LINE
  5
1D74
330
74
100
AcDbEntity
  8
0
  6
Continuous
100
AcDbLine
 10
193.5873827742
 20
162.7667901867
 30
0.0
 11
193.6436977748
 21
164.8574387727
 31
0.0
  0
LINE
  5
1D75
330
74
100
AcDbEntity
  8
0
  6
Continuous
100
AcDbLine
 10
193.6436977748
 20
164.8574387727
 30
0.0
 11
193.7279419493
 21
167.0563129441999
 31
0.0
  0
LINE
  5
1D76
330
74
100
AcDbEntity
  8
0
  6
Continuous
100
AcDbLine
 10
193.7279419493
 20
167.0563129441999
 30
0.0
 11
193.8451756636999
 21
169.3890714972
 31
0.0
  0
LINE
  5
1D77
330
74
100
AcDbEntity
  8
0
  6
Continuous
100
AcDbLine
 10
193.8451756636999
 20
169.3890714972
 30
0.0
 11
194.0012594843
 21
171.8728267524
 31
0.0
  0
LINE
  5
1D78
330
74
100
AcDbEntity
  8
0
  6
Continuous
100
AcDbLine
 10
194.0012594843
 20
171.8728267524
 30
0.0
 11
194.1972002736
 21
174.4532989677999
 31
0.0
  0
LINE
  5
1D79
330
74
100
AcDbEntity
  8
0
  6
Continuous
100
AcDbLine
 10
194.1972002736
 20
174.4532989677999
 30
0.0
 11
194.4389999322
 21
177.1576411705
 31
0.0
  0
LINE
  5
1D7A
330
74
100
AcDbEntity
  8
0
  6
Continuous
100
AcDbLine
 10
194.4389999149
 20
140.3678605097999
 30
0.0
 11
194.1972216418999
 21
143.0719432884999
 31
0.0
  0
LINE
  5
1D7B
330
74
100
AcDbEntity
  8
0
  6
Continuous
100
AcDbLine
 10
194.1972216418999
 20
143.0719432884999
 30
0.0
 11
194.0012941043999
 21
145.6521749332999
 31
0.0
  0
LINE
  5
1D7C
330
74
100
AcDbEntity
  8
0
  6
Continuous
100
AcDbLine
 10
194.0012941043999
 20
145.6521749332999
 30
0.0
 11
193.8452298779999
 21
148.135469136
 31
0.0
  0
LINE
  5
1D7D
330
74
100
AcDbEntity
  8
0
  6
Continuous
100
AcDbLine
 10
193.8452298779999
 20
148.135469136
 30
0.0
 11
193.7280016572
 21
150.4678371848999
 31
0.0
  0
LINE
  5
1D7E
330
74
100
AcDbEntity
  8
0
  6
Continuous
100
AcDbLine
 10
193.7280016572
 20
150.4678371848999
 30
0.0
 11
193.6437304572
 21
152.6670593877
 31
0.0
  0
LINE
  5
1D7F
330
74
100
AcDbEntity
  8
0
  6
Continuous
100
AcDbLine
 10
193.6437304572
 20
152.6670593877
 30
0.0
 11
193.5873955271
 21
154.7581134246999
 31
0.0
  0
LINE
  5
1D80
330
74
100
AcDbEntity
  8
0
  6
Continuous
100
AcDbLine
 10
193.5873955271
 20
154.7581134246999
 30
0.0
 11
193.5550936050999
 21
156.7776999033999
 31
0.0
  0
LINE
  5
1D81
330
74
100
AcDbEntity
  8
0
  6
Continuous
100
AcDbLine
 10
193.5550936050999
 20
156.7776999033999
 30
0.0
 11
193.5445663727999
 21
158.7627507070999
 31
0.0
  0
LINE
  5
1D82
330
74
100
AcDbEntity
  8
0
  6
Continuous
100
AcDbLine
 10
194.545544758
 20
140.7020241519
 30
0.0
 11
194.2929490981999
 21
143.3610532190999
 31
0.0
  0
LINE
  5
1D83
330
74
100
AcDbEntity
  8
0
  6
Continuous
100
AcDbLine
 10
194.2929490981999
 20
143.3610532190999
 30
0.0
 11
194.0878454965
 21
145.8965820497
 31
0.0
  0
LINE
  5
1D84
330
74
100
AcDbEntity
  8
0
  6
Continuous
100
AcDbLine
 10
194.0878454965
 20
145.8965820497
 30
0.0
 11
193.9241910777
 21
148.3354701298999
 31
0.0
  0
LINE
  5
1D85
330
74
100
AcDbEntity
  8
0
  6
Continuous
100
AcDbLine
 10
193.9241910777
 20
148.3354701298999
 30
0.0
 11
193.8010890902
 21
150.6250649675
 31
0.0
  0
LINE
  5
1D86
330
74
100
AcDbEntity
  8
0
  6
Continuous
100
AcDbLine
 10
193.8010890902
 20
150.6250649675
 30
0.0
 11
193.7124997234999
 21
152.7831947812999
 31
0.0
  0
LINE
  5
1D87
330
74
100
AcDbEntity
  8
0
  6
Continuous
100
AcDbLine
 10
193.7124997234999
 20
152.7831947812999
 30
0.0
 11
193.6532312604
 21
154.8346597394
 31
0.0
  0
LINE
  5
1D88
330
74
100
AcDbEntity
  8
0
  6
Continuous
100
AcDbLine
 10
193.6532312604
 20
154.8346597394
 30
0.0
 11
193.6192305884
 21
156.8156862103
 31
0.0
  0
LINE
  5
1D89
330
74
100
AcDbEntity
  8
0
  6
Continuous
100
AcDbLine
 10
193.6192305884
 20
156.8156862103
 30
0.0
 11
193.6081460249
 21
158.7627507070999
 31
0.0
  0
LINE
  5
1D8A
330
74
100
AcDbEntity
  8
0
  6
Continuous
100
AcDbLine
 10
194.6292674438
 20
140.1522116807
 30
0.0
 11
194.6136840456999
 21
140.1955963910999
 31
0.0
  0
LINE
  5
1D8B
330
74
100
AcDbEntity
  8
0
  6
Continuous
100
AcDbLine
 10
194.6136840456999
 20
140.1955963910999
 30
0.0
 11
194.5944128224
 21
140.2982944721999
 31
0.0
  0
LINE
  5
1D8C
330
74
100
AcDbEntity
  8
0
  6
Continuous
100
AcDbLine
 10
194.5944128224
 20
140.2982944721999
 30
0.0
 11
194.5716013883
 21
140.4662622093
 31
0.0
  0
LINE
  5
1D8D
330
74
100
AcDbEntity
  8
0
  6
Continuous
100
AcDbLine
 10
194.5716013883
 20
140.4662622093
 30
0.0
 11
194.545544758
 21
140.7020241519
 31
0.0
  0
LINE
  5
1D90
330
74
100
AcDbEntity
  8
0
  6
Continuous
100
AcDbLine
 10
118.1514751071
 20
100.8954973967999
 30
0.0
 11
118.1948598174999
 21
100.9110807949
 31
0.0
  0
LINE
  5
1D91
330
74
100
AcDbEntity
  8
0
  6
Continuous
100
AcDbLine
 10
118.1948598174999
 20
100.9110807949
 30
0.0
 11
118.2975578986
 21
100.9303520181999
 31
0.0
  0
LINE
  5
1D92
330
74
100
AcDbEntity
  8
0
  6
Continuous
100
AcDbLine
 10
118.2975578986
 20
100.9303520181999
 30
0.0
 11
118.4655256356999
 21
100.9531634522999
 31
0.0
  0
LINE
  5
1D93
330
74
100
AcDbEntity
  8
0
  6
Continuous
100
AcDbLine
 10
118.4655256356999
 20
100.9531634522999
 30
0.0
 11
118.7012875783
 21
100.9792200826
 31
0.0
  0
LINE
  5
1D94
330
74
100
AcDbEntity
  8
0
  6
Continuous
100
AcDbLine
 10
194.5796484129999
 20
139.7896700701
 30
0.0
 11
194.557509544
 21
139.8359621863999
 31
0.0
  0
LINE
  5
1D95
330
74
100
AcDbEntity
  8
0
  6
Continuous
100
AcDbLine
 10
194.557509544
 20
139.8359621863999
 30
0.0
 11
194.5267377186999
 21
139.9442948401
 31
0.0
  0
LINE
  5
1D96
330
74
100
AcDbEntity
  8
0
  6
Continuous
100
AcDbLine
 10
194.5267377186999
 20
139.9442948401
 30
0.0
 11
194.4871467842999
 21
140.1207382780999
 31
0.0
  0
LINE
  5
1D97
330
74
100
AcDbEntity
  8
0
  6
Continuous
100
AcDbLine
 10
194.4871467842999
 20
140.1207382780999
 30
0.0
 11
194.439002569
 21
140.3678688320999
 31
0.0
  0
LINE
  5
1D98
330
74
100
AcDbEntity
  8
0
  6
Continuous
100
AcDbLine
 10
117.7889334966
 20
100.9451164277
 30
0.0
 11
117.8352256127999
 21
100.9672552966
 31
0.0
  0
LINE
  5
1D99
330
74
100
AcDbEntity
  8
0
  6
Continuous
100
AcDbLine
 10
117.8352256127999
 20
100.9672552966
 30
0.0
 11
117.9435582665999
 21
100.9980271219
 31
0.0
  0
LINE
  5
1D9A
330
74
100
AcDbEntity
  8
0
  6
Continuous
100
AcDbLine
 10
117.9435582665999
 20
100.9980271219
 30
0.0
 11
118.1200017045999
 21
101.0376180562999
 31
0.0
  0
LINE
  5
1D9B
330
74
100
AcDbEntity
  8
0
  6
Continuous
100
AcDbLine
 10
118.1200017045999
 20
101.0376180562999
 30
0.0
 11
118.3671298508
 21
101.0857616792
 31
0.0
  0
LINE
  5
1D9C
330
74
100
AcDbEntity
  8
0
  6
Continuous
100
AcDbLine
 10
196.9417922474
 20
136.9821559915999
 30
0.0
 11
196.1258040498
 21
137.9267453371999
 31
0.0
  0
LINE
  5
1D9D
330
74
100
AcDbEntity
  8
0
  6
Continuous
100
AcDbLine
 10
196.1258040498
 20
137.9267453371999
 30
0.0
 11
195.339134195
 21
138.8615628463
 31
0.0
  0
LINE
  5
1D9E
330
74
100
AcDbEntity
  8
0
  6
Continuous
100
AcDbLine
 10
195.339134195
 20
138.8615628463
 30
0.0
 11
194.5796484125
 21
139.7896700686
 31
0.0
  0
LINE
  5
1D9F
330
74
100
AcDbEntity
  8
0
  6
Continuous
100
AcDbLine
 10
196.9997014497
 20
137.3824025246999
 30
0.0
 11
196.1810066109
 21
138.3147417702
 31
0.0
  0
LINE
  5
1DA0
330
74
100
AcDbEntity
  8
0
  6
Continuous
100
AcDbLine
 10
196.1810066109
 20
138.3147417702
 30
0.0
 11
195.3915730794
 21
139.2370074383
 31
0.0
  0
LINE
  5
1DA1
330
74
100
AcDbEntity
  8
0
  6
Continuous
100
AcDbLine
 10
195.3915730794
 20
139.2370074383
 30
0.0
 11
194.6292674438
 21
140.1522116807
 31
0.0
  0
LINE
  5
1DA2
330
74
100
AcDbEntity
  8
0
  6
Continuous
100
AcDbLine
 10
118.1514751071
 20
216.6300040173
 30
0.0
 11
117.2362708647999
 21
217.3923096529999
 31
0.0
  0
LINE
  5
1DA3
330
74
100
AcDbEntity
  8
0
  6
Continuous
100
AcDbLine
 10
117.2362708647999
 20
217.3923096529999
 30
0.0
 11
116.3140051966
 21
218.1817431843999
 31
0.0
  0
LINE
  5
1DA4
330
74
100
AcDbEntity
  8
0
  6
Continuous
100
AcDbLine
 10
116.3140051966
 20
218.1817431843999
 30
0.0
 11
115.3816659510999
 21
219.0004380233
 31
0.0
  0
LINE
  5
1DA5
330
74
100
AcDbEntity
  8
0
  6
Continuous
100
AcDbLine
 10
117.7889334951
 20
216.580384986
 30
0.0
 11
116.8608262728
 21
217.3398707686
 31
0.0
  0
LINE
  5
1DA6
330
74
100
AcDbEntity
  8
0
  6
Continuous
100
AcDbLine
 10
116.8608262728
 20
217.3398707686
 30
0.0
 11
115.9260087637
 21
218.1265406233
 31
0.0
  0
LINE
  5
1DA7
330
74
100
AcDbEntity
  8
0
  6
Continuous
100
AcDbLine
 10
115.9260087637
 20
218.1265406233
 30
0.0
 11
114.9814194180999
 21
218.9425288209999
 31
0.0
  0
LINE
  5
1DA8
330
74
100
AcDbEntity
  8
0
  6
Continuous
100
AcDbLine
 10
114.9814194180999
 20
98.5829725932
 30
0.0
 11
115.9260105184
 21
99.39896228590001
 31
0.0
  0
LINE
  5
1DA9
330
74
100
AcDbEntity
  8
0
  6
Continuous
100
AcDbLine
 10
115.9260105184
 20
99.39896228590001
 30
0.0
 11
116.8608293436
 21
100.185633194
 31
0.0
  0
LINE
  5
1DAA
330
74
100
AcDbEntity
  8
0
  6
Continuous
100
AcDbLine
 10
116.8608293436
 20
100.185633194
 30
0.0
 11
117.7889334949999
 21
100.9451164281999
 31
0.0
  0
LINE
  5
1DAB
330
74
100
AcDbEntity
  8
0
  6
Continuous
100
AcDbLine
 10
115.3816659510999
 20
98.5250633909
 30
0.0
 11
116.3140069311
 21
99.34375973290002
 31
0.0
  0
LINE
  5
1DAC
330
74
100
AcDbEntity
  8
0
  6
Continuous
100
AcDbLine
 10
116.3140069311
 20
99.34375973290002
 30
0.0
 11
117.2362738929999
 21
100.1331943183999
 31
0.0
  0
LINE
  5
1DAD
330
74
100
AcDbEntity
  8
0
  6
Continuous
100
AcDbLine
 10
117.2362738929999
 20
100.1331943183999
 30
0.0
 11
118.1514751071
 21
100.8954973967999
 31
0.0
  0
LINE
  5
1DAE
330
74
100
AcDbEntity
  8
0
  6
Continuous
100
AcDbLine
 10
194.6292674438
 20
177.3732897334999
 30
0.0
 11
195.3915730794
 21
178.2884939758
 31
0.0
  0
LINE
  5
1DAF
330
74
100
AcDbEntity
  8
0
  6
Continuous
100
AcDbLine
 10
195.3915730794
 20
178.2884939758
 30
0.0
 11
196.1810066109
 21
179.210759644
 31
0.0
  0
LINE
  5
1DB0
330
74
100
AcDbEntity
  8
0
  6
Continuous
100
AcDbLine
 10
196.1810066109
 20
179.210759644
 30
0.0
 11
196.9997014497
 21
180.1430988895
 31
0.0
  0
LINE
  5
1DB1
330
74
100
AcDbEntity
  8
0
  6
Continuous
100
AcDbLine
 10
194.5796484124
 20
177.7358313456
 30
0.0
 11
195.339134195
 21
178.6639385677999
 31
0.0
  0
LINE
  5
1DB2
330
74
100
AcDbEntity
  8
0
  6
Continuous
100
AcDbLine
 10
195.339134195
 20
178.6639385677999
 30
0.0
 11
196.1258040497
 21
179.5987560768999
 31
0.0
  0
LINE
  5
1DB3
330
74
100
AcDbEntity
  8
0
  6
Continuous
100
AcDbLine
 10
196.1258040497
 20
179.5987560768999
 30
0.0
 11
196.9417922474
 21
180.5433454225999
 31
0.0
  0
LINE
  5
1DB4
330
74
100
AcDbEntity
  8
0
  6
Continuous
100
AcDbLine
 10
137.0620141335
 20
218.2954785400999
 30
0.0
 11
137.0614502493999
 21
218.2851275128999
 31
0.0
  0
LINE
  5
1DB5
330
74
100
AcDbEntity
  8
0
  6
Continuous
100
AcDbLine
 10
137.0614502493999
 20
218.2851275128999
 30
0.0
 11
137.0599239587
 21
218.2755865034999
 31
0.0
  0
LINE
  5
1DB6
330
74
100
AcDbEntity
  8
0
  6
Continuous
100
AcDbLine
 10
137.0599239587
 20
218.2755865034999
 30
0.0
 11
137.057648462
 21
218.2668105959999
 31
0.0
  0
LINE
  5
1DB7
330
74
100
AcDbEntity
  8
0
  6
Continuous
100
AcDbLine
 10
137.057648462
 20
218.2668105959999
 30
0.0
 11
137.0547990276
 21
218.2587546189
 31
0.0
  0
LINE
  5
1DB8
330
74
100
AcDbEntity
  8
0
  6
Continuous
100
AcDbLine
 10
137.0547990276
 20
218.2587546189
 30
0.0
 11
137.0515206375999
 21
218.2513731145
 31
0.0
  0
LINE
  5
1DB9
330
74
100
AcDbEntity
  8
0
  6
Continuous
100
AcDbLine
 10
137.0515206375999
 20
218.2513731145
 30
0.0
 11
137.0479332426999
 21
218.2446204359
 31
0.0
  0
LINE
  5
1DBA
330
74
100
AcDbEntity
  8
0
  6
Continuous
100
AcDbLine
 10
137.0479332426999
 20
218.2446204359
 30
0.0
 11
137.0441354465
 21
218.2384508108
 31
0.0
  0
LINE
  5
1DBB
330
74
100
AcDbEntity
  8
0
  6
Continuous
100
AcDbLine
 10
137.0441354465
 20
218.2384508108
 30
0.0
 11
137.0402071332999
 21
218.2328183891999
 31
0.0
  0
LINE
  5
1DBC
330
74
100
AcDbEntity
  8
0
  6
Continuous
100
AcDbLine
 10
137.0402071332999
 20
218.2328183891999
 30
0.0
 11
137.0362113681999
 21
218.2276772775999
 31
0.0
  0
LINE
  5
1DBD
330
74
100
AcDbEntity
  8
0
  6
Continuous
100
AcDbLine
 10
137.0362113681999
 20
218.2276772775999
 30
0.0
 11
137.0321957871999
 21
218.2229815618999
 31
0.0
  0
LINE
  5
1DBE
330
74
100
AcDbEntity
  8
0
  6
Continuous
100
AcDbLine
 10
137.0321957871999
 20
218.2229815618999
 30
0.0
 11
137.0281936287999
 21
218.2186853231
 31
0.0
  0
LINE
  5
1DBF
330
74
100
AcDbEntity
  8
0
  6
Continuous
100
AcDbLine
 10
137.0281936287999
 20
218.2186853231
 30
0.0
 11
137.0242245013999
 21
218.2147426475
 31
0.0
  0
LINE
  5
1DC0
330
74
100
AcDbEntity
  8
0
  6
Continuous
100
AcDbLine
 10
137.0242245013999
 20
218.2147426475
 30
0.0
 11
137.0202949504
 21
218.2111076336
 31
0.0
  0
LINE
  5
1DC1
330
74
100
AcDbEntity
  8
0
  6
Continuous
100
AcDbLine
 10
137.0202949504
 20
218.2111076336
 30
0.0
 11
137.0163988442
 21
218.2077343970999
 31
0.0
  0
LINE
  5
1DC2
330
74
100
AcDbEntity
  8
0
  6
Continuous
100
AcDbLine
 10
137.0163988442
 20
218.2077343970999
 30
0.0
 11
137.0125175674
 21
218.2045770754999
 31
0.0
  0
LINE
  5
1DC3
330
74
100
AcDbEntity
  8
0
  6
Continuous
100
AcDbLine
 10
137.0125175674
 20
218.2045770754999
 30
0.0
 11
137.0086192587
 21
218.2015893041999
 31
0.0
  0
LINE
  5
1DC4
330
74
100
AcDbEntity
  8
0
  6
Continuous
100
AcDbLine
 10
137.0086192587
 20
218.2015893041999
 30
0.0
 11
137.0046628172999
 21
218.1987274686
 31
0.0
  0
LINE
  5
1DC5
330
74
100
AcDbEntity
  8
0
  6
Continuous
100
AcDbLine
 10
137.0046628172999
 20
218.1987274686
 30
0.0
 11
137.0006288618
 21
218.1959711402
 31
0.0
  0
LINE
  5
1DC6
330
74
100
AcDbEntity
  8
0
  6
Continuous
100
AcDbLine
 10
137.0006288618
 20
218.1959711402
 30
0.0
 11
136.9965202546999
 21
218.1933179575999
 31
0.0
  0
LINE
  5
1DC7
330
74
100
AcDbEntity
  8
0
  6
Continuous
100
AcDbLine
 10
136.9965202546999
 20
218.1933179575999
 30
0.0
 11
136.9923426395
 21
218.1907676236999
 31
0.0
  0
LINE
  5
1DC8
330
74
100
AcDbEntity
  8
0
  6
Continuous
100
AcDbLine
 10
136.9923426395
 20
218.1907676236999
 30
0.0
 11
136.9881007120999
 21
218.1883192837
 31
0.0
  0
LINE
  5
1DC9
330
74
100
AcDbEntity
  8
0
  6
Continuous
100
AcDbLine
 10
136.9881007120999
 20
218.1883192837
 30
0.0
 11
136.983798797
 21
218.1859719596999
 31
0.0
  0
LINE
  5
1DCA
330
74
100
AcDbEntity
  8
0
  6
Continuous
100
AcDbLine
 10
136.983798797
 20
218.1859719596999
 30
0.0
 11
136.9794408177
 21
218.1837245622
 31
0.0
  0
LINE
  5
1DCB
330
74
100
AcDbEntity
  8
0
  6
Continuous
100
AcDbLine
 10
136.9794408177
 20
218.1837245622
 30
0.0
 11
136.9750302765
 21
218.1815759092999
 31
0.0
  0
LINE
  5
1DCC
330
74
100
AcDbEntity
  8
0
  6
Continuous
100
AcDbLine
 10
136.9750302765
 20
218.1815759092999
 30
0.0
 11
136.9705702390999
 21
218.1795247481
 31
0.0
  0
LINE
  5
1DCD
330
74
100
AcDbEntity
  8
0
  6
Continuous
100
AcDbLine
 10
136.9705702390999
 20
218.1795247481
 30
0.0
 11
136.9660633235
 21
218.1775697783999
 31
0.0
  0
LINE
  5
1DCE
330
74
100
AcDbEntity
  8
0
  6
Continuous
100
AcDbLine
 10
136.9660633235
 20
218.1775697783999
 30
0.0
 11
136.9615116872999
 21
218.1757096758
 31
0.0
  0
LINE
  5
1DCF
330
74
100
AcDbEntity
  8
0
  6
Continuous
100
AcDbLine
 10
136.9615116872999
 20
218.1757096758
 30
0.0
 11
136.9569170091
 21
218.1739431134
 31
0.0
  0
LINE
  5
1DD0
330
74
100
AcDbEntity
  8
0
  6
Continuous
100
AcDbLine
 10
136.9569170091
 20
218.1739431134
 30
0.0
 11
136.9522804583
 21
218.17226878
 31
0.0
  0
LINE
  5
1DD1
330
74
100
AcDbEntity
  8
0
  6
Continuous
100
AcDbLine
 10
136.9522804583
 20
218.17226878
 30
0.0
 11
136.9476026447999
 21
218.1706853959
 31
0.0
  0
LINE
  5
1DD2
330
74
100
AcDbEntity
  8
0
  6
Continuous
100
AcDbLine
 10
136.9476026447999
 20
218.1706853959
 30
0.0
 11
136.9428835374
 21
218.1691917240999
 31
0.0
  0
LINE
  5
1DD3
330
74
100
AcDbEntity
  8
0
  6
Continuous
100
AcDbLine
 10
136.9428835374
 20
218.1691917240999
 30
0.0
 11
136.9381225966
 21
218.1677866531
 31
0.0
  0
LINE
  5
1DD4
330
74
100
AcDbEntity
  8
0
  6
Continuous
100
AcDbLine
 10
136.9381225966
 20
218.1677866531
 30
0.0
 11
136.9333159579
 21
218.1664684830999
 31
0.0
  0
LINE
  5
1DD5
330
74
100
AcDbEntity
  8
0
  6
Continuous
100
AcDbLine
 10
136.9333159579
 20
218.1664684830999
 30
0.0
 11
136.9284507535
 21
218.1652338590999
 31
0.0
  0
LINE
  5
1DD6
330
74
100
AcDbEntity
  8
0
  6
Continuous
100
AcDbLine
 10
136.9284507535
 20
218.1652338590999
 30
0.0
 11
136.9235112599999
 21
218.1640800175999
 31
0.0
  0
LINE
  5
1DD7
330
74
100
AcDbEntity
  8
0
  6
Continuous
100
AcDbLine
 10
136.9235112599999
 20
218.1640800175999
 30
0.0
 11
136.9184803729
 21
218.1630053312999
 31
0.0
  0
LINE
  5
1DD8
330
74
100
AcDbEntity
  8
0
  6
Continuous
100
AcDbLine
 10
136.9184803729
 20
218.1630053312999
 30
0.0
 11
136.9133258146999
 21
218.1620068875
 31
0.0
  0
LINE
  5
1DD9
330
74
100
AcDbEntity
  8
0
  6
Continuous
100
AcDbLine
 10
136.9133258146999
 20
218.1620068875
 30
0.0
 11
136.9079955337
 21
218.1610812564
 31
0.0
  0
LINE
  5
1DDA
330
74
100
AcDbEntity
  8
0
  6
Continuous
100
AcDbLine
 10
136.9079955337
 20
218.1610812564
 30
0.0
 11
136.9024087386
 21
218.1602252985999
 31
0.0
  0
LINE
  5
1DDB
330
74
100
AcDbEntity
  8
0
  6
Continuous
100
AcDbLine
 10
136.9024087386
 20
218.1602252985999
 30
0.0
 11
136.8964321628999
 21
218.1594366011
 31
0.0
  0
LINE
  5
1DDC
330
74
100
AcDbEntity
  8
0
  6
Continuous
100
AcDbLine
 10
136.8964321628999
 20
218.1594366011
 30
0.0
 11
136.8898376331999
 21
218.1587160367
 31
0.0
  0
LINE
  5
1DDD
330
74
100
AcDbEntity
  8
0
  6
Continuous
100
AcDbLine
 10
136.8898376331999
 20
218.1587160367
 30
0.0
 11
136.8823412115999
 21
218.1580846603
 31
0.0
  0
LINE
  5
1DDE
330
74
100
AcDbEntity
  8
0
  6
Continuous
100
AcDbLine
 10
136.8823412115999
 20
218.1580846603
 30
0.0
 11
136.8732622662
 21
218.1575837926999
 31
0.0
  0
LINE
  5
1DDF
330
74
100
AcDbEntity
  8
0
  6
Continuous
100
AcDbLine
 10
136.8732622662
 20
218.1575837926999
 30
0.0
 11
136.8620141335
 21
218.1573599052
 31
0.0
  0
LINE
  5
1DE0
330
74
100
AcDbEntity
  8
0
  6
Continuous
100
AcDbLine
 10
136.4620141334999
 20
218.461307819
 30
0.0
 11
136.4773475366999
 21
218.5386619405
 31
0.0
  0
LINE
  5
1DE1
330
74
100
AcDbEntity
  8
0
  6
Continuous
100
AcDbLine
 10
136.4773475366999
 20
218.5386619405
 30
0.0
 11
136.5208782741999
 21
218.6040364285
 31
0.0
  0
LINE
  5
1DE2
330
74
100
AcDbEntity
  8
0
  6
Continuous
100
AcDbLine
 10
136.5208782741999
 20
218.6040364285
 30
0.0
 11
136.5857409918
 21
218.6475265099999
 31
0.0
  0
LINE
  5
1DE3
330
74
100
AcDbEntity
  8
0
  6
Continuous
100
AcDbLine
 10
136.5857409918
 20
218.6475265099999
 30
0.0
 11
136.6620141335
 21
218.6627507070999
 31
0.0
  0
LINE
  5
1DE4
330
74
100
AcDbEntity
  8
0
  6
Continuous
100
AcDbLine
 10
76.5822360196
 20
180.5433454225999
 30
0.0
 11
77.39822571239999
 21
179.5987543222
 31
0.0
  0
LINE
  5
1DE5
330
74
100
AcDbEntity
  8
0
  6
Continuous
100
AcDbLine
 10
77.39822571239999
 20
179.5987543222
 30
0.0
 11
78.1848966204
 21
178.663935497
 31
0.0
  0
LINE
  5
1DE6
330
74
100
AcDbEntity
  8
0
  6
Continuous
100
AcDbLine
 10
78.1848966204
 20
178.663935497
 30
0.0
 11
78.9443798546
 21
177.7358313456
 31
0.0
  0
LINE
  5
1DE7
330
74
100
AcDbEntity
  8
0
  6
Continuous
100
AcDbLine
 10
76.52432681729997
 20
180.1430988895
 30
0.0
 11
77.3430231593
 21
179.2107579095
 31
0.0
  0
LINE
  5
1DE8
330
74
100
AcDbEntity
  8
0
  6
Continuous
100
AcDbLine
 10
77.3430231593
 20
179.2107579095
 30
0.0
 11
78.13245774479999
 21
178.2884909475999
 31
0.0
  0
LINE
  5
1DE9
330
74
100
AcDbEntity
  8
0
  6
Continuous
100
AcDbLine
 10
78.13245774479999
 20
178.2884909475999
 30
0.0
 11
78.8947608233
 21
177.3732897334999
 31
0.0
  0
LINE
  5
1DEA
330
74
100
AcDbEntity
  8
0
  6
Continuous
100
AcDbLine
 10
155.37255316
 20
100.8954973967999
 30
0.0
 11
156.2877543739999
 21
100.1331943183999
 31
0.0
  0
LINE
  5
1DEB
330
74
100
AcDbEntity
  8
0
  6
Continuous
100
AcDbLine
 10
156.2877543739999
 20
100.1331943183999
 30
0.0
 11
157.2100213359
 21
99.34375973290002
 31
0.0
  0
LINE
  5
1DEC
330
74
100
AcDbEntity
  8
0
  6
Continuous
100
AcDbLine
 10
157.2100213359
 20
99.34375973290002
 30
0.0
 11
158.1423623158999
 21
98.5250633909
 31
0.0
  0
LINE
  5
1DED
330
74
100
AcDbEntity
  8
0
  6
Continuous
100
AcDbLine
 10
155.735094772
 20
100.9451164281999
 30
0.0
 11
156.6631989233999
 21
100.185633194
 31
0.0
  0
LINE
  5
1DEE
330
74
100
AcDbEntity
  8
0
  6
Continuous
100
AcDbLine
 10
156.6631989233999
 20
100.185633194
 30
0.0
 11
157.5980177487
 21
99.398962286
 31
0.0
  0
LINE
  5
1DEF
330
74
100
AcDbEntity
  8
0
  6
Continuous
100
AcDbLine
 10
157.5980177487
 20
99.398962286
 30
0.0
 11
158.542608849
 21
98.5829725932
 31
0.0
  0
LINE
  5
1DF0
330
74
100
AcDbEntity
  8
0
  6
Continuous
100
AcDbLine
 10
158.542608849
 20
218.9425288209999
 30
0.0
 11
157.5980195033999
 21
218.1265406233
 31
0.0
  0
LINE
  5
1DF1
330
74
100
AcDbEntity
  8
0
  6
Continuous
100
AcDbLine
 10
157.5980195033999
 20
218.1265406233
 30
0.0
 11
156.6632019943
 21
217.3398707686
 31
0.0
  0
LINE
  5
1DF2
330
74
100
AcDbEntity
  8
0
  6
Continuous
100
AcDbLine
 10
156.6632019943
 20
217.3398707686
 30
0.0
 11
155.735094772
 21
216.580384986
 31
0.0
  0
LINE
  5
1DF3
330
74
100
AcDbEntity
  8
0
  6
Continuous
100
AcDbLine
 10
158.1423623158999
 20
219.0004380233
 30
0.0
 11
157.2100230705
 21
218.1817431843999
 31
0.0
  0
LINE
  5
1DF4
330
74
100
AcDbEntity
  8
0
  6
Continuous
100
AcDbLine
 10
157.2100230705
 20
218.1817431843999
 30
0.0
 11
156.2877574023
 21
217.3923096529999
 31
0.0
  0
LINE
  5
1DF5
330
74
100
AcDbEntity
  8
0
  6
Continuous
100
AcDbLine
 10
156.2877574023
 20
217.3923096529999
 30
0.0
 11
155.37255316
 21
216.6300040173
 31
0.0
  0
LINE
  5
1DF6
330
74
100
AcDbEntity
  8
0
  6
Continuous
100
AcDbLine
 10
78.8947608233
 20
140.1522116807
 30
0.0
 11
78.13245774479999
 21
139.2370104665999
 31
0.0
  0
LINE
  5
1DF7
330
74
100
AcDbEntity
  8
0
  6
Continuous
100
AcDbLine
 10
78.13245774479999
 20
139.2370104665999
 30
0.0
 11
77.3430231593
 21
138.3147435047
 31
0.0
  0
LINE
  5
1DF8
330
74
100
AcDbEntity
  8
0
  6
Continuous
100
AcDbLine
 10
77.3430231593
 20
138.3147435047
 30
0.0
 11
76.52432681729997
 21
137.3824025246999
 31
0.0
  0
LINE
  5
1DF9
330
74
100
AcDbEntity
  8
0
  6
Continuous
100
AcDbLine
 10
78.9443798546
 20
139.7896700686
 30
0.0
 11
78.1848966204
 21
138.8615659171999
 31
0.0
  0
LINE
  5
1DFA
330
74
100
AcDbEntity
  8
0
  6
Continuous
100
AcDbLine
 10
78.1848966204
 20
138.8615659171999
 30
0.0
 11
77.39822571239999
 21
137.926747092
 31
0.0
  0
LINE
  5
1DFB
330
74
100
AcDbEntity
  8
0
  6
Continuous
100
AcDbLine
 10
77.39822571239999
 20
137.926747092
 30
0.0
 11
76.5822360196
 21
136.9821559915999
 31
0.0
  0
LINE
  5
1DFC
330
74
100
AcDbEntity
  8
0
  6
Continuous
100
AcDbLine
 10
78.94437985409999
 20
177.735831344
 30
0.0
 11
78.96651872300001
 21
177.6895392277999
 31
0.0
  0
LINE
  5
1DFD
330
74
100
AcDbEntity
  8
0
  6
Continuous
100
AcDbLine
 10
78.96651872300001
 20
177.6895392277999
 30
0.0
 11
78.9972905483
 21
177.5812065741
 31
0.0
  0
LINE
  5
1DFE
330
74
100
AcDbEntity
  8
0
  6
Continuous
100
AcDbLine
 10
78.9972905483
 20
177.5812065741
 30
0.0
 11
79.03688148270001
 21
177.4047631361
 31
0.0
  0
LINE
  5
1DFF
330
74
100
AcDbEntity
  8
0
  6
Continuous
100
AcDbLine
 10
79.03688148270001
 20
177.4047631361
 30
0.0
 11
79.08502569640001
 21
177.1576325884999
 31
0.0
  0
LINE
  5
1E00
330
74
100
AcDbEntity
  8
0
  6
Continuous
100
AcDbLine
 10
155.7350947704999
 20
216.5803849865
 30
0.0
 11
155.6888026541999
 21
216.5582461176
 31
0.0
  0
LINE
  5
1E01
330
74
100
AcDbEntity
  8
0
  6
Continuous
100
AcDbLine
 10
155.6888026541999
 20
216.5582461176
 30
0.0
 11
155.5804700004999
 21
216.5274742922999
 31
0.0
  0
LINE
  5
1E02
330
74
100
AcDbEntity
  8
0
  6
Continuous
100
AcDbLine
 10
155.5804700004999
 20
216.5274742922999
 30
0.0
 11
155.4040265625
 21
216.4878833579
 31
0.0
  0
LINE
  5
1E03
330
74
100
AcDbEntity
  8
0
  6
Continuous
100
AcDbLine
 10
155.4040265625
 20
216.4878833579
 30
0.0
 11
155.1568984154999
 21
216.4397397347999
 31
0.0
  0
LINE
  5
1E0F
330
74
100
AcDbEntity
  8
0
  6
Continuous
100
AcDbLine
 10
78.8947608233
 20
177.3732897334999
 30
0.0
 11
78.91034422130002
 21
177.3299050231
 31
0.0
  0
LINE
  5
1E10
330
74
100
AcDbEntity
  8
0
  6
Continuous
100
AcDbLine
 10
78.91034422130002
 20
177.3299050231
 30
0.0
 11
78.9296154446
 21
177.227206942
 31
0.0
  0
LINE
  5
1E11
330
74
100
AcDbEntity
  8
0
  6
Continuous
100
AcDbLine
 10
78.9296154446
 20
177.227206942
 30
0.0
 11
78.95242687869998
 21
177.0592392049
 31
0.0
  0
LINE
  5
1E12
330
74
100
AcDbEntity
  8
0
  6
Continuous
100
AcDbLine
 10
78.95242687869998
 20
177.0592392049
 30
0.0
 11
78.9784835091
 21
176.8234772623
 31
0.0
  0
LINE
  5
1E13
330
74
100
AcDbEntity
  8
0
  6
Continuous
100
AcDbLine
 10
155.37255316
 20
216.6300040173
 30
0.0
 11
155.3291684494999
 21
216.6144206193
 31
0.0
  0
LINE
  5
1E14
330
74
100
AcDbEntity
  8
0
  6
Continuous
100
AcDbLine
 10
155.3291684494999
 20
216.6144206193
 30
0.0
 11
155.2264703684
 21
216.5951493959999
 31
0.0
  0
LINE
  5
1E15
330
74
100
AcDbEntity
  8
0
  6
Continuous
100
AcDbLine
 10
155.2264703684
 20
216.5951493959999
 30
0.0
 11
155.0585026313
 21
216.5723379619
 31
0.0
  0
LINE
  5
1E16
330
74
100
AcDbEntity
  8
0
  6
Continuous
100
AcDbLine
 10
155.0585026313
 20
216.5723379619
 30
0.0
 11
154.8227406887999
 21
216.5462813316
 31
0.0
  0
LINE
  5
1E17
330
74
100
AcDbEntity
  8
0
  6
Continuous
100
AcDbLine
 10
155.1568986280999
 20
101.0857616270999
 30
0.0
 11
155.4040269786
 21
101.0376179739999
 31
0.0
  0
LINE
  5
1E18
330
74
100
AcDbEntity
  8
0
  6
Continuous
100
AcDbLine
 10
155.4040269786
 20
101.0376179739999
 30
0.0
 11
155.5804697728
 21
100.9980271728
 31
0.0
  0
LINE
  5
1E19
330
74
100
AcDbEntity
  8
0
  6
Continuous
100
AcDbLine
 10
155.5804697728
 20
100.9980271728
 30
0.0
 11
155.6888021292
 21
100.9672553793
 31
0.0
  0
LINE
  5
1E1A
330
74
100
AcDbEntity
  8
0
  6
Continuous
100
AcDbLine
 10
155.6888021292
 20
100.9672553793
 30
0.0
 11
155.7350947703999
 21
100.9451164277
 31
0.0
  0
LINE
  5
1E1B
330
74
100
AcDbEntity
  8
0
  6
Continuous
100
AcDbLine
 10
154.8227406887999
 20
100.9792200826
 30
0.0
 11
155.0585030481
 21
100.9531634043999
 31
0.0
  0
LINE
  5
1E1C
330
74
100
AcDbEntity
  8
0
  6
Continuous
100
AcDbLine
 10
155.0585030481
 20
100.9531634043999
 30
0.0
 11
155.2264701651999
 21
100.9303520505999
 31
0.0
  0
LINE
  5
1E1D
330
74
100
AcDbEntity
  8
0
  6
Continuous
100
AcDbLine
 10
155.2264701651999
 20
100.9303520505999
 30
0.0
 11
155.3291680228999
 21
100.9110808854
 31
0.0
  0
LINE
  5
1E1E
330
74
100
AcDbEntity
  8
0
  6
Continuous
100
AcDbLine
 10
155.3291680228999
 20
100.9110808854
 30
0.0
 11
155.37255316
 21
100.8954973967999
 31
0.0
  0
LINE
  5
1E1F
330
74
100
AcDbEntity
  8
0
  6
Continuous
100
AcDbLine
 10
118.3671202318
 20
101.0857647469
 30
0.0
 11
121.2597451345
 21
101.3430164352999
 31
0.0
  0
LINE
  5
1E20
330
74
100
AcDbEntity
  8
0
  6
Continuous
100
AcDbLine
 10
121.2597451345
 20
101.3430164352999
 30
0.0
 11
124.0075502154999
 21
101.5478180112999
 31
0.0
  0
LINE
  5
1E21
330
74
100
AcDbEntity
  8
0
  6
Continuous
100
AcDbLine
 10
124.0075502154999
 20
101.5478180112999
 30
0.0
 11
126.6120709383
 21
101.7058491001999
 31
0.0
  0
LINE
  5
1E22
330
74
100
AcDbEntity
  8
0
  6
Continuous
100
AcDbLine
 10
126.6120709383
 20
101.7058491001999
 30
0.0
 11
129.0691596951
 21
101.8223742373999
 31
0.0
  0
LINE
  5
1E23
330
74
100
AcDbEntity
  8
0
  6
Continuous
100
AcDbLine
 10
129.0691596951
 20
101.8223742373999
 30
0.0
 11
131.3752563013
 21
101.9027370654999
 31
0.0
  0
LINE
  5
1E24
330
74
100
AcDbEntity
  8
0
  6
Continuous
100
AcDbLine
 10
131.3752563013
 20
101.9027370654999
 30
0.0
 11
133.5731886185
 21
101.9530363592999
 31
0.0
  0
LINE
  5
1E25
330
74
100
AcDbEntity
  8
0
  6
Continuous
100
AcDbLine
 10
133.5731886185
 20
101.9530363592999
 30
0.0
 11
135.7042850012
 21
101.9772090828
 31
0.0
  0
LINE
  5
1E26
330
74
100
AcDbEntity
  8
0
  6
Continuous
100
AcDbLine
 10
135.7042850012
 20
101.9772090828
 30
0.0
 11
137.8141282855
 21
101.9772407362999
 31
0.0
  0
LINE
  5
1E27
330
74
100
AcDbEntity
  8
0
  6
Continuous
100
AcDbLine
 10
137.8141282855
 20
101.9772407362999
 30
0.0
 11
139.9450923857
 21
101.9531341483
 31
0.0
  0
LINE
  5
1E28
330
74
100
AcDbEntity
  8
0
  6
Continuous
100
AcDbLine
 10
139.9450923857
 20
101.9531341483
 30
0.0
 11
142.1426559370999
 21
101.9029126954
 31
0.0
  0
LINE
  5
1E29
330
74
100
AcDbEntity
  8
0
  6
Continuous
100
AcDbLine
 10
142.1426559370999
 20
101.9029126954
 30
0.0
 11
144.4482664705
 21
101.8226444913
 31
0.0
  0
LINE
  5
1E2A
330
74
100
AcDbEntity
  8
0
  6
Continuous
100
AcDbLine
 10
144.4482664705
 20
101.8226444913
 30
0.0
 11
146.9040994402
 21
101.7062723070999
 31
0.0
  0
LINE
  5
1E2B
330
74
100
AcDbEntity
  8
0
  6
Continuous
100
AcDbLine
 10
146.9040994402
 20
101.7062723070999
 30
0.0
 11
149.5103999426999
 21
101.5482278641
 31
0.0
  0
LINE
  5
1E2C
330
74
100
AcDbEntity
  8
0
  6
Continuous
100
AcDbLine
 10
149.5103999426999
 20
101.5482278641
 30
0.0
 11
152.2608117080999
 21
101.3432996287
 31
0.0
  0
LINE
  5
1E2D
330
74
100
AcDbEntity
  8
0
  6
Continuous
100
AcDbLine
 10
152.2608117080999
 20
101.3432996287
 30
0.0
 11
155.1569083515
 21
101.0857647280999
 31
0.0
  0
LINE
  5
1E2E
330
74
100
AcDbEntity
  8
0
  6
Continuous
100
AcDbLine
 10
118.7012875783
 20
100.9792200826
 30
0.0
 11
121.5456635101
 21
101.2480012104999
 31
0.0
  0
LINE
  5
1E2F
330
74
100
AcDbEntity
  8
0
  6
Continuous
100
AcDbLine
 10
121.5456635101
 20
101.2480012104999
 30
0.0
 11
124.2457077444
 21
101.4624367787
 31
0.0
  0
LINE
  5
1E30
330
74
100
AcDbEntity
  8
0
  6
Continuous
100
AcDbLine
 10
124.2457077444
 20
101.4624367787
 30
0.0
 11
126.8034514568
 21
101.6281969691
 31
0.0
  0
LINE
  5
1E31
330
74
100
AcDbEntity
  8
0
  6
Continuous
100
AcDbLine
 10
126.8034514568
 20
101.6281969691
 30
0.0
 11
129.2152747849
 21
101.7505946368
 31
0.0
  0
LINE
  5
1E32
330
74
100
AcDbEntity
  8
0
  6
Continuous
100
AcDbLine
 10
129.2152747849
 20
101.7505946368
 30
0.0
 11
131.4780905467
 21
101.8350965451999
 31
0.0
  0
LINE
  5
1E33
330
74
100
AcDbEntity
  8
0
  6
Continuous
100
AcDbLine
 10
131.4780905467
 20
101.8350965451999
 30
0.0
 11
133.6342589045
 21
101.8880246696999
 31
0.0
  0
LINE
  5
1E34
330
74
100
AcDbEntity
  8
0
  6
Continuous
100
AcDbLine
 10
133.6342589045
 20
101.8880246696999
 30
0.0
 11
135.7245732421999
 21
101.9134713945999
 31
0.0
  0
LINE
  5
1E35
330
74
100
AcDbEntity
  8
0
  6
Continuous
100
AcDbLine
 10
135.7245732421999
 20
101.9134713945999
 30
0.0
 11
137.7939477681999
 21
101.91350472
 31
0.0
  0
LINE
  5
1E36
330
74
100
AcDbEntity
  8
0
  6
Continuous
100
AcDbLine
 10
137.7939477681999
 20
101.91350472
 30
0.0
 11
139.8841318584
 21
101.8881275964
 31
0.0
  0
LINE
  5
1E37
330
74
100
AcDbEntity
  8
0
  6
Continuous
100
AcDbLine
 10
139.8841318584
 20
101.8881275964
 30
0.0
 11
142.0399373826
 21
101.8352812987
 31
0.0
  0
LINE
  5
1E38
330
74
100
AcDbEntity
  8
0
  6
Continuous
100
AcDbLine
 10
142.0399373826
 20
101.8352812987
 30
0.0
 11
144.3022744508
 21
101.7508786777
 31
0.0
  0
LINE
  5
1E39
330
74
100
AcDbEntity
  8
0
  6
Continuous
100
AcDbLine
 10
144.3022744508
 20
101.7508786777
 30
0.0
 11
146.7128617104999
 21
101.6286412545999
 31
0.0
  0
LINE
  5
1E3A
330
74
100
AcDbEntity
  8
0
  6
Continuous
100
AcDbLine
 10
146.7128617104999
 20
101.6286412545999
 30
0.0
 11
149.2723497829
 21
101.4628663547999
 31
0.0
  0
LINE
  5
1E3B
330
74
100
AcDbEntity
  8
0
  6
Continuous
100
AcDbLine
 10
149.2723497829
 20
101.4628663547999
 30
0.0
 11
151.9749522959
 21
101.2482974527
 31
0.0
  0
LINE
  5
1E3C
330
74
100
AcDbEntity
  8
0
  6
Continuous
100
AcDbLine
 10
151.9749522959
 20
101.2482974527
 30
0.0
 11
154.8227406887999
 21
100.9792200826
 31
0.0
  0
LINE
  5
1E3D
330
74
100
AcDbEntity
  8
0
  6
Continuous
100
AcDbLine
 10
79.0850256551
 20
140.3678686576
 30
0.0
 11
79.0368814005
 21
140.120737862
 31
0.0
  0
LINE
  5
1E3E
330
74
100
AcDbEntity
  8
0
  6
Continuous
100
AcDbLine
 10
79.0368814005
 20
140.120737862
 30
0.0
 11
78.9972905993
 21
139.9442950677999
 31
0.0
  0
LINE
  5
1E3F
330
74
100
AcDbEntity
  8
0
  6
Continuous
100
AcDbLine
 10
78.9972905993
 20
139.9442950677999
 30
0.0
 11
78.96651880579998
 21
139.8359627113999
 31
0.0
  0
LINE
  5
1E40
330
74
100
AcDbEntity
  8
0
  6
Continuous
100
AcDbLine
 10
78.96651880579998
 20
139.8359627113999
 30
0.0
 11
78.94437985409999
 21
139.7896700701999
 31
0.0
  0
LINE
  5
1E41
330
74
100
AcDbEntity
  8
0
  6
Continuous
100
AcDbLine
 10
78.9784835091
 20
140.7020241519
 30
0.0
 11
78.95242683079998
 21
140.4662617925
 31
0.0
  0
LINE
  5
1E42
330
74
100
AcDbEntity
  8
0
  6
Continuous
100
AcDbLine
 10
78.95242683079998
 20
140.4662617925
 30
0.0
 11
78.9296154771
 21
140.2982946754
 31
0.0
  0
LINE
  5
1E43
330
74
100
AcDbEntity
  8
0
  6
Continuous
100
AcDbLine
 10
78.9296154771
 20
140.2982946754
 30
0.0
 11
78.91034431189999
 21
140.1955968176999
 31
0.0
  0
LINE
  5
1E44
330
74
100
AcDbEntity
  8
0
  6
Continuous
100
AcDbLine
 10
78.91034431189999
 20
140.1955968176999
 30
0.0
 11
78.8947608233
 21
140.1522116807
 31
0.0
  0
LINE
  5
1E45
330
74
100
AcDbEntity
  8
0
  6
Continuous
100
AcDbLine
 10
79.08502835170001
 20
177.1576409141999
 30
0.0
 11
79.32684458699998
 21
174.4530982477999
 31
0.0
  0
LINE
  5
1E46
330
74
100
AcDbEntity
  8
0
  6
Continuous
100
AcDbLine
 10
79.32684458699998
 20
174.4530982477999
 30
0.0
 11
79.522799356
 21
171.8723855850999
 31
0.0
  0
LINE
  5
1E47
330
74
100
AcDbEntity
  8
0
  6
Continuous
100
AcDbLine
 10
79.522799356
 20
171.8723855850999
 30
0.0
 11
79.67887279989999
 21
169.3887123084
 31
0.0
  0
LINE
  5
1E48
330
74
100
AcDbEntity
  8
0
  6
Continuous
100
AcDbLine
 10
79.67887279989999
 20
169.3887123084
 30
0.0
 11
79.7960967725
 21
167.0560741351
 31
0.0
  0
LINE
  5
1E49
330
74
100
AcDbEntity
  8
0
  6
Continuous
100
AcDbLine
 10
79.7960967725
 20
167.0560741351
 30
0.0
 11
79.88033694479999
 21
164.8572375954999
 31
0.0
  0
LINE
  5
1E4A
330
74
100
AcDbEntity
  8
0
  6
Continuous
100
AcDbLine
 10
79.88033694479999
 20
164.8572375954999
 30
0.0
 11
79.9366489293
 21
162.7666306178
 31
0.0
  0
LINE
  5
1E4B
330
74
100
AcDbEntity
  8
0
  6
Continuous
100
AcDbLine
 10
79.9366489293
 20
162.7666306178
 30
0.0
 11
79.9689380902
 21
160.7474782229999
 31
0.0
  0
LINE
  5
1E4C
330
74
100
AcDbEntity
  8
0
  6
Continuous
100
AcDbLine
 10
79.9689380902
 20
160.7474782229999
 30
0.0
 11
79.9794618942
 21
158.7627507070999
 31
0.0
  0
LINE
  5
1E4D
330
74
100
AcDbEntity
  8
0
  6
Continuous
100
AcDbLine
 10
78.9784835091
 20
176.8234772623
 30
0.0
 11
79.2311188723
 21
174.1639961336
 31
0.0
  0
LINE
  5
1E4E
330
74
100
AcDbEntity
  8
0
  6
Continuous
100
AcDbLine
 10
79.2311188723
 20
174.1639961336
 30
0.0
 11
79.4362510828
 21
171.6279950306
 31
0.0
  0
LINE
  5
1E4F
330
74
100
AcDbEntity
  8
0
  6
Continuous
100
AcDbLine
 10
79.4362510828
 20
171.6279950306
 30
0.0
 11
79.5999152809
 21
169.1887352464
 31
0.0
  0
LINE
  5
1E50
330
74
100
AcDbEntity
  8
0
  6
Continuous
100
AcDbLine
 10
79.5999152809
 20
169.1887352464
 30
0.0
 11
79.72301289959998
 21
166.8988758472
 31
0.0
  0
LINE
  5
1E51
330
74
100
AcDbEntity
  8
0
  6
Continuous
100
AcDbLine
 10
79.72301289959998
 20
166.8988758472
 30
0.0
 11
79.81156970409999
 21
164.7411248597
 31
0.0
  0
LINE
  5
1E52
330
74
100
AcDbEntity
  8
0
  6
Continuous
100
AcDbLine
 10
79.81156970409999
 20
164.7411248597
 30
0.0
 11
79.8708140455
 21
162.6900986866999
 31
0.0
  0
LINE
  5
1E53
330
74
100
AcDbEntity
  8
0
  6
Continuous
100
AcDbLine
 10
79.8708140455
 20
162.6900986866999
 30
0.0
 11
79.90480128839998
 21
160.7094980724999
 31
0.0
  0
LINE
  5
1E54
330
74
100
AcDbEntity
  8
0
  6
Continuous
100
AcDbLine
 10
79.90480128839998
 20
160.7094980724999
 30
0.0
 11
79.9158822421
 21
158.7627507070999
 31
0.0
  0
LINE
  5
1E55
330
74
100
AcDbEntity
  8
0
  6
Continuous
100
AcDbLine
 10
78.9443798529
 20
139.7896700669
 30
0.0
 11
78.91299388649999
 21
139.9082257427999
 31
0.0
  0
LINE
  5
1E56
330
74
100
AcDbEntity
  8
0
  6
Continuous
100
AcDbLine
 10
78.91299388649999
 20
139.9082257427999
 30
0.0
 11
78.89637067479998
 21
140.0296832979
 31
0.0
  0
LINE
  5
1E57
330
74
100
AcDbEntity
  8
0
  6
Continuous
100
AcDbLine
 10
78.89637067479998
 20
140.0296832979
 30
0.0
 11
78.8947608234
 21
140.1522116807
 31
0.0
  0
LINE
  5
1E58
330
74
100
AcDbEntity
  8
0
  6
Continuous
100
AcDbLine
 10
79.0850191401
 20
140.3678830684
 30
0.0
 11
79.02602586100001
 21
140.4758766069
 31
0.0
  0
LINE
  5
1E59
330
74
100
AcDbEntity
  8
0
  6
Continuous
100
AcDbLine
 10
79.02602586100001
 20
140.4758766069
 30
0.0
 11
78.9902226066
 21
140.5881706821999
 31
0.0
  0
LINE
  5
1E5A
330
74
100
AcDbEntity
  8
0
  6
Continuous
100
AcDbLine
 10
78.9902226066
 20
140.5881706821999
 30
0.0
 11
78.9784833405
 21
140.7020241602999
 31
0.0
  0
LINE
  5
1E5B
330
74
100
AcDbEntity
  8
0
  6
Continuous
100
AcDbLine
 10
118.3671497251
 20
101.0857658454999
 30
0.0
 11
118.4751419786
 21
101.0267676137999
 31
0.0
  0
LINE
  5
1E5C
330
74
100
AcDbEntity
  8
0
  6
Continuous
100
AcDbLine
 10
118.4751419786
 20
101.0267676137999
 30
0.0
 11
118.5874350290999
 21
100.9909610238
 31
0.0
  0
LINE
  5
1E5D
330
74
100
AcDbEntity
  8
0
  6
Continuous
100
AcDbLine
 10
118.5874350290999
 20
100.9909610238
 30
0.0
 11
118.7012875729999
 21
100.9792201876
 31
0.0
  0
LINE
  5
1E5E
330
74
100
AcDbEntity
  8
0
  6
Continuous
100
AcDbLine
 10
117.7889402959999
 20
100.9451371514999
 30
0.0
 11
117.9074929419
 21
100.9137427661
 31
0.0
  0
LINE
  5
1E5F
330
74
100
AcDbEntity
  8
0
  6
Continuous
100
AcDbLine
 10
117.9074929419
 20
100.9137427661
 30
0.0
 11
118.0289482849
 21
100.8971126370999
 31
0.0
  0
LINE
  5
1E60
330
74
100
AcDbEntity
  8
0
  6
Continuous
100
AcDbLine
 10
118.0289482849
 20
100.8971126370999
 30
0.0
 11
118.1514751017
 21
100.8954975017
 31
0.0
  0
LINE
  5
1E61
330
74
100
AcDbEntity
  8
0
  6
Continuous
100
AcDbLine
 10
115.3816659517999
 20
98.5250633909
 30
0.0
 11
115.1785479981
 21
98.533595731
 31
0.0
  0
LINE
  5
1E62
330
74
100
AcDbEntity
  8
0
  6
Continuous
100
AcDbLine
 10
115.1785479981
 20
98.533595731
 30
0.0
 11
114.9814194176
 21
98.58297259330001
 31
0.0
  0
LINE
  5
1E63
330
74
100
AcDbEntity
  8
0
  6
Continuous
100
AcDbLine
 10
155.7350947737
 20
100.9451164263999
 30
0.0
 11
155.6165390978
 21
100.91373046
 31
0.0
  0
LINE
  5
1E64
330
74
100
AcDbEntity
  8
0
  6
Continuous
100
AcDbLine
 10
155.6165390978
 20
100.91373046
 30
0.0
 11
155.4950815427
 21
100.8971072483999
 31
0.0
  0
LINE
  5
1E65
330
74
100
AcDbEntity
  8
0
  6
Continuous
100
AcDbLine
 10
155.4950815427
 20
100.8971072483999
 30
0.0
 11
155.37255316
 21
100.8954973969
 31
0.0
  0
LINE
  5
1E66
330
74
100
AcDbEntity
  8
0
  6
Continuous
100
AcDbLine
 10
118.3671464949
 20
216.4397457005
 30
0.0
 11
118.4751400334
 21
216.4987389795999
 31
0.0
  0
LINE
  5
1E67
330
74
100
AcDbEntity
  8
0
  6
Continuous
100
AcDbLine
 10
118.4751400334
 20
216.4987389795999
 30
0.0
 11
118.5874341086
 21
216.534542234
 31
0.0
  0
LINE
  5
1E68
330
74
100
AcDbEntity
  8
0
  6
Continuous
100
AcDbLine
 10
118.5874341086
 20
216.534542234
 30
0.0
 11
118.7012875866999
 21
216.5462815000999
 31
0.0
  0
LINE
  5
1E69
330
74
100
AcDbEntity
  8
0
  6
Continuous
100
AcDbLine
 10
79.0850293596
 20
177.1576150875
 30
0.0
 11
79.02603109579998
 21
177.0496228466999
 31
0.0
  0
LINE
  5
1E6A
330
74
100
AcDbEntity
  8
0
  6
Continuous
100
AcDbLine
 10
79.02603109579998
 20
177.0496228466999
 30
0.0
 11
78.9902244731
 21
176.9373298054
 31
0.0
  0
LINE
  5
1E6B
330
74
100
AcDbEntity
  8
0
  6
Continuous
100
AcDbLine
 10
78.9902244731
 20
176.9373298054
 30
0.0
 11
78.9784836045
 21
176.8234772671
 31
0.0
  0
LINE
  5
1E6C
330
74
100
AcDbEntity
  8
0
  6
Continuous
100
AcDbLine
 10
78.944400578
 20
177.7358245445999
 30
0.0
 11
78.9130061925
 21
177.6172718986999
 31
0.0
  0
LINE
  5
1E6D
330
74
100
AcDbEntity
  8
0
  6
Continuous
100
AcDbLine
 10
78.9130061925
 20
177.6172718986999
 30
0.0
 11
78.89637606349999
 21
177.4958165557
 31
0.0
  0
LINE
  5
1E6E
330
74
100
AcDbEntity
  8
0
  6
Continuous
100
AcDbLine
 10
78.89637606349999
 20
177.4958165557
 30
0.0
 11
78.8947609282
 21
177.3732897388999
 31
0.0
  0
LINE
  5
1E6F
330
74
100
AcDbEntity
  8
0
  6
Continuous
100
AcDbLine
 10
76.52432681729997
 20
180.1430988889
 30
0.0
 11
76.53285915739998
 21
180.3462168425
 31
0.0
  0
LINE
  5
1E70
330
74
100
AcDbEntity
  8
0
  6
Continuous
100
AcDbLine
 10
76.53285915739998
 20
180.3462168425
 30
0.0
 11
76.5822360197
 21
180.543345423
 31
0.0
  0
LINE
  5
1E71
330
74
100
AcDbEntity
  8
0
  6
Continuous
100
AcDbLine
 10
79.9158822421
 20
158.7627507070999
 30
0.0
 11
79.9047961263
 21
156.815550166
 31
0.0
  0
LINE
  5
1E72
330
74
100
AcDbEntity
  8
0
  6
Continuous
100
AcDbLine
 10
79.9047961263
 20
156.815550166
 30
0.0
 11
79.87079324449999
 21
154.8344959236
 31
0.0
  0
LINE
  5
1E73
330
74
100
AcDbEntity
  8
0
  6
Continuous
100
AcDbLine
 10
79.87079324449999
 20
154.8344959236
 30
0.0
 11
79.81152144300001
 21
152.782990655
 31
0.0
  0
LINE
  5
1E74
330
74
100
AcDbEntity
  8
0
  6
Continuous
100
AcDbLine
 10
79.81152144300001
 20
152.782990655
 30
0.0
 11
79.72292787029998
 21
150.6248254307999
 31
0.0
  0
LINE
  5
1E75
330
74
100
AcDbEntity
  8
0
  6
Continuous
100
AcDbLine
 10
79.72292787029998
 20
150.6248254307999
 30
0.0
 11
79.599815758
 21
148.3351143541
 31
0.0
  0
LINE
  5
1E76
330
74
100
AcDbEntity
  8
0
  6
Continuous
100
AcDbLine
 10
79.599815758
 20
148.3351143541
 30
0.0
 11
79.43615066159999
 21
145.8961476048999
 31
0.0
  0
LINE
  5
1E77
330
74
100
AcDbEntity
  8
0
  6
Continuous
100
AcDbLine
 10
79.43615066159999
 20
145.8961476048999
 30
0.0
 11
79.2310618139
 21
143.3608556553999
 31
0.0
  0
LINE
  5
1E78
330
74
100
AcDbEntity
  8
0
  6
Continuous
100
AcDbLine
 10
79.2310618139
 20
143.3608556553999
 30
0.0
 11
78.9784835091
 21
140.7020241519
 31
0.0
  0
LINE
  5
1E79
330
74
100
AcDbEntity
  8
0
  6
Continuous
100
AcDbLine
 10
79.9794618942
 20
158.7627507070999
 30
0.0
 11
79.9689332124
 21
156.7775661203999
 31
0.0
  0
LINE
  5
1E7A
330
74
100
AcDbEntity
  8
0
  6
Continuous
100
AcDbLine
 10
79.9689332124
 20
156.7775661203999
 30
0.0
 11
79.9366292543
 21
154.7579515812
 31
0.0
  0
LINE
  5
1E7B
330
74
100
AcDbEntity
  8
0
  6
Continuous
100
AcDbLine
 10
79.9366292543
 20
154.7579515812
 30
0.0
 11
79.8802913136
 21
152.6668569023999
 31
0.0
  0
LINE
  5
1E7C
330
74
100
AcDbEntity
  8
0
  6
Continuous
100
AcDbLine
 10
79.8802913136
 20
152.6668569023999
 30
0.0
 11
79.7960161688
 21
150.4675987349
 31
0.0
  0
LINE
  5
1E7D
330
74
100
AcDbEntity
  8
0
  6
Continuous
100
AcDbLine
 10
79.7960161688
 20
150.4675987349
 30
0.0
 11
79.67877828819999
 21
148.1351116911999
 31
0.0
  0
LINE
  5
1E7E
330
74
100
AcDbEntity
  8
0
  6
Continuous
100
AcDbLine
 10
79.67877828819999
 20
148.1351116911999
 30
0.0
 11
79.52270368349998
 21
145.6517351547
 31
0.0
  0
LINE
  5
1E7F
330
74
100
AcDbEntity
  8
0
  6
Continuous
100
AcDbLine
 10
79.52270368349998
 20
145.6517351547
 30
0.0
 11
79.3267900947
 21
143.0717433398999
 31
0.0
  0
LINE
  5
1E80
330
74
100
AcDbEntity
  8
0
  6
Continuous
100
AcDbLine
 10
79.3267900947
 20
143.0717433398999
 30
0.0
 11
79.0850283354
 21
140.3678602534
 31
0.0
  0
LINE
  5
1E81
330
74
100
AcDbEntity
  8
0
  6
Continuous
100
AcDbLine
 10
76.5822360197
 20
136.9821559912
 30
0.0
 11
76.53286204069998
 21
137.1792646417999
 31
0.0
  0
LINE
  5
1E82
330
74
100
AcDbEntity
  8
0
  6
Continuous
100
AcDbLine
 10
76.53286204069998
 20
137.1792646417999
 30
0.0
 11
76.52432681729997
 21
137.3824025253
 31
0.0
  0
LINE
  5
1E83
330
74
100
AcDbEntity
  8
0
  6
Continuous
100
AcDbLine
 10
158.5426088494999
 20
98.58297259330001
 30
0.0
 11
158.3455001988999
 21
98.5335986143
 31
0.0
  0
LINE
  5
1E84
330
74
100
AcDbEntity
  8
0
  6
Continuous
100
AcDbLine
 10
158.3455001988999
 20
98.5335986143
 30
0.0
 11
158.1423623153
 21
98.5250633909
 31
0.0
  0
LINE
  5
1EA5
330
74
100
AcDbEntity
  8
2_ALL_NOTES
  6
Continuous
100
AcDbLine
 10
254.1675421927
 20
113.8889266352
 30
0.0
 11
254.4383933158
 21
115.9667294816999
 31
0.0
  0
LINE
  5
1EA6
330
74
100
AcDbEntity
  8
2_ALL_NOTES
  6
Continuous
100
AcDbLine
 10
254.4383933158
 20
115.9667294816999
 30
0.0
 11
253.032645754
 21
114.4128637241999
 31
0.0
  0
LINE
  5
1EA9
330
74
100
AcDbEntity
  8
1_ALL_DRAFT_DIMS
  6
Continuous
100
AcDbLine
 10
335.0478709238
 20
219.4425288206999
 30
0.0
 11
335.0478709238
 21
230.0004380233
 31
0.0
  0
LINE
  5
1EAA
330
74
100
AcDbEntity
  8
1_ALL_DRAFT_DIMS
  6
Continuous
100
AcDbLine
 10
275.0478709238
 20
214.4174064227
 30
0.0
 11
275.0478709238
 21
230.0004380233
 31
0.0
  0
LINE
  5
1EAF
330
74
100
AcDbEntity
  8
1_ALL_DRAFT_DIMS
  6
Continuous
100
AcDbLine
 10
335.0478709238
 20
219.4425288206999
 30
0.0
 11
335.0478709238
 21
235.0004380232999
 31
0.0
  0
LINE
  5
1EB0
330
74
100
AcDbEntity
  8
1_ALL_DRAFT_DIMS
  6
Continuous
100
AcDbLine
 10
227.5478709238
 20
159.2627507071
 30
0.0
 11
227.5478709238
 21
235.0004380232999
 31
0.0
  0
LINE
  5
1EB5
330
74
100
AcDbEntity
  8
1_ALL_DRAFT_DIMS
  6
Continuous
100
AcDbLine
 10
89.18581401389999
 20
201.3622324388
 30
0.0
 11
136.7620141334999
 21
158.7627507070999
 31
0.0
  0
LINE
  5
1EB6
330
74
100
AcDbEntity
  8
1_ALL_DRAFT_DIMS
  6
Continuous
100
AcDbLine
 10
136.7620141334999
 20
158.7627507070999
 30
0.0
 11
75.05044212600001
 21
214.0189707868
 31
0.0
  0
LINE
  5
1EB7
330
74
100
AcDbEntity
  8
1_ALL_DRAFT_DIMS
  6
Continuous
100
AcDbLine
 10
184.3382142531
 20
116.1632689754
 30
0.0
 11
136.7620141334999
 21
158.7627507070999
 31
0.0
  0
LINE
  5
1EBA
330
74
100
AcDbEntity
  8
0
  6
ByBlock
100
AcDbLine
 10
184.3382142531
 20
116.1632689754
 30
0.0
 11
183.2651357921855
 21
117.9630266303973
 31
0.0
  0
LINE
  5
1EBB
330
74
100
AcDbEntity
  8
0
  6
ByBlock
100
AcDbLine
 10
182.4313019781149
 20
117.0317795254286
 30
0.0
 11
184.3382142531
 21
116.1632689754
 31
0.0
  0
LINE
  5
1EBC
330
74
100
AcDbEntity
  8
0
  6
ByBlock
100
AcDbLine
 10
182.8482188851501
 20
117.4974030779129
 30
0.0
 11
184.3382142531
 21
116.1632689754
 31
0.0
  0
LINE
  5
1EBD
330
74
100
AcDbEntity
  8
0
  6
ByBlock
100
AcDbLine
 10
89.18581401389999
 20
201.3622324388
 30
0.0
 11
90.25889247481442
 21
199.5624747838026
 31
0.0
  0
LINE
  5
1EBE
330
74
100
AcDbEntity
  8
0
  6
ByBlock
100
AcDbLine
 10
91.09272628888508
 20
200.4937218887713
 30
0.0
 11
89.18581401389999
 21
201.3622324388
 31
0.0
  0
LINE
  5
1EBF
330
74
100
AcDbEntity
  8
0
  6
ByBlock
100
AcDbLine
 10
90.67580938184976
 20
200.0280983362869
 30
0.0
 11
89.18581401389999
 21
201.3622324388
 31
0.0
  0
LINE
  5
1F4D
330
74
100
AcDbEntity
  8
非表示
100
AcDbLine
 10
0.00000033449669
 20
0.0000000858238423
 30
0.0
 11
420.0000003344968
 21
0.0000000858238423
 31
0.0
  0
LINE
  5
1F4E
330
74
100
AcDbEntity
  8
非表示
100
AcDbLine
 10
420.0000003344968
 20
0.0000000858238423
 30
0.0
 11
420.0000003344968
 21
297.0000000858238
 31
0.0
  0
LINE
  5
1F4F
330
74
100
AcDbEntity
  8
0
100
AcDbLine
 10
410.0000003344964
 20
10.00000008582382
 30
0.0
 11
320.0000003344965
 21
10.00000008582382
 31
0.0
  0
LINE
  5
1F50
330
74
100
AcDbEntity
  8
0
100
AcDbLine
 10
410.0000003344964
 20
18.00000008582382
 30
0.0
 11
320.0000003344965
 21
18.00000008582382
 31
0.0
  0
LINE
  5
1F51
330
74
100
AcDbEntity
  8
0
100
AcDbLine
 10
410.0000003344964
 20
26.00000008582384
 30
0.0
 11
320.0000003344965
 21
26.00000008582384
 31
0.0
  0
LINE
  5
1F52
330
74
100
AcDbEntity
  8
0
100
AcDbLine
 10
340.0000003344966
 20
26.00000008582384
 30
0.0
 11
340.0000003344966
 21
10.00000008582382
 31
0.0
  0
TEXT
  5
1F53
330
74
100
AcDbEntity
  8
0
100
AcDbText
 10
325.9352903344966
 20
19.67168608582382
 30
0.0
 40
4.0
  1
品名
  7
STANDARD1
100
AcDbText
  0
TEXT
  5
1F54
330
74
100
AcDbEntity
  8
0
100
AcDbText
 10
325.9352903344966
 20
11.67168608582382
 30
0.0
 40
4.0
  1
型名
  7
STANDARD1
100
AcDbText
  0
TEXT
  5
1F55
330
74
100
AcDbEntity
  8
0
100
AcDbText
 10
341.9352903344966
 20
19.67168608582382
 30
0.0
 40
4.0
  1
ドームカバー（クリア）
  7
STANDARD1
100
AcDbText
  0
TEXT
  5
1F56
330
74
100
AcDbEntity
  8
0
100
AcDbText
 10
341.9352903344966
 20
11.67168608582382
 30
0.0
 40
4.0
  1
K-9661
  7
STANDARD1
100
AcDbText
  0
LINE
  5
1F57
330
74
100
AcDbEntity
  8
0
100
AcDbLine
 10
410.0000003344964
 20
26.00000008582384
 30
0.0
 11
410.0000003344964
 21
10.00000008582382
 31
0.0
  0
LINE
  5
1F58
330
74
100
AcDbEntity
  8
非表示
100
AcDbLine
 10
0.00000033449669
 20
0.0000000858238423
 30
0.0
 11
0.00000033449669
 21
297.0000000858238
 31
0.0
  0
LINE
  5
1F59
330
74
100
AcDbEntity
  8
非表示
100
AcDbLine
 10
0.00000033449669
 20
297.0000000858238
 30
0.0
 11
420.0000003344968
 21
297.0000000858238
 31
0.0
  0
LINE
  5
1F5A
330
74
100
AcDbEntity
  8
0
100
AcDbLine
 10
320.0000003344965
 20
26.00000008582384
 30
0.0
 11
320.0000003344965
 21
10.00000008582382
 31
0.0
  0
DIMENSION
  5
1F7B
330
74
100
AcDbEntity
  8
0
100
AcDbDimension
  2
*D8
 10
335.0478709238
 20
234.0004380233
 30
0.0
 11
281.2978709238
 21
236.7504380233
 31
0.0
 70
    32
 71
     5
 42
107.4999999999999
  3
Standard
100
AcDbAlignedDimension
 13
227.5478709238
 23
235.0004380232999
 33
0.0
 14
335.0478709238
 24
235.0004380232999
 34
0.0
100
AcDbRotatedDimension
1001
ACAD
1000
DSTYLE
1002
{
1070
    41
1040
2.0
1070
    42
1040
0.0
1070
    43
1040
15.0
1070
    44
1040
1.0
1070
    73
1070
     0
1070
    77
1070
     3
1070
   140
1040
3.5
1070
   141
1040
3.779999999999998
1070
   147
1040
1.0
1070
   271
1070
     0
1070
   272
1070
     0
1070
   341
1005
A8
1070
   342
1005
A8
1002
}
  0
DIMENSION
  5
1F96
330
74
100
AcDbEntity
  8
0
100
AcDbDimension
  2
*D9
 10
335.0478709238
 20
229.0004380232999
 30
0.0
 11
305.0478709238
 21
231.7504380233
 31
0.0
 70
    32
 71
     5
 42
60.0
  3
Standard
100
AcDbAlignedDimension
 13
275.0478709238
 23
213.9174065554
 33
0.0
 14
335.0478709238
 24
219.0021681738
 34
0.0
100
AcDbRotatedDimension
1001
ACAD
1000
DSTYLE
1002
{
1070
    41
1040
2.0
1070
    42
1040
0.0
1070
    43
1040
15.0
1070
    44
1040
1.0
1070
    73
1070
     0
1070
    77
1070
     3
1070
   140
1040
3.5
1070
   141
1040
3.779999999999998
1070
   147
1040
1.0
1070
   271
1070
     0
1070
   272
1070
     0
1070
   341
1005
A8
1070
   342
1005
A8
1002
}
  0
LINE
  5
1FAE
330
74
100
AcDbEntity
  8
0
100
AcDbLine
 10
236.6239343398616
 20
223.7539123938515
 30
0.0
 11
249.8560184614829
 21
201.3728500911292
 31
0.0
  0
INSERT
  5
1FB0
330
74
100
AcDbEntity
  8
0
100
AcDbBlockReference
  2
_OPEN
 10
250.873871086223
 20
199.6512299139967
 30
0.0
 41
2.0
 42
2.0
 43
2.0
 50
300.5923383813588
  0
LINE
  5
1FB1
330
74
100
AcDbEntity
  8
0
100
AcDbLine
 10
271.2678709238003
 20
158.7627507071003
 30
0.0
 11
278.8278709238003
 21
158.7627507071003
 31
0.0
  0
LINE
  5
1FB2
330
74
100
AcDbEntity
  8
0
100
AcDbLine
 10
275.0478709238003
 20
154.9827507071003
 30
0.0
 11
275.0478709238004
 21
162.5427507071003
 31
0.0
  0
TEXT
  5
1FB4
330
74
100
AcDbEntity
  8
0
100
AcDbText
 10
239.5204496779079
 20
220.8195983519566
 30
0.0
 40
3.5
  1
(SR47.5)
 50
300.5923383813588
 41
0.8
100
AcDbText
  0
TEXT
  5
1FB5
330
74
100
AcDbEntity
  8
0
100
AcDbText
 10
227.0
 20
98.0
 30
0.0
 40
3.0
  1
クリアドーム
 41
0.8
  7
STANDARD1
100
AcDbText
  0
TEXT
  5
1FB6
330
74
100
AcDbEntity
  8
0
100
AcDbText
 10
76.4625068608712
 20
214.096901426045
 30
0.0
 40
3.5
  1
φ128
 50
318.158900264823
 41
0.8
  7
STANDARD1
100
AcDbText
  0
ENDSEC
  0
SECTION
  2
OBJECTS
  0
DICTIONARY
  5
C
330
0
100
AcDbDictionary
281
     1
  3
ACAD_COLOR
350
6A
  3
ACAD_GROUP
350
D
  3
ACAD_LAYOUT
350
69
  3
ACAD_MATERIAL
350
10
  3
ACAD_MLEADERSTYLE
350
6D
  3
ACAD_MLINESTYLE
350
66
  3
ACAD_PLOTSETTINGS
350
68
  3
ACAD_PLOTSTYLENAME
350
E
  3
ACAD_SCALELIST
350
3A
  3
ACAD_TABLESTYLE
350
6B
  3
ACAD_VISUALSTYLE
350
29
  3
ACDB_RECOMPOSE_DATA
350
1BE1
  3
AcDbVariableDictionary
350
1BD8
  3
DWGPROPS
350
1ED0
  0
DICTIONARY
  5
1EDA
330
2
100
AcDbDictionary
280
     1
281
     1
  3
ACAD_LAYERFILTERS
360
1EDB
  3
ACAD_LAYERSTATES
360
1F38
  0
DICTIONARY
  5
1B92
330
5C
100
AcDbDictionary
280
     1
281
     1
  3
ADSK_XREC_LAYER_RECONCILED
360
1B93
  0
DICTIONARY
  5
1B94
330
7F
100
AcDbDictionary
280
     1
281
     1
  3
ADSK_XREC_LAYER_RECONCILED
360
1B95
  0
DICTIONARY
  5
1B96
330
80
100
AcDbDictionary
280
     1
281
     1
  3
ADSK_XREC_LAYER_RECONCILED
360
1B97
  0
DICTIONARY
  5
1B98
330
81
100
AcDbDictionary
280
     1
281
     1
  3
ADSK_XREC_LAYER_RECONCILED
360
1B99
  0
DICTIONARY
  5
1B9A
330
82
100
AcDbDictionary
280
     1
281
     1
  3
ADSK_XREC_LAYER_RECONCILED
360
1B9B
  0
DICTIONARY
  5
1B9C
330
83
100
AcDbDictionary
280
     1
281
     1
  3
ADSK_XREC_LAYER_RECONCILED
360
1B9D
  0
DICTIONARY
  5
1B9E
330
84
100
AcDbDictionary
280
     1
281
     1
  3
ADSK_XREC_LAYER_RECONCILED
360
1B9F
  0
DICTIONARY
  5
1BA0
330
85
100
AcDbDictionary
280
     1
281
     1
  3
ADSK_XREC_LAYER_RECONCILED
360
1BA1
  0
DICTIONARY
  5
1BA2
330
86
100
AcDbDictionary
280
     1
281
     1
  3
ADSK_XREC_LAYER_RECONCILED
360
1BA3
  0
DICTIONARY
  5
1BA4
330
87
100
AcDbDictionary
280
     1
281
     1
  3
ADSK_XREC_LAYER_RECONCILED
360
1BA5
  0
DICTIONARY
  5
1BA6
330
88
100
AcDbDictionary
280
     1
281
     1
  3
ADSK_XREC_LAYER_RECONCILED
360
1BA7
  0
DICTIONARY
  5
1BA8
330
89
100
AcDbDictionary
280
     1
281
     1
  3
ADSK_XREC_LAYER_RECONCILED
360
1BA9
  0
DICTIONARY
  5
1BAA
330
8A
100
AcDbDictionary
280
     1
281
     1
  3
ADSK_XREC_LAYER_RECONCILED
360
1BAB
  0
DICTIONARY
  5
1BAC
330
8B
100
AcDbDictionary
280
     1
281
     1
  3
ADSK_XREC_LAYER_RECONCILED
360
1BAD
  0
DICTIONARY
  5
1BAE
330
8C
100
AcDbDictionary
280
     1
281
     1
  3
ADSK_XREC_LAYER_RECONCILED
360
1BAF
  0
DICTIONARY
  5
1BB0
330
8D
100
AcDbDictionary
280
     1
281
     1
  3
ADSK_XREC_LAYER_RECONCILED
360
1BB1
  0
DICTIONARY
  5
1BB2
330
8E
100
AcDbDictionary
280
     1
281
     1
  3
ADSK_XREC_LAYER_RECONCILED
360
1BB3
  0
DICTIONARY
  5
1BB4
330
8F
100
AcDbDictionary
280
     1
281
     1
  3
ADSK_XREC_LAYER_RECONCILED
360
1BB5
  0
DICTIONARY
  5
1BB6
330
90
100
AcDbDictionary
280
     1
281
     1
  3
ADSK_XREC_LAYER_RECONCILED
360
1BB7
  0
DICTIONARY
  5
1BB8
330
91
100
AcDbDictionary
280
     1
281
     1
  3
ADSK_XREC_LAYER_RECONCILED
360
1BB9
  0
DICTIONARY
  5
1BBA
330
92
100
AcDbDictionary
280
     1
281
     1
  3
ADSK_XREC_LAYER_RECONCILED
360
1BBB
  0
DICTIONARY
  5
1BBC
330
93
100
AcDbDictionary
280
     1
281
     1
  3
ADSK_XREC_LAYER_RECONCILED
360
1BBD
  0
DICTIONARY
  5
1BBE
330
94
100
AcDbDictionary
280
     1
281
     1
  3
ADSK_XREC_LAYER_RECONCILED
360
1BBF
  0
DICTIONARY
  5
1BC0
330
95
100
AcDbDictionary
280
     1
281
     1
  3
ADSK_XREC_LAYER_RECONCILED
360
1BC1
  0
DICTIONARY
  5
1BC2
330
96
100
AcDbDictionary
280
     1
281
     1
  3
ADSK_XREC_LAYER_RECONCILED
360
1BC3
  0
DICTIONARY
  5
1BC4
330
97
100
AcDbDictionary
280
     1
281
     1
  3
ADSK_XREC_LAYER_RECONCILED
360
1BC5
  0
DICTIONARY
  5
1BC6
330
98
100
AcDbDictionary
280
     1
281
     1
  3
ADSK_XREC_LAYER_RECONCILED
360
1BC7
  0
DICTIONARY
  5
1BC8
330
99
100
AcDbDictionary
280
     1
281
     1
  3
ADSK_XREC_LAYER_RECONCILED
360
1BC9
  0
DICTIONARY
  5
1BCA
330
9A
100
AcDbDictionary
280
     1
281
     1
  3
ADSK_XREC_LAYER_RECONCILED
360
1BCB
  0
DICTIONARY
  5
1BCC
330
9B
100
AcDbDictionary
280
     1
281
     1
  3
ADSK_XREC_LAYER_RECONCILED
360
1BCD
  0
DICTIONARY
  5
1BCE
330
9C
100
AcDbDictionary
280
     1
281
     1
  3
ADSK_XREC_LAYER_RECONCILED
360
1BCF
  0
DICTIONARY
  5
1BD0
330
9D
100
AcDbDictionary
280
     1
281
     1
  3
ADSK_XREC_LAYER_RECONCILED
360
1BD1
  0
DICTIONARY
  5
1BD2
330
9E
100
AcDbDictionary
280
     1
281
     1
  3
ADSK_XREC_LAYER_RECONCILED
360
1BD3
  0
DICTIONARY
  5
1BD4
330
9F
100
AcDbDictionary
280
     1
281
     1
  3
ADSK_XREC_LAYER_RECONCILED
360
1BD5
  0
DICTIONARY
  5
1BD6
330
A0
100
AcDbDictionary
280
     1
281
     1
  3
ADSK_XREC_LAYER_RECONCILED
360
1BD7
  0
DICTIONARY
  5
1BF4
330
74
100
AcDbDictionary
280
     1
281
     1
  3
ACAD_SORTENTS
360
1BF5
  0
DICTIONARY
  5
6A
102
{ACAD_REACTORS
330
C
102
}
330
C
100
AcDbDictionary
281
     1
  0
DICTIONARY
  5
D
102
{ACAD_REACTORS
330
C
102
}
330
C
100
AcDbDictionary
281
     1
  0
DICTIONARY
  5
69
102
{ACAD_REACTORS
330
C
102
}
330
C
100
AcDbDictionary
281
     1
  3
Model
350
77
  3
レイアウト1
350
73
  0
DICTIONARY
  5
10
102
{ACAD_REACTORS
330
C
102
}
330
C
100
AcDbDictionary
281
     1
  3
ByBlock
350
19
  3
ByLayer
350
11
  3
Global
350
21
  0
DICTIONARY
  5
6D
102
{ACAD_REACTORS
330
C
102
}
330
C
100
AcDbDictionary
281
     1
  3
Standard
350
6E
  0
DICTIONARY
  5
66
102
{ACAD_REACTORS
330
C
102
}
330
C
100
AcDbDictionary
281
     1
  3
Standard
350
67
  0
DICTIONARY
  5
68
102
{ACAD_REACTORS
330
C
102
}
330
C
100
AcDbDictionary
281
     1
  0
ACDBDICTIONARYWDFLT
  5
E
102
{ACAD_REACTORS
330
C
102
}
330
C
100
AcDbDictionary
281
     1
  3
Normal
350
F
100
AcDbDictionaryWithDefault
340
F
  0
DICTIONARY
  5
3A
102
{ACAD_REACTORS
330
C
102
}
330
C
100
AcDbDictionary
281
     1
  3
A0
350
3B
  3
A1
350
3C
  3
A2
350
3D
  3
A3
350
3E
  3
A4
350
3F
  3
A5
350
40
  3
A6
350
41
  3
A7
350
42
  3
A8
350
43
  3
A9
350
44
  3
B0
350
45
  3
B1
350
46
  3
B2
350
47
  3
B3
350
48
  3
B4
350
49
  3
B5
350
4A
  3
B6
350
4B
  3
B7
350
4C
  3
B8
350
4D
  3
B9
350
4E
  3
C0
350
4F
  3
C1
350
50
  3
C2
350
51
  3
C3
350
52
  3
C4
350
53
  3
C5
350
54
  3
C6
350
55
  3
C7
350
56
  3
C8
350
57
  3
C9
350
58
  3
D0
350
59
  3
D1
350
5A
  3
D2
350
5B
  0
DICTIONARY
  5
6B
102
{ACAD_REACTORS
330
C
102
}
330
C
100
AcDbDictionary
281
     1
  3
Standard
350
6C
  0
DICTIONARY
  5
29
102
{ACAD_REACTORS
330
C
102
}
330
C
100
AcDbDictionary
281
     1
  3
2dWireframe
350
2F
  3
3D Hidden
350
31
  3
3dWireframe
350
30
  3
Basic
350
2E
  3
Brighten
350
35
  3
ColorChange
350
39
  3
Conceptual
350
32
  3
Dim
350
34
  3
Facepattern
350
38
  3
Flat
350
2A
  3
FlatWithEdges
350
2B
  3
Gouraud
350
2C
  3
GouraudWithEdges
350
2D
  3
Linepattern
350
37
  3
Realistic
350
33
  3
Thicken
350
36
  0
XRECORD
  5
1BE1
102
{ACAD_REACTORS
330
C
102
}
330
C
100
AcDbXrecord
280
     1
 90
        1
330
6C
  0
DICTIONARY
  5
1BD8
102
{ACAD_REACTORS
330
C
102
}
330
C
100
AcDbDictionary
281
     1
  3
CANNOSCALE
350
1BDB
  3
CMLEADERSTYLE
350
1BDA
  3
CTABLESTYLE
350
1BD9
  3
DIMASSOC
350
1BDE
  3
INDEXCTL
350
1BDD
  3
SORTENTS
350
1BDC
  0
XRECORD
  5
1ED0
102
{ACAD_REACTORS
330
C
102
}
330
C
100
AcDbXrecord
280
     1
  1
DWGPROPS COOKIE
  2

  3

  4

  6

  7

  8
DS30385
  9

300
=
301
=
302
=
303
=
304
=
305
=
306
=
307
=
308
=
309
=
 40
0.0019111111111111
 41
2455496.51202442
 42
2455496.517950347
  1

 90
        0
  0
DICTIONARY
  5
1EDB
102
{ACAD_REACTORS
330
1EDA
102
}
330
1EDA
100
AcDbDictionary
280
     1
281
     1
  3
0
360
1EDC
  3
01全体計画平面図
360
1EDD
  3
02現況平面図
360
1EDE
  3
03撤去平面図
360
1EDF
  3
04造成平面図
360
1EE0
  3
05施設平面図
360
1EE1
  3
06排水平面図
360
1EE2
  3
07給水平面図
360
1EE3
  3
08電気平面図
360
1EE4
  3
09植栽平面図-1
360
1EE5
  3
1
360
1EE6
  3
1-交差点処理図（最新1案）
360
1EE7
  3
10植栽平面図-2
360
1EE8
  3
11寸法図
360
1EE9
  3
1次施工
360
1EEA
  3
2
360
1EEB
  3
2-線形図1
360
1EEC
  3
2次施工
360
1EED
  3
3
360
1EEE
  3
3-線形図2
360
1EEF
  3
3次施工
360
1EF0
  3
4
360
1EF1
  3
4次施工
360
1EF2
  3
5
360
1EF3
  3
50
360
1EF4
  3
6
360
1EF5
  3
7
360
1EF6
  3
7-専用部北行
360
1EF7
  3
8-ONﾗﾝﾌﾟ
360
1EF8
  3
9-OFFﾗﾝﾌﾟ
360
1EF9
  3
a
360
1EFA
  3
b
360
1EFB
  3
B北
360
1EFC
  3
c
360
1EFD
  3
CAR
360
1EFE
  3
d
360
1EFF
  3
DIM
360
1F00
  3
DIM2
360
1F01
  3
DIM3
360
1F02
  3
e
360
1F03
  3
E南
360
1F04
  3
GENKYOU
360
1F05
  3
HTXT
360
1F06
  3
HTXT2
360
1F07
  3
KAN
360
1F08
  3
LAND
360
1F09
  3
MASU
360
1F0A
  3
OFF
360
1F0B
  3
OFST
360
1F0C
  3
ON
360
1F0D
  3
ｼｭｳｾｲ
360
1F0E
  3
ｾﾒﾝﾄ注入量上半円
360
1F0F
  3
ﾌﾘｰｽﾞ解除
360
1F10
  3
ﾙｼﾞｵﾝ値下半円
360
1F11
  3
ｓ
360
1F12
  3
その他
360
1F13
  3
セメント注入量
360
1F14
  3
フリーズ以外
360
1F15
  3
ランプ
360
1F16
  3
ルジオン値
360
1F17
  3
ロック
360
1F18
  3
ロック解除
360
1F19
  3
案1
360
1F1A
  3
案2
360
1F1B
  3
一般
360
1F1C
  3
外部参照の非表示画層
360
1F1D
  3
形状
360
1F1E
  3
形状以外
360
1F1F
  3
計画
360
1F20
  3
現況
360
1F21
  3
暫定形
360
1F22
  3
縦断セット
360
1F23
  3
縦断計画
360
1F24
  3
縦断埋設
360
1F25
  3
数量用
360
1F26
  3
専北
360
1F27
  3
専用
360
1F28
  3
線形
360
1F29
  3
全帯
360
1F2A
  3
断面
360
1F2B
  3
東西線
360
1F2C
  3
道路詳細設計　平面図
360
1F2D
  3
南北線
360
1F2E
  3
非表示
360
1F2F
  3
非表示を表示
360
1F30
  3
非表示画層を表示
360
1F31
  3
表示レイヤ－を表示
360
1F32
  3
副道
360
1F33
  3
平面図
360
1F34
  3
埋設
360
1F35
  0
DICTIONARY
  5
1F38
102
{ACAD_REACTORS
330
1EDA
102
}
330
1EDA
100
AcDbDictionary
281
     1
  0
XRECORD
  5
1B93
102
{ACAD_REACTORS
330
1B92
102
}
330
1B92
100
AcDbXrecord
280
     1
290
     1
  0
XRECORD
  5
1B95
102
{ACAD_REACTORS
330
1B94
102
}
330
1B94
100
AcDbXrecord
280
     1
290
     1
  0
XRECORD
  5
1B97
102
{ACAD_REACTORS
330
1B96
102
}
330
1B96
100
AcDbXrecord
280
     1
290
     1
  0
XRECORD
  5
1B99
102
{ACAD_REACTORS
330
1B98
102
}
330
1B98
100
AcDbXrecord
280
     1
290
     1
  0
XRECORD
  5
1B9B
102
{ACAD_REACTORS
330
1B9A
102
}
330
1B9A
100
AcDbXrecord
280
     1
290
     1
  0
XRECORD
  5
1B9D
102
{ACAD_REACTORS
330
1B9C
102
}
330
1B9C
100
AcDbXrecord
280
     1
290
     1
  0
XRECORD
  5
1B9F
102
{ACAD_REACTORS
330
1B9E
102
}
330
1B9E
100
AcDbXrecord
280
     1
290
     1
  0
XRECORD
  5
1BA1
102
{ACAD_REACTORS
330
1BA0
102
}
330
1BA0
100
AcDbXrecord
280
     1
290
     1
  0
XRECORD
  5
1BA3
102
{ACAD_REACTORS
330
1BA2
102
}
330
1BA2
100
AcDbXrecord
280
     1
290
     1
  0
XRECORD
  5
1BA5
102
{ACAD_REACTORS
330
1BA4
102
}
330
1BA4
100
AcDbXrecord
280
     1
290
     1
  0
XRECORD
  5
1BA7
102
{ACAD_REACTORS
330
1BA6
102
}
330
1BA6
100
AcDbXrecord
280
     1
290
     1
  0
XRECORD
  5
1BA9
102
{ACAD_REACTORS
330
1BA8
102
}
330
1BA8
100
AcDbXrecord
280
     1
290
     1
  0
XRECORD
  5
1BAB
102
{ACAD_REACTORS
330
1BAA
102
}
330
1BAA
100
AcDbXrecord
280
     1
290
     1
  0
XRECORD
  5
1BAD
102
{ACAD_REACTORS
330
1BAC
102
}
330
1BAC
100
AcDbXrecord
280
     1
290
     1
  0
XRECORD
  5
1BAF
102
{ACAD_REACTORS
330
1BAE
102
}
330
1BAE
100
AcDbXrecord
280
     1
290
     1
  0
XRECORD
  5
1BB1
102
{ACAD_REACTORS
330
1BB0
102
}
330
1BB0
100
AcDbXrecord
280
     1
290
     1
  0
XRECORD
  5
1BB3
102
{ACAD_REACTORS
330
1BB2
102
}
330
1BB2
100
AcDbXrecord
280
     1
290
     1
  0
XRECORD
  5
1BB5
102
{ACAD_REACTORS
330
1BB4
102
}
330
1BB4
100
AcDbXrecord
280
     1
290
     1
  0
XRECORD
  5
1BB7
102
{ACAD_REACTORS
330
1BB6
102
}
330
1BB6
100
AcDbXrecord
280
     1
290
     1
  0
XRECORD
  5
1BB9
102
{ACAD_REACTORS
330
1BB8
102
}
330
1BB8
100
AcDbXrecord
280
     1
290
     1
  0
XRECORD
  5
1BBB
102
{ACAD_REACTORS
330
1BBA
102
}
330
1BBA
100
AcDbXrecord
280
     1
290
     1
  0
XRECORD
  5
1BBD
102
{ACAD_REACTORS
330
1BBC
102
}
330
1BBC
100
AcDbXrecord
280
     1
290
     1
  0
XRECORD
  5
1BBF
102
{ACAD_REACTORS
330
1BBE
102
}
330
1BBE
100
AcDbXrecord
280
     1
290
     1
  0
XRECORD
  5
1BC1
102
{ACAD_REACTORS
330
1BC0
102
}
330
1BC0
100
AcDbXrecord
280
     1
290
     1
  0
XRECORD
  5
1BC3
102
{ACAD_REACTORS
330
1BC2
102
}
330
1BC2
100
AcDbXrecord
280
     1
290
     1
  0
XRECORD
  5
1BC5
102
{ACAD_REACTORS
330
1BC4
102
}
330
1BC4
100
AcDbXrecord
280
     1
290
     1
  0
XRECORD
  5
1BC7
102
{ACAD_REACTORS
330
1BC6
102
}
330
1BC6
100
AcDbXrecord
280
     1
290
     1
  0
XRECORD
  5
1BC9
102
{ACAD_REACTORS
330
1BC8
102
}
330
1BC8
100
AcDbXrecord
280
     1
290
     1
  0
XRECORD
  5
1BCB
102
{ACAD_REACTORS
330
1BCA
102
}
330
1BCA
100
AcDbXrecord
280
     1
290
     1
  0
XRECORD
  5
1BCD
102
{ACAD_REACTORS
330
1BCC
102
}
330
1BCC
100
AcDbXrecord
280
     1
290
     1
  0
XRECORD
  5
1BCF
102
{ACAD_REACTORS
330
1BCE
102
}
330
1BCE
100
AcDbXrecord
280
     1
290
     1
  0
XRECORD
  5
1BD1
102
{ACAD_REACTORS
330
1BD0
102
}
330
1BD0
100
AcDbXrecord
280
     1
290
     1
  0
XRECORD
  5
1BD3
102
{ACAD_REACTORS
330
1BD2
102
}
330
1BD2
100
AcDbXrecord
280
     1
290
     1
  0
XRECORD
  5
1BD5
102
{ACAD_REACTORS
330
1BD4
102
}
330
1BD4
100
AcDbXrecord
280
     1
290
     1
  0
XRECORD
  5
1BD7
102
{ACAD_REACTORS
330
1BD6
102
}
330
1BD6
100
AcDbXrecord
280
     1
290
     1
  0
SORTENTSTABLE
  5
1BF5
102
{ACAD_REACTORS
330
1BF4
102
}
330
1BF4
100
AcDbSortentsTable
330
74
331
1EB2
  5
19C5
331
1DFD
  5
1C75
331
1E3C
  5
1C44
331
1D87
  5
1CF6
331
1DC6
  5
1CAA
331
1E73
  5
1BFC
331
1E7B
  5
1BF2
331
1EBA
  5
1854
331
1DCE
  5
1CB2
331
1E05
  5
1C66
331
1D8F
  5
1CEC
331
1E44
  5
1C31
331
1C58
  5
1E38
331
1B82
  5
1EC0
331
1E83
  5
1B8E
331
1EC2
  5
1A11
331
1C19
  5
1E73
331
1DD6
  5
1CBA
331
1E0D
  5
1C6E
331
1D97
  5
1CE6
331
1E4C
  5
1C2D
331
1CD6
  5
1DAA
331
1D0D
  5
1D5E
331
1C60
  5
1E34
331
1C97
  5
1E03
331
1D4C
  5
1D30
331
1E8B
  5
1B82
331
1B8A
  5
1EC8
331
1D9F
  5
1CD9
331
1E15
  5
1C5E
331
1C21
  5
1E7B
331
1CDE
  5
1DA3
331
1D15
  5
1D66
331
1C29
  5
1E6D
331
1C68
  5
1E2D
331
1C9F
  5
1DFB
331
1D54
  5
1D1A
331
1D5C
  5
1D22
331
1CA7
  5
1DEA
331
1C31
  5
1E69
331
1CE6
  5
1D9D
331
1B4B
  5
1E94
331
1D1D
  5
1D6E
331
1D25
  5
1D76
331
1CAF
  5
1DDC
331
1BF7
  5
1EA8
331
1A10
  5
1DC8
331
1851
  5
1C94
331
1D60
  5
1D26
331
1ECA
  5
1A2C
331
1E1D
  5
1C56
331
1E54
  5
1C25
331
1D68
  5
1D13
331
1DA7
  5
1CD5
331
1DDE
  5
1CC2
331
1E93
  5
1B7F
331
1E9B
  5
1B5F
331
1E25
  5
1C4B
331
1E5C
  5
1C16
331
1D70
  5
1D0F
331
1DAF
  5
1CCB
331
1DE6
  5
1C8F
331
1C70
  5
1E20
331
1BFA
  5
1E99
331
1EA3
  5
1B76
331
1A2C
  5
1DDB
331
1C39
  5
1E5F
331
1DEE
  5
1C85
331
1E2D
  5
1C53
331
1D78
  5
1D07
331
1DB7
  5
1C9B
331
1E64
  5
1C0E
331
1D2D
  5
1D7E
331
1C78
  5
1E1B
331
1CB7
  5
1DCC
331
1C02
  5
1EA1
331
1E6C
  5
1C04
331
1EAB
  5
1A22
331
1DBF
  5
1CA3
331
1DF6
  5
1C7B
331
1E35
  5
1C3D
331
1A34
  5
1DE0
331
1C41
  5
1E4C
331
1CEE
  5
1D90
331
1CF6
  5
1D86
331
1D35
  5
1D45
331
1C49
  5
1E54
331
1C80
  5
1E0A
331
1A54
  5
1DF1
331
1B73
  5
1EB1
331
1C0A
  5
1E8F
331
1CBF
  5
1DC5
331
1CC7
  5
1DB7
331
1CFE
  5
1D4F
331
1C12
  5
1E89
331
1C51
  5
1E41
331
1B7B
  5
1EB9
331
1C88
  5
1E12
331
1D3D
  5
1D3C
331
1D45
  5
1D29
331
1CCF
  5
1DAE
331
1D06
  5
1D57
331
171A
  5
1B78
331
1D80
  5
1CFF
331
1E3D
  5
1C32
331
1E74
  5
1BFD
331
1DC7
  5
1CAB
331
1DFE
  5
1C76
331
1D88
  5
1CF7
331
1E45
  5
1C26
331
1E7C
  5
1BF3
331
1D90
  5
1CE7
331
1DCF
  5
1CB3
331
1E06
  5
1C67
331
1EBB
  5
1885
331
1C1A
  5
1E74
331
1C59
  5
1E39
331
1EC3
  5
19ED
331
1E0E
  5
1C6F
331
1E4D
  5
1C1E
331
1D98
  5
1CDF
331
1DD7
  5
1CBB
331
1E84
  5
1B8F
331
1B83
  5
1EC1
331
1C90
  5
1DFC
331
1D4D
  5
1D31
331
1C98
  5
1DF4
331
1CD7
  5
1DAB
331
1E8C
  5
1B83
331
1B8B
  5
1EC9
331
1E16
  5
1C5F
331
1C22
  5
1E7C
331
1C61
  5
1E35
331
1D0E
  5
1D5F
331
1D16
  5
1D67
331
1D55
  5
1D1B
331
1C69
  5
1E28
331
1CA0
  5
1DEE
331
1C2A
  5
1E6E
331
1CDF
  5
1DA4
331
1CE7
  5
1D9E
331
1D1E
  5
1D6F
331
1CA8
  5
1DE5
331
1D5D
  5
1D23
331
1B4C
  5
1E95
331
1C32
  5
1E64
331
1D26
  5
1D77
331
1BF0
  5
1EAC
331
1A11
  5
1DC9
331
1852
  5
1C95
331
1A21
  5
1DD3
331
1D61
  5
1D27
331
1DA0
  5
1CDA
331
1E94
  5
1B80
331
1ECB
  5
1A33
331
1DDF
  5
1CC3
331
1E1E
  5
1C57
331
1D69
  5
1D14
331
1DA8
  5
1CD0
331
1E55
  5
1C1B
331
1E5D
  5
1C17
331
1E9C
  5
1B60
331
1DB0
  5
1CCC
331
1DE7
  5
1C8A
331
1D71
  5
1D10
331
1E26
  5
1C4C
331
1C3A
  5
1E60
331
1C71
  5
1E21
331
1E2E
  5
1C36
331
1E65
  5
1C0F
331
1D79
  5
1D08
331
1DB8
  5
1C9C
331
1DEF
  5
1C86
331
1EA4
  5
1B77
331
1BFB
  5
1E9A
331
1CB0
  5
1DDD
331
1CB8
  5
1DCD
331
1CEF
  5
1D8B
331
1EAC
  5
1A28
331
1C03
  5
1EA2
331
1C42
  5
1E4D
331
1E36
  5
1C3E
331
1E6D
  5
1C05
331
1C79
  5
1E1C
331
1D2E
  5
1D4A
331
1DF7
  5
1C7C
331
1D36
  5
1D46
331
1C81
  5
1E0B
331
1CC0
  5
1DC6
331
1C0B
  5
1E90
331
1C4A
  5
1E55
331
1CF7
  5
1D87
331
1A55
  5
1DF2
331
1B74
  5
1EB2
331
1D3E
  5
1D3D
331
1C89
  5
1E13
331
1CC8
  5
1DB8
331
1B7C
  5
1EBA
331
1C13
  5
1E8A
331
1C52
  5
1E42
331
1CFF
  5
1D50
331
1D07
  5
1D58
331
1D46
  5
1D2A
331
1962
  5
1D4D
331
1D81
  5
1D00
331
1DC0
  5
1CA4
331
1DFF
  5
1C77
331
1E3E
  5
1C33
331
1D89
  5
1CF8
331
1DC8
  5
1CAC
331
1E75
  5
1BFE
331
1E7D
  5
1BF6
331
1EBC
  5
1886
331
1DD0
  5
1CB4
331
1E07
  5
1C68
331
1D91
  5
1CE8
331
1E46
  5
1C27
331
1C5A
  5
1E3A
331
1C91
  5
1DFD
331
1AED
  5
1E5A
331
1B84
  5
1EC2
331
1E4E
  5
1C1F
331
1E85
  5
1B89
331
1E0F
  5
1C60
331
1EC4
  5
19FC
331
1C1B
  5
1E75
331
1CD0
  5
1DAF
331
1D99
  5
1CE0
331
1CD8
  5
1DAC
331
1D0F
  5
1D60
331
1C23
  5
1E7D
331
1C62
  5
1E2E
331
1E8D
  5
1B84
331
1B8C
  5
1ECA
331
1C99
  5
1DF5
331
1D4E
  5
1D32
331
1E17
  5
1C58
331
1D56
  5
1D1C
331
1CE0
  5
1DA5
331
1D17
  5
1D68
331
1C2B
  5
1E6F
331
1C6A
  5
1E29
331
1CA1
  5
1DEF
331
1D5E
  5
1D24
331
1CA9
  5
1DE6
331
1C33
  5
1E65
331
1B4D
  5
1E96
331
1D1F
  5
1D70
331
1D27
  5
1D78
331
1BF1
  5
1EAD
331
1A12
  5
1DCA
331
1A22
  5
1DD4
331
1853
  5
1C96
331
1DA1
  5
1CDB
331
1DD8
  5
1CBC
331
1D62
  5
1D15
331
1ECC
  5
1AE6
331
1E1F
  5
1C45
331
1E56
  5
1C1C
331
1D6A
  5
1D09
331
1DA9
  5
1CD1
331
1DE0
  5
1C90
331
1E95
  5
1B7C
331
1E9D
  5
1B66
331
1DE8
  5
1C8B
331
1E27
  5
1C4D
331
1D72
  5
1D01
331
1DB1
  5
1CC7
331
1E5E
  5
1C12
331
1C72
  5
1E22
331
1CB1
  5
1DDE
331
1EA5
  5
1B1A
331
1BFC
  5
1E9B
331
1C3B
  5
1E57
331
1CE8
  5
1D93
331
1DF0
  5
1C81
331
1E2F
  5
1C37
331
1D7A
  5
1CF9
331
1DB9
  5
1C9D
331
1E66
  5
1C0A
331
1CF0
  5
1D8C
331
1D2F
  5
1D4B
331
1C7A
  5
1E1D
331
1CB9
  5
1DCE
331
1E6E
  5
1C06
331
1C04
  5
1EA3
331
1E37
  5
1C3F
331
1C43
  5
1E4E
331
1CF8
  5
1D81
331
1D37
  5
1D41
331
1C4B
  5
1E46
331
1C82
  5
1E0C
331
1A56
  5
1DF3
331
1B75
  5
1EB3
331
1C0C
  5
1E83
331
1CC1
  5
1DBC
331
1CC9
  5
1DB9
331
1D00
  5
1D51
331
1C14
  5
1E8B
331
1C53
  5
1E43
331
1AE6
  5
1E56
331
1B7D
  5
1EBB
331
1C8A
  5
1E14
331
1D3F
  5
1D3E
331
1D47
  5
1D2B
331
1B90
  5
1ECE
331
1963
  5
1D4E
331
1DC1
  5
1CA5
331
1DF8
  5
1C7D
331
1D82
  5
1CF1
331
1E3F
  5
1C34
331
1E76
  5
1BFF
331
1D8A
  5
1CED
331
1DC9
  5
1CAD
331
1E00
  5
1C70
331
1EB5
  5
143F
331
1EBD
  5
1851
331
1E47
  5
1C28
331
1E7E
  5
1BF7
331
1D92
  5
1CE9
331
1DD1
  5
1CB5
331
1E08
  5
1C69
331
1C92
  5
1DFE
331
1CD1
  5
1DB0
331
1C1C
  5
1E76
331
1C5B
  5
1E3B
331
1D08
  5
1D59
331
1EC5
  5
19FD
331
1AEE
  5
1E5B
331
1E10
  5
1C61
331
1D9A
  5
1CE1
331
1E4F
  5
1C20
331
1E86
  5
1B8A
331
1B85
  5
1EC3
331
1D4F
  5
1D33
331
1C9A
  5
1DF6
331
1CD9
  5
1DAD
331
1E8E
  5
1B85
331
1B8D
  5
1ECB
331
1C24
  5
1E7E
331
1C63
  5
1E2F
331
1D10
  5
1D61
331
1D18
  5
1D69
331
1D57
  5
1D1D
331
1C6B
  5
1E2A
331
1CA2
  5
1DEB
331
1C2C
  5
1E6A
331
1CE1
  5
1D98
331
1D20
  5
1D71
331
1C34
  5
1E66
331
1CAA
  5
1DE7
331
1D5F
  5
1D25
331
1BF2
  5
1EAE
331
1854
  5
1C97
331
1DD9
  5
1CBD
331
1E18
  5
1C59
331
1D63
  5
1D16
331
1DA2
  5
1CD6
331
1E57
  5
1C1D
331
1E96
  5
1B7D
331
1DE1
  5
1C91
331
1E20
  5
1C46
331
1ECD
  5
1AED
331
1D6B
  5
1D0A
331
1DAA
  5
1CD2
331
1E5F
  5
1C13
331
1E9E
  5
1B67
331
1DB2
  5
1CC8
331
1DE9
  5
1C8C
331
1D73
  5
1D02
331
1E28
  5
1C4E
331
1CE9
  5
1D94
331
1D28
  5
1D79
331
1C3C
  5
1E58
331
1C73
  5
1E23
331
1E30
  5
1C38
331
1E67
  5
1C0B
331
1D7B
  5
1CFA
331
1DBA
  5
1C9E
331
1DF1
  5
1C82
331
1EA6
  5
1B4B
331
1BFD
  5
1E9C
331
1CB2
  5
1DD5
331
1CBA
  5
1DCF
331
1CF1
  5
1D8D
331
1C05
  5
1EA4
331
1C44
  5
1E4F
331
1E6F
  5
1C02
331
1B66
  5
1EA9
331
1C7B
  5
1E1E
331
1D30
  5
1D4C
331
1D38
  5
1D42
331
1C83
  5
1E0D
331
1CC2
  5
1DBD
331
1B76
  5
1EB4
331
1C0D
  5
1E84
331
1C4C
  5
1E47
331
1CF9
  5
1D82
331
1D01
  5
1D52
331
1D40
  5
1D37
331
1C8B
  5
1E15
331
1CCA
  5
1DB2
331
1B7E
  5
1EBC
331
1C15
  5
1E8C
331
1C54
  5
1E44
331
19FC
  5
1DBA
331
1DF9
  5
1C78
331
1E38
  5
1C40
331
1D83
  5
1CF2
331
1DC2
  5
1CA6
331
1EB6
  5
1440
331
1E01
  5
1C71
331
1E40
  5
1C35
331
1D8B
  5
1CEE
331
1DCA
  5
1CAE
331
1E77
  5
1C00
331
1E7F
  5
1BF8
331
1EBE
  5
1852
331
1DD2
  5
1CB6
331
1E09
  5
1C6A
331
1D93
  5
1CEA
331
1E48
  5
1C29
331
1D09
  5
1D5A
331
1D48
  5
1D2C
331
1C5C
  5
1E3C
331
1C93
  5
1DFF
331
1AEF
  5
1E5C
331
1B86
  5
1EC4
331
1E87
  5
1B8B
331
1D9B
  5
1CE2
331
1E11
  5
1C62
331
1EC6
  5
1A34
331
1C1D
  5
1E77
331
1CD2
  5
1DA6
331
1CDA
  5
1D9F
331
1D11
  5
1D62
331
1C25
  5
1E7F
331
1C64
  5
1E30
331
1E8F
  5
1B86
331
1B8E
  5
1ECC
331
1C9B
  5
1DF7
331
1D50
  5
1D34
331
1D58
  5
1D1E
331
1CA3
  5
1DEC
331
1CE2
  5
1D99
331
1C2D
  5
1E6B
331
1C6C
  5
1E24
331
1D19
  5
1D6A
331
1CAB
  5
1DE1
331
1C35
  5
1E61
331
1D21
  5
1D72
331
1BF3
  5
1EAF
331
17FD
  5
1C64
331
1885
  5
1CC4
331
1E50
  5
1C21
331
1DA3
  5
1CD7
331
1DDA
  5
1CBE
331
1D64
  5
1D17
331
1E19
  5
1C5A
331
1ECE
  5
1AEE
331
1E21
  5
1C47
331
1E58
  5
1C18
331
1D6C
  5
1D0B
331
1DAB
  5
1CCD
331
1DE2
  5
1C92
331
1E97
  5
1B79
331
1E9F
  5
1B72
331
1A28
  5
1DD7
331
1DEA
  5
1C87
331
1E29
  5
1C4F
331
1D74
  5
1D03
331
1DB3
  5
1CC9
331
1E60
  5
1C14
331
1D29
  5
1D7A
331
1C74
  5
1E17
331
1CB3
  5
1DD6
331
1B5F
  5
1EA5
331
1E68
  5
1C0C
331
1EA7
  5
1A55
331
1BFE
  5
1E9D
331
1DF2
  5
1C83
331
1E31
  5
1C39
331
1C3D
  5
1E59
331
1CEA
  5
1D91
331
1D7C
  5
1CFB
331
1DBB
  5
1C9F
331
1CF2
  5
1D88
331
1D31
  5
1D47
331
1C45
  5
1E50
331
1C7C
  5
1E1F
331
1B67
  5
1EAA
331
1EAF
  5
1887
331
1C06
  5
1E91
331
1CBB
  5
1DD0
331
1CFA
  5
1D83
331
1D39
  5
1D43
331
1C4D
  5
1E48
331
1C84
  5
1E0E
331
1B77
  5
1EB5
331
1C0E
  5
1E85
331
1CC3
  5
1DBE
331
1CCB
  5
1DB3
331
1D02
  5
1D53
331
1C16
  5
1E8D
331
1C55
  5
1E45
331
1B7F
  5
1EBD
331
1C8C
  5
1E16
331
1D41
  5
1D38
331
19C5
  5
1D95
331
19ED
  5
1DB1
331
19FD
  5
1DBB
331
1E70
  5
1C03
331
1DC3
  5
1CA7
331
1DFA
  5
1C79
331
1D84
  5
1CF3
331
1E39
  5
1C41
331
1E41
  5
1C2E
331
1E78
  5
1C01
331
1D8C
  5
1CEF
331
1DCB
  5
1CAF
331
1E02
  5
1C72
331
1EB7
  5
171A
331
1EBF
  5
1853
331
1E0A
  5
1C6B
331
1E49
  5
1C2A
331
1D94
  5
1CE3
331
1DD3
  5
1CB7
331
1E80
  5
1BF9
331
1D49
  5
1D2D
331
1C94
  5
1E00
331
1CD3
  5
1DA7
331
1B87
  5
1EC5
331
1C1E
  5
1E78
331
1EC7
  5
1A53
331
1AF0
  5
1E5D
331
1C5D
  5
1E3D
331
1D0A
  5
1D5B
331
1E12
  5
1C63
331
1D9C
  5
1CDC
331
1E88
  5
1B8C
331
1D12
  5
1D63
331
1D51
  5
1D35
331
1C9C
  5
1DF8
331
1CDB
  5
1DA0
331
1B8F
  5
1ECD
331
1C26
  5
1E80
331
1C65
  5
1E31
331
1D1A
  5
1D6B
331
1D59
  5
1D1F
331
1C6D
  5
1E25
331
1CA4
  5
1DED
331
1BEF
  5
1EAB
331
1C2E
  5
1E6C
331
1CE3
  5
1D9A
331
1D22
  5
1D73
331
1C36
  5
1E62
331
1CAC
  5
1DE2
331
1886
  5
1CC5
331
1E90
  5
1B87
331
1DDB
  5
1CBF
331
1E1A
  5
1C5B
331
1D65
  5
1D18
331
1DA4
  5
1CD8
331
1E51
  5
1C22
331
1E59
  5
1C19
331
1E98
  5
1B7A
331
1DAC
  5
1CCE
331
1DE3
  5
1C93
331
1D6D
  5
1D0C
331
1E22
  5
1C48
331
1A29
  5
1DD8
331
1E61
  5
1C10
331
1EA0
  5
1B73
331
1DB4
  5
1C98
331
1DEB
  5
1C88
331
1D75
  5
1D04
331
1E2A
  5
1C50
331
1CB4
  5
1DD1
331
1CEB
  5
1D92
331
1C3E
  5
1E49
331
1C75
  5
1E18
331
1D2A
  5
1D7B
331
1E32
  5
1C3A
331
1E69
  5
1C07
331
1B60
  5
1EA6
331
1D7D
  5
1CFC
331
1DBC
  5
1CA0
331
1DF3
  5
1C7E
331
1BFF
  5
1E9E
331
1CBC
  5
1DC2
331
1CF3
  5
1D89
331
1C07
  5
1E92
331
1C46
  5
1E51
331
1C7D
  5
1E07
331
1D32
  5
1D48
331
1D3A
  5
1D3F
331
1C85
  5
1E0F
331
1CC4
  5
1DBF
331
1B78
  5
1EB6
331
1C0F
  5
1E86
331
1C4E
  5
1E3E
331
1CFB
  5
1D84
331
1D03
  5
1D54
331
1D42
  5
1D39
331
1C56
  5
1E36
331
1C8D
  5
1E04
331
1C17
  5
1E81
331
1CCC
  5
1DB4
331
143F
  5
1AEF
331
19C6
  5
1D96
331
1EB0
  5
1962
331
1DFB
  5
1C7A
331
1E3A
  5
1C42
331
1D85
  5
1CF4
331
1DC4
  5
1CA8
331
1E71
  5
1BFA
331
1E79
  5
1BF0
331
1E03
  5
1C73
331
1E42
  5
1C2F
331
1D8D
  5
1CF0
331
1DCC
  5
1CB0
331
1B80
  5
1EBE
331
1E81
  5
1B90
331
1EC0
  5
1A0F
331
1DD4
  5
1CB8
331
1E0B
  5
1C6C
331
1D95
  5
1CE4
331
1E4A
  5
1C2B
331
1D0B
  5
1D5C
331
1D4A
  5
1D2E
331
1C5E
  5
1E32
331
1C95
  5
1E01
331
1E89
  5
1B8D
331
1B88
  5
1EC6
331
1D9D
  5
1CDD
331
1E13
  5
1C5C
331
1C1F
  5
1E79
331
1CD4
  5
1DA8
331
1CDC
  5
1DA1
331
1D13
  5
1D64
331
1C27
  5
1E70
331
1C66
  5
1E2B
331
1C9D
  5
1DF9
331
1D52
  5
1D36
331
1D5A
  5
1D20
331
1CA5
  5
1DE8
331
1CE4
  5
1D9B
331
1C2F
  5
1E67
331
1C6E
  5
1E26
331
1D1B
  5
1D6C
331
1D23
  5
1D74
331
1CAD
  5
1DE3
331
1C37
  5
1E63
331
1887
  5
1CC6
331
1EC8
  5
1A54
331
1E1B
  5
1C54
331
1E52
  5
1C23
331
1DA5
  5
1CD3
331
1DDC
  5
1CC0
331
1E91
  5
1B88
331
1D66
  5
1D11
331
1E23
  5
1C49
331
1E5A
  5
1C1A
331
1D6E
  5
1D0D
331
1DAD
  5
1CCF
331
1DE4
  5
1C8D
331
1E99
  5
1B4C
331
1BF8
  5
1E97
331
1EA1
  5
1B74
331
1A2A
  5
1DD9
331
1DEC
  5
1C89
331
1E2B
  5
1C51
331
1D76
  5
1D05
331
1DB5
  5
1C99
331
1E62
  5
1C11
331
1D2B
  5
1D7C
331
1C76
  5
1E19
331
1CB5
  5
1DD2
331
1E6A
  5
1C08
331
1EA9
  5
1A12
331
1C00
  5
1E9F
331
1DBD
  5
1CA1
331
1DF4
  5
1C7F
331
1D7E
  5
1CFD
331
1E33
  5
1C3B
331
1C3F
  5
1E4A
331
1CEC
  5
1D8E
331
1CF4
  5
1D8A
331
1D33
  5
1D49
331
1C47
  5
1E52
331
1C7E
  5
1E08
331
1C08
  5
1E93
331
1CBD
  5
1DC3
331
1CC5
  5
1DC0
331
1CFC
  5
1D7F
331
1C4F
  5
1E3F
331
1C86
  5
1E10
331
1D3B
  5
1D40
331
1B79
  5
1EB7
331
1C10
  5
1E87
331
1CCD
  5
1DB5
331
1D04
  5
1D55
331
1C57
  5
1E37
331
1C8E
  5
1E05
331
1D43
  5
1D3A
331
1440
  5
1AF0
331
19C7
  5
1D97
331
1E72
  5
1BFB
331
1EB1
  5
1963
331
1DC5
  5
1CA9
331
1DFC
  5
1C74
331
1D86
  5
1CF5
331
1E3B
  5
1C43
331
1E43
  5
1C30
331
1E7A
  5
1BF1
331
1D8E
  5
1CEB
331
1DCD
  5
1CB1
331
1E04
  5
1C65
331
1C18
  5
1E82
331
1EC1
  5
1A10
331
1E0C
  5
1C6D
331
1E4B
  5
1C2C
331
1D96
  5
1CE5
331
1DD5
  5
1CB9
331
1E82
  5
1BEF
331
1B81
  5
1EBF
331
1D4B
  5
1D2F
331
1C96
  5
1E02
331
1CD5
  5
1DA9
331
1E8A
  5
1B81
331
1B89
  5
1EC7
331
1E14
  5
1C5D
331
1C20
  5
1E7A
331
1D9E
  5
1CDE
331
1C5F
  5
1E33
331
1D0C
  5
1D5D
331
1D14
  5
1D65
331
1D53
  5
1D19
331
1C67
  5
1E2C
331
1C9E
  5
1DFA
331
1C28
  5
1E71
331
1CDD
  5
1DA2
331
1B1A
  5
1E72
331
1D1C
  5
1D6D
331
1D5B
  5
1D21
331
1C6F
  5
1E27
331
1CA6
  5
1DE9
331
1C30
  5
1E68
331
1CE5
  5
1D9C
331
1D24
  5
1D75
331
1CAE
  5
1DE4
331
1720
  5
1B7B
331
1BF6
  5
1EA7
331
1A0F
  5
1DC7
331
1E92
  5
1B7E
331
1EC9
  5
1A2B
331
1DDD
  5
1CC1
331
1E1C
  5
1C55
331
1D67
  5
1D12
331
1DA6
  5
1CD4
331
1E53
  5
1C24
331
1E5B
  5
1C15
331
1E9A
  5
1B4D
331
1DAE
  5
1CCA
331
1DE5
  5
1C8E
331
1D6F
  5
1D0E
331
1E24
  5
1C4A
331
1C38
  5
1E5E
331
1A2B
  5
1DDA
331
1E2C
  5
1C52
331
1E63
  5
1C0D
331
1DB6
  5
1C9A
331
1DED
  5
1C84
331
1EA2
  5
1B75
331
1BF9
  5
1E98
331
1D77
  5
1D06
331
1CB6
  5
1DCB
331
1CED
  5
1D8F
331
1C01
  5
1EA0
331
1A33
  5
1DDF
331
1C40
  5
1E4B
331
1C77
  5
1E1A
331
1D2C
  5
1D7D
331
1E34
  5
1C3C
331
1E6B
  5
1C09
331
1D7F
  5
1CFE
331
1DBE
  5
1CA2
331
1DF5
  5
1C80
331
1EAA
  5
1A21
331
1D34
  5
1D44
331
1CBE
  5
1DC4
331
1CF5
  5
1D85
331
1C09
  5
1E8E
331
1C48
  5
1E53
331
1A53
  5
1DF0
331
1B72
  5
1EB0
331
1C7F
  5
1E09
331
1D3C
  5
1D3B
331
1C87
  5
1E11
331
1CC6
  5
1DC1
331
1B7A
  5
1EB8
331
1C11
  5
1E88
331
1C50
  5
1E40
331
1CFD
  5
1D80
331
1D05
  5
1D56
331
1D44
  5
1D28
331
1C8F
  5
1E06
331
1CCE
  5
1DB6
  0
LAYOUT
  5
77
102
{ACAD_XDICTIONARY
360
1ED4
102
}
102
{ACAD_REACTORS
330
69
102
}
330
69
100
AcDbPlotSettings
  1

  2
Fuji Xerox DW2050
  4

  6

 40
0.0
 41
0.0
 42
0.0
 43
0.0
 44
0.0
 45
0.0
 46
0.0
 47
0.0
 48
0.0
 49
0.0
140
0.0
141
0.0
142
1.0
143
1.0
 70
  1712
 72
     0
 73
     0
 74
     0
  7

 75
     0
147
1.0
148
0.0
149
0.0
100
AcDbLayout
  1
Model
 70
     1
 71
     0
 10
0.0
 20
0.0
 11
12.0
 21
9.0
 12
0.0
 22
0.0
 32
0.0
 14
0.0
 24
0.0
 34
0.0
 15
0.0
 25
0.0
 35
0.0
146
0.0
 13
0.0
 23
0.0
 33
0.0
 16
1.0
 26
0.0
 36
0.0
 17
0.0
 27
1.0
 37
0.0
 76
     0
330
74
331
A2
  0
LAYOUT
  5
73
102
{ACAD_XDICTIONARY
360
1ED2
102
}
102
{ACAD_REACTORS
330
69
102
}
330
69
100
AcDbPlotSettings
  1

  2
Fuji Xerox DW2050
  4

  6

 40
0.0
 41
0.0
 42
0.0
 43
0.0
 44
0.0
 45
0.0
 46
0.0
 47
0.0
 48
0.0
 49
0.0
140
0.0
141
0.0
142
1.0
143
1.0
 70
   688
 72
     0
 73
     0
 74
     5
  7

 75
    16
147
1.0
148
0.0
149
0.0
100
AcDbLayout
  1
レイアウト1
 70
     1
 71
     1
 10
0.0
 20
0.0
 11
12.0
 21
9.0
 12
0.0
 22
0.0
 32
0.0
 14
1.000000000000000E+20
 24
1.000000000000000E+20
 34
1.000000000000000E+20
 15
-1.000000000000000E+20
 25
-1.000000000000000E+20
 35
-1.000000000000000E+20
146
0.0
 13
0.0
 23
0.0
 33
0.0
 16
1.0
 26
0.0
 36
0.0
 17
0.0
 27
1.0
 37
0.0
 76
     0
330
70
  0
MATERIAL
  5
19
102
{ACAD_XDICTIONARY
360
1A
102
}
102
{ACAD_REACTORS
330
10
102
}
330
10
100
AcDbMaterial
  1
ByBlock
 72
     0
 43
0.0208333333333333
 43
0.0
 43
0.0
 43
0.0
 43
0.0
 43
0.0208333333333333
 43
0.0
 43
0.0
 43
0.0
 43
0.0
 43
1.0
 43
0.0
 43
0.0
 43
0.0
 43
0.0
 43
1.0
 77
     0
 47
0.0208333333333333
 47
0.0
 47
0.0
 47
0.0
 47
0.0
 47
0.0208333333333333
 47
0.0
 47
0.0
 47
0.0
 47
0.0
 47
1.0
 47
0.0
 47
0.0
 47
0.0
 47
0.0
 47
1.0
171
     0
 49
0.0208333333333333
 49
0.0
 49
0.0
 49
0.0
 49
0.0
 49
0.0208333333333333
 49
0.0
 49
0.0
 49
0.0
 49
0.0
 49
1.0
 49
0.0
 49
0.0
 49
0.0
 49
0.0
 49
1.0
175
     0
142
0.0208333333333333
142
0.0
142
0.0
142
0.0
142
0.0
142
0.0208333333333333
142
0.0
142
0.0
142
0.0
142
0.0
142
1.0
142
0.0
142
0.0
142
0.0
142
0.0
142
1.0
179
     0
144
0.0208333333333333
144
0.0
144
0.0
144
0.0
144
0.0
144
0.0208333333333333
144
0.0
144
0.0
144
0.0
144
0.0
144
1.0
144
0.0
144
0.0
144
0.0
144
0.0
144
1.0
147
0.0208333333333333
147
0.0
147
0.0
147
0.0
147
0.0
147
0.0208333333333333
147
0.0
147
0.0
147
0.0
147
0.0
147
1.0
147
0.0
147
0.0
147
0.0
147
0.0
147
1.0
  0
MATERIAL
  5
11
102
{ACAD_XDICTIONARY
360
12
102
}
102
{ACAD_REACTORS
330
10
102
}
330
10
100
AcDbMaterial
  1
ByLayer
 72
     0
 43
0.0208333333333333
 43
0.0
 43
0.0
 43
0.0
 43
0.0
 43
0.0208333333333333
 43
0.0
 43
0.0
 43
0.0
 43
0.0
 43
1.0
 43
0.0
 43
0.0
 43
0.0
 43
0.0
 43
1.0
 77
     0
 47
0.0208333333333333
 47
0.0
 47
0.0
 47
0.0
 47
0.0
 47
0.0208333333333333
 47
0.0
 47
0.0
 47
0.0
 47
0.0
 47
1.0
 47
0.0
 47
0.0
 47
0.0
 47
0.0
 47
1.0
171
     0
 49
0.0208333333333333
 49
0.0
 49
0.0
 49
0.0
 49
0.0
 49
0.0208333333333333
 49
0.0
 49
0.0
 49
0.0
 49
0.0
 49
1.0
 49
0.0
 49
0.0
 49
0.0
 49
0.0
 49
1.0
175
     0
142
0.0208333333333333
142
0.0
142
0.0
142
0.0
142
0.0
142
0.0208333333333333
142
0.0
142
0.0
142
0.0
142
0.0
142
1.0
142
0.0
142
0.0
142
0.0
142
0.0
142
1.0
179
     0
144
0.0208333333333333
144
0.0
144
0.0
144
0.0
144
0.0
144
0.0208333333333333
144
0.0
144
0.0
144
0.0
144
0.0
144
1.0
144
0.0
144
0.0
144
0.0
144
0.0
144
1.0
147
0.0208333333333333
147
0.0
147
0.0
147
0.0
147
0.0
147
0.0208333333333333
147
0.0
147
0.0
147
0.0
147
0.0
147
1.0
147
0.0
147
0.0
147
0.0
147
0.0
147
1.0
  0
MATERIAL
  5
21
102
{ACAD_XDICTIONARY
360
22
102
}
102
{ACAD_REACTORS
330
10
102
}
330
10
100
AcDbMaterial
  1
Global
 72
     0
 43
0.0208333333333333
 43
0.0
 43
0.0
 43
0.0
 43
0.0
 43
0.0208333333333333
 43
0.0
 43
0.0
 43
0.0
 43
0.0
 43
1.0
 43
0.0
 43
0.0
 43
0.0
 43
0.0
 43
1.0
 77
     0
 47
0.0208333333333333
 47
0.0
 47
0.0
 47
0.0
 47
0.0
 47
0.0208333333333333
 47
0.0
 47
0.0
 47
0.0
 47
0.0
 47
1.0
 47
0.0
 47
0.0
 47
0.0
 47
0.0
 47
1.0
171
     0
 49
0.0208333333333333
 49
0.0
 49
0.0
 49
0.0
 49
0.0
 49
0.0208333333333333
 49
0.0
 49
0.0
 49
0.0
 49
0.0
 49
1.0
 49
0.0
 49
0.0
 49
0.0
 49
0.0
 49
1.0
175
     0
142
0.0208333333333333
142
0.0
142
0.0
142
0.0
142
0.0
142
0.0208333333333333
142
0.0
142
0.0
142
0.0
142
0.0
142
1.0
142
0.0
142
0.0
142
0.0
142
0.0
142
1.0
179
     0
144
0.0208333333333333
144
0.0
144
0.0
144
0.0
144
0.0
144
0.0208333333333333
144
0.0
144
0.0
144
0.0
144
0.0
144
1.0
144
0.0
144
0.0
144
0.0
144
0.0
144
1.0
147
0.0208333333333333
147
0.0
147
0.0
147
0.0
147
0.0
147
0.0208333333333333
147
0.0
147
0.0
147
0.0
147
0.0
147
1.0
147
0.0
147
0.0
147
0.0
147
0.0
147
1.0
  0
MLEADERSTYLE
  5
6E
102
{ACAD_REACTORS
330
6D
102
}
330
6D
100
AcDbMLeaderStyle
170
     2
171
     1
172
     0
 90
        2
 40
0.0
 41
0.0
173
     1
 91
-1056964608
340
62
 92
       -2
290
     1
 42
0.09
291
     1
 43
0.36
  3
Standard
 44
0.18
300

342
5D
174
     1
178
     6
175
     1
176
     0
 93
-1056964608
 45
0.18
292
     0
297
     0
 46
0.18
 94
-1056964608
 47
1.0
 49
1.0
140
1.0
293
     1
141
0.0
294
     1
177
     0
142
1.0
295
     0
296
     0
143
0.125
1001
ACAD_MLEADERVER
1070
     2
  0
MLINESTYLE
  5
67
102
{ACAD_REACTORS
330
66
102
}
330
66
100
AcDbMlineStyle
  2
STANDARD
 70
     0
  3

 62
   256
 51
90.0
 52
90.0
 71
     2
 49
0.5
 62
   256
  6
BYLAYER
 49
-0.5
 62
   256
  6
BYLAYER
  0
ACDBPLACEHOLDER
  5
F
102
{ACAD_REACTORS
330
E
102
}
330
E
  0
SCALE
  5
3B
102
{ACAD_REACTORS
330
3A
102
}
330
3A
100
AcDbScale
 70
     0
300
1:1
140
1.0
141
1.0
290
     1
  0
SCALE
  5
3C
102
{ACAD_REACTORS
330
3A
102
}
330
3A
100
AcDbScale
 70
     0
300
1:2
140
1.0
141
2.0
290
     0
  0
SCALE
  5
3D
102
{ACAD_REACTORS
330
3A
102
}
330
3A
100
AcDbScale
 70
     0
300
1:4
140
1.0
141
4.0
290
     0
  0
SCALE
  5
3E
102
{ACAD_REACTORS
330
3A
102
}
330
3A
100
AcDbScale
 70
     0
300
1:5
140
1.0
141
5.0
290
     0
  0
SCALE
  5
3F
102
{ACAD_REACTORS
330
3A
102
}
330
3A
100
AcDbScale
 70
     0
300
1:8
140
1.0
141
8.0
290
     0
  0
SCALE
  5
40
102
{ACAD_REACTORS
330
3A
102
}
330
3A
100
AcDbScale
 70
     0
300
1:10
140
1.0
141
10.0
290
     0
  0
SCALE
  5
41
102
{ACAD_REACTORS
330
3A
102
}
330
3A
100
AcDbScale
 70
     0
300
1:16
140
1.0
141
16.0
290
     0
  0
SCALE
  5
42
102
{ACAD_REACTORS
330
3A
102
}
330
3A
100
AcDbScale
 70
     0
300
1:20
140
1.0
141
20.0
290
     0
  0
SCALE
  5
43
102
{ACAD_REACTORS
330
3A
102
}
330
3A
100
AcDbScale
 70
     0
300
1:30
140
1.0
141
30.0
290
     0
  0
SCALE
  5
44
102
{ACAD_REACTORS
330
3A
102
}
330
3A
100
AcDbScale
 70
     0
300
1:40
140
1.0
141
40.0
290
     0
  0
SCALE
  5
45
102
{ACAD_REACTORS
330
3A
102
}
330
3A
100
AcDbScale
 70
     0
300
1:50
140
1.0
141
50.0
290
     0
  0
SCALE
  5
46
102
{ACAD_REACTORS
330
3A
102
}
330
3A
100
AcDbScale
 70
     0
300
1:100
140
1.0
141
100.0
290
     0
  0
SCALE
  5
47
102
{ACAD_REACTORS
330
3A
102
}
330
3A
100
AcDbScale
 70
     0
300
2:1
140
2.0
141
1.0
290
     0
  0
SCALE
  5
48
102
{ACAD_REACTORS
330
3A
102
}
330
3A
100
AcDbScale
 70
     0
300
4:1
140
4.0
141
1.0
290
     0
  0
SCALE
  5
49
102
{ACAD_REACTORS
330
3A
102
}
330
3A
100
AcDbScale
 70
     0
300
8:1
140
8.0
141
1.0
290
     0
  0
SCALE
  5
4A
102
{ACAD_REACTORS
330
3A
102
}
330
3A
100
AcDbScale
 70
     0
300
10:1
140
10.0
141
1.0
290
     0
  0
SCALE
  5
4B
102
{ACAD_REACTORS
330
3A
102
}
330
3A
100
AcDbScale
 70
     0
300
100:1
140
100.0
141
1.0
290
     0
  0
SCALE
  5
4C
102
{ACAD_REACTORS
330
3A
102
}
330
3A
100
AcDbScale
 70
     0
300
1/128" = 1'-0"
140
0.0078125
141
12.0
290
     0
  0
SCALE
  5
4D
102
{ACAD_REACTORS
330
3A
102
}
330
3A
100
AcDbScale
 70
     0
300
1/64" = 1'-0"
140
0.015625
141
12.0
290
     0
  0
SCALE
  5
4E
102
{ACAD_REACTORS
330
3A
102
}
330
3A
100
AcDbScale
 70
     0
300
1/32" = 1'-0"
140
0.03125
141
12.0
290
     0
  0
SCALE
  5
4F
102
{ACAD_REACTORS
330
3A
102
}
330
3A
100
AcDbScale
 70
     0
300
1/16" = 1'-0"
140
0.0625
141
12.0
290
     0
  0
SCALE
  5
50
102
{ACAD_REACTORS
330
3A
102
}
330
3A
100
AcDbScale
 70
     0
300
3/32" = 1'-0"
140
0.09375
141
12.0
290
     0
  0
SCALE
  5
51
102
{ACAD_REACTORS
330
3A
102
}
330
3A
100
AcDbScale
 70
     0
300
1/8" = 1'-0"
140
0.125
141
12.0
290
     0
  0
SCALE
  5
52
102
{ACAD_REACTORS
330
3A
102
}
330
3A
100
AcDbScale
 70
     0
300
3/16" = 1'-0"
140
0.1875
141
12.0
290
     0
  0
SCALE
  5
53
102
{ACAD_REACTORS
330
3A
102
}
330
3A
100
AcDbScale
 70
     0
300
1/4" = 1'-0"
140
0.25
141
12.0
290
     0
  0
SCALE
  5
54
102
{ACAD_REACTORS
330
3A
102
}
330
3A
100
AcDbScale
 70
     0
300
3/8" = 1'-0"
140
0.375
141
12.0
290
     0
  0
SCALE
  5
55
102
{ACAD_REACTORS
330
3A
102
}
330
3A
100
AcDbScale
 70
     0
300
1/2" = 1'-0"
140
0.5
141
12.0
290
     0
  0
SCALE
  5
56
102
{ACAD_REACTORS
330
3A
102
}
330
3A
100
AcDbScale
 70
     0
300
3/4" = 1'-0"
140
0.75
141
12.0
290
     0
  0
SCALE
  5
57
102
{ACAD_REACTORS
330
3A
102
}
330
3A
100
AcDbScale
 70
     0
300
1" = 1'-0"
140
1.0
141
12.0
290
     0
  0
SCALE
  5
58
102
{ACAD_REACTORS
330
3A
102
}
330
3A
100
AcDbScale
 70
     0
300
1-1/2" = 1'-0"
140
1.5
141
12.0
290
     0
  0
SCALE
  5
59
102
{ACAD_REACTORS
330
3A
102
}
330
3A
100
AcDbScale
 70
     0
300
3" = 1'-0"
140
3.0
141
12.0
290
     0
  0
SCALE
  5
5A
102
{ACAD_REACTORS
330
3A
102
}
330
3A
100
AcDbScale
 70
     0
300
6" = 1'-0"
140
6.0
141
12.0
290
     0
  0
SCALE
  5
5B
102
{ACAD_REACTORS
330
3A
102
}
330
3A
100
AcDbScale
 70
     0
300
1'-0" = 1'-0"
140
12.0
141
12.0
290
     0
  0
TABLESTYLE
  5
6C
102
{ACAD_XDICTIONARY
360
1BDF
102
}
102
{ACAD_REACTORS
330
6B
102
}
330
6B
100
AcDbTableStyle
  3
Standard
 70
     0
 71
     0
 40
0.06
 41
0.06
280
     0
281
     0
  7
STANDARD
140
0.18
170
     2
 62
     0
 63
     7
283
     0
274
    -2
284
     1
 64
     0
275
    -2
285
     1
 65
     0
276
    -2
286
     1
 66
     0
277
    -2
287
     1
 67
     0
278
    -2
288
     1
 68
     0
279
    -2
289
     1
 69
     0
  7
STANDARD
140
0.25
170
     5
 62
     0
 63
     7
283
     0
274
    -2
284
     1
 64
     0
275
    -2
285
     1
 65
     0
276
    -2
286
     1
 66
     0
277
    -2
287
     1
 67
     0
278
    -2
288
     1
 68
     0
279
    -2
289
     1
 69
     0
  7
STANDARD
140
0.18
170
     5
 62
     0
 63
     7
283
     0
274
    -2
284
     1
 64
     0
275
    -2
285
     1
 65
     0
276
    -2
286
     1
 66
     0
277
    -2
287
     1
 67
     0
278
    -2
288
     1
 68
     0
279
    -2
289
     1
 69
     0
  0
VISUALSTYLE
  5
2F
102
{ACAD_REACTORS
330
29
102
}
330
29
100
AcDbVisualStyle
  2
2dWireframe
 70
     4
 71
     0
 72
     2
 73
     0
 90
        0
 40
-0.6
 41
-30.0
 62
     5
 63
     7
 74
     1
 91
        4
 64
     7
 65
   257
 75
     1
175
     1
 42
1.0
 92
        0
 66
   257
 43
1.0
 76
     1
 77
     6
 78
     2
 67
     7
 79
     5
170
     0
171
     0
290
     0
174
     0
 93
        1
 44
0.0
173
     0
291
     0
 45
0.0
1001
ACAD
1000
AcDbSavedByObjectVersion
1070
     0
1000
AcDbSavedByObjectVersion
1070
     0
  0
VISUALSTYLE
  5
31
102
{ACAD_REACTORS
330
29
102
}
330
29
100
AcDbVisualStyle
  2
3D Hidden
 70
     6
 71
     1
 72
     2
 73
     2
 90
        0
 40
-0.6
 41
-30.0
 62
     5
 63
     7
 74
     2
 91
        2
 64
     7
 65
   257
 75
     2
175
     1
 42
40.0
 92
        0
 66
   257
 43
1.0
 76
     1
 77
     6
 78
     2
 67
     7
 79
     3
170
     0
171
     0
290
     0
174
     0
 93
        1
 44
0.0
173
     0
291
     0
 45
0.0
1001
ACAD
1000
AcDbSavedByObjectVersion
1070
     0
1000
AcDbSavedByObjectVersion
1070
     0
  0
VISUALSTYLE
  5
30
102
{ACAD_REACTORS
330
29
102
}
330
29
100
AcDbVisualStyle
  2
3dWireframe
 70
     5
 71
     0
 72
     2
 73
     0
 90
        0
 40
-0.6
 41
-30.0
 62
     5
 63
     7
 74
     1
 91
        4
 64
     7
 65
   257
 75
     1
175
     1
 42
1.0
 92
        0
 66
   257
 43
1.0
 76
     1
 77
     6
 78
     2
 67
     7
 79
     5
170
     0
171
     0
290
     0
174
     0
 93
        1
 44
0.0
173
     0
291
     0
 45
0.0
1001
ACAD
1000
AcDbSavedByObjectVersion
1070
     0
1000
AcDbSavedByObjectVersion
1070
     0
  0
VISUALSTYLE
  5
2E
102
{ACAD_REACTORS
330
29
102
}
330
29
100
AcDbVisualStyle
  2
Basic
 70
     7
 71
     1
 72
     0
 73
     1
 90
        0
 40
-0.6
 41
-30.0
 62
     5
 63
     7
 74
     0
 91
        4
 64
     7
 65
   257
 75
     1
175
     1
 42
1.0
 92
        8
 66
     7
 43
1.0
 76
     1
 77
     6
 78
     2
 67
     7
 79
     5
170
     0
171
     0
290
     0
174
     0
 93
        1
 44
0.0
173
     0
291
     1
 45
0.0
1001
ACAD
1000
AcDbSavedByObjectVersion
1070
     0
1000
AcDbSavedByObjectVersion
1070
     0
  0
VISUALSTYLE
  5
35
102
{ACAD_REACTORS
330
29
102
}
330
29
100
AcDbVisualStyle
  2
Brighten
 70
    12
 71
     2
 72
     2
 73
     0
 90
        0
 40
-0.6
 41
-30.0
 62
     5
 63
     7
 74
     1
 91
        4
 64
     7
 65
   257
 75
     1
175
     1
 42
1.0
 92
        8
 66
     7
 43
1.0
 76
     1
 77
     6
 78
     2
 67
     7
 79
     5
170
     0
171
     0
290
     0
174
     0
 93
        1
 44
50.0
173
     0
291
     1
 45
0.0
1001
ACAD
1000
AcDbSavedByObjectVersion
1070
     0
1000
AcDbSavedByObjectVersion
1070
     0
  0
VISUALSTYLE
  5
39
102
{ACAD_REACTORS
330
29
102
}
330
29
100
AcDbVisualStyle
  2
ColorChange
 70
    16
 71
     2
 72
     2
 73
     3
 90
        0
 40
-0.6
 41
-30.0
 62
     5
 63
     8
 74
     1
 91
        4
 64
     7
 65
   257
 75
     1
175
     1
 42
1.0
 92
        8
 66
     8
 43
1.0
 76
     1
 77
     6
 78
     2
 67
     7
 79
     5
170
     0
171
     0
290
     0
174
     0
 93
        1
 44
0.0
173
     0
291
     1
 45
0.0
1001
ACAD
1000
AcDbSavedByObjectVersion
1070
     0
1000
AcDbSavedByObjectVersion
1070
     0
  0
VISUALSTYLE
  5
32
102
{ACAD_REACTORS
330
29
102
}
330
29
100
AcDbVisualStyle
  2
Conceptual
 70
     9
 71
     3
 72
     2
 73
     0
 90
        0
 40
-0.6
 41
-30.0
 62
     5
 63
     7
 74
     2
 91
        2
 64
     7
 65
   257
 75
     1
175
     1
 42
40.0
 92
        8
 66
     7
 43
1.0
 76
     1
 77
     6
 78
     2
 67
     7
 79
     3
170
     0
171
     0
290
     0
174
     0
 93
        1
 44
0.0
173
     0
291
     0
 45
0.0
1001
ACAD
1000
AcDbSavedByObjectVersion
1070
     0
1000
AcDbSavedByObjectVersion
1070
     0
  0
VISUALSTYLE
  5
34
102
{ACAD_REACTORS
330
29
102
}
330
29
100
AcDbVisualStyle
  2
Dim
 70
    11
 71
     2
 72
     2
 73
     0
 90
        0
 40
-0.6
 41
-30.0
 62
     5
 63
     7
 74
     1
 91
        4
 64
     7
 65
   257
 75
     1
175
     1
 42
1.0
 92
        8
 66
     7
 43
1.0
 76
     1
 77
     6
 78
     2
 67
     7
 79
     5
170
     0
171
     0
290
     0
174
     0
 93
        1
 44
-50.0
173
     0
291
     1
 45
0.0
1001
ACAD
1000
AcDbSavedByObjectVersion
1070
     0
1000
AcDbSavedByObjectVersion
1070
     0
  0
VISUALSTYLE
  5
38
102
{ACAD_REACTORS
330
29
102
}
330
29
100
AcDbVisualStyle
  2
Facepattern
 70
    15
 71
     2
 72
     2
 73
     0
 90
        0
 40
-0.6
 41
-30.0
 62
     5
 63
     7
 74
     1
 91
        4
 64
     7
 65
   257
 75
     1
175
     1
 42
1.0
 92
        8
 66
     7
 43
1.0
 76
     1
 77
     6
 78
     2
 67
     7
 79
     5
170
     0
171
     0
290
     0
174
     0
 93
        1
 44
0.0
173
     0
291
     1
 45
0.0
1001
ACAD
1000
AcDbSavedByObjectVersion
1070
     0
1000
AcDbSavedByObjectVersion
1070
     0
  0
VISUALSTYLE
  5
2A
102
{ACAD_REACTORS
330
29
102
}
330
29
100
AcDbVisualStyle
  2
Flat
 70
     0
 71
     2
 72
     1
 73
     1
 90
        2
 40
-0.6
 41
30.0
 62
     5
 63
     7
 74
     0
 91
        4
 64
     7
 65
   257
 75
     1
175
     1
 42
1.0
 92
        8
 66
     7
 43
1.0
 76
     1
 77
     6
 78
     2
 67
     7
 79
     5
170
     0
171
     0
290
     0
174
     0
 93
       13
 44
0.0
173
     0
291
     1
 45
0.0
1001
ACAD
1000
AcDbSavedByObjectVersion
1070
     0
1000
AcDbSavedByObjectVersion
1070
     0
  0
VISUALSTYLE
  5
2B
102
{ACAD_REACTORS
330
29
102
}
330
29
100
AcDbVisualStyle
  2
FlatWithEdges
 70
     1
 71
     2
 72
     1
 73
     1
 90
        2
 40
-0.6
 41
30.0
 62
     5
 63
     7
 74
     1
 91
        4
 64
     7
 65
   257
 75
     1
175
     1
 42
1.0
 92
        0
 66
   257
 43
1.0
 76
     1
 77
     6
 78
     2
 67
     7
 79
     5
170
     0
171
     0
290
     0
174
     0
 93
       13
 44
0.0
173
     0
291
     1
 45
0.0
1001
ACAD
1000
AcDbSavedByObjectVersion
1070
     0
1000
AcDbSavedByObjectVersion
1070
     0
  0
VISUALSTYLE
  5
2C
102
{ACAD_REACTORS
330
29
102
}
330
29
100
AcDbVisualStyle
  2
Gouraud
 70
     2
 71
     2
 72
     2
 73
     1
 90
        2
 40
-0.6
 41
30.0
 62
     5
 63
     7
 74
     0
 91
        4
 64
     7
 65
   257
 75
     1
175
     1
 42
1.0
 92
        0
 66
     7
 43
1.0
 76
     1
 77
     6
 78
     2
 67
     7
 79
     5
170
     0
171
     0
290
     0
174
     0
 93
       13
 44
0.0
173
     0
291
     1
 45
0.0
1001
ACAD
1000
AcDbSavedByObjectVersion
1070
     0
1000
AcDbSavedByObjectVersion
1070
     0
  0
VISUALSTYLE
  5
2D
102
{ACAD_REACTORS
330
29
102
}
330
29
100
AcDbVisualStyle
  2
GouraudWithEdges
 70
     3
 71
     2
 72
     2
 73
     1
 90
        2
 40
-0.6
 41
30.0
 62
     5
 63
     7
 74
     1
 91
        4
 64
     7
 65
   257
 75
     1
175
     1
 42
1.0
 92
        0
 66
   257
 43
1.0
 76
     1
 77
     6
 78
     2
 67
     7
 79
     5
170
     0
171
     0
290
     0
174
     0
 93
       13
 44
0.0
173
     0
291
     1
 45
0.0
1001
ACAD
1000
AcDbSavedByObjectVersion
1070
     0
1000
AcDbSavedByObjectVersion
1070
     0
  0
VISUALSTYLE
  5
37
102
{ACAD_REACTORS
330
29
102
}
330
29
100
AcDbVisualStyle
  2
Linepattern
 70
    14
 71
     2
 72
     2
 73
     0
 90
        0
 40
-0.6
 41
-30.0
 62
     5
 63
     7
 74
     1
 91
        4
 64
     7
 65
   257
 75
     7
175
     7
 42
1.0
 92
        8
 66
     7
 43
1.0
 76
     1
 77
     6
 78
     2
 67
     7
 79
     5
170
     0
171
     0
290
     0
174
     0
 93
        1
 44
0.0
173
     0
291
     1
 45
0.0
1001
ACAD
1000
AcDbSavedByObjectVersion
1070
     0
1000
AcDbSavedByObjectVersion
1070
     0
  0
VISUALSTYLE
  5
33
102
{ACAD_REACTORS
330
29
102
}
330
29
100
AcDbVisualStyle
  2
Realistic
 70
     8
 71
     2
 72
     2
 73
     0
 90
        0
 40
-0.6
 41
-30.0
 62
     5
 63
     7
 74
     1
 91
        0
 64
     7
 65
   257
 75
     1
175
     1
 42
1.0
 92
        8
 66
     8
 43
1.0
 76
     1
 77
     6
 78
     2
 67
     7
 79
     5
170
     0
171
     0
290
     0
174
     0
 93
       13
 44
0.0
173
     0
291
     0
 45
0.0
1001
ACAD
1000
AcDbSavedByObjectVersion
1070
     0
1000
AcDbSavedByObjectVersion
1070
     0
  0
VISUALSTYLE
  5
36
102
{ACAD_REACTORS
330
29
102
}
330
29
100
AcDbVisualStyle
  2
Thicken
 70
    13
 71
     2
 72
     2
 73
     0
 90
        0
 40
-0.6
 41
-30.0
 62
     5
 63
     7
 74
     1
 91
        4
 64
     7
 65
   257
 75
     1
175
     1
 42
1.0
 92
       12
 66
     7
 43
1.0
 76
     1
 77
     6
 78
     2
 67
     7
 79
     5
170
     0
171
     0
290
     0
174
     0
 93
        1
 44
0.0
173
     0
291
     1
 45
0.0
1001
ACAD
1000
AcDbSavedByObjectVersion
1070
     0
1000
AcDbSavedByObjectVersion
1070
     0
  0
DICTIONARYVAR
  5
1BDB
102
{ACAD_REACTORS
330
1BD8
102
}
330
1BD8
100
DictionaryVariables
280
     0
  1
1:1
  0
DICTIONARYVAR
  5
1BDA
102
{ACAD_REACTORS
330
1BD8
102
}
330
1BD8
100
DictionaryVariables
280
     0
  1
STANDARD
  0
DICTIONARYVAR
  5
1BD9
102
{ACAD_REACTORS
330
1BD8
102
}
330
1BD8
100
DictionaryVariables
280
     0
  1
STANDARD
  0
DICTIONARYVAR
  5
1BDE
102
{ACAD_REACTORS
330
1BD8
102
}
330
1BD8
100
DictionaryVariables
280
     0
  1
1
  0
DICTIONARYVAR
  5
1BDD
102
{ACAD_REACTORS
330
1BD8
102
}
330
1BD8
100
DictionaryVariables
280
     0
  1
0
  0
DICTIONARYVAR
  5
1BDC
102
{ACAD_REACTORS
330
1BD8
102
}
330
1BD8
100
DictionaryVariables
280
     0
  1
127
  0
XRECORD
  5
1EDC
102
{ACAD_REACTORS
330
1EDB
102
}
330
1EDB
100
AcDbXrecord
280
     1
  1
0
  1
0*
  1
*
  1
*
 70
     0
  1
*
  1
*
  0
XRECORD
  5
1EDD
102
{ACAD_REACTORS
330
1EDB
102
}
330
1EDB
100
AcDbXrecord
280
     1
  1
01全体計画平面図
  1
00*,01*,0A*,0E-2*
  1
*
  1
*
 70
     0
  1
*
  1
*
  0
XRECORD
  5
1EDE
102
{ACAD_REACTORS
330
1EDB
102
}
330
1EDB
100
AcDbXrecord
280
     1
  1
02現況平面図
  1
00*,02*,0B*
  1
*
  1
*
 70
     0
  1
*
  1
*
  0
XRECORD
  5
1EDF
102
{ACAD_REACTORS
330
1EDB
102
}
330
1EDB
100
AcDbXrecord
280
     1
  1
03撤去平面図
  1
00*,01*,0C*
  1
*
  1
*
 70
     0
  1
*
  1
*
  0
XRECORD
  5
1EE0
102
{ACAD_REACTORS
330
1EDB
102
}
330
1EDB
100
AcDbXrecord
280
     1
  1
04造成平面図
  1
00*,02*,0D*,03*
  1
*
  1
*
 70
     0
  1
*
  1
*
  0
XRECORD
  5
1EE1
102
{ACAD_REACTORS
330
1EDB
102
}
330
1EDB
100
AcDbXrecord
280
     1
  1
05施設平面図
  1
00*,02*,0E*
  1
*
  1
*
 70
     0
  1
*
  1
*
  0
XRECORD
  5
1EE2
102
{ACAD_REACTORS
330
1EDB
102
}
330
1EDB
100
AcDbXrecord
280
     1
  1
06排水平面図
  1
00*,02*,0F*
  1
*
  1
*
 70
     0
  1
*
  1
*
  0
XRECORD
  5
1EE3
102
{ACAD_REACTORS
330
1EDB
102
}
330
1EDB
100
AcDbXrecord
280
     1
  1
07給水平面図
  1
00*,02*,0G*
  1
*
  1
*
 70
     0
  1
*
  1
*
  0
XRECORD
  5
1EE4
102
{ACAD_REACTORS
330
1EDB
102
}
330
1EDB
100
AcDbXrecord
280
     1
  1
08電気平面図
  1
00*,02*,0H*
  1
*
  1
*
 70
     0
  1
*
  1
*
  0
XRECORD
  5
1EE5
102
{ACAD_REACTORS
330
1EDB
102
}
330
1EDB
100
AcDbXrecord
280
     1
  1
09植栽平面図-1
  1
00*,02*,0I*
  1
*
  1
*
 70
     0
  1
*
  1
*
  0
XRECORD
  5
1EE6
102
{ACAD_REACTORS
330
1EDB
102
}
330
1EDB
100
AcDbXrecord
280
     1
  1
1
  1
*計画*
  1
*
  1
*
 70
     0
  1
*
  1
*
  0
XRECORD
  5
1EE7
102
{ACAD_REACTORS
330
1EDB
102
}
330
1EDB
100
AcDbXrecord
280
     1
  1
1-交差点処理図（最新1案）
  1
*交差点処理図（最新1案）*
  1
*
  1
*
 70
     0
  1
*
  1
*
  0
XRECORD
  5
1EE8
102
{ACAD_REACTORS
330
1EDB
102
}
330
1EDB
100
AcDbXrecord
280
     1
  1
10植栽平面図-2
  1
00*,02*,0J*
  1
*
  1
*
 70
     0
  1
*
  1
*
  0
XRECORD
  5
1EE9
102
{ACAD_REACTORS
330
1EDB
102
}
330
1EDB
100
AcDbXrecord
280
     1
  1
11寸法図
  1
00*,02*,0K*,03*
  1
*
  1
*
 70
     0
  1
*
  1
*
  0
XRECORD
  5
1EEA
102
{ACAD_REACTORS
330
1EDB
102
}
330
1EDB
100
AcDbXrecord
280
     1
  1
1次施工
  1
*1次*
  1
*
  1
*
 70
     0
  1
*
  1
*
  0
XRECORD
  5
1EEB
102
{ACAD_REACTORS
330
1EDB
102
}
330
1EDB
100
AcDbXrecord
280
     1
  1
2
  1
*SOKUTENME
  1
*
  1
*
 70
     0
  1
*
  1
*
  0
XRECORD
  5
1EEC
102
{ACAD_REACTORS
330
1EDB
102
}
330
1EDB
100
AcDbXrecord
280
     1
  1
2-線形図1
  1
*線形図1*
  1
*
  1
*
 70
     0
  1
*
  1
*
  0
XRECORD
  5
1EED
102
{ACAD_REACTORS
330
1EDB
102
}
330
1EDB
100
AcDbXrecord
280
     1
  1
2次施工
  1
*2次*
  1
*
  1
*
 70
     0
  1
*
  1
*
  0
XRECORD
  5
1EEE
102
{ACAD_REACTORS
330
1EDB
102
}
330
1EDB
100
AcDbXrecord
280
     1
  1
3
  1
*下部工*
  1
*
  1
*
 70
     0
  1
*
  1
*
  0
XRECORD
  5
1EEF
102
{ACAD_REACTORS
330
1EDB
102
}
330
1EDB
100
AcDbXrecord
280
     1
  1
3-線形図2
  1
*線形図2*
  1
*
  1
*
 70
     0
  1
*
  1
*
  0
XRECORD
  5
1EF0
102
{ACAD_REACTORS
330
1EDB
102
}
330
1EDB
100
AcDbXrecord
280
     1
  1
3次施工
  1
*3次*
  1
*
  1
*
 70
     0
  1
*
  1
*
  0
XRECORD
  5
1EF1
102
{ACAD_REACTORS
330
1EDB
102
}
330
1EDB
100
AcDbXrecord
280
     1
  1
4
  1
*
  1
4
  1
*
 70
     0
  1
*
  1
*
  0
XRECORD
  5
1EF2
102
{ACAD_REACTORS
330
1EDB
102
}
330
1EDB
100
AcDbXrecord
280
     1
  1
4次施工
  1
*4次*
  1
*
  1
*
 70
     0
  1
*
  1
*
  0
XRECORD
  5
1EF3
102
{ACAD_REACTORS
330
1EDB
102
}
330
1EDB
100
AcDbXrecord
280
     1
  1
5
  1
*
  1
5
  1
*
 70
     0
  1
*
  1
*
  0
XRECORD
  5
1EF4
102
{ACAD_REACTORS
330
1EDB
102
}
330
1EDB
100
AcDbXrecord
280
     1
  1
50
  1
*-50
  1
*
  1
*
 70
     0
  1
*
  1
*
  0
XRECORD
  5
1EF5
102
{ACAD_REACTORS
330
1EDB
102
}
330
1EDB
100
AcDbXrecord
280
     1
  1
6
  1
*
  1
6
  1
*
 70
     0
  1
*
  1
*
  0
XRECORD
  5
1EF6
102
{ACAD_REACTORS
330
1EDB
102
}
330
1EDB
100
AcDbXrecord
280
     1
  1
7
  1
*
  1
7
  1
*
 70
     0
  1
*
  1
*
  0
XRECORD
  5
1EF7
102
{ACAD_REACTORS
330
1EDB
102
}
330
1EDB
100
AcDbXrecord
280
     1
  1
7-専用部北行
  1
80*,90*,A0*,B0*,
  1
*
  1
*
 70
     0
  1
*
  1
*
  0
XRECORD
  5
1EF8
102
{ACAD_REACTORS
330
1EDB
102
}
330
1EDB
100
AcDbXrecord
280
     1
  1
8-ONﾗﾝﾌﾟ
  1
70*,90*,A0*,B0*,
  1
*
  1
*
 70
     0
  1
*
  1
*
  0
XRECORD
  5
1EF9
102
{ACAD_REACTORS
330
1EDB
102
}
330
1EDB
100
AcDbXrecord
280
     1
  1
9-OFFﾗﾝﾌﾟ
  1
70*,80*,A0*B0*,
  1
*
  1
*
 70
     0
  1
*
  1
*
  0
XRECORD
  5
1EFA
102
{ACAD_REACTORS
330
1EDB
102
}
330
1EDB
100
AcDbXrecord
280
     1
  1
a
  1
*A_*
  1
*
  1
*
 70
    12
  1
*
  1
*
  0
XRECORD
  5
1EFB
102
{ACAD_REACTORS
330
1EDB
102
}
330
1EDB
100
AcDbXrecord
280
     1
  1
b
  1
*b_*
  1
*
  1
*
 70
    12
  1
*
  1
*
  0
XRECORD
  5
1EFC
102
{ACAD_REACTORS
330
1EDB
102
}
330
1EDB
100
AcDbXrecord
280
     1
  1
B北
  1
*B北*
  1
*
  1
*
 70
     0
  1
*
  1
*
  0
XRECORD
  5
1EFD
102
{ACAD_REACTORS
330
1EDB
102
}
330
1EDB
100
AcDbXrecord
280
     1
  1
c
  1
*c_*
  1
*
  1
*
 70
    12
  1
*
  1
*
  0
XRECORD
  5
1EFE
102
{ACAD_REACTORS
330
1EDB
102
}
330
1EDB
100
AcDbXrecord
280
     1
  1
CAR
  1
CAR*
  1
*
  1
*
 70
     0
  1
*
  1
*
  0
XRECORD
  5
1EFF
102
{ACAD_REACTORS
330
1EDB
102
}
330
1EDB
100
AcDbXrecord
280
     1
  1
d
  1
*d_*
  1
*
  1
*
 70
    12
  1
*
  1
*
  0
XRECORD
  5
1F00
102
{ACAD_REACTORS
330
1EDB
102
}
330
1EDB
100
AcDbXrecord
280
     1
  1
DIM
  1
*DIM
  1
*
  1
*
 70
     0
  1
*
  1
*
  0
XRECORD
  5
1F01
102
{ACAD_REACTORS
330
1EDB
102
}
330
1EDB
100
AcDbXrecord
280
     1
  1
DIM2
  1
*DIM2
  1
*
  1
*
 70
     0
  1
*
  1
*
  0
XRECORD
  5
1F02
102
{ACAD_REACTORS
330
1EDB
102
}
330
1EDB
100
AcDbXrecord
280
     1
  1
DIM3
  1
*DIM3
  1
*
  1
*
 70
     0
  1
*
  1
*
  0
XRECORD
  5
1F03
102
{ACAD_REACTORS
330
1EDB
102
}
330
1EDB
100
AcDbXrecord
280
     1
  1
e
  1
*e_*
  1
*
  1
*
 70
    12
  1
*
  1
*
  0
XRECORD
  5
1F04
102
{ACAD_REACTORS
330
1EDB
102
}
330
1EDB
100
AcDbXrecord
280
     1
  1
E南
  1
*E*南*
  1
*
  1
*
 70
     0
  1
*
  1
*
  0
XRECORD
  5
1F05
102
{ACAD_REACTORS
330
1EDB
102
}
330
1EDB
100
AcDbXrecord
280
     1
  1
GENKYOU
  1
*G*
  1
*
  1
*
 70
     0
  1
*
  1
*
  0
XRECORD
  5
1F06
102
{ACAD_REACTORS
330
1EDB
102
}
330
1EDB
100
AcDbXrecord
280
     1
  1
HTXT
  1
*HTXT
  1
*
  1
*
 70
     0
  1
*
  1
*
  0
XRECORD
  5
1F07
102
{ACAD_REACTORS
330
1EDB
102
}
330
1EDB
100
AcDbXrecord
280
     1
  1
HTXT2
  1
*HTXT2
  1
*
  1
*
 70
     0
  1
*
  1
*
  0
XRECORD
  5
1F08
102
{ACAD_REACTORS
330
1EDB
102
}
330
1EDB
100
AcDbXrecord
280
     1
  1
KAN
  1
W,S,T,G,E,
  1
*
  1
*
 70
     0
  1
*
  1
*
  0
XRECORD
  5
1F09
102
{ACAD_REACTORS
330
1EDB
102
}
330
1EDB
100
AcDbXrecord
280
     1
  1
LAND
  1
*
  1
*
  1
*
 70
     0
  1
*
  1
*
  0
XRECORD
  5
1F0A
102
{ACAD_REACTORS
330
1EDB
102
}
330
1EDB
100
AcDbXrecord
280
     1
  1
MASU
  1
*MASU
  1
*
  1
*
 70
     0
  1
*
  1
*
  0
XRECORD
  5
1F0B
102
{ACAD_REACTORS
330
1EDB
102
}
330
1EDB
100
AcDbXrecord
280
     1
  1
OFF
  1
*OFF*
  1
*
  1
*
 70
     0
  1
*
  1
*
  0
XRECORD
  5
1F0C
102
{ACAD_REACTORS
330
1EDB
102
}
330
1EDB
100
AcDbXrecord
280
     1
  1
OFST
  1
*OFST
  1
*
  1
*
 70
     0
  1
*
  1
*
  0
XRECORD
  5
1F0D
102
{ACAD_REACTORS
330
1EDB
102
}
330
1EDB
100
AcDbXrecord
280
     1
  1
ON
  1
*ON*
  1
*
  1
*
 70
     0
  1
*
  1
*
  0
XRECORD
  5
1F0E
102
{ACAD_REACTORS
330
1EDB
102
}
330
1EDB
100
AcDbXrecord
280
     1
  1
ｼｭｳｾｲ
  1
*
  1
*
  1
*
 70
     0
  1
*
  1
*
  0
XRECORD
  5
1F0F
102
{ACAD_REACTORS
330
1EDB
102
}
330
1EDB
100
AcDbXrecord
280
     1
  1
ｾﾒﾝﾄ注入量上半円
  1
CE-?-T-?
  1
*
  1
*
 70
     0
  1
*
  1
*
  0
XRECORD
  5
1F10
102
{ACAD_REACTORS
330
1EDB
102
}
330
1EDB
100
AcDbXrecord
280
     1
  1
ﾌﾘｰｽﾞ解除
  1
*
  1
*
  1
*
 70
    12
  1
*
  1
*
  0
XRECORD
  5
1F11
102
{ACAD_REACTORS
330
1EDB
102
}
330
1EDB
100
AcDbXrecord
280
     1
  1
ﾙｼﾞｵﾝ値下半円
  1
LU-?-B-?
  1
*
  1
*
 70
     0
  1
*
  1
*
  0
XRECORD
  5
1F12
102
{ACAD_REACTORS
330
1EDB
102
}
330
1EDB
100
AcDbXrecord
280
     1
  1
ｓ
  1
*SOKUTENME
  1
*
  1
*
 70
     0
  1
*
  1
*
  0
XRECORD
  5
1F13
102
{ACAD_REACTORS
330
1EDB
102
}
330
1EDB
100
AcDbXrecord
280
     1
  1
その他
  1
O*
  1
*
  1
*
 70
     0
  1
*
  1
*
  0
XRECORD
  5
1F14
102
{ACAD_REACTORS
330
1EDB
102
}
330
1EDB
100
AcDbXrecord
280
     1
  1
セメント注入量
  1
CE-*
  1
*
  1
*
 70
     0
  1
*
  1
*
  0
XRECORD
  5
1F15
102
{ACAD_REACTORS
330
1EDB
102
}
330
1EDB
100
AcDbXrecord
280
     1
  1
フリーズ以外
  1
*
  1
*
  1
*
 70
    12
  1
*
  1
*
  0
XRECORD
  5
1F16
102
{ACAD_REACTORS
330
1EDB
102
}
330
1EDB
100
AcDbXrecord
280
     1
  1
ランプ
  1
*ランプ*
  1
*
  1
*
 70
     0
  1
*
  1
*
  0
XRECORD
  5
1F17
102
{ACAD_REACTORS
330
1EDB
102
}
330
1EDB
100
AcDbXrecord
280
     1
  1
ルジオン値
  1
LU-*
  1
*
  1
*
 70
     0
  1
*
  1
*
  0
XRECORD
  5
1F18
102
{ACAD_REACTORS
330
1EDB
102
}
330
1EDB
100
AcDbXrecord
280
     1
  1
ロック
  1
*
  1
*
  1
*
 70
   256
  1
*
  1
*
  0
XRECORD
  5
1F19
102
{ACAD_REACTORS
330
1EDB
102
}
330
1EDB
100
AcDbXrecord
280
     1
  1
ロック解除
  1
*
  1
*
  1
*
 70
   768
  1
*
  1
*
  0
XRECORD
  5
1F1A
102
{ACAD_REACTORS
330
1EDB
102
}
330
1EDB
100
AcDbXrecord
280
     1
  1
案1
  1
*案1
  1
*
  1
*
 70
     0
  1
*
  1
*
  0
XRECORD
  5
1F1B
102
{ACAD_REACTORS
330
1EDB
102
}
330
1EDB
100
AcDbXrecord
280
     1
  1
案2
  1
*案2
  1
*
  1
*
 70
     0
  1
*
  1
*
  0
XRECORD
  5
1F1C
102
{ACAD_REACTORS
330
1EDB
102
}
330
1EDB
100
AcDbXrecord
280
     1
  1
一般
  1
*般*
  1
*
  1
*
 70
     0
  1
*
  1
*
  0
XRECORD
  5
1F1D
102
{ACAD_REACTORS
330
1EDB
102
}
330
1EDB
100
AcDbXrecord
280
     1
  1
外部参照の非表示画層
  1
*
  1
*
  1
*
 70
     0
  1
*
  1
*
  0
XRECORD
  5
1F1E
102
{ACAD_REACTORS
330
1EDB
102
}
330
1EDB
100
AcDbXrecord
280
     1
  1
形状
  1
pen1,pen3,pen4,up,dia,low
  1
*
  1
*
 70
     0
  1
*
  1
*
  0
XRECORD
  5
1F1F
102
{ACAD_REACTORS
330
1EDB
102
}
330
1EDB
100
AcDbXrecord
280
     1
  1
形状以外
  1
dim,cen,text,sakuzu1,sakuzu2,siten,defpoints,0
  1
*
  1
*
 70
     0
  1
*
  1
*
  0
XRECORD
  5
1F20
102
{ACAD_REACTORS
330
1EDB
102
}
330
1EDB
100
AcDbXrecord
280
     1
  1
計画
  1
K*
  1
*
  1
*
 70
     0
  1
*
  1
*
  0
XRECORD
  5
1F21
102
{ACAD_REACTORS
330
1EDB
102
}
330
1EDB
100
AcDbXrecord
280
     1
  1
現況
  1
G*
  1
*
  1
*
 70
     0
  1
*
  1
*
  0
XRECORD
  5
1F22
102
{ACAD_REACTORS
330
1EDB
102
}
330
1EDB
100
AcDbXrecord
280
     1
  1
暫定形
  1
*暫*
  1
*
  1
*
 70
     0
  1
*
  1
*
  0
XRECORD
  5
1F23
102
{ACAD_REACTORS
330
1EDB
102
}
330
1EDB
100
AcDbXrecord
280
     1
  1
縦断セット
  1
JO*
  1
*
  1
*
 70
     0
  1
*
  1
*
  0
XRECORD
  5
1F24
102
{ACAD_REACTORS
330
1EDB
102
}
330
1EDB
100
AcDbXrecord
280
     1
  1
縦断計画
  1
JK*
  1
*
  1
*
 70
     0
  1
*
  1
*
  0
XRECORD
  5
1F25
102
{ACAD_REACTORS
330
1EDB
102
}
330
1EDB
100
AcDbXrecord
280
     1
  1
縦断埋設
  1
JM*
  1
*
  1
*
 70
     0
  1
*
  1
*
  0
XRECORD
  5
1F26
102
{ACAD_REACTORS
330
1EDB
102
}
330
1EDB
100
AcDbXrecord
280
     1
  1
数量用
  1
*数量用*
  1
*
  1
*
 70
     0
  1
*
  1
*
  0
XRECORD
  5
1F27
102
{ACAD_REACTORS
330
1EDB
102
}
330
1EDB
100
AcDbXrecord
280
     1
  1
専北
  1
*専北*
  1
*
  1
*
 70
     0
  1
*
  1
*
  0
XRECORD
  5
1F28
102
{ACAD_REACTORS
330
1EDB
102
}
330
1EDB
100
AcDbXrecord
280
     1
  1
専用
  1
*専*
  1
*
  1
*
 70
     0
  1
*
  1
*
  0
XRECORD
  5
1F29
102
{ACAD_REACTORS
330
1EDB
102
}
330
1EDB
100
AcDbXrecord
280
     1
  1
線形
  1
*線形*
  1
*
  1
*
 70
     0
  1
*
  1
*
  0
XRECORD
  5
1F2A
102
{ACAD_REACTORS
330
1EDB
102
}
330
1EDB
100
AcDbXrecord
280
     1
  1
全帯
  1
*帯*
  1
*
  1
*
 70
     0
  1
*
  1
*
  0
XRECORD
  5
1F2B
102
{ACAD_REACTORS
330
1EDB
102
}
330
1EDB
100
AcDbXrecord
280
     1
  1
断面
  1
*断面*
  1
*
  1
*
 70
     0
  1
*
  1
*
  0
XRECORD
  5
1F2C
102
{ACAD_REACTORS
330
1EDB
102
}
330
1EDB
100
AcDbXrecord
280
     1
  1
東西線
  1
*A
  1
*
  1
*
 70
     0
  1
*
  1
*
  0
XRECORD
  5
1F2D
102
{ACAD_REACTORS
330
1EDB
102
}
330
1EDB
100
AcDbXrecord
280
     1
  1
道路詳細設計　平面図
  1
道路中心線
  1
*
  1
*
 70
     0
  1
*
  1
*
  0
XRECORD
  5
1F2E
102
{ACAD_REACTORS
330
1EDB
102
}
330
1EDB
100
AcDbXrecord
280
     1
  1
南北線
  1
*B
  1
*
  1
*
 70
     0
  1
*
  1
*
  0
XRECORD
  5
1F2F
102
{ACAD_REACTORS
330
1EDB
102
}
330
1EDB
100
AcDbXrecord
280
     1
  1
非表示
  1
z*
  1
*
  1
*
 70
     0
  1
*
  1
*
  0
XRECORD
  5
1F30
102
{ACAD_REACTORS
330
1EDB
102
}
330
1EDB
100
AcDbXrecord
280
     1
  1
非表示を表示
  1
*
  1
*
  1
*
 70
     3
  1
*
  1
*
  0
XRECORD
  5
1F31
102
{ACAD_REACTORS
330
1EDB
102
}
330
1EDB
100
AcDbXrecord
280
     1
  1
非表示画層を表示
  1
*
  1
*
  1
*
 70
     3
  1
*
  1
*
  0
XRECORD
  5
1F32
102
{ACAD_REACTORS
330
1EDB
102
}
330
1EDB
100
AcDbXrecord
280
     1
  1
表示レイヤ－を表示
  1
*
  1
*
  1
*
 70
     1
  1
*
  1
*
  0
XRECORD
  5
1F33
102
{ACAD_REACTORS
330
1EDB
102
}
330
1EDB
100
AcDbXrecord
280
     1
  1
副道
  1
*副*
  1
*
  1
*
 70
     0
  1
*
  1
*
  0
XRECORD
  5
1F34
102
{ACAD_REACTORS
330
1EDB
102
}
330
1EDB
100
AcDbXrecord
280
     1
  1
平面図
  1
*平*
  1
*
  1
*
 70
     0
  1
*
  1
*
  0
XRECORD
  5
1F35
102
{ACAD_REACTORS
330
1EDB
102
}
330
1EDB
100
AcDbXrecord
280
     1
  1
埋設
  1
M*
  1
*
  1
*
 70
     0
  1
*
  1
*
  0
DICTIONARY
  5
1ED4
330
77
100
AcDbDictionary
280
     1
281
     1
  3
ACAD_XREC_ROUNDTRIP
360
1ED5
  0
DICTIONARY
  5
1ED2
330
73
100
AcDbDictionary
280
     1
281
     1
  3
ACAD_XREC_ROUNDTRIP
360
1ED3
  0
DICTIONARY
  5
1A
330
19
100
AcDbDictionary
280
     1
281
     1
  3
ACAD_XREC_ROUNDTRIP
360
1BE4
  3
BUMPTILE
360
1C
  3
DIFFUSETILE
360
1B
  3
OPACITYTILE
360
1F
  3
REFLECTIONTILE
360
1E
  3
REFRACTIONTILE
360
20
  3
SPECULARTILE
360
1D
  0
DICTIONARY
  5
12
330
11
100
AcDbDictionary
280
     1
281
     1
  3
ACAD_XREC_ROUNDTRIP
360
1BE3
  3
BUMPTILE
360
14
  3
DIFFUSETILE
360
13
  3
OPACITYTILE
360
17
  3
REFLECTIONTILE
360
16
  3
REFRACTIONTILE
360
18
  3
SPECULARTILE
360
15
  0
DICTIONARY
  5
22
330
21
100
AcDbDictionary
280
     1
281
     1
  3
ACAD_XREC_ROUNDTRIP
360
1BE5
  3
BUMPTILE
360
24
  3
DIFFUSETILE
360
23
  3
OPACITYTILE
360
27
  3
REFLECTIONTILE
360
26
  3
REFRACTIONTILE
360
28
  3
SPECULARTILE
360
25
  0
DICTIONARY
  5
1BDF
330
6C
100
AcDbDictionary
280
     1
281
     1
  3
ACAD_ROUNDTRIP_2008_TABLESTYLE_CELLSTYLEMAP
360
1ECF
  3
ACAD_XREC_ROUNDTRIP
360
1ED1
  0
XRECORD
  5
1ED5
102
{ACAD_REACTORS
330
1ED4
102
}
330
1ED4
100
AcDbXrecord
280
     1
102
SHADEPLOT
 70
     0
102
SHADEPLOTRESLEVEL
 70
     2
102
SHADEPLOTCUSTOMDPI
 70
   300
  0
XRECORD
  5
1ED3
102
{ACAD_REACTORS
330
1ED2
102
}
330
1ED2
100
AcDbXrecord
280
     1
102
SHADEPLOT
 70
     0
102
SHADEPLOTRESLEVEL
 70
     2
102
SHADEPLOTCUSTOMDPI
 70
   300
  0
XRECORD
  5
1BE4
102
{ACAD_REACTORS
330
1A
102
}
330
1A
100
AcDbXrecord
280
     1
102
MATERIAL
148
0.0
149
0.0
149
0.0
 93
        0
 94
      127
282
     0
 72
     0
 77
     0
171
     0
175
     0
179
     0
273
     0
  0
XRECORD
  5
1C
102
{ACAD_REACTORS
330
1A
102
}
330
1A
100
AcDbXrecord
280
     1
270
     1
271
     1
  0
XRECORD
  5
1B
102
{ACAD_REACTORS
330
1A
102
}
330
1A
100
AcDbXrecord
280
     1
270
     1
271
     1
  0
XRECORD
  5
1F
102
{ACAD_REACTORS
330
1A
102
}
330
1A
100
AcDbXrecord
280
     1
270
     1
271
     1
  0
XRECORD
  5
1E
102
{ACAD_REACTORS
330
1A
102
}
330
1A
100
AcDbXrecord
280
     1
270
     1
271
     1
  0
XRECORD
  5
20
102
{ACAD_REACTORS
330
1A
102
}
330
1A
100
AcDbXrecord
280
     1
270
     1
271
     1
  0
XRECORD
  5
1D
102
{ACAD_REACTORS
330
1A
102
}
330
1A
100
AcDbXrecord
280
     1
270
     1
271
     1
  0
XRECORD
  5
1BE3
102
{ACAD_REACTORS
330
12
102
}
330
12
100
AcDbXrecord
280
     1
102
MATERIAL
148
0.0
149
0.0
149
0.0
 93
        0
 94
      127
282
     0
 72
     0
 77
     0
171
     0
175
     0
179
     0
273
     0
  0
XRECORD
  5
14
102
{ACAD_REACTORS
330
12
102
}
330
12
100
AcDbXrecord
280
     1
270
     1
271
     1
  0
XRECORD
  5
13
102
{ACAD_REACTORS
330
12
102
}
330
12
100
AcDbXrecord
280
     1
270
     1
271
     1
  0
XRECORD
  5
17
102
{ACAD_REACTORS
330
12
102
}
330
12
100
AcDbXrecord
280
     1
270
     1
271
     1
  0
XRECORD
  5
16
102
{ACAD_REACTORS
330
12
102
}
330
12
100
AcDbXrecord
280
     1
270
     1
271
     1
  0
XRECORD
  5
18
102
{ACAD_REACTORS
330
12
102
}
330
12
100
AcDbXrecord
280
     1
270
     1
271
     1
  0
XRECORD
  5
15
102
{ACAD_REACTORS
330
12
102
}
330
12
100
AcDbXrecord
280
     1
270
     1
271
     1
  0
XRECORD
  5
1BE5
102
{ACAD_REACTORS
330
22
102
}
330
22
100
AcDbXrecord
280
     1
102
MATERIAL
148
0.0
149
0.0
149
0.0
 93
        0
 94
      127
282
     0
 72
     0
 77
     0
171
     0
175
     0
179
     0
273
     0
  0
XRECORD
  5
24
102
{ACAD_REACTORS
330
22
102
}
330
22
100
AcDbXrecord
280
     1
270
     1
271
     1
  0
XRECORD
  5
23
102
{ACAD_REACTORS
330
22
102
}
330
22
100
AcDbXrecord
280
     1
270
     1
271
     1
  0
XRECORD
  5
27
102
{ACAD_REACTORS
330
22
102
}
330
22
100
AcDbXrecord
280
     1
270
     1
271
     1
  0
XRECORD
  5
26
102
{ACAD_REACTORS
330
22
102
}
330
22
100
AcDbXrecord
280
     1
270
     1
271
     1
  0
XRECORD
  5
28
102
{ACAD_REACTORS
330
22
102
}
330
22
100
AcDbXrecord
280
     1
270
     1
271
     1
  0
XRECORD
  5
25
102
{ACAD_REACTORS
330
22
102
}
330
22
100
AcDbXrecord
280
     1
270
     1
271
     1
  0
CELLSTYLEMAP
  5
1ECF
102
{ACAD_REACTORS
330
1BDF
102
}
330
1BDF
100
AcDbCellStyleMap
 90
        3
300
CELLSTYLE
  1
TABLEFORMAT_BEGIN
 90
        5
170
     1
 91
        0
 92
    32768
 62
   257
 93
        1
300
CONTENTFORMAT
  1
CONTENTFORMAT_BEGIN
 90
        0
 91
        0
 92
      512
 93
        0
300

 40
0.0
140
1.0
 94
        5
 62
     0
340
5D
144
0.25
309
CONTENTFORMAT_END
171
     1
301
MARGIN
  1
CELLMARGIN_BEGIN
 40
0.06
 40
0.06
 40
0.06
 40
0.06
 40
0.18
 40
0.18
309
CELLMARGIN_END
 94
        6
 95
        1
302
GRIDFORMAT
  1
GRIDFORMAT_BEGIN
 90
        0
 91
        1
 62
     0
 92
       -2
340
0
 93
        0
 40
0.045
309
GRIDFORMAT_END
 95
        2
302
GRIDFORMAT
  1
GRIDFORMAT_BEGIN
 90
        0
 91
        1
 62
     0
 92
       -2
340
0
 93
        0
 40
0.045
309
GRIDFORMAT_END
 95
        4
302
GRIDFORMAT
  1
GRIDFORMAT_BEGIN
 90
        0
 91
        1
 62
     0
 92
       -2
340
0
 93
        0
 40
0.045
309
GRIDFORMAT_END
 95
        8
302
GRIDFORMAT
  1
GRIDFORMAT_BEGIN
 90
        0
 91
        1
 62
     0
 92
       -2
340
0
 93
        0
 40
0.045
309
GRIDFORMAT_END
 95
       16
302
GRIDFORMAT
  1
GRIDFORMAT_BEGIN
 90
        0
 91
        1
 62
     0
 92
       -2
340
0
 93
        0
 40
0.045
309
GRIDFORMAT_END
 95
       32
302
GRIDFORMAT
  1
GRIDFORMAT_BEGIN
 90
        0
 91
        1
 62
     0
 92
       -2
340
0
 93
        0
 40
0.045
309
GRIDFORMAT_END
309
TABLEFORMAT_END
  1
CELLSTYLE_BEGIN
 90
        1
 91
        1
300
_TITLE
309
CELLSTYLE_END
300
CELLSTYLE
  1
TABLEFORMAT_BEGIN
 90
        5
170
     1
 91
        0
 92
        0
 62
   257
 93
        1
300
CONTENTFORMAT
  1
CONTENTFORMAT_BEGIN
 90
        0
 91
        0
 92
      512
 93
        0
300

 40
0.0
140
1.0
 94
        5
 62
     0
340
5D
144
0.18
309
CONTENTFORMAT_END
171
     1
301
MARGIN
  1
CELLMARGIN_BEGIN
 40
0.06
 40
0.06
 40
0.06
 40
0.06
 40
0.18
 40
0.18
309
CELLMARGIN_END
 94
        6
 95
        1
302
GRIDFORMAT
  1
GRIDFORMAT_BEGIN
 90
        0
 91
        1
 62
     0
 92
       -2
340
0
 93
        0
 40
0.045
309
GRIDFORMAT_END
 95
        2
302
GRIDFORMAT
  1
GRIDFORMAT_BEGIN
 90
        0
 91
        1
 62
     0
 92
       -2
340
0
 93
        0
 40
0.045
309
GRIDFORMAT_END
 95
        4
302
GRIDFORMAT
  1
GRIDFORMAT_BEGIN
 90
        0
 91
        1
 62
     0
 92
       -2
340
0
 93
        0
 40
0.045
309
GRIDFORMAT_END
 95
        8
302
GRIDFORMAT
  1
GRIDFORMAT_BEGIN
 90
        0
 91
        1
 62
     0
 92
       -2
340
0
 93
        0
 40
0.045
309
GRIDFORMAT_END
 95
       16
302
GRIDFORMAT
  1
GRIDFORMAT_BEGIN
 90
        0
 91
        1
 62
     0
 92
       -2
340
0
 93
        0
 40
0.045
309
GRIDFORMAT_END
 95
       32
302
GRIDFORMAT
  1
GRIDFORMAT_BEGIN
 90
        0
 91
        1
 62
     0
 92
       -2
340
0
 93
        0
 40
0.045
309
GRIDFORMAT_END
309
TABLEFORMAT_END
  1
CELLSTYLE_BEGIN
 90
        2
 91
        1
300
_HEADER
309
CELLSTYLE_END
300
CELLSTYLE
  1
TABLEFORMAT_BEGIN
 90
        5
170
     1
 91
        0
 92
        0
 62
   257
 93
        1
300
CONTENTFORMAT
  1
CONTENTFORMAT_BEGIN
 90
        0
 91
        0
 92
      512
 93
        0
300

 40
0.0
140
1.0
 94
        2
 62
     0
340
5D
144
0.18
309
CONTENTFORMAT_END
171
     1
301
MARGIN
  1
CELLMARGIN_BEGIN
 40
0.06
 40
0.06
 40
0.06
 40
0.06
 40
0.18
 40
0.18
309
CELLMARGIN_END
 94
        6
 95
        1
302
GRIDFORMAT
  1
GRIDFORMAT_BEGIN
 90
        0
 91
        1
 62
     0
 92
       -2
340
0
 93
        0
 40
0.045
309
GRIDFORMAT_END
 95
        2
302
GRIDFORMAT
  1
GRIDFORMAT_BEGIN
 90
        0
 91
        1
 62
     0
 92
       -2
340
0
 93
        0
 40
0.045
309
GRIDFORMAT_END
 95
        4
302
GRIDFORMAT
  1
GRIDFORMAT_BEGIN
 90
        0
 91
        1
 62
     0
 92
       -2
340
0
 93
        0
 40
0.045
309
GRIDFORMAT_END
 95
        8
302
GRIDFORMAT
  1
GRIDFORMAT_BEGIN
 90
        0
 91
        1
 62
     0
 92
       -2
340
0
 93
        0
 40
0.045
309
GRIDFORMAT_END
 95
       16
302
GRIDFORMAT
  1
GRIDFORMAT_BEGIN
 90
        0
 91
        1
 62
     0
 92
       -2
340
0
 93
        0
 40
0.045
309
GRIDFORMAT_END
 95
       32
302
GRIDFORMAT
  1
GRIDFORMAT_BEGIN
 90
        0
 91
        1
 62
     0
 92
       -2
340
0
 93
        0
 40
0.045
309
GRIDFORMAT_END
309
TABLEFORMAT_END
  1
CELLSTYLE_BEGIN
 90
        3
 91
        2
300
_DATA
309
CELLSTYLE_END
  0
XRECORD
  5
1ED1
102
{ACAD_REACTORS
330
1BDF
102
}
330
1BDF
100
AcDbXrecord
280
     1
102
ACAD_ROUNDTRIP_PRE2007_TABLESTYLE
 90
      512
 91
        0
  1

 92
      512
 93
        0
  2

 94
      512
 95
        0
  3

  0
ENDSEC
  0
EOF
