  0
SECTION
  2
HEADER
  9
$ACADVER
  1
AC1015
  9
$ACADMAINTVER
 70
    13
  9
$DWGCODEPAGE
  3
ANSI_932
  9
$INSBASE
 10
0.0
 20
0.0
 30
0.0
  9
$EXTMIN
 10
-0.0256335921286564
 20
-0.0181266115766903
 30
-0.0000000349181948
  9
$EXTMAX
 10
420.025637503803
 20
297.0181293776892
 30
0.0000000814935746
  9
$LIMMIN
 10
0.0
 20
0.0
  9
$LIMMAX
 10
420.0
 20
297.0
  9
$ORTHOMODE
 70
     0
  9
$REGENMODE
 70
     1
  9
$FILLMODE
 70
     1
  9
$QTEXTMODE
 70
     0
  9
$MIRRTEXT
 70
     0
  9
$LTSCALE
 40
23.1
  9
$ATTMODE
 70
     1
  9
$TEXTSIZE
 40
3.0
  9
$TRACEWID
 40
0.05
  9
$TEXTSTYLE
  7
STANDARD
  9
$CLAYER
  8
0
  9
$CELTYPE
  6
ByLayer
  9
$CECOLOR
 62
   256
  9
$CELTSCALE
 40
1.0
  9
$DISPSILH
 70
     0
  9
$DIMSCALE
 40
1.0
  9
$DIMASZ
 40
2.0
  9
$DIMEXO
 40
0.0
  9
$DIMDLI
 40
15.96
  9
$DIMRND
 40
0.0
  9
$DIMDLE
 40
0.0
  9
$DIMEXE
 40
1.0
  9
$DIMTP
 40
0.0
  9
$DIMTM
 40
0.0
  9
$DIMTXT
 40
3.5
  9
$DIMCEN
 40
3.779999999999998
  9
$DIMTSZ
 40
0.0
  9
$DIMTOL
 70
     0
  9
$DIMLIM
 70
     0
  9
$DIMTIH
 70
     0
  9
$DIMTOH
 70
     1
  9
$DIMSE1
 70
     0
  9
$DIMSE2
 70
     0
  9
$DIMTAD
 70
     3
  9
$DIMZIN
 70
     0
  9
$DIMBLK
  1
OPEN
  9
$DIMASO
 70
     1
  9
$DIMSHO
 70
     1
  9
$DIMPOST
  1

  9
$DIMAPOST
  1

  9
$DIMALT
 70
     0
  9
$DIMALTD
 70
     2
  9
$DIMALTF
 40
25.4
  9
$DIMLFAC
 40
1.0
  9
$DIMTOFL
 70
     0
  9
$DIMTVP
 40
0.0
  9
$DIMTIX
 70
     0
  9
$DIMSOXD
 70
     0
  9
$DIMSAH
 70
     0
  9
$DIMBLK1
  1

  9
$DIMBLK2
  1

  9
$DIMSTYLE
  2
Standard
  9
$DIMCLRD
 70
     0
  9
$DIMCLRE
 70
     0
  9
$DIMCLRT
 70
     0
  9
$DIMTFAC
 40
1.0
  9
$DIMGAP
 40
1.0
  9
$DIMJUST
 70
     0
  9
$DIMSD1
 70
     0
  9
$DIMSD2
 70
     0
  9
$DIMTOLJ
 70
     1
  9
$DIMTZIN
 70
     0
  9
$DIMALTZ
 70
     0
  9
$DIMALTTZ
 70
     0
  9
$DIMUPT
 70
     0
  9
$DIMDEC
 70
     0
  9
$DIMTDEC
 70
     0
  9
$DIMALTU
 70
     2
  9
$DIMALTTD
 70
     2
  9
$DIMTXSTY
  7
STANDARD
  9
$DIMAUNIT
 70
     0
  9
$DIMADEC
 70
     0
  9
$DIMALTRND
 40
0.0
  9
$DIMAZIN
 70
     0
  9
$DIMDSEP
 70
    46
  9
$DIMATFIT
 70
     3
  9
$DIMFRAC
 70
     0
  9
$DIMLDRBLK
  1
OPEN
  9
$DIMLUNIT
 70
     2
  9
$DIMLWD
 70
    -2
  9
$DIMLWE
 70
    -2
  9
$DIMTMOVE
 70
     0
  9
$LUNITS
 70
     2
  9
$LUPREC
 70
     4
  9
$SKETCHINC
 40
0.1
  9
$FILLETRAD
 40
0.0
  9
$AUNITS
 70
     0
  9
$AUPREC
 70
     0
  9
$MENU
  1
.
  9
$ELEVATION
 40
0.0
  9
$PELEVATION
 40
0.0
  9
$THICKNESS
 40
0.0
  9
$LIMCHECK
 70
     0
  9
$CHAMFERA
 40
0.0
  9
$CHAMFERB
 40
0.0
  9
$CHAMFERC
 40
0.0
  9
$CHAMFERD
 40
0.0
  9
$SKPOLY
 70
     0
  9
$TDCREATE
 40
2455477.381612535
  9
$TDUCREATE
 40
2455477.006612535
  9
$TDUPDATE
 40
2455499.386719606
  9
$TDUUPDATE
 40
2455499.011719606
  9
$TDINDWG
 40
0.0264391435
  9
$TDUSRTIMER
 40
0.0264389583
  9
$USRTIMER
 70
     1
  9
$ANGBASE
 50
0.0
  9
$ANGDIR
 70
     0
  9
$PDMODE
 70
     3
  9
$PDSIZE
 40
8.0
  9
$PLINEWID
 40
0.0
  9
$SPLFRAME
 70
     0
  9
$SPLINETYPE
 70
     6
  9
$SPLINESEGS
 70
     8
  9
$HANDSEED
  5
3605
  9
$SURFTAB1
 70
     6
  9
$SURFTAB2
 70
     6
  9
$SURFTYPE
 70
     6
  9
$SURFU
 70
     6
  9
$SURFV
 70
     6
  9
$UCSBASE
  2

  9
$UCSNAME
  2

  9
$UCSORG
 10
0.0
 20
0.0
 30
0.0
  9
$UCSXDIR
 10
1.0
 20
0.0
 30
0.0
  9
$UCSYDIR
 10
0.0
 20
1.0
 30
0.0
  9
$UCSORTHOREF
  2

  9
$UCSORTHOVIEW
 70
     0
  9
$UCSORGTOP
 10
0.0
 20
0.0
 30
0.0
  9
$UCSORGBOTTOM
 10
0.0
 20
0.0
 30
0.0
  9
$UCSORGLEFT
 10
0.0
 20
0.0
 30
0.0
  9
$UCSORGRIGHT
 10
0.0
 20
0.0
 30
0.0
  9
$UCSORGFRONT
 10
0.0
 20
0.0
 30
0.0
  9
$UCSORGBACK
 10
0.0
 20
0.0
 30
0.0
  9
$PUCSBASE
  2

  9
$PUCSNAME
  2

  9
$PUCSORG
 10
0.0
 20
0.0
 30
0.0
  9
$PUCSXDIR
 10
1.0
 20
0.0
 30
0.0
  9
$PUCSYDIR
 10
0.0
 20
1.0
 30
0.0
  9
$PUCSORTHOREF
  2

  9
$PUCSORTHOVIEW
 70
     0
  9
$PUCSORGTOP
 10
0.0
 20
0.0
 30
0.0
  9
$PUCSORGBOTTOM
 10
0.0
 20
0.0
 30
0.0
  9
$PUCSORGLEFT
 10
0.0
 20
0.0
 30
0.0
  9
$PUCSORGRIGHT
 10
0.0
 20
0.0
 30
0.0
  9
$PUCSORGFRONT
 10
0.0
 20
0.0
 30
0.0
  9
$PUCSORGBACK
 10
0.0
 20
0.0
 30
0.0
  9
$USERI1
 70
     0
  9
$USERI2
 70
     0
  9
$USERI3
 70
     0
  9
$USERI4
 70
     0
  9
$USERI5
 70
     0
  9
$USERR1
 40
0.0
  9
$USERR2
 40
0.0
  9
$USERR3
 40
0.0
  9
$USERR4
 40
0.0
  9
$USERR5
 40
0.0
  9
$WORLDVIEW
 70
     1
  9
$SHADEDGE
 70
     3
  9
$SHADEDIF
 70
    70
  9
$TILEMODE
 70
     1
  9
$MAXACTVP
 70
    64
  9
$PINSBASE
 10
0.0
 20
0.0
 30
0.0
  9
$PLIMCHECK
 70
     0
  9
$PEXTMIN
 10
1.000000000000000E+20
 20
1.000000000000000E+20
 30
1.000000000000000E+20
  9
$PEXTMAX
 10
-1.000000000000000E+20
 20
-1.000000000000000E+20
 30
-1.000000000000000E+20
  9
$PLIMMIN
 10
0.0
 20
0.0
  9
$PLIMMAX
 10
12.0
 20
9.0
  9
$UNITMODE
 70
     0
  9
$VISRETAIN
 70
     1
  9
$PLINEGEN
 70
     0
  9
$PSLTSCALE
 70
     1
  9
$TREEDEPTH
 70
  3020
  9
$CMLSTYLE
  2
Standard
  9
$CMLJUST
 70
     0
  9
$CMLSCALE
 40
1.0
  9
$PROXYGRAPHICS
 70
     1
  9
$MEASUREMENT
 70
     0
  9
$CELWEIGHT
370
    -1
  9
$ENDCAPS
280
     0
  9
$JOINSTYLE
280
     0
  9
$LWDISPLAY
290
     0
  9
$INSUNITS
 70
     0
  9
$HYPERLINKBASE
  1

  9
$STYLESHEET
  1

  9
$XEDIT
290
     1
  9
$CEPSNTYPE
380
     0
  9
$PSTYLEMODE
290
     1
  9
$FINGERPRINTGUID
  2
{61594C2C-2FE6-4DA7-B03B-5366C0C46DDB}
  9
$VERSIONGUID
  2
{06B3A100-698F-43F8-9D13-9E7260B060BA}
  9
$EXTNAMES
290
     1
  9
$PSVPSCALE
 40
0.0
  9
$OLESTARTUP
290
     0
  0
ENDSEC
  0
SECTION
  2
CLASSES
  0
CLASS
  1
ACDBDICTIONARYWDFLT
  2
AcDbDictionaryWithDefault
  3
AutoCAD 2000
 90
        0
280
     0
281
     0
  0
CLASS
  1
MATERIAL
  2
AcDbMaterial
  3
ObjectDBX Classes
 90
     1153
280
     0
281
     0
  0
CLASS
  1
VISUALSTYLE
  2
AcDbVisualStyle
  3
ObjectDBX Classes
 90
     4095
280
     0
281
     0
  0
CLASS
  1
SCALE
  2
AcDbScale
  3
ObjectDBX Classes
 90
     1153
280
     0
281
     0
  0
CLASS
  1
TABLESTYLE
  2
AcDbTableStyle
  3
ObjectDBX Classes
 90
     4095
280
     0
281
     0
  0
CLASS
  1
MLEADERSTYLE
  2
AcDbMLeaderStyle
  3
ACDB_MLEADERSTYLE_CLASS
 90
     4095
280
     0
281
     0
  0
CLASS
  1
SORTENTSTABLE
  2
AcDbSortentsTable
  3
AutoCAD 2000
 90
        0
280
     0
281
     0
  0
CLASS
  1
DICTIONARYVAR
  2
AcDbDictionaryVar
  3
AutoCAD 2000
 90
        0
280
     0
281
     0
  0
CLASS
  1
CELLSTYLEMAP
  2
AcDbCellStyleMap
  3
ObjectDBX Classes
 90
     1152
280
     0
281
     0
  0
CLASS
  1
ACDBPLACEHOLDER
  2
AcDbPlaceHolder
  3
AutoCAD 2000
 90
        0
280
     0
281
     0
  0
CLASS
  1
LAYOUT
  2
AcDbLayout
  3
AutoCAD 2000
 90
        0
280
     0
281
     0
  0
ENDSEC
  0
SECTION
  2
TABLES
  0
TABLE
  2
VPORT
  5
8
330
0
100
AcDbSymbolTable
 70
     2
  0
VPORT
  5
3604
330
8
100
AcDbSymbolTableRecord
100
AcDbViewportTableRecord
  2
*Active
 70
     0
 10
0.0
 20
0.0
 11
1.0
 21
1.0
 12
210.0000019558371
 22
148.5000013830562
 13
0.0
 23
0.0
 14
1.0
 24
1.0
 15
0.0
 25
0.0
 16
0.0
 26
0.0
 36
1.0
 17
0.0
 27
0.0
 37
0.0
 40
334.108038030336
 41
1.264669163545568
 42
50.0
 43
0.0
 44
0.0
 50
0.0
 51
0.0
 71
     0
 72
  5000
 73
     1
 74
     1
 75
     1
 76
     0
 77
     0
 78
     0
281
     0
 65
     1
110
0.0
120
0.0
130
0.0
111
1.0
121
0.0
131
0.0
112
0.0
122
1.0
132
0.0
 79
     0
146
0.0
  0
ENDTAB
  0
TABLE
  2
LTYPE
  5
5
330
0
100
AcDbSymbolTable
 70
     2
  0
LTYPE
  5
62
330
5
100
AcDbSymbolTableRecord
100
AcDbLinetypeTableRecord
  2
ByBlock
 70
     0
  3

 72
    65
 73
     0
 40
0.0
  0
LTYPE
  5
63
330
5
100
AcDbSymbolTableRecord
100
AcDbLinetypeTableRecord
  2
ByLayer
 70
     0
  3

 72
    65
 73
     0
 40
0.0
  0
LTYPE
  5
64
330
5
100
AcDbSymbolTableRecord
100
AcDbLinetypeTableRecord
  2
CONTINUOUS
 70
     0
  3
Solid line
 72
    65
 73
     0
 40
0.0
  0
LTYPE
  5
7A
330
5
100
AcDbSymbolTableRecord
100
AcDbLinetypeTableRecord
  2
CENTER
 70
     0
  3
____ _ ____ _ ____ _ ____ _ ____ _ ____ _ ____
 72
    65
 73
     4
 40
0.6
 49
0.375
 74
     0
 49
-0.075
 74
     0
 49
0.075
 74
     0
 49
-0.075
 74
     0
  0
ENDTAB
  0
TABLE
  2
LAYER
  5
2
102
{ACAD_XDICTIONARY
360
34B8
102
}
330
0
100
AcDbSymbolTable
 70
     7
  0
LAYER
  5
5C
102
{ACAD_XDICTIONARY
360
342F
102
}
330
2
100
AcDbSymbolTableRecord
100
AcDbLayerTableRecord
  2
0
 70
     0
 62
     7
  6
CONTINUOUS
370
    -3
390
F
  0
LAYER
  5
7F
102
{ACAD_XDICTIONARY
360
3431
102
}
330
2
100
AcDbSymbolTableRecord
100
AcDbLayerTableRecord
  2
DEFAULT_1
 70
     0
 62
     7
  6
CENTER
370
    -3
390
F
  0
LAYER
  5
90
102
{ACAD_XDICTIONARY
360
3453
102
}
330
2
100
AcDbSymbolTableRecord
100
AcDbLayerTableRecord
  2
1_ALL_DRAFT_DIMS
 70
     0
 62
     7
  6
CONTINUOUS
370
    -3
390
F
  0
LAYER
  5
98
102
{ACAD_XDICTIONARY
360
3463
102
}
330
2
100
AcDbSymbolTableRecord
100
AcDbLayerTableRecord
  2
2_ALL_NOTES
 70
     0
 62
     7
  6
CONTINUOUS
370
    -3
390
F
  0
LAYER
  5
34AC
330
2
100
AcDbSymbolTableRecord
100
AcDbLayerTableRecord
  2
$AUDIT-BAD-LAYER
 70
     0
 62
     7
  6
CONTINUOUS
370
    -3
390
F
  0
LAYER
  5
3514
330
2
100
AcDbSymbolTableRecord
100
AcDbLayerTableRecord
  2
非表示
 70
     0
 62
     5
  6
CONTINUOUS
290
     0
370
    -3
390
F
  0
LAYER
  5
3549
330
2
100
AcDbSymbolTableRecord
100
AcDbLayerTableRecord
  2
Defpoints
 70
     0
 62
     7
  6
CONTINUOUS
290
     0
370
    -3
390
F
  0
ENDTAB
  0
TABLE
  2
STYLE
  5
3
330
0
100
AcDbSymbolTable
 70
     2
  0
STYLE
  5
5D
330
3
100
AcDbSymbolTableRecord
100
AcDbTextStyleTableRecord
  2
STANDARD
 70
     0
 40
0.0
 41
0.8
 50
0.0
 71
     0
 42
3.0
  3
monotxt.shx
  4
bigfont.shx
  0
STYLE
  5
3515
330
3
100
AcDbSymbolTableRecord
100
AcDbTextStyleTableRecord
  2
STANDARD1
 70
     0
 40
0.0
 41
1.0
 50
0.0
 71
     0
 42
4.0
  3
monotxt.shx
  4
bigfont.shx
  0
ENDTAB
  0
TABLE
  2
VIEW
  5
6
330
0
100
AcDbSymbolTable
 70
     0
  0
ENDTAB
  0
TABLE
  2
UCS
  5
7
330
0
100
AcDbSymbolTable
 70
     0
  0
ENDTAB
  0
TABLE
  2
APPID
  5
9
330
0
100
AcDbSymbolTable
 70
     3
  0
APPID
  5
5E
330
9
100
AcDbSymbolTableRecord
100
AcDbRegAppTableRecord
  2
ACAD
 70
     0
  0
APPID
  5
65
330
9
100
AcDbSymbolTableRecord
100
AcDbRegAppTableRecord
  2
AcadAnnotative
 70
     0
  0
APPID
  5
6F
330
9
100
AcDbSymbolTableRecord
100
AcDbRegAppTableRecord
  2
ACAD_MLEADERVER
 70
     0
  0
ENDTAB
  0
TABLE
  2
DIMSTYLE
  5
A
330
0
100
AcDbSymbolTable
 70
     1
100
AcDbDimStyleTable
 71
     1
340
5F
  0
DIMSTYLE
105
5F
102
{ACAD_REACTORS
330
3548
330
3556
330
357B
330
35B4
330
35C8
330
35D5
330
35E2
102
}
330
A
100
AcDbSymbolTableRecord
100
AcDbDimStyleTableRecord
  2
Standard
 70
     0
340
5D
  0
ENDTAB
  0
TABLE
  2
BLOCK_RECORD
  5
1
330
0
100
AcDbSymbolTable
 70
    13
  0
BLOCK_RECORD
  5
74
102
{ACAD_XDICTIONARY
360
20F0
102
}
330
1
100
AcDbSymbolTableRecord
100
AcDbBlockTableRecord
  2
*Model_Space
340
77
  0
BLOCK_RECORD
  5
70
330
1
100
AcDbSymbolTableRecord
100
AcDbBlockTableRecord
  2
*Paper_Space
340
73
  0
BLOCK_RECORD
  5
B9
330
1
100
AcDbSymbolTableRecord
100
AcDbBlockTableRecord
  2
_OPEN
340
0
102
{BLKREFS
331
BA
331
BB
331
C3
331
C4
331
CC
331
CD
331
D5
331
D6
331
DD
331
DE
331
E6
331
E7
331
EF
331
F0
331
F7
331
F8
331
100
331
101
331
106
331
10D
331
10E
331
115
331
116
331
11E
331
11F
331
354E
331
354F
331
355B
331
355C
331
3573
331
3574
331
3580
331
3581
331
358D
331
358E
331
3598
331
3599
331
35A2
331
35A3
331
35AC
331
35AD
331
35B9
331
35BA
331
35CD
331
35CE
331
35DA
331
35DB
331
35E7
331
35E8
331
35F2
331
35F3
331
35FC
331
35FD
102
}
  0
BLOCK_RECORD
  5
3537
330
1
100
AcDbSymbolTableRecord
100
AcDbBlockTableRecord
  2
A$C261C53CE
340
0
  0
BLOCK_RECORD
  5
354A
330
1
100
AcDbSymbolTableRecord
100
AcDbBlockTableRecord
  2
*D3
340
0
  0
BLOCK_RECORD
  5
3557
330
1
100
AcDbSymbolTableRecord
100
AcDbBlockTableRecord
  2
*D4
340
0
  0
BLOCK_RECORD
  5
356F
330
1
100
AcDbSymbolTableRecord
100
AcDbBlockTableRecord
  2
*D5
340
0
  0
BLOCK_RECORD
  5
357C
330
1
100
AcDbSymbolTableRecord
100
AcDbBlockTableRecord
  2
*D6
340
0
  0
BLOCK_RECORD
  5
3589
330
1
100
AcDbSymbolTableRecord
100
AcDbBlockTableRecord
  2
*D7
340
0
  0
BLOCK_RECORD
  5
35A8
330
1
100
AcDbSymbolTableRecord
100
AcDbBlockTableRecord
  2
*D8
340
0
  0
BLOCK_RECORD
  5
35B5
330
1
100
AcDbSymbolTableRecord
100
AcDbBlockTableRecord
  2
*D9
340
0
  0
BLOCK_RECORD
  5
35C9
330
1
100
AcDbSymbolTableRecord
100
AcDbBlockTableRecord
  2
*D10
340
0
  0
BLOCK_RECORD
  5
35D6
330
1
100
AcDbSymbolTableRecord
100
AcDbBlockTableRecord
  2
*D11
340
0
  0
BLOCK_RECORD
  5
35E3
330
1
100
AcDbSymbolTableRecord
100
AcDbBlockTableRecord
  2
*D12
340
0
  0
ENDTAB
  0
ENDSEC
  0
SECTION
  2
BLOCKS
  0
BLOCK
  5
75
330
74
100
AcDbEntity
  8
0
100
AcDbBlockBegin
  2
*Model_Space
 70
     0
 10
0.0
 20
0.0
 30
0.0
  3
*Model_Space
  1

  0
ENDBLK
  5
76
330
74
100
AcDbEntity
  8
0
100
AcDbBlockEnd
  0
BLOCK
  5
71
330
70
100
AcDbEntity
 67
     1
  8
0
100
AcDbBlockBegin
  2
*Paper_Space
 70
     0
 10
0.0
 20
0.0
 30
0.0
  3
*Paper_Space
  1

  0
ENDBLK
  5
72
330
70
100
AcDbEntity
 67
     1
  8
0
100
AcDbBlockEnd
  0
BLOCK
  5
872
330
B9
100
AcDbEntity
  8
0
100
AcDbBlockBegin
  2
_OPEN
 70
     0
 10
0.0
 20
0.0
 30
0.0
  3
_OPEN
  1

  0
LINE
  5
873
330
B9
100
AcDbEntity
  8
0
  6
ByBlock
 62
     0
100
AcDbLine
 10
0.0
 20
0.0
 30
0.0
 11
-1.0
 21
0.3125
 31
0.0
  0
LINE
  5
874
330
B9
100
AcDbEntity
  8
0
  6
ByBlock
 62
     0
100
AcDbLine
 10
-1.0
 20
-0.3125
 30
0.0
 11
0.0
 21
0.0
 31
0.0
  0
LINE
  5
875
330
B9
100
AcDbEntity
  8
0
  6
ByBlock
 62
     0
100
AcDbLine
 10
-1.0
 20
0.0
 30
0.0
 11
0.0
 21
0.0
 31
0.0
  0
ENDBLK
  5
876
330
B9
100
AcDbEntity
  8
0
  6
ByBlock
 62
     0
100
AcDbBlockEnd
  0
BLOCK
  5
3545
330
3537
100
AcDbEntity
  8
0
100
AcDbBlockBegin
  2
A$C261C53CE
 70
     0
 10
0.0
 20
0.0
 30
0.0
  3
A$C261C53CE
  1

  0
LINE
  5
3538
330
3537
100
AcDbEntity
  8
非表示
100
AcDbLine
 10
0.000000092522555
 20
0.0000000528651754
 30
0.0
 11
420.0000000925226
 21
0.0000000528651754
 31
0.0
  0
LINE
  5
3539
330
3537
100
AcDbEntity
  8
非表示
100
AcDbLine
 10
420.0000000925226
 20
0.0000000528651754
 30
0.0
 11
420.0000000925226
 21
297.0000000528651
 31
0.0
  0
LINE
  5
353A
330
3537
100
AcDbEntity
  8
0
100
AcDbLine
 10
410.0000000925224
 20
10.00000005286516
 30
0.0
 11
320.0000000925224
 21
10.00000005286516
 31
0.0
  0
LINE
  5
353B
330
3537
100
AcDbEntity
  8
0
100
AcDbLine
 10
410.0000000925224
 20
18.00000005286516
 30
0.0
 11
320.0000000925224
 21
18.00000005286516
 31
0.0
  0
LINE
  5
353C
330
3537
100
AcDbEntity
  8
0
100
AcDbLine
 10
410.0000000925224
 20
26.00000005286517
 30
0.0
 11
320.0000000925224
 21
26.00000005286517
 31
0.0
  0
LINE
  5
353D
330
3537
100
AcDbEntity
  8
0
100
AcDbLine
 10
340.0000000925225
 20
26.00000005286517
 30
0.0
 11
340.0000000925225
 21
10.00000005286516
 31
0.0
  0
TEXT
  5
353E
330
3537
100
AcDbEntity
  8
0
100
AcDbText
 10
325.9352900925225
 20
19.67168605286516
 30
0.0
 40
4.0
  1
品名
  7
STANDARD1
100
AcDbText
  0
TEXT
  5
353F
330
3537
100
AcDbEntity
  8
0
100
AcDbText
 10
325.9352900925225
 20
11.67168605286516
 30
0.0
 40
4.0
  1
型名
  7
STANDARD1
100
AcDbText
  0
TEXT
  5
3540
330
3537
100
AcDbEntity
  8
0
100
AcDbText
 10
341.9352900925225
 20
19.67168605286516
 30
0.0
 40
4.0
  1
ネットワークカメラ
  7
STANDARD1
100
AcDbText
  0
TEXT
  5
3541
330
3537
100
AcDbEntity
  8
0
100
AcDbText
 10
341.9352900925225
 20
11.67168605286516
 30
0.0
 40
4.0
  1
NC-6000
  7
STANDARD1
100
AcDbText
  0
LINE
  5
3542
330
3537
100
AcDbEntity
  8
0
100
AcDbLine
 10
410.0000000925224
 20
26.00000005286517
 30
0.0
 11
410.0000000925224
 21
10.00000005286516
 31
0.0
  0
LINE
  5
3543
330
3537
100
AcDbEntity
  8
非表示
100
AcDbLine
 10
0.000000092522555
 20
0.0000000528651754
 30
0.0
 11
0.000000092522555
 21
297.0000000528651
 31
0.0
  0
LINE
  5
3544
330
3537
100
AcDbEntity
  8
非表示
100
AcDbLine
 10
0.000000092522555
 20
297.0000000528651
 30
0.0
 11
420.0000000925226
 21
297.0000000528651
 31
0.0
  0
ENDBLK
  5
3546
330
3537
100
AcDbEntity
  8
0
100
AcDbBlockEnd
  0
BLOCK
  5
3554
330
354A
100
AcDbEntity
  8
0
100
AcDbBlockBegin
  2
*D3
 70
     1
 10
0.0
 20
0.0
 30
0.0
  3
*D3
  1

  0
LINE
  5
354B
330
354A
100
AcDbEntity
  8
0
 62
     0
370
    -2
100
AcDbLine
 10
87.65432245819997
 20
150.1846770454
 30
0.0
 11
56.79847534180001
 21
150.1846770454
 31
0.0
  0
LINE
  5
354C
330
354A
100
AcDbEntity
  8
0
 62
     0
370
    -2
100
AcDbLine
 10
135.4043224581999
 20
42.1846770454
 30
0.0
 11
56.79847534179998
 21
42.18467704540002
 31
0.0
  0
LINE
  5
354D
330
354A
100
AcDbEntity
  8
0
 62
     0
370
    -2
100
AcDbLine
 10
57.7984753418
 20
148.1846770454
 30
0.0
 11
57.79847534179998
 21
44.18467704540002
 31
0.0
  0
INSERT
  5
354E
330
354A
100
AcDbEntity
  8
0
 62
     0
370
    -2
100
AcDbBlockReference
  2
_OPEN
 10
57.7984753418
 20
150.1846770454
 30
0.0
 41
2.0
 42
2.0
 43
2.0
 50
90.0
  0
INSERT
  5
354F
330
354A
100
AcDbEntity
  8
0
 62
     0
370
    -2
100
AcDbBlockReference
  2
_OPEN
 10
57.79847534179998
 20
42.18467704540002
 30
0.0
 41
2.0
 42
2.0
 43
2.0
 50
270.0
  0
MTEXT
  5
3550
330
354A
100
AcDbEntity
  8
0
 62
     0
100
AcDbMText
 10
55.04847534179997
 20
96.18467704540003
 30
0.0
 40
3.5
 41
0.0
 71
     5
 72
     1
  1
\A1;108
 11
0.0000000000000001
 21
1.0
 31
0.0
 73
     1
 44
1.0
  0
POINT
  5
3551
330
354A
100
AcDbEntity
  8
Defpoints
 62
     0
100
AcDbPoint
 10
87.65432245819997
 20
150.1846770454
 30
0.0
  0
POINT
  5
3552
330
354A
100
AcDbEntity
  8
Defpoints
 62
     0
100
AcDbPoint
 10
135.4043224581999
 20
42.1846770454
 30
0.0
  0
POINT
  5
3553
330
354A
100
AcDbEntity
  8
Defpoints
 62
     0
100
AcDbPoint
 10
57.79847534179998
 20
42.18467704540002
 30
0.0
  0
ENDBLK
  5
3555
330
354A
100
AcDbEntity
  8
0
100
AcDbBlockEnd
  0
BLOCK
  5
3561
330
3557
100
AcDbEntity
  8
0
100
AcDbBlockBegin
  2
*D4
 70
     1
 10
0.0
 20
0.0
 30
0.0
  3
*D4
  1

  0
LINE
  5
3558
330
3557
100
AcDbEntity
  8
0
 62
     0
370
    -2
100
AcDbLine
 10
66.52472731540001
 20
150.1846770454
 30
0.0
 11
65.52472731539999
 21
150.1846770454
 31
0.0
  0
LINE
  5
3559
330
3557
100
AcDbEntity
  8
0
 62
     0
370
    -2
100
AcDbLine
 10
80.24966659870001
 20
89.68467704540001
 30
0.0
 11
65.52472731539999
 21
89.68467704540001
 31
0.0
  0
LINE
  5
355A
330
3557
100
AcDbEntity
  8
0
 62
     0
370
    -2
100
AcDbLine
 10
66.5247273154
 20
148.1846770454
 30
0.0
 11
66.52472731539998
 21
91.68467704540001
 31
0.0
  0
INSERT
  5
355B
330
3557
100
AcDbEntity
  8
0
 62
     0
370
    -2
100
AcDbBlockReference
  2
_OPEN
 10
66.5247273154
 20
150.1846770454
 30
0.0
 41
2.0
 42
2.0
 43
2.0
 50
90.0
  0
INSERT
  5
355C
330
3557
100
AcDbEntity
  8
0
 62
     0
370
    -2
100
AcDbBlockReference
  2
_OPEN
 10
66.52472731539998
 20
89.68467704540001
 30
0.0
 41
2.0
 42
2.0
 43
2.0
 50
270.0
  0
MTEXT
  5
355D
330
3557
100
AcDbEntity
  8
0
 62
     0
100
AcDbMText
 10
63.77472731539998
 20
119.9346770454
 30
0.0
 40
3.5
 41
0.0
 71
     5
 72
     1
  1
\A1;60.5
 11
0.0000000000000001
 21
1.0
 31
0.0
 73
     1
 44
1.0
  0
POINT
  5
355E
330
3557
100
AcDbEntity
  8
Defpoints
 62
     0
100
AcDbPoint
 10
66.52472731540001
 20
150.1846770454
 30
0.0
  0
POINT
  5
355F
330
3557
100
AcDbEntity
  8
Defpoints
 62
     0
100
AcDbPoint
 10
80.24966659870001
 20
89.68467704540001
 30
0.0
  0
POINT
  5
3560
330
3557
100
AcDbEntity
  8
Defpoints
 62
     0
100
AcDbPoint
 10
66.52472731539998
 20
89.68467704540001
 30
0.0
  0
ENDBLK
  5
3562
330
3557
100
AcDbEntity
  8
0
100
AcDbBlockEnd
  0
BLOCK
  5
3579
330
356F
100
AcDbEntity
  8
0
100
AcDbBlockBegin
  2
*D5
 70
     1
 10
0.0
 20
0.0
 30
0.0
  3
*D5
  1

  0
LINE
  5
3570
330
356F
100
AcDbEntity
  8
0
 62
     0
370
    -2
100
AcDbLine
 10
114.8831138586
 20
255.1446978658
 30
0.0
 11
114.8831138586
 21
269.1946686722
 31
0.0
  0
LINE
  5
3571
330
356F
100
AcDbEntity
  8
0
 62
     0
370
    -2
100
AcDbLine
 10
135.4043224581999
 20
255.1884737928999
 30
0.0
 11
135.4043224581999
 21
269.1946686722
 31
0.0
  0
LINE
  5
3572
330
356F
100
AcDbEntity
  8
0
 62
     0
370
    -2
100
AcDbLine
 10
116.8831138586
 20
268.1946686722
 30
0.0
 11
133.4043224581999
 21
268.1946686722
 31
0.0
  0
INSERT
  5
3573
330
356F
100
AcDbEntity
  8
0
 62
     0
370
    -2
100
AcDbBlockReference
  2
_OPEN
 10
114.8831138586
 20
268.1946686722
 30
0.0
 41
2.0
 42
2.0
 43
2.0
 50
180.0
  0
INSERT
  5
3574
330
356F
100
AcDbEntity
  8
0
 62
     0
370
    -2
100
AcDbBlockReference
  2
_OPEN
 10
135.4043224581999
 20
268.1946686722
 30
0.0
 41
2.0
 42
2.0
 43
2.0
  0
MTEXT
  5
3575
330
356F
100
AcDbEntity
  8
0
 62
     0
100
AcDbMText
 10
125.1437181584
 20
270.9446686721999
 30
0.0
 40
3.5
 41
0.0
 71
     5
 72
     1
  1
\A1;20.5
 73
     1
 44
1.0
  0
POINT
  5
3576
330
356F
100
AcDbEntity
  8
Defpoints
 62
     0
100
AcDbPoint
 10
114.8831138586
 20
255.1446978658
 30
0.0
  0
POINT
  5
3577
330
356F
100
AcDbEntity
  8
Defpoints
 62
     0
100
AcDbPoint
 10
135.4043224581999
 20
255.1884737928999
 30
0.0
  0
POINT
  5
3578
330
356F
100
AcDbEntity
  8
Defpoints
 62
     0
100
AcDbPoint
 10
135.4043224581999
 20
268.1946686722
 30
0.0
  0
ENDBLK
  5
357A
330
356F
100
AcDbEntity
  8
0
100
AcDbBlockEnd
  0
BLOCK
  5
3586
330
357C
100
AcDbEntity
  8
0
100
AcDbBlockBegin
  2
*D6
 70
     1
 10
0.0
 20
0.0
 30
0.0
  3
*D6
  1

  0
LINE
  5
357D
330
357C
100
AcDbEntity
  8
0
 62
     0
370
    -2
100
AcDbLine
 10
101.8831138586
 20
242.1446978658
 30
0.0
 11
67.31327439479997
 21
242.1446978658
 31
0.0
  0
LINE
  5
357E
330
357C
100
AcDbEntity
  8
0
 62
     0
370
    -2
100
AcDbLine
 10
93.65432245820001
 20
217.6884737928999
 30
0.0
 11
67.31327439479996
 21
217.6884737928999
 31
0.0
  0
LINE
  5
357F
330
357C
100
AcDbEntity
  8
0
 62
     0
370
    -2
100
AcDbLine
 10
68.31327439479998
 20
240.1446978658
 30
0.0
 11
68.31327439479996
 21
219.6884737928999
 31
0.0
  0
INSERT
  5
3580
330
357C
100
AcDbEntity
  8
0
 62
     0
370
    -2
100
AcDbBlockReference
  2
_OPEN
 10
68.31327439479998
 20
242.1446978658
 30
0.0
 41
2.0
 42
2.0
 43
2.0
 50
90.0
  0
INSERT
  5
3581
330
357C
100
AcDbEntity
  8
0
 62
     0
370
    -2
100
AcDbBlockReference
  2
_OPEN
 10
68.31327439479996
 20
217.6884737928999
 30
0.0
 41
2.0
 42
2.0
 43
2.0
 50
270.0
  0
MTEXT
  5
3582
330
357C
100
AcDbEntity
  8
0
 62
     0
100
AcDbMText
 10
65.56327439479993
 20
229.91658582935
 30
0.0
 40
3.5
 41
0.0
 71
     5
 72
     1
  1
\A1;24.5
 11
0.0000000000000001
 21
1.0
 31
0.0
 73
     1
 44
1.0
  0
POINT
  5
3583
330
357C
100
AcDbEntity
  8
Defpoints
 62
     0
100
AcDbPoint
 10
101.8831138586
 20
242.1446978658
 30
0.0
  0
POINT
  5
3584
330
357C
100
AcDbEntity
  8
Defpoints
 62
     0
100
AcDbPoint
 10
93.65432245820001
 20
217.6884737928999
 30
0.0
  0
POINT
  5
3585
330
357C
100
AcDbEntity
  8
Defpoints
 62
     0
100
AcDbPoint
 10
68.31327439479996
 20
217.6884737928999
 30
0.0
  0
ENDBLK
  5
3587
330
357C
100
AcDbEntity
  8
0
100
AcDbBlockEnd
  0
BLOCK
  5
3593
330
3589
100
AcDbEntity
  8
0
100
AcDbBlockBegin
  2
*D7
 70
     1
 10
0.0
 20
0.0
 30
0.0
  3
*D7
  1

  0
LINE
  5
359E
330
3589
100
AcDbEntity
  8
0
 62
     0
370
    -2
100
AcDbLine
 10
93.65432245820001
 20
217.6884737928999
 30
0.0
 11
93.65432245820001
 21
205.2481428033
 31
0.0
  0
LINE
  5
359F
330
3589
100
AcDbEntity
  8
0
 62
     0
370
    -2
100
AcDbLine
 10
177.1543224581999
 20
217.6884737928999
 30
0.0
 11
177.1543224581999
 21
205.2481428033
 31
0.0
  0
LINE
  5
35A0
330
3589
100
AcDbEntity
  8
0
 62
     0
370
    -2
100
AcDbLine
 10
95.6543224582
 20
206.2481428033
 30
0.0
 11
175.1543224581999
 21
206.2481428033
 31
0.0
  0
MTEXT
  5
35A1
330
3589
100
AcDbEntity
  8
0
 62
     0
100
AcDbMText
 10
142.3053249847949
 20
209.0708139280135
 30
0.0
 40
3.5
 41
0.0
 71
     5
 72
     1
  1
\A1;83.5
 73
     1
 44
1.0
  0
INSERT
  5
35A2
330
3589
100
AcDbEntity
  8
0
 62
     0
370
    -2
100
AcDbBlockReference
  2
_OPEN
 10
93.65432245820001
 20
206.2481428033
 30
0.0
 41
2.0
 42
2.0
 43
2.0
 50
180.0
  0
INSERT
  5
35A3
330
3589
100
AcDbEntity
  8
0
 62
     0
370
    -2
100
AcDbBlockReference
  2
_OPEN
 10
177.1543224581999
 20
206.2481428033
 30
0.0
 41
2.0
 42
2.0
 43
2.0
  0
POINT
  5
35A4
330
3589
100
AcDbEntity
  8
Defpoints
 62
     0
100
AcDbPoint
 10
93.65432245820001
 20
217.6884737928999
 30
0.0
  0
POINT
  5
35A5
330
3589
100
AcDbEntity
  8
Defpoints
 62
     0
100
AcDbPoint
 10
177.1543224581999
 20
217.6884737928999
 30
0.0
  0
POINT
  5
35A6
330
3589
100
AcDbEntity
  8
Defpoints
 62
     0
100
AcDbPoint
 10
177.1543224581999
 20
206.2481428033
 30
0.0
  0
ENDBLK
  5
3594
330
3589
100
AcDbEntity
  8
0
100
AcDbBlockEnd
  0
BLOCK
  5
35B2
330
35A8
100
AcDbEntity
  8
0
100
AcDbBlockBegin
  2
*D8
 70
     1
 10
0.0
 20
0.0
 30
0.0
  3
*D8
  1

  0
LINE
  5
35A9
330
35A8
100
AcDbEntity
  8
0
 62
     0
370
    -2
100
AcDbLine
 10
143.4043224582
 20
247.6884737929
 30
0.0
 11
216.1789928488
 21
247.6884737928999
 31
0.0
  0
LINE
  5
35AA
330
35A8
100
AcDbEntity
  8
0
 62
     0
370
    -2
100
AcDbLine
 10
143.4043224582
 20
187.6884737929
 30
0.0
 11
216.1789928488
 21
187.6884737928999
 31
0.0
  0
LINE
  5
35AB
330
35A8
100
AcDbEntity
  8
0
 62
     0
370
    -2
100
AcDbLine
 10
215.1789928488
 20
245.6884737928999
 30
0.0
 11
215.1789928487999
 21
189.6884737928999
 31
0.0
  0
INSERT
  5
35AC
330
35A8
100
AcDbEntity
  8
0
 62
     0
370
    -2
100
AcDbBlockReference
  2
_OPEN
 10
215.1789928488
 20
247.6884737928999
 30
0.0
 41
2.0
 42
2.0
 43
2.0
 50
90.0
  0
INSERT
  5
35AD
330
35A8
100
AcDbEntity
  8
0
 62
     0
370
    -2
100
AcDbBlockReference
  2
_OPEN
 10
215.1789928487999
 20
187.6884737928999
 30
0.0
 41
2.0
 42
2.0
 43
2.0
 50
270.0
  0
MTEXT
  5
35AE
330
35A8
100
AcDbEntity
  8
0
 62
     0
100
AcDbMText
 10
212.4289928487999
 20
217.6884737929
 30
0.0
 40
3.5
 41
0.0
 71
     5
 72
     1
  1
\A1;60.0
 11
0.0000000000000001
 21
1.0
 31
0.0
 73
     1
 44
1.0
  0
POINT
  5
35AF
330
35A8
100
AcDbEntity
  8
Defpoints
 62
     0
100
AcDbPoint
 10
143.4043224582
 20
247.6884737929
 30
0.0
  0
POINT
  5
35B0
330
35A8
100
AcDbEntity
  8
Defpoints
 62
     0
100
AcDbPoint
 10
143.4043224582
 20
187.6884737929
 30
0.0
  0
POINT
  5
35B1
330
35A8
100
AcDbEntity
  8
Defpoints
 62
     0
100
AcDbPoint
 10
215.1789928487999
 20
187.6884737928999
 30
0.0
  0
ENDBLK
  5
35B3
330
35A8
100
AcDbEntity
  8
0
100
AcDbBlockEnd
  0
BLOCK
  5
35BF
330
35B5
100
AcDbEntity
  8
0
100
AcDbBlockBegin
  2
*D9
 70
     1
 10
0.0
 20
0.0
 30
0.0
  3
*D9
  1

  0
LINE
  5
35B6
330
35B5
100
AcDbEntity
  8
0
 62
     0
370
    -2
100
AcDbLine
 10
135.4043224581999
 20
259.4384737929
 30
0.0
 11
223.1261471586
 21
259.4384737929
 31
0.0
  0
LINE
  5
35B7
330
35B5
100
AcDbEntity
  8
0
 62
     0
370
    -2
100
AcDbLine
 10
135.4043224581999
 20
175.9384737928999
 30
0.0
 11
223.1261471585999
 21
175.9384737928999
 31
0.0
  0
LINE
  5
35B8
330
35B5
100
AcDbEntity
  8
0
 62
     0
370
    -2
100
AcDbLine
 10
222.1261471586
 20
257.4384737929
 30
0.0
 11
222.1261471586
 21
177.9384737928999
 31
0.0
  0
INSERT
  5
35B9
330
35B5
100
AcDbEntity
  8
0
 62
     0
370
    -2
100
AcDbBlockReference
  2
_OPEN
 10
222.1261471586
 20
259.4384737929
 30
0.0
 41
2.0
 42
2.0
 43
2.0
 50
90.0
  0
INSERT
  5
35BA
330
35B5
100
AcDbEntity
  8
0
 62
     0
370
    -2
100
AcDbBlockReference
  2
_OPEN
 10
222.1261471586
 20
175.9384737928999
 30
0.0
 41
2.0
 42
2.0
 43
2.0
 50
270.0
  0
MTEXT
  5
35BB
330
35B5
100
AcDbEntity
  8
0
 62
     0
100
AcDbMText
 10
219.3761471585999
 20
217.6884737929
 30
0.0
 40
3.5
 41
0.0
 71
     5
 72
     1
  1
\A1;83.5
 11
0.0000000000000001
 21
1.0
 31
0.0
 73
     1
 44
1.0
  0
POINT
  5
35BC
330
35B5
100
AcDbEntity
  8
Defpoints
 62
     0
100
AcDbPoint
 10
135.4043224581999
 20
259.4384737929
 30
0.0
  0
POINT
  5
35BD
330
35B5
100
AcDbEntity
  8
Defpoints
 62
     0
100
AcDbPoint
 10
135.4043224581999
 20
175.9384737928999
 30
0.0
  0
POINT
  5
35BE
330
35B5
100
AcDbEntity
  8
Defpoints
 62
     0
100
AcDbPoint
 10
222.1261471586
 20
175.9384737928999
 30
0.0
  0
ENDBLK
  5
35C0
330
35B5
100
AcDbEntity
  8
0
100
AcDbBlockEnd
  0
BLOCK
  5
35D3
330
35C9
100
AcDbEntity
  8
0
100
AcDbBlockBegin
  2
*D10
 70
     1
 10
0.0
 20
0.0
 30
0.0
  3
*D10
  1

  0
LINE
  5
35CA
330
35C9
100
AcDbEntity
  8
0
 62
     0
370
    -2
100
AcDbLine
 10
114.8831138586
 20
255.1446978658
 30
0.0
 11
114.8831138586
 21
283.0
 31
0.0
  0
LINE
  5
35CB
330
35C9
100
AcDbEntity
  8
0
 62
     0
370
    -2
100
AcDbLine
 10
135.4043224581999
 20
255.1884737928999
 30
0.0
 11
135.4043224581999
 21
283.0
 31
0.0
  0
LINE
  5
35CC
330
35C9
100
AcDbEntity
  8
0
 62
     0
370
    -2
100
AcDbLine
 10
116.8831138586
 20
282.0
 30
0.0
 11
133.4043224581999
 21
282.0
 31
0.0
  0
INSERT
  5
35CD
330
35C9
100
AcDbEntity
  8
0
 62
     0
370
    -2
100
AcDbBlockReference
  2
_OPEN
 10
114.8831138586
 20
282.0
 30
0.0
 41
2.0
 42
2.0
 43
2.0
 50
180.0
  0
INSERT
  5
35CE
330
35C9
100
AcDbEntity
  8
0
 62
     0
370
    -2
100
AcDbBlockReference
  2
_OPEN
 10
135.4043224581999
 20
282.0
 30
0.0
 41
2.0
 42
2.0
 43
2.0
  0
MTEXT
  5
35CF
330
35C9
100
AcDbEntity
  8
0
 62
     0
100
AcDbMText
 10
125.1437181584
 20
284.75
 30
0.0
 40
3.5
 41
0.0
 71
     5
 72
     1
  1
\A1;20.5
 73
     1
 44
1.0
  0
POINT
  5
35D0
330
35C9
100
AcDbEntity
  8
Defpoints
 62
     0
100
AcDbPoint
 10
114.8831138586
 20
255.1446978658
 30
0.0
  0
POINT
  5
35D1
330
35C9
100
AcDbEntity
  8
Defpoints
 62
     0
100
AcDbPoint
 10
135.4043224581999
 20
255.1884737928999
 30
0.0
  0
POINT
  5
35D2
330
35C9
100
AcDbEntity
  8
Defpoints
 62
     0
100
AcDbPoint
 10
135.4043224581999
 20
282.0
 30
0.0
  0
ENDBLK
  5
35D4
330
35C9
100
AcDbEntity
  8
0
100
AcDbBlockEnd
  0
BLOCK
  5
35E0
330
35D6
100
AcDbEntity
  8
0
100
AcDbBlockBegin
  2
*D11
 70
     1
 10
0.0
 20
0.0
 30
0.0
  3
*D11
  1

  0
LINE
  5
35D7
330
35D6
100
AcDbEntity
  8
0
 62
     0
370
    -2
100
AcDbLine
 10
142.9043224581999
 20
247.6884737929
 30
0.0
 11
216.1789928488
 21
247.6884737928999
 31
0.0
  0
LINE
  5
35D8
330
35D6
100
AcDbEntity
  8
0
 62
     0
370
    -2
100
AcDbLine
 10
143.4043224582
 20
187.6884737929
 30
0.0
 11
216.1789928488
 21
187.6884737928999
 31
0.0
  0
LINE
  5
35D9
330
35D6
100
AcDbEntity
  8
0
 62
     0
370
    -2
100
AcDbLine
 10
215.1789928488
 20
245.6884737928999
 30
0.0
 11
215.1789928487999
 21
189.6884737928999
 31
0.0
  0
INSERT
  5
35DA
330
35D6
100
AcDbEntity
  8
0
 62
     0
370
    -2
100
AcDbBlockReference
  2
_OPEN
 10
215.1789928488
 20
247.6884737928999
 30
0.0
 41
2.0
 42
2.0
 43
2.0
 50
90.0
  0
INSERT
  5
35DB
330
35D6
100
AcDbEntity
  8
0
 62
     0
370
    -2
100
AcDbBlockReference
  2
_OPEN
 10
215.1789928487999
 20
187.6884737928999
 30
0.0
 41
2.0
 42
2.0
 43
2.0
 50
270.0
  0
MTEXT
  5
35DC
330
35D6
100
AcDbEntity
  8
0
 62
     0
100
AcDbMText
 10
212.4289928487999
 20
217.6884737929
 30
0.0
 40
3.5
 41
0.0
 71
     5
 72
     1
  1
\A1;60
 11
0.0000000000000001
 21
1.0
 31
0.0
 73
     1
 44
1.0
  0
POINT
  5
35DD
330
35D6
100
AcDbEntity
  8
Defpoints
 62
     0
100
AcDbPoint
 10
142.9043224581999
 20
247.6884737929
 30
0.0
  0
POINT
  5
35DE
330
35D6
100
AcDbEntity
  8
Defpoints
 62
     0
100
AcDbPoint
 10
143.4043224582
 20
187.6884737929
 30
0.0
  0
POINT
  5
35DF
330
35D6
100
AcDbEntity
  8
Defpoints
 62
     0
100
AcDbPoint
 10
215.1789928487999
 20
187.6884737928999
 30
0.0
  0
ENDBLK
  5
35E1
330
35D6
100
AcDbEntity
  8
0
100
AcDbBlockEnd
  0
BLOCK
  5
35ED
330
35E3
100
AcDbEntity
  8
0
100
AcDbBlockBegin
  2
*D12
 70
     1
 10
0.0
 20
0.0
 30
0.0
  3
*D12
  1

  0
LINE
  5
35F8
330
35E3
100
AcDbEntity
  8
0
 62
     0
370
    -2
100
AcDbLine
 10
93.65432245820001
 20
217.6884737928999
 30
0.0
 11
93.65432245820001
 21
205.2481428033
 31
0.0
  0
LINE
  5
35F9
330
35E3
100
AcDbEntity
  8
0
 62
     0
370
    -2
100
AcDbLine
 10
177.1543224581999
 20
217.6884737928999
 30
0.0
 11
177.1543224581999
 21
205.2481428033
 31
0.0
  0
LINE
  5
35FA
330
35E3
100
AcDbEntity
  8
0
 62
     0
370
    -2
100
AcDbLine
 10
95.6543224582
 20
206.2481428033
 30
0.0
 11
175.1543224581999
 21
206.2481428033
 31
0.0
  0
MTEXT
  5
35FB
330
35E3
100
AcDbEntity
  8
0
 62
     0
100
AcDbMText
 10
141.0695194674073
 20
209.1681827485197
 30
0.0
 40
3.5
 41
0.0
 71
     5
 72
     1
  1
\A1;84
 73
     1
 44
1.0
  0
INSERT
  5
35FC
330
35E3
100
AcDbEntity
  8
0
 62
     0
370
    -2
100
AcDbBlockReference
  2
_OPEN
 10
93.65432245820001
 20
206.2481428033
 30
0.0
 41
2.0
 42
2.0
 43
2.0
 50
180.0
  0
INSERT
  5
35FD
330
35E3
100
AcDbEntity
  8
0
 62
     0
370
    -2
100
AcDbBlockReference
  2
_OPEN
 10
177.1543224581999
 20
206.2481428033
 30
0.0
 41
2.0
 42
2.0
 43
2.0
  0
POINT
  5
35FE
330
35E3
100
AcDbEntity
  8
Defpoints
 62
     0
100
AcDbPoint
 10
93.65432245820001
 20
217.6884737928999
 30
0.0
  0
POINT
  5
35FF
330
35E3
100
AcDbEntity
  8
Defpoints
 62
     0
100
AcDbPoint
 10
177.1543224581999
 20
217.6884737928999
 30
0.0
  0
POINT
  5
3600
330
35E3
100
AcDbEntity
  8
Defpoints
 62
     0
100
AcDbPoint
 10
177.1543224581999
 20
206.2481428033
 30
0.0
  0
ENDBLK
  5
35EE
330
35E3
100
AcDbEntity
  8
0
100
AcDbBlockEnd
  0
ENDSEC
  0
SECTION
  2
ENTITIES
  0
LINE
  5
1512
330
74
100
AcDbEntity
  8
2_ALL_NOTES
  6
Continuous
100
AcDbLine
 10
80.43155582729999
 20
182.0759720418
 30
0.0
 11
65.37439188020001
 21
165.95307096
 31
0.0
  0
LINE
  5
1513
330
74
100
AcDbEntity
  8
2_ALL_NOTES
  6
Continuous
100
AcDbLine
 10
65.37439188020001
 20
165.95307096
 30
0.0
 11
63.3743918802
 21
165.95307096
 31
0.0
  0
LINE
  5
1519
330
74
100
AcDbEntity
  8
2_ALL_NOTES
  6
Continuous
100
AcDbLine
 10
79.22583147819999
 20
147.2846770453999
 30
0.0
 11
65.37439188020001
 21
165.95307096
 31
0.0
  0
LINE
  5
151A
330
74
100
AcDbEntity
  8
2_ALL_NOTES
  6
Continuous
100
AcDbLine
 10
65.37439188020001
 20
165.95307096
 30
0.0
 11
63.3743918802
 21
165.95307096
 31
0.0
  0
LINE
  5
1520
330
74
100
AcDbEntity
  8
2_ALL_NOTES
  6
Continuous
100
AcDbLine
 10
135.5043224581999
 20
146.6364391557999
 30
0.0
 11
198.3580590158
 21
86.8071377434
 31
0.0
  0
LINE
  5
1521
330
74
100
AcDbEntity
  8
2_ALL_NOTES
  6
Continuous
100
AcDbLine
 10
198.3580590158
 20
86.8071377434
 30
0.0
 11
200.3580590158
 21
86.8071377434
 31
0.0
  0
LINE
  5
1527
330
74
100
AcDbEntity
  8
2_ALL_NOTES
  6
Continuous
100
AcDbLine
 10
106.0313352874999
 20
246.7965170227999
 30
0.0
 11
81.43690253549998
 21
259.5996952159
 31
0.0
  0
LINE
  5
1528
330
74
100
AcDbEntity
  8
2_ALL_NOTES
  6
Continuous
100
AcDbLine
 10
81.43690253549998
 20
259.5996952159
 30
0.0
 11
79.43690253549998
 21
259.5996952159
 31
0.0
  0
LINE
  5
17A6
330
74
100
AcDbEntity
  8
0
  6
Continuous
100
AcDbLine
 10
78.33748362919997
 20
147.2846770453999
 30
0.0
 11
78.3571610873
 21
147.4235680584
 31
0.0
  0
LINE
  5
17C0
330
74
100
AcDbEntity
  8
0
  6
Continuous
100
AcDbLine
 10
78.5467926075
 20
93.4900173007
 30
0.0
 11
78.5612941774
 21
93.33399179629999
 31
0.0
  0
LINE
  5
17CA
330
74
100
AcDbEntity
  8
0
  6
Continuous
100
AcDbLine
 10
78.6112464149
 20
93.19192863919999
 30
0.0
 11
78.6217702189
 21
93.07255088499999
 31
0.0
  0
LINE
  5
17CB
330
74
100
AcDbEntity
  8
0
  6
Continuous
100
AcDbLine
 10
78.5789572539
 20
93.55777972410001
 30
0.0
 11
78.6112464149
 21
93.19192863919999
 31
0.0
  0
LINE
  5
17D8
330
74
100
AcDbEntity
  8
0
  6
Continuous
100
AcDbLine
 10
77.53591196550001
 20
104.4364725759
 30
0.0
 11
77.5478293805
 21
104.2235659706999
 31
0.0
  0
LINE
  5
17E4
330
74
100
AcDbEntity
  8
0
  6
Continuous
100
AcDbLine
 10
76.8272049451
 20
119.0007471693
 30
0.0
 11
77.5866881793
 21
104.41926923
 31
0.0
  0
LINE
  5
17E5
330
74
100
AcDbEntity
  8
0
  6
Continuous
100
AcDbLine
 10
78.3374831527
 20
146.1846770454
 30
0.0
 11
78.3374831527
 21
147.2846770453999
 31
0.0
  0
LINE
  5
17E6
330
74
100
AcDbEntity
  8
0
  6
Continuous
100
AcDbLine
 10
78.4181478687
 20
146.1846770454
 30
0.0
 11
78.4181478687
 21
147.2846770453999
 31
0.0
  0
LINE
  5
1807
330
74
100
AcDbEntity
  8
0
  6
Continuous
100
AcDbLine
 10
77.67918980739999
 20
103.3577221687999
 30
0.0
 11
77.72733402109999
 21
102.9960318297999
 31
0.0
  0
LINE
  5
1808
330
74
100
AcDbEntity
  8
0
  6
Continuous
100
AcDbLine
 10
79.8040151932
 20
149.6846770454
 30
0.0
 11
79.9150517082
 21
147.7846770454
 31
0.0
  0
LINE
  5
1809
330
74
100
AcDbEntity
  8
0
  6
Continuous
100
AcDbLine
 10
81.1514426667
 20
149.6846770454
 30
0.0
 11
81.2624889117
 21
147.7846770454
 31
0.0
  0
LINE
  5
180A
330
74
100
AcDbEntity
  8
0
  6
Continuous
100
AcDbLine
 10
81.6859820788
 20
147.2846770453999
 30
0.0
 11
81.6859820788
 21
146.1846770454
 31
0.0
  0
LINE
  5
180B
330
74
100
AcDbEntity
  8
0
  6
Continuous
100
AcDbLine
 10
82.3776368803
 20
147.2846770453999
 30
0.0
 11
82.3776368803
 21
146.1846770454
 31
0.0
  0
LINE
  5
180C
330
74
100
AcDbEntity
  8
0
  6
Continuous
100
AcDbLine
 10
84.4063638553
 20
147.6846770454
 30
0.0
 11
84.4063638553
 21
149.6846770454
 31
0.0
  0
LINE
  5
180D
330
74
100
AcDbEntity
  8
0
  6
Continuous
100
AcDbLine
 10
78.6217702189
 20
93.07255088499999
 30
0.0
 11
79.78205335609999
 21
90.00765203209999
 31
0.0
  0
LINE
  5
180E
330
74
100
AcDbEntity
  8
0
  6
Continuous
100
AcDbLine
 10
78.33748362919997
 20
146.1846770454
 30
0.0
 11
78.3571610874
 21
146.0457860322
 31
0.0
  0
LINE
  5
180F
330
74
100
AcDbEntity
  8
0
  6
Continuous
100
AcDbLine
 10
84.06810593899999
 20
145.6846770453999
 30
0.0
 11
83.95122456680001
 21
147.6846770454
 31
0.0
  0
LINE
  5
1810
330
74
100
AcDbEntity
  8
0
  6
Continuous
100
AcDbLine
 10
87.65432245819997
 20
149.6846770454
 30
0.0
 11
87.65432245819997
 21
150.1846770454
 31
0.0
  0
LINE
  5
1811
330
74
100
AcDbEntity
  8
0
  6
Continuous
100
AcDbLine
 10
87.7437212258
 20
149.6846770454
 30
0.0
 11
87.7437212258
 21
150.1846770454
 31
0.0
  0
LINE
  5
1812
330
74
100
AcDbEntity
  8
0
  6
Continuous
100
AcDbLine
 10
89.7342161407
 20
149.6846770454
 30
0.0
 11
89.7342161407
 21
150.1846770454
 31
0.0
  0
LINE
  5
1813
330
74
100
AcDbEntity
  8
0
  6
Continuous
100
AcDbLine
 10
90.3973932405
 20
147.6846770454
 30
0.0
 11
90.3973932405
 21
149.6846770454
 31
0.0
  0
LINE
  5
181A
330
74
100
AcDbEntity
  8
0
  6
Continuous
100
AcDbLine
 10
92.5799636512
 20
149.6846770454
 30
0.0
 11
92.6730600834
 21
147.6846770454
 31
0.0
  0
LINE
  5
1829
330
74
100
AcDbEntity
  8
0
  6
Continuous
100
AcDbLine
 10
101.0769192106
 20
149.6846770454
 30
0.0
 11
101.0769192106
 21
150.1846770454
 31
0.0
  0
LINE
  5
182F
330
74
100
AcDbEntity
  8
0
  6
Continuous
100
AcDbLine
 10
78.3571610874
 20
146.0457860322
 30
0.0
 11
78.45316347419998
 21
145.8648358587
 31
0.0
  0
LINE
  5
183C
330
74
100
AcDbEntity
  8
0
  6
Continuous
100
AcDbLine
 10
118.5986273252
 20
149.6846770454
 30
0.0
 11
118.5986273252
 21
150.1846770454
 31
0.0
  0
LINE
  5
184A
330
74
100
AcDbEntity
  8
0
  6
Continuous
100
AcDbLine
 10
126.1515415957999
 20
149.6846770454
 30
0.0
 11
126.1515415957999
 21
150.1846770454
 31
0.0
  0
LINE
  5
184B
330
74
100
AcDbEntity
  8
0
  6
Continuous
100
AcDbLine
 10
129.4043224581999
 20
149.6846770454
 30
0.0
 11
129.4043224581999
 21
150.1846770454
 31
0.0
  0
LINE
  5
1860
330
74
100
AcDbEntity
  8
0
  6
Continuous
100
AcDbLine
 10
80.24966659870001
 20
89.68467704540001
 30
0.0
 11
190.5589783176999
 21
89.68467704540001
 31
0.0
  0
LINE
  5
1861
330
74
100
AcDbEntity
  8
0
  6
Continuous
100
AcDbLine
 10
79.78205335609999
 20
90.00765203209999
 30
0.0
 11
191.0265915602999
 21
90.00765203209999
 31
0.0
  0
LINE
  5
1869
330
74
100
AcDbEntity
  8
0
  6
Continuous
100
AcDbLine
 10
135.1043224581999
 20
148.3066333026999
 30
0.0
 11
135.1043224581999
 21
149.6846770454
 31
0.0
  0
LINE
  5
186A
330
74
100
AcDbEntity
  8
0
  6
Continuous
100
AcDbLine
 10
135.3043224582
 20
145.4848720619
 30
0.0
 11
135.3043224582
 21
149.6846770454
 31
0.0
  0
LINE
  5
186B
330
74
100
AcDbEntity
  8
0
  6
Continuous
100
AcDbLine
 10
135.4043224581999
 20
149.6846770454
 30
0.0
 11
135.4043224581999
 21
150.1846770454
 31
0.0
  0
LINE
  5
186C
330
74
100
AcDbEntity
  8
0
  6
Continuous
100
AcDbLine
 10
135.5043224581999
 20
149.6846770454
 30
0.0
 11
135.5043224581999
 21
145.4848720619
 31
0.0
  0
LINE
  5
186D
330
74
100
AcDbEntity
  8
0
  6
Continuous
100
AcDbLine
 10
135.7043224582
 20
149.6846770454
 30
0.0
 11
135.7043224582
 21
148.3066333026999
 31
0.0
  0
LINE
  5
1902
330
74
100
AcDbEntity
  8
0
  6
Continuous
100
AcDbLine
 10
153.7992163587999
 20
102.9960352429
 30
0.0
 11
193.0813082568999
 21
102.9960320778
 31
0.0
  0
LINE
  5
1903
330
74
100
AcDbEntity
  8
0
  6
Continuous
100
AcDbLine
 10
77.7273366764
 20
102.9960318296999
 30
0.0
 11
117.009428239
 21
102.9960355462999
 31
0.0
  0
LINE
  5
1904
330
74
100
AcDbEntity
  8
0
  6
Continuous
100
AcDbLine
 10
77.5866881793
 20
104.41926923
 30
0.0
 11
116.4312418196999
 21
104.4192692295999
 31
0.0
  0
LINE
  5
1905
330
74
100
AcDbEntity
  8
0
  6
Continuous
100
AcDbLine
 10
154.3774030967
 20
104.41926923
 30
0.0
 11
193.2219567370999
 21
104.4192692295999
 31
0.0
  0
LINE
  5
190C
330
74
100
AcDbEntity
  8
0
  6
Continuous
100
AcDbLine
 10
147.7629318618
 20
149.6846770454
 30
0.0
 11
147.7629318618
 21
150.1846770454
 31
0.0
  0
LINE
  5
190D
330
74
100
AcDbEntity
  8
0
  6
Continuous
100
AcDbLine
 10
152.2100175912
 20
149.6846770454
 30
0.0
 11
152.2100175912
 21
150.1846770454
 31
0.0
  0
LINE
  5
193B
330
74
100
AcDbEntity
  8
0
  6
Continuous
100
AcDbLine
 10
169.7317257057999
 20
149.6846770454
 30
0.0
 11
169.7317257057999
 21
150.1846770454
 31
0.0
  0
LINE
  5
193C
330
74
100
AcDbEntity
  8
0
  6
Continuous
100
AcDbLine
 10
169.936170748
 20
149.6846770454
 30
0.0
 11
169.936170748
 21
150.1846770454
 31
0.0
  0
LINE
  5
193D
330
74
100
AcDbEntity
  8
0
  6
Continuous
100
AcDbLine
 10
171.1543224581999
 20
149.6846770454
 30
0.0
 11
171.1543224581999
 21
150.1846770454
 31
0.0
  0
LINE
  5
196A
330
74
100
AcDbEntity
  8
0
  6
Continuous
100
AcDbLine
 10
183.1543224582
 20
149.6846770454
 30
0.0
 11
183.1543224582
 21
150.1846770454
 31
0.0
  0
LINE
  5
1988
330
74
100
AcDbEntity
  8
0
  6
Continuous
100
AcDbLine
 10
78.8374831527
 20
145.6846770453999
 30
0.0
 11
84.06810593899999
 21
145.6846770453999
 31
0.0
  0
LINE
  5
19BC
330
74
100
AcDbEntity
  8
0
  6
Continuous
100
AcDbLine
 10
192.1868746974999
 20
93.07255088499999
 30
0.0
 11
191.0265915602999
 21
90.00765203209999
 31
0.0
  0
LINE
  5
19BE
330
74
100
AcDbEntity
  8
0
  6
Continuous
100
AcDbLine
 10
78.33748316339998
 20
146.1846770454
 30
0.0
 11
84.0388855421
 21
146.1846770454
 31
0.0
  0
LINE
  5
19BF
330
74
100
AcDbEntity
  8
0
  6
Continuous
100
AcDbLine
 10
78.33748316339998
 20
147.2846770453999
 30
0.0
 11
83.9746007982
 21
147.2846770453999
 31
0.0
  0
LINE
  5
19C0
330
74
100
AcDbEntity
  8
0
  6
Continuous
100
AcDbLine
 10
92.6730600834
 20
147.6846770454
 30
0.0
 11
83.95122456680001
 21
147.6846770454
 31
0.0
  0
LINE
  5
19C1
330
74
100
AcDbEntity
  8
0
  6
Continuous
100
AcDbLine
 10
78.8374831527
 20
147.7846770454
 30
0.0
 11
83.36332321470001
 21
147.7846770454
 31
0.0
  0
LINE
  5
19C2
330
74
100
AcDbEntity
  8
0
  6
Continuous
100
AcDbLine
 10
75.1649045523
 20
149.6846770454
 30
0.0
 11
195.6437389300999
 21
149.6846770454
 31
0.0
  0
LINE
  5
19C3
330
74
100
AcDbEntity
  8
0
  6
Continuous
100
AcDbLine
 10
87.65432245819997
 20
150.1846770454
 30
0.0
 11
101.0768913377
 21
150.1846770454
 31
0.0
  0
LINE
  5
19C4
330
74
100
AcDbEntity
  8
0
  6
Continuous
100
AcDbLine
 10
118.5986273252
 20
150.1846770454
 30
0.0
 11
152.2100175912
 21
150.1846770454
 31
0.0
  0
LINE
  5
19C5
330
74
100
AcDbEntity
  8
0
  6
Continuous
100
AcDbLine
 10
169.7317257057999
 20
150.1846770454
 30
0.0
 11
183.1543224582
 21
150.1846770454
 31
0.0
  0
LINE
  5
19D3
330
74
100
AcDbEntity
  8
0
  6
Continuous
100
AcDbLine
 10
193.2601033973
 20
104.2116815543999
 30
0.0
 11
193.2727329327999
 21
104.4364723538999
 31
0.0
  0
LINE
  5
19ED
330
74
100
AcDbEntity
  8
0
  6
Continuous
100
AcDbLine
 10
192.9779670515999
 20
101.0880286317
 30
0.0
 11
193.1856965707
 21
103.2542386742999
 31
0.0
  0
LINE
  5
19FC
330
74
100
AcDbEntity
  8
0
  6
Continuous
100
AcDbLine
 10
193.0813109382
 20
102.9960320779
 30
0.0
 11
193.1294551913
 21
103.357722871
 31
0.0
  0
LINE
  5
1A45
330
74
100
AcDbEntity
  8
0
  6
Continuous
100
AcDbLine
 10
248.9324137197999
 20
93.48707737179999
 30
0.0
 11
248.9466300861
 21
93.33412028049998
 31
0.0
  0
LINE
  5
1A4E
330
74
100
AcDbEntity
  8
0
  6
Continuous
100
AcDbLine
 10
248.9296540122
 20
93.949703611
 30
0.0
 11
248.9837596266
 21
93.33739525570001
 31
0.0
  0
LINE
  5
1A60
330
74
100
AcDbEntity
  8
0
  6
Continuous
100
AcDbLine
 10
247.9212595893
 20
104.4364725759
 30
0.0
 11
247.9331770042
 21
104.2235659706999
 31
0.0
  0
LINE
  5
1A6C
330
74
100
AcDbEntity
  8
0
  6
Continuous
100
AcDbLine
 10
247.2125500204
 20
119.0007960558
 30
0.0
 11
247.9720358029999
 21
104.41926923
 31
0.0
  0
LINE
  5
1A6D
330
74
100
AcDbEntity
  8
0
  6
Continuous
100
AcDbLine
 10
248.9943464656
 20
93.106286598
 30
0.0
 11
250.1674009800999
 21
90.00765203129999
 31
0.0
  0
LINE
  5
1A6E
330
74
100
AcDbEntity
  8
0
  6
Continuous
100
AcDbLine
 10
248.0645374310999
 20
103.3577221687999
 30
0.0
 11
248.1126810541999
 21
102.9960352429
 31
0.0
  0
LINE
  5
1A6F
330
74
100
AcDbEntity
  8
0
  6
Continuous
100
AcDbLine
 10
258.0396700819
 20
149.6846770454
 30
0.0
 11
258.0396700819
 21
150.1846770454
 31
0.0
  0
LINE
  5
1A70
330
74
100
AcDbEntity
  8
0
  6
Continuous
100
AcDbLine
 10
259.6667118766
 20
149.6846770454
 30
0.0
 11
259.6667118766
 21
150.1846770454
 31
0.0
  0
LINE
  5
1A77
330
74
100
AcDbEntity
  8
0
  6
Continuous
100
AcDbLine
 10
271.4622668344
 20
149.6846770454
 30
0.0
 11
271.4622668344
 21
150.1846770454
 31
0.0
  0
LINE
  5
1A78
330
74
100
AcDbEntity
  8
0
  6
Continuous
100
AcDbLine
 10
280.7896700819
 20
149.6846770454
 30
0.0
 11
280.7896700819
 21
150.1846770454
 31
0.0
  0
LINE
  5
1A85
330
74
100
AcDbEntity
  8
0
  6
Continuous
100
AcDbLine
 10
288.9839749488999
 20
149.6846770454
 30
0.0
 11
288.9839749488999
 21
150.1846770454
 31
0.0
  0
LINE
  5
1A93
330
74
100
AcDbEntity
  8
0
  6
Continuous
100
AcDbLine
 10
296.5368892194999
 20
149.6846770454
 30
0.0
 11
296.5368892194999
 21
150.1846770454
 31
0.0
  0
LINE
  5
1A94
330
74
100
AcDbEntity
  8
0
  6
Continuous
100
AcDbLine
 10
299.7896700819
 20
149.6846770454
 30
0.0
 11
299.7896700819
 21
150.1846770454
 31
0.0
  0
LINE
  5
1A95
330
74
100
AcDbEntity
  8
0
  6
Continuous
100
AcDbLine
 10
360.9443259414
 20
89.68467704540001
 30
0.0
 11
250.6350142336
 21
89.68467704540001
 31
0.0
  0
LINE
  5
1A96
330
74
100
AcDbEntity
  8
0
  6
Continuous
100
AcDbLine
 10
250.1674009800999
 20
90.00765203129999
 30
0.0
 11
361.4119391837999
 21
90.00765203129999
 31
0.0
  0
LINE
  5
1A9E
330
74
100
AcDbEntity
  8
0
  6
Continuous
100
AcDbLine
 10
305.7896700819
 20
149.6846770454
 30
0.0
 11
305.7896700819
 21
150.1846770454
 31
0.0
  0
LINE
  5
1ADD
330
74
100
AcDbEntity
  8
0
  6
Continuous
100
AcDbLine
 10
324.1845602791998
 20
102.9960318205999
 30
0.0
 11
363.4666560609999
 21
102.9960355450999
 31
0.0
  0
LINE
  5
1ADE
330
74
100
AcDbEntity
  8
0
  6
Continuous
100
AcDbLine
 10
248.1126841218
 20
102.9960352429
 30
0.0
 11
287.3947796184998
 21
102.9960320778
 31
0.0
  0
LINE
  5
1ADF
330
74
100
AcDbEntity
  8
0
  6
Continuous
100
AcDbLine
 10
247.9720358029999
 20
104.41926923
 30
0.0
 11
286.8165894435
 21
104.4192692295999
 31
0.0
  0
LINE
  5
1AE0
330
74
100
AcDbEntity
  8
0
  6
Continuous
100
AcDbLine
 10
324.7627507204
 20
104.41926923
 30
0.0
 11
363.6073043608999
 21
104.4192692295999
 31
0.0
  0
LINE
  5
1AE7
330
74
100
AcDbEntity
  8
0
  6
Continuous
100
AcDbLine
 10
318.1482794856
 20
149.6846770454
 30
0.0
 11
318.1482794856
 21
150.1846770454
 31
0.0
  0
LINE
  5
1AE8
330
74
100
AcDbEntity
  8
0
  6
Continuous
100
AcDbLine
 10
322.595365215
 20
149.6846770454
 30
0.0
 11
322.595365215
 21
150.1846770454
 31
0.0
  0
LINE
  5
1B09
330
74
100
AcDbEntity
  8
0
  6
Continuous
100
AcDbLine
 10
330.7896700819
 20
149.6846770454
 30
0.0
 11
330.7896700819
 21
150.1846770454
 31
0.0
  0
LINE
  5
1B0A
330
74
100
AcDbEntity
  8
0
  6
Continuous
100
AcDbLine
 10
340.7896700819
 20
149.6846770454
 30
0.0
 11
340.7896700819
 21
150.1846770454
 31
0.0
  0
LINE
  5
1B0B
330
74
100
AcDbEntity
  8
0
  6
Continuous
100
AcDbLine
 10
341.5396700819
 20
149.6846770454
 30
0.0
 11
341.5396700819
 21
150.1846770454
 31
0.0
  0
LINE
  5
1B12
330
74
100
AcDbEntity
  8
0
  6
Continuous
100
AcDbLine
 10
353.5396700819
 20
149.6846770454
 30
0.0
 11
353.5396700819
 21
150.1846770454
 31
0.0
  0
LINE
  5
1B13
330
74
100
AcDbEntity
  8
0
  6
Continuous
100
AcDbLine
 10
363.4666591619
 20
102.9960355452
 30
0.0
 11
363.514802815
 21
103.357722871
 31
0.0
  0
LINE
  5
1B14
330
74
100
AcDbEntity
  8
0
  6
Continuous
100
AcDbLine
 10
362.5849937196
 20
93.10628665440001
 30
0.0
 11
361.4119391837999
 21
90.00765203129999
 31
0.0
  0
LINE
  5
1B15
330
74
100
AcDbEntity
  8
0
  6
Continuous
100
AcDbLine
 10
245.5502526152999
 20
149.6846770454
 30
0.0
 11
366.0290865537999
 21
149.6846770454
 31
0.0
  0
LINE
  5
1B16
330
74
100
AcDbEntity
  8
0
  6
Continuous
100
AcDbLine
 10
258.0396700819
 20
150.1846770454
 30
0.0
 11
280.7896700819
 21
150.1846770454
 31
0.0
  0
LINE
  5
1B17
330
74
100
AcDbEntity
  8
0
  6
Continuous
100
AcDbLine
 10
288.9844710058
 20
150.1846770454
 30
0.0
 11
322.595365215
 21
150.1846770454
 31
0.0
  0
LINE
  5
1B18
330
74
100
AcDbEntity
  8
0
  6
Continuous
100
AcDbLine
 10
330.7896700819
 20
150.1846770454
 30
0.0
 11
353.5396700819
 21
150.1846770454
 31
0.0
  0
LINE
  5
1B25
330
74
100
AcDbEntity
  8
0
  6
Continuous
100
AcDbLine
 10
363.645451021
 20
104.2116815543999
 30
0.0
 11
363.6580805564999
 21
104.4364723538999
 31
0.0
  0
LINE
  5
1B26
330
74
100
AcDbEntity
  8
0
  6
Continuous
100
AcDbLine
 10
362.5752714851999
 20
93.1071441917
 30
0.0
 11
362.5992866406999
 21
93.37941337049999
 31
0.0
  0
LINE
  5
1B36
330
74
100
AcDbEntity
  8
0
  6
Continuous
100
AcDbLine
 10
362.5720428743
 20
93.07207687420001
 30
0.0
 11
362.5752714851999
 21
93.1071441917
 31
0.0
  0
LINE
  5
1B40
330
74
100
AcDbEntity
  8
0
  6
Continuous
100
AcDbLine
 10
363.3690984699
 20
101.148564197
 30
0.0
 11
363.5710441817999
 21
103.2542384944
 31
0.0
  0
LINE
  5
1C09
330
74
100
AcDbEntity
  8
0
  6
Continuous
100
AcDbLine
 10
78.4181478687
 20
184.2583091856999
 30
0.0
 11
81.6859820788
 21
179.226285778
 31
0.0
  0
LINE
  5
1C0A
330
74
100
AcDbEntity
  8
0
  6
Continuous
100
AcDbLine
 10
78.5651636352
 20
184.9499639872
 30
0.0
 11
82.3776368803
 21
179.0792700116
 31
0.0
  0
LINE
  5
1C0B
330
74
100
AcDbEntity
  8
0
  6
Continuous
100
AcDbLine
 10
79.8231694871
 20
185.7669225397
 30
0.0
 11
83.63564273219997
 21
179.8962285641
 31
0.0
  0
LINE
  5
1C28
330
74
100
AcDbEntity
  8
0
  6
Continuous
100
AcDbLine
 10
77.4043224582
 20
221.0884737929
 30
0.0
 11
77.4043224582
 21
214.2884737929
 31
0.0
  0
LINE
  5
1C42
330
74
100
AcDbEntity
  8
0
  6
Continuous
100
AcDbLine
 10
135.3043224582
 20
157.7884737929
 30
0.0
 11
135.5043224581999
 21
157.7884737929
 31
0.0
  0
LINE
  5
1C43
330
74
100
AcDbEntity
  8
0
  6
Continuous
100
AcDbLine
 10
132.0043224581999
 20
159.6884737929
 30
0.0
 11
138.8043224582
 21
159.6884737929
 31
0.0
  0
LINE
  5
1C5B
330
74
100
AcDbEntity
  8
0
  6
Continuous
100
AcDbLine
 10
79.4043224582
 20
212.6884737929
 30
0.0
 11
79.4043224582
 21
214.2884737929
 31
0.0
  0
LINE
  5
1C5C
330
74
100
AcDbEntity
  8
0
  6
Continuous
100
AcDbLine
 10
79.4043224582
 20
221.0884737929
 30
0.0
 11
79.4043224582
 21
222.6884737929
 31
0.0
  0
LINE
  5
1C5D
330
74
100
AcDbEntity
  8
0
  6
Continuous
100
AcDbLine
 10
79.9043224582
 20
212.6884737929
 30
0.0
 11
79.9043224582
 21
222.6884737929
 31
0.0
  0
LINE
  5
1C7F
330
74
100
AcDbEntity
  8
0
  6
Continuous
100
AcDbLine
 10
140.4043224581999
 20
161.6884737929
 30
0.0
 11
138.8043224582
 21
161.6884737929
 31
0.0
  0
LINE
  5
1C80
330
74
100
AcDbEntity
  8
0
  6
Continuous
100
AcDbLine
 10
132.0043224581999
 20
161.6884737929
 30
0.0
 11
130.4043224581999
 21
161.6884737929
 31
0.0
  0
LINE
  5
1C81
330
74
100
AcDbEntity
  8
0
  6
Continuous
100
AcDbLine
 10
130.4043224581999
 20
162.1884737929
 30
0.0
 11
140.4043224581999
 21
162.1884737929
 31
0.0
  0
LINE
  5
1CC1
330
74
100
AcDbEntity
  8
0
  6
Continuous
100
AcDbLine
 10
91.91780164369999
 20
193.6212684991
 30
0.0
 11
90.9311141524
 21
195.3652327359
 31
0.0
  0
LINE
  5
1CC2
330
74
100
AcDbEntity
  8
0
  6
Continuous
100
AcDbLine
 10
92.75803942450002
 20
194.1669252940999
 30
0.0
 11
91.7869411657
 21
195.8833356557
 31
0.0
  0
LINE
  5
1CC3
330
74
100
AcDbEntity
  8
0
  6
Continuous
100
AcDbLine
 10
94.01839609559999
 20
194.9854104863999
 30
0.0
 11
93.0924747096
 21
196.6219709958
 31
0.0
  0
LINE
  5
1CC4
330
74
100
AcDbEntity
  8
0
  6
Continuous
100
AcDbLine
 10
84.9307923223
 20
214.2719323225
 30
0.0
 11
86.80619264110001
 21
203.6360085899999
 31
0.0
  0
LINE
  5
1CC5
330
74
100
AcDbEntity
  8
0
  6
Continuous
100
AcDbLine
 10
88.12832303
 20
213.4141460013
 30
0.0
 11
89.51750845139999
 21
205.5356839772
 31
0.0
  0
LINE
  5
1CFA
330
74
100
AcDbEntity
  8
0
  6
Continuous
100
AcDbLine
 10
100.8210382848
 20
199.4030979779
 30
0.0
 11
104.6335115298999
 21
193.5324040022999
 31
0.0
  0
LINE
  5
1CFB
330
74
100
AcDbEntity
  8
0
  6
Continuous
100
AcDbLine
 10
101.880051345
 20
200.0908291005
 30
0.0
 11
105.6925245901
 21
194.2201351249
 31
0.0
  0
LINE
  5
1D04
330
74
100
AcDbEntity
  8
0
  6
Continuous
100
AcDbLine
 10
90.7811841999
 20
215.3035142582
 30
0.0
 11
91.19391276299998
 21
215.8170640079999
 31
0.0
  0
LINE
  5
1D05
330
74
100
AcDbEntity
  8
0
  6
Continuous
100
AcDbLine
 10
78.9565762018
 20
198.8865284574999
 30
0.0
 11
79.13816843810001
 21
199.1070276602
 31
0.0
  0
LINE
  5
1D10
330
74
100
AcDbEntity
  8
0
  6
Continuous
100
AcDbLine
 10
153.9857685908
 20
273.9546278129
 30
0.0
 11
154.2062677935
 21
274.1362200493
 31
0.0
  0
LINE
  5
1D11
330
74
100
AcDbEntity
  8
DEFAULT_1
  6
CENTER
100
AcDbLine
 10
135.4043224581999
 20
187.6884737929
 30
0.0
 11
127.9043224582
 21
187.6884737929
 31
0.0
  0
LINE
  5
1D12
330
74
100
AcDbEntity
  8
DEFAULT_1
  6
CENTER
100
AcDbLine
 10
135.4043224581999
 20
187.6884737929
 30
0.0
 11
142.9043224581999
 21
187.6884737929
 31
0.0
  0
LINE
  5
1D2C
330
74
100
AcDbEntity
  8
0
  6
Continuous
100
AcDbLine
 10
154.2062677935
 20
161.2407275365
 30
0.0
 11
153.9857685908
 21
161.4223197727999
 31
0.0
  0
LINE
  5
1D37
330
74
100
AcDbEntity
  8
0
  6
Continuous
100
AcDbLine
 10
79.13816843810001
 20
236.2699199255
 30
0.0
 11
78.9565762018
 21
236.4904191282
 31
0.0
  0
LINE
  5
1D38
330
74
100
AcDbEntity
  8
0
  6
Continuous
100
AcDbLine
 10
109.1895154184
 20
196.4911075220999
 30
0.0
 11
105.3770421732999
 21
202.3618014977
 31
0.0
  0
LINE
  5
1D39
330
74
100
AcDbEntity
  8
0
  6
Continuous
100
AcDbLine
 10
110.6005416620999
 20
197.407438679
 30
0.0
 11
106.788068417
 21
203.2781326545999
 31
0.0
  0
LINE
  5
1D3A
330
74
100
AcDbEntity
  8
0
  6
Continuous
100
AcDbLine
 10
114.9170612483
 20
197.8258926888
 30
0.0
 11
108.9260318630999
 21
207.0512689361999
 31
0.0
  0
LINE
  5
1D70
330
74
100
AcDbEntity
  8
DEFAULT_1
  6
CENTER
100
AcDbLine
 10
114.8831138586
 20
242.1446978658
 30
0.0
 11
114.8831138586
 21
229.6446978658
 31
0.0
  0
LINE
  5
1D71
330
74
100
AcDbEntity
  8
DEFAULT_1
  6
CENTER
100
AcDbLine
 10
114.8831138586
 20
242.1446978658
 30
0.0
 11
114.8831138586
 21
254.6446978658
 31
0.0
  0
LINE
  5
1D88
330
74
100
AcDbEntity
  8
0
  6
Continuous
100
AcDbLine
 10
147.5335955152
 20
266.8019213923999
 30
0.0
 11
146.0287068845999
 21
262.6672738609
 31
0.0
  0
LINE
  5
1D89
330
74
100
AcDbEntity
  8
0
  6
Continuous
100
AcDbLine
 10
86.80619264110001
 20
203.6360085899999
 30
0.0
 11
91.30465285499999
 21
204.4292084972999
 31
0.0
  0
LINE
  5
1D9B
330
74
100
AcDbEntity
  8
0
  6
Continuous
100
AcDbLine
 10
77.3715438278
 20
212.6884737929
 30
0.0
 11
79.9043224582
 21
212.6884737929
 31
0.0
  0
LINE
  5
1D9C
330
74
100
AcDbEntity
  8
0
  6
Continuous
100
AcDbLine
 10
190.9043224581999
 20
212.6884737929
 30
0.0
 11
193.4371010886
 21
212.6884737929
 31
0.0
  0
LINE
  5
1DB1
330
74
100
AcDbEntity
  8
0
  6
Continuous
100
AcDbLine
 10
160.77163375
 20
179.0559807614
 30
0.0
 11
163.5998992325999
 21
175.6853852116999
 31
0.0
  0
LINE
  5
1DB2
330
74
100
AcDbEntity
  8
0
  6
Continuous
100
AcDbLine
 10
129.9898856998
 20
273.9195494947999
 30
0.0
 11
130.0944677687
 21
272.8334231823999
 31
0.0
  0
LINE
  5
1DB3
330
74
100
AcDbEntity
  8
0
  6
Continuous
100
AcDbLine
 10
140.8187592164999
 20
161.457398091
 30
0.0
 11
140.7141771477
 21
162.5435244033
 31
0.0
  0
LINE
  5
1DB4
330
74
100
AcDbEntity
  8
0
  6
Continuous
100
AcDbLine
 10
130.4043224581999
 20
159.6556951624999
 30
0.0
 11
130.4043224581999
 21
162.1884737929
 31
0.0
  0
LINE
  5
1DB5
330
74
100
AcDbEntity
  8
0
  6
Continuous
100
AcDbLine
 10
130.4043224581999
 20
273.1884737929
 30
0.0
 11
130.4043224581999
 21
275.7212524233001
 31
0.0
  0
LINE
  5
1DB6
330
74
100
AcDbEntity
  8
0
  6
Continuous
100
AcDbLine
 10
132.0043224581999
 20
275.6884737929
 30
0.0
 11
132.0043224581999
 21
273.1884737929
 31
0.0
  0
LINE
  5
1DB7
330
74
100
AcDbEntity
  8
0
  6
Continuous
100
AcDbLine
 10
132.0043224581999
 20
162.1884737929
 30
0.0
 11
132.0043224581999
 21
159.6884737929
 31
0.0
  0
LINE
  5
1DB8
330
74
100
AcDbEntity
  8
0
  6
Continuous
100
AcDbLine
 10
135.1043224581999
 20
158.0883483533
 30
0.0
 11
135.1043224581999
 21
157.9899166808999
 31
0.0
  0
LINE
  5
1DB9
330
74
100
AcDbEntity
  8
DEFAULT_1
  6
CENTER
100
AcDbLine
 10
135.4043224581999
 20
259.4384737929
 30
0.0
 11
135.4043224581999
 21
256.9383737928999
 31
0.0
  0
LINE
  5
1DBA
330
74
100
AcDbEntity
  8
DEFAULT_1
  6
CENTER
100
AcDbLine
 10
135.4043224581999
 20
247.6884737929
 30
0.0
 11
135.4043224581999
 21
240.1884737929
 31
0.0
  0
LINE
  5
1DBB
330
74
100
AcDbEntity
  8
DEFAULT_1
  6
CENTER
100
AcDbLine
 10
135.4043224581999
 20
217.6884737928999
 30
0.0
 11
135.4043224581999
 21
154.2901160872999
 31
0.0
  0
LINE
  5
1DBC
330
74
100
AcDbEntity
  8
DEFAULT_1
  6
CENTER
100
AcDbLine
 10
135.4043224581999
 20
247.6884737929
 30
0.0
 11
135.4043224581999
 21
255.1884737928999
 31
0.0
  0
LINE
  5
1DBD
330
74
100
AcDbEntity
  8
DEFAULT_1
  6
CENTER
100
AcDbLine
 10
135.4043224581999
 20
259.4384737929
 30
0.0
 11
135.4043224581999
 21
261.9385737928999
 31
0.0
  0
LINE
  5
1DBE
330
74
100
AcDbEntity
  8
DEFAULT_1
  6
CENTER
100
AcDbLine
 10
135.4043224581999
 20
217.6884737928999
 30
0.0
 11
135.4043224581999
 21
240.1884737929
 31
0.0
  0
LINE
  5
1DBF
330
74
100
AcDbEntity
  8
DEFAULT_1
  6
CENTER
100
AcDbLine
 10
135.4043224581999
 20
261.9385737928999
 30
0.0
 11
135.4043224581999
 21
281.0868314985
 31
0.0
  0
LINE
  5
1DC0
330
74
100
AcDbEntity
  8
DEFAULT_1
  6
CENTER
100
AcDbLine
 10
135.4043224581999
 20
255.1884737928999
 30
0.0
 11
135.4043224581999
 21
256.9383737928999
 31
0.0
  0
LINE
  5
1DC1
330
74
100
AcDbEntity
  8
0
  6
Continuous
100
AcDbLine
 10
135.7043224582
 20
158.0883483533
 30
0.0
 11
135.7043224582
 21
157.9899166808999
 31
0.0
  0
LINE
  5
1DC2
330
74
100
AcDbEntity
  8
0
  6
Continuous
100
AcDbLine
 10
130.0944677686
 20
162.5435244033
 30
0.0
 11
129.9898856996999
 21
161.457398091
 31
0.0
  0
LINE
  5
1DC3
330
74
100
AcDbEntity
  8
0
  6
Continuous
100
AcDbLine
 10
140.7141771478
 20
272.8334231823999
 30
0.0
 11
140.8187592166
 21
273.9195494946999
 31
0.0
  0
LINE
  5
1DC4
330
74
100
AcDbEntity
  8
0
  6
Continuous
100
AcDbLine
 10
119.6698723616
 20
164.5698604812
 30
0.0
 11
119.3599690894
 21
163.5236445678
 31
0.0
  0
LINE
  5
1DC5
330
74
100
AcDbEntity
  8
0
  6
Continuous
100
AcDbLine
 10
151.1387725547999
 20
270.8070871045999
 30
0.0
 11
151.448675827
 21
271.8533030179
 31
0.0
  0
LINE
  5
1DC6
330
74
100
AcDbEntity
  8
0
  6
Continuous
100
AcDbLine
 10
114.5922876519
 20
159.0888680137999
 30
0.0
 11
115.8889447234
 21
162.8546335856999
 31
0.0
  0
LINE
  5
1DC7
330
74
100
AcDbEntity
  8
0
  6
Continuous
100
AcDbLine
 10
153.7850779021999
 20
272.9129957854
 30
0.0
 11
154.9222370135
 21
276.2155456459999
 31
0.0
  0
LINE
  5
1DC8
330
74
100
AcDbEntity
  8
0
  6
Continuous
100
AcDbLine
 10
147.8231047543
 20
263.5040153293999
 30
0.0
 11
148.8491651842999
 21
266.3230931916999
 31
0.0
  0
LINE
  5
1DC9
330
74
100
AcDbEntity
  8
0
  6
Continuous
100
AcDbLine
 10
148.7627973751
 20
263.161995186
 30
0.0
 11
149.7888578051
 21
265.9810730484
 31
0.0
  0
LINE
  5
1DCA
330
74
100
AcDbEntity
  8
0
  6
Continuous
100
AcDbLine
 10
169.7967616199
 20
269.7503366958999
 30
0.0
 11
167.4519268967
 21
266.2739762576999
 31
0.0
  0
LINE
  5
1DCB
330
74
100
AcDbEntity
  8
0
  6
Continuous
100
AcDbLine
 10
102.3618729327
 20
169.7740028122999
 30
0.0
 11
100.0170382093999
 21
166.2976423739999
 31
0.0
  0
LINE
  5
1DCC
330
74
100
AcDbEntity
  8
0
  6
Continuous
100
AcDbLine
 10
92.5799636512
 20
170.1272049623
 30
0.0
 11
93.74625643649999
 21
171.4225043256
 31
0.0
  0
LINE
  5
1DCD
330
74
100
AcDbEntity
  8
0
  6
Continuous
100
AcDbLine
 10
175.3541272362999
 20
264.7093463829
 30
0.0
 11
172.3518579935999
 21
261.7070771402
 31
0.0
  0
LINE
  5
1DCE
330
74
100
AcDbEntity
  8
0
  6
Continuous
100
AcDbLine
 10
186.7951538770999
 20
253.0757580416
 30
0.0
 11
183.3187934388
 21
250.7309233183999
 31
0.0
  0
LINE
  5
1DCF
330
74
100
AcDbEntity
  8
0
  6
Continuous
100
AcDbLine
 10
108.9260318630999
 20
207.0512689361999
 30
0.0
 11
84.4063638553
 21
191.1280103491999
 31
0.0
  0
LINE
  5
1DD0
330
74
100
AcDbEntity
  8
0
  6
Continuous
100
AcDbLine
 10
79.8040151932
 20
185.9929562542999
 30
0.0
 11
81.3852251013
 21
187.0198059752
 31
0.0
  0
LINE
  5
1DD1
330
74
100
AcDbEntity
  8
0
  6
Continuous
100
AcDbLine
 10
78.5651636352
 20
184.9499639872
 30
0.0
 11
110.0153099332
 21
205.3739278002999
 31
0.0
  0
LINE
  5
1DD2
330
74
100
AcDbEntity
  8
0
  6
Continuous
100
AcDbLine
 10
78.4181478687
 20
184.2583091856999
 30
0.0
 11
80.0954890046
 21
185.3475872558
 31
0.0
  0
LINE
  5
1DD3
330
74
100
AcDbEntity
  8
0
  6
Continuous
100
AcDbLine
 10
91.3364392901
 20
195.628453958
 30
0.0
 11
93.0924747096
 21
196.6219709958
 31
0.0
  0
LINE
  5
1DD4
330
74
100
AcDbEntity
  8
0
  6
Continuous
100
AcDbLine
 10
194.0039282372999
 20
238.5005085991999
 30
0.0
 11
190.2381626654
 21
237.2038515275999
 31
0.0
  0
LINE
  5
1DD5
330
74
100
AcDbEntity
  8
0
  6
Continuous
100
AcDbLine
 10
80.17980046560001
 20
199.3077183488
 30
0.0
 11
76.877250605
 21
198.1705592375999
 31
0.0
  0
LINE
  5
1DD6
330
74
100
AcDbEntity
  8
0
  6
Continuous
100
AcDbLine
 10
89.51750845139999
 20
205.5356839772
 30
0.0
 11
86.5630851923
 21
205.0147394441999
 31
0.0
  0
LINE
  5
1DD7
330
74
100
AcDbEntity
  8
0
  6
Continuous
100
AcDbLine
 10
89.34386027370001
 20
206.5204917302
 30
0.0
 11
86.38943701469999
 21
205.9995471971999
 31
0.0
  0
LINE
  5
1DD8
330
74
100
AcDbEntity
  8
0
  6
Continuous
100
AcDbLine
 10
78.98765246269999
 20
207.1314367438
 30
0.0
 11
77.64576875770001
 21
206.8948264415999
 31
0.0
  0
LINE
  5
1DD9
330
74
100
AcDbEntity
  8
0
  6
Continuous
100
AcDbLine
 10
192.0213980061
 20
227.0623358136
 30
0.0
 11
193.1282997358
 21
227.2575124536
 31
0.0
  0
LINE
  5
1DDA
330
74
100
AcDbEntity
  8
0
  6
Continuous
100
AcDbLine
 10
78.7790348816
 20
208.3131637699
 30
0.0
 11
77.6803451805
 21
208.1194351321999
 31
0.0
  0
LINE
  5
1DDB
330
74
100
AcDbEntity
  8
0
  6
Continuous
100
AcDbLine
 10
191.8093778027999
 20
228.2434628655999
 30
0.0
 11
193.1628761586999
 21
228.4821211441
 31
0.0
  0
LINE
  5
1DDC
330
74
100
AcDbEntity
  8
0
  6
Continuous
100
AcDbLine
 10
191.6353981600999
 20
223.1029105511999
 30
0.0
 11
190.5492718477
 21
222.9983284824
 31
0.0
  0
LINE
  5
1DDD
330
74
100
AcDbEntity
  8
0
  6
Continuous
100
AcDbLine
 10
79.1732467563
 20
212.2740370344999
 30
0.0
 11
80.25937306859999
 21
212.3786191034
 31
0.0
  0
LINE
  5
1DDE
330
74
100
AcDbEntity
  8
0
  6
Continuous
100
AcDbLine
 10
77.4043224582
 20
214.2884737929
 30
0.0
 11
79.9043224582
 21
214.2884737929
 31
0.0
  0
LINE
  5
1DDF
330
74
100
AcDbEntity
  8
0
  6
Continuous
100
AcDbLine
 10
190.9043224581999
 20
214.2884737929
 30
0.0
 11
193.4043224582
 21
214.2884737929
 31
0.0
  0
LINE
  5
1DE5
330
74
100
AcDbEntity
  8
0
  6
Continuous
100
AcDbLine
 10
178.3081307026999
 20
215.4884737929
 30
0.0
 11
178.0043224581999
 21
215.4884737929
 31
0.0
  0
LINE
  5
1DE6
330
74
100
AcDbEntity
  8
DEFAULT_1
  6
CENTER
100
AcDbLine
 10
177.1543224581999
 20
217.6884737928999
 30
0.0
 11
174.6542224581999
 21
217.6884737928999
 31
0.0
  0
LINE
  5
1DE8
330
74
100
AcDbEntity
  8
DEFAULT_1
  6
CENTER
100
AcDbLine
 10
135.4043224581999
 20
217.6884737928999
 30
0.0
 11
93.65432245820001
 21
217.6884737928999
 31
0.0
  0
LINE
  5
1DEA
330
74
100
AcDbEntity
  8
DEFAULT_1
  6
CENTER
100
AcDbLine
 10
135.4043224581999
 20
217.6884737928999
 30
0.0
 11
174.6542224581999
 21
217.6884737928999
 31
0.0
  0
LINE
  5
1DEB
330
74
100
AcDbEntity
  8
DEFAULT_1
  6
CENTER
100
AcDbLine
 10
177.1543224581999
 20
217.6884737928999
 30
0.0
 11
198.8026801638
 21
217.6884737928999
 31
0.0
  0
LINE
  5
1DEC
330
74
100
AcDbEntity
  8
0
  6
Continuous
100
AcDbLine
 10
80.25937306859999
 20
222.9983284824999
 30
0.0
 11
79.1732467563
 21
223.1029105513
 31
0.0
  0
LINE
  5
1DED
330
74
100
AcDbEntity
  8
0
  6
Continuous
100
AcDbLine
 10
190.5492718477
 20
212.3786191033
 30
0.0
 11
191.63539816
 21
212.2740370343999
 31
0.0
  0
LINE
  5
1DEE
330
74
100
AcDbEntity
  8
0
  6
Continuous
100
AcDbLine
 10
82.28570914649997
 20
233.4229238894999
 30
0.0
 11
81.2394932331
 21
233.7328271616999
 31
0.0
  0
LINE
  5
1DEF
330
74
100
AcDbEntity
  8
0
  6
Continuous
100
AcDbLine
 10
188.5229357699
 20
201.9540236963
 30
0.0
 11
189.5691516832
 21
201.6441204241
 31
0.0
  0
LINE
  5
1DF0
330
74
100
AcDbEntity
  8
0
  6
Continuous
100
AcDbLine
 10
194.0039282372999
 20
196.8764389865
 30
0.0
 11
190.2381626654
 21
198.1730960581
 31
0.0
  0
LINE
  5
1DF1
330
74
100
AcDbEntity
  8
0
  6
Continuous
100
AcDbLine
 10
80.17980046560001
 20
236.0692292368999
 30
0.0
 11
76.877250605
 21
237.2063883481999
 31
0.0
  0
LINE
  5
1DF2
330
74
100
AcDbEntity
  8
0
  6
Continuous
100
AcDbLine
 10
76.8047166791
 20
238.5005085991999
 30
0.0
 11
80.570482251
 21
237.2038515275999
 31
0.0
  0
LINE
  5
1DF3
330
74
100
AcDbEntity
  8
0
  6
Continuous
100
AcDbLine
 10
190.6288444507
 20
199.3077183488
 30
0.0
 11
193.9313943113999
 21
198.1705592375999
 31
0.0
  0
LINE
  5
1DF4
330
74
100
AcDbEntity
  8
0
  6
Continuous
100
AcDbLine
 10
83.34245955510001
 20
252.0809129546
 30
0.0
 11
86.81881999339998
 21
249.7360782313
 31
0.0
  0
LINE
  5
1DF5
330
74
100
AcDbEntity
  8
0
  6
Continuous
100
AcDbLine
 10
183.3187934388
 20
184.6460242672999
 30
0.0
 11
186.7951538770999
 21
182.3011895440999
 31
0.0
  0
LINE
  5
1DF6
330
74
100
AcDbEntity
  8
0
  6
Continuous
100
AcDbLine
 10
187.4661853611999
 20
183.2960346312
 30
0.0
 11
183.989824923
 21
185.6408693544
 31
0.0
  0
LINE
  5
1DF7
330
74
100
AcDbEntity
  8
0
  6
Continuous
100
AcDbLine
 10
87.4898514776
 20
250.7309233183999
 30
0.0
 11
84.0134910393
 21
253.0757580416
 31
0.0
  0
LINE
  5
1DF8
330
74
100
AcDbEntity
  8
0
  6
Continuous
100
AcDbLine
 10
164.6723614529
 20
176.5852878651999
 30
0.0
 11
162.7439986238999
 21
178.8834211946
 31
0.0
  0
LINE
  5
1DF9
330
74
100
AcDbEntity
  8
0
  6
Continuous
100
AcDbLine
 10
165.4384058960999
 20
177.2280754749
 30
0.0
 11
163.510043067
 21
179.5262088043
 31
0.0
  0
LINE
  5
1DFA
330
74
100
AcDbEntity
  8
0
  6
Continuous
100
AcDbLine
 10
100.0170382093999
 20
269.0793052116999
 30
0.0
 11
102.3618729327
 21
265.6029447734999
 31
0.0
  0
LINE
  5
1DFB
330
74
100
AcDbEntity
  8
0
  6
Continuous
100
AcDbLine
 10
167.4519268967
 20
169.1029713280999
 30
0.0
 11
169.7967616199
 21
165.6266108897999
 31
0.0
  0
LINE
  5
1DFC
330
74
100
AcDbEntity
  8
0
  6
Continuous
100
AcDbLine
 10
170.7916067069
 20
166.2976423739999
 30
0.0
 11
168.4467719837
 21
169.7740028122999
 31
0.0
  0
LINE
  5
1DFD
330
74
100
AcDbEntity
  8
0
  6
Continuous
100
AcDbLine
 10
103.3567180196999
 20
266.2739762576999
 30
0.0
 11
101.0118832964999
 21
269.7503366958999
 31
0.0
  0
LINE
  5
1DFE
330
74
100
AcDbEntity
  8
0
  6
Continuous
100
AcDbLine
 10
114.5922876519
 20
276.288079572
 30
0.0
 11
115.8889447234
 21
272.5223140000999
 31
0.0
  0
LINE
  5
1DFF
330
74
100
AcDbEntity
  8
0
  6
Continuous
100
AcDbLine
 10
153.7850779021999
 20
162.4639518003
 30
0.0
 11
154.9222370135
 21
159.1614019397
 31
0.0
  0
LINE
  5
1E00
330
74
100
AcDbEntity
  8
0
  6
Continuous
100
AcDbLine
 10
156.2163572645
 20
159.0888680137999
 30
0.0
 11
154.9197001929999
 21
162.8546335856999
 31
0.0
  0
LINE
  5
1E01
330
74
100
AcDbEntity
  8
0
  6
Continuous
100
AcDbLine
 10
117.0235670140999
 20
272.9129957854
 30
0.0
 11
115.8864079029
 21
276.2155456459999
 31
0.0
  0
LINE
  5
1E02
330
74
100
AcDbEntity
  8
0
  6
Continuous
100
AcDbLine
 10
144.7781869220999
 20
161.0713843894999
 30
0.0
 11
144.9733611188999
 21
159.9644965152
 31
0.0
  0
LINE
  5
1E03
330
74
100
AcDbEntity
  8
0
  6
Continuous
100
AcDbLine
 10
124.8493299299999
 20
274.093548734
 30
0.0
 11
124.610675107
 21
275.4470274933999
 31
0.0
  0
LINE
  5
1E04
330
74
100
AcDbEntity
  8
0
  6
Continuous
100
AcDbLine
 10
145.9593149862999
 20
161.2833988517
 30
0.0
 11
146.1979698094
 21
159.9299200924
 31
0.0
  0
LINE
  5
1E05
330
74
100
AcDbEntity
  8
0
  6
Continuous
100
AcDbLine
 10
126.0304579943
 20
274.3055631963
 30
0.0
 11
125.8352837974999
 21
275.4124510704999
 31
0.0
  0
LINE
  5
1E0B
330
74
100
AcDbEntity
  8
0
  6
Continuous
100
AcDbLine
 10
138.8043224582
 20
159.6884737929
 30
0.0
 11
138.8043224582
 21
162.1884737929
 31
0.0
  0
LINE
  5
1E0C
330
74
100
AcDbEntity
  8
0
  6
Continuous
100
AcDbLine
 10
138.8043224582
 20
273.1884737929
 30
0.0
 11
138.8043224582
 21
275.6884737929
 31
0.0
  0
LINE
  5
1E12
330
74
100
AcDbEntity
  8
0
  6
Continuous
100
AcDbLine
 10
140.4043224581999
 20
159.6556951624999
 30
0.0
 11
140.4043224581999
 21
162.1884737929
 31
0.0
  0
LINE
  5
1E13
330
74
100
AcDbEntity
  8
0
  6
Continuous
100
AcDbLine
 10
140.4043224581999
 20
273.1884737929
 30
0.0
 11
140.4043224581999
 21
275.7212524233001
 31
0.0
  0
LINE
  5
1E19
330
74
100
AcDbEntity
  8
0
  6
Continuous
100
AcDbLine
 10
156.2163572645
 20
276.288079572
 30
0.0
 11
154.9197001929999
 21
272.5223140000999
 31
0.0
  0
LINE
  5
1E1A
330
74
100
AcDbEntity
  8
0
  6
Continuous
100
AcDbLine
 10
117.0235670140999
 20
162.4639518003
 30
0.0
 11
115.8864079029
 21
159.1614019397
 31
0.0
  0
LINE
  5
1E1B
330
74
100
AcDbEntity
  8
0
  6
Continuous
100
AcDbLine
 10
155.4270135298
 20
263.9289521883999
 30
0.0
 11
154.4009530998
 21
261.1098743260999
 31
0.0
  0
LINE
  5
1E1C
330
74
100
AcDbEntity
  8
0
  6
Continuous
100
AcDbLine
 10
156.3667061505999
 20
263.5869320450999
 30
0.0
 11
155.3406457206
 21
260.7678541826999
 31
0.0
  0
LINE
  5
1E1D
330
74
100
AcDbEntity
  8
0
  6
Continuous
100
AcDbLine
 10
156.1773871890999
 20
258.9734563129999
 30
0.0
 11
157.6822758196999
 21
263.1081038443999
 31
0.0
  0
LINE
  5
1E1E
330
74
100
AcDbEntity
  8
0
  6
Continuous
100
AcDbLine
 10
101.0118832964999
 20
165.6266108897999
 30
0.0
 11
103.3567180196999
 21
169.1029713280999
 31
0.0
  0
LINE
  5
1E1F
330
74
100
AcDbEntity
  8
0
  6
Continuous
100
AcDbLine
 10
168.4467719837
 20
265.6029447734999
 30
0.0
 11
170.7916067069
 21
269.0793052116999
 31
0.0
  0
LINE
  5
1E20
330
74
100
AcDbEntity
  8
0
  6
Continuous
100
AcDbLine
 10
182.4251950482
 20
257.6382785709999
 30
0.0
 11
179.3625220854999
 21
254.5756056082999
 31
0.0
  0
LINE
  5
1E21
330
74
100
AcDbEntity
  8
0
  6
Continuous
100
AcDbLine
 10
183.989824923
 20
249.7360782313
 30
0.0
 11
187.4661853611999
 21
252.0809129546
 31
0.0
  0
LINE
  5
1E22
330
74
100
AcDbEntity
  8
0
  6
Continuous
100
AcDbLine
 10
83.36332321470001
 20
180.3155638481
 30
0.0
 11
81.6859820788
 21
179.226285778
 31
0.0
  0
LINE
  5
1E23
330
74
100
AcDbEntity
  8
0
  6
Continuous
100
AcDbLine
 10
113.8277831783
 20
199.5032338246
 30
0.0
 11
82.3776368803
 21
179.0792700116
 31
0.0
  0
LINE
  5
1E24
330
74
100
AcDbEntity
  8
0
  6
Continuous
100
AcDbLine
 10
83.95122456680001
 20
179.8626971452
 30
0.0
 11
85.41555396040001
 21
180.8136437724
 31
0.0
  0
LINE
  5
1E25
330
74
100
AcDbEntity
  8
0
  6
Continuous
100
AcDbLine
 10
90.3973932405
 20
181.9026341018
 30
0.0
 11
114.9170612483
 21
197.8258926888
 31
0.0
  0
LINE
  5
1E26
330
74
100
AcDbEntity
  8
0
  6
Continuous
100
AcDbLine
 10
76.8047166791
 20
196.8764389865
 30
0.0
 11
80.570482251
 21
198.1730960581
 31
0.0
  0
LINE
  5
1E27
330
74
100
AcDbEntity
  8
0
  6
Continuous
100
AcDbLine
 10
190.6288444507
 20
236.0692292368999
 30
0.0
 11
193.9313943113999
 21
237.2063883481999
 31
0.0
  0
LINE
  5
1E29
330
74
100
AcDbEntity
  8
0
  6
Continuous
100
AcDbLine
 10
85.3475479487
 20
211.9083937152999
 30
0.0
 11
88.3019712077
 21
212.4293382483
 31
0.0
  0
LINE
  5
1E2A
330
74
100
AcDbEntity
  8
0
  6
Continuous
100
AcDbLine
 10
85.173899771
 20
212.8932014683
 30
0.0
 11
88.12832303
 21
213.4141460013
 31
0.0
  0
LINE
  5
1E2B
330
74
100
AcDbEntity
  8
0
  6
Continuous
100
AcDbLine
 10
84.9307923223
 20
214.2719323225
 30
0.0
 11
90.7811841999
 21
215.3035142582
 31
0.0
  0
LINE
  5
1E2C
330
74
100
AcDbEntity
  8
0
  6
Continuous
100
AcDbLine
 10
163.4043224582
 20
219.6884737928999
 30
0.0
 11
164.4043224582
 21
219.6884737928999
 31
0.0
  0
LINE
  5
1E2D
330
74
100
AcDbEntity
  8
0
  6
Continuous
100
AcDbLine
 10
193.4043224582
 20
221.0884737929
 30
0.0
 11
190.9043224581999
 21
221.0884737929
 31
0.0
  0
LINE
  5
1E2E
330
74
100
AcDbEntity
  8
0
  6
Continuous
100
AcDbLine
 10
79.9043224582
 20
221.0884737929
 30
0.0
 11
77.4043224582
 21
221.0884737929
 31
0.0
  0
LINE
  5
1E2F
330
74
100
AcDbEntity
  8
0
  6
Continuous
100
AcDbLine
 10
162.7448206495
 20
221.1884737929
 30
0.0
 11
162.4043224582
 21
221.1884737929
 31
0.0
  0
LINE
  5
1E30
330
74
100
AcDbEntity
  8
0
  6
Continuous
100
AcDbLine
 10
77.3715438278
 20
222.6884737929
 30
0.0
 11
79.9043224582
 21
222.6884737929
 31
0.0
  0
LINE
  5
1E31
330
74
100
AcDbEntity
  8
0
  6
Continuous
100
AcDbLine
 10
190.9043224581999
 20
222.6884737929
 30
0.0
 11
193.4371010886
 21
222.6884737929
 31
0.0
  0
LINE
  5
1E32
330
74
100
AcDbEntity
  8
0
  6
Continuous
100
AcDbLine
 10
168.1063097256999
 20
183.3829344624
 30
0.0
 11
170.0346725547999
 21
181.0848011331
 31
0.0
  0
LINE
  5
1E33
330
74
100
AcDbEntity
  8
0
  6
Continuous
100
AcDbLine
 10
168.8723541687999
 20
184.0257220720999
 30
0.0
 11
170.8007169979
 21
181.7275887426999
 31
0.0
  0
LINE
  5
1E34
330
74
100
AcDbEntity
  8
0
  6
Continuous
100
AcDbLine
 10
171.8731792183
 20
182.6274913963
 30
0.0
 11
169.0449137355999
 21
185.9980869459999
 31
0.0
  0
LINE
  5
1E54
330
74
100
AcDbEntity
  8
0
  6
Continuous
100
AcDbLine
 10
167.9043224581999
 20
225.6884737929
 30
0.0
 11
166.4043224582
 21
225.6884737929
 31
0.0
  0
LINE
  5
1E55
330
74
100
AcDbEntity
  8
0
  6
Continuous
100
AcDbLine
 10
165.4043224581999
 20
226.1884737928999
 30
0.0
 11
164.7718669262
 21
226.1884737928999
 31
0.0
  0
LINE
  5
1E56
330
74
100
AcDbEntity
  8
0
  6
Continuous
100
AcDbLine
 10
167.9043224581999
 20
226.6884737929
 30
0.0
 11
167.1043224581999
 21
226.6884737929
 31
0.0
  0
LINE
  5
1E57
330
74
100
AcDbEntity
  8
0
  6
Continuous
100
AcDbLine
 10
164.7043224582
 20
226.6884737929
 30
0.0
 11
162.4043224582
 21
226.6884737929
 31
0.0
  0
LINE
  5
1E58
330
74
100
AcDbEntity
  8
0
  6
Continuous
100
AcDbLine
 10
167.9043224581999
 20
227.1884737929
 30
0.0
 11
166.6043224581999
 21
227.1884737929
 31
0.0
  0
LINE
  5
1E59
330
74
100
AcDbEntity
  8
0
  6
Continuous
100
AcDbLine
 10
165.2043224582
 20
227.1884737929
 30
0.0
 11
162.4043224582
 21
227.1884737929
 31
0.0
  0
LINE
  5
1E60
330
74
100
AcDbEntity
  8
0
  6
Continuous
100
AcDbLine
 10
163.6043224582
 20
227.1884737929
 30
0.0
 11
164.1043224581999
 21
227.6884737929
 31
0.0
  0
LINE
  5
1E61
330
74
100
AcDbEntity
  8
0
  6
Continuous
100
AcDbLine
 10
164.7043224582
 20
226.6884737929
 30
0.0
 11
165.2043224582
 21
227.1884737929
 31
0.0
  0
LINE
  5
1E62
330
74
100
AcDbEntity
  8
0
  6
Continuous
100
AcDbLine
 10
163.1092374862999
 20
232.1884737928999
 30
0.0
 11
165.2043224582
 21
232.1884737928999
 31
0.0
  0
LINE
  5
1E63
330
74
100
AcDbEntity
  8
0
  6
Continuous
100
AcDbLine
 10
166.6043224581999
 20
232.1884737928999
 30
0.0
 11
168.6994074300999
 21
232.1884737928999
 31
0.0
  0
LINE
  5
1E65
330
74
100
AcDbEntity
  8
DEFAULT_1
  6
CENTER
100
AcDbLine
 10
114.8831138586
 20
242.1446978658
 30
0.0
 11
102.3831138586
 21
242.1446978658
 31
0.0
  0
LINE
  5
1E66
330
74
100
AcDbEntity
  8
DEFAULT_1
  6
CENTER
100
AcDbLine
 10
114.8831138586
 20
242.1446978658
 30
0.0
 11
127.3831138586
 21
242.1446978658
 31
0.0
  0
LINE
  5
1E8B
330
74
100
AcDbEntity
  8
0
  6
Continuous
100
AcDbLine
 10
162.4043224582
 20
227.1884737929
 30
0.0
 11
162.4043224582
 21
221.1884737929
 31
0.0
  0
LINE
  5
1E8C
330
74
100
AcDbEntity
  8
0
  6
Continuous
100
AcDbLine
 10
162.9043224582
 20
236.9384737928999
 30
0.0
 11
162.9043224582
 21
232.4384737928999
 31
0.0
  0
LINE
  5
1E8D
330
74
100
AcDbEntity
  8
0
  6
Continuous
100
AcDbLine
 10
163.4043224582
 20
219.6884737928999
 30
0.0
 11
163.4043224582
 21
220.1884737928999
 31
0.0
  0
LINE
  5
1E8E
330
74
100
AcDbEntity
  8
0
  6
Continuous
100
AcDbLine
 10
164.1043224581999
 20
231.3987169629999
 30
0.0
 11
164.1043224581999
 21
227.6884737929
 31
0.0
  0
LINE
  5
1E8F
330
74
100
AcDbEntity
  8
0
  6
Continuous
100
AcDbLine
 10
165.2043224582
 20
227.1884737929
 30
0.0
 11
165.2043224582
 21
234.6884737928999
 31
0.0
  0
LINE
  5
1E90
330
74
100
AcDbEntity
  8
0
  6
Continuous
100
AcDbLine
 10
164.7718669262
 20
226.1884737928999
 30
0.0
 11
163.2191622985
 21
221.5303599099
 31
0.0
  0
LINE
  5
1E91
330
74
100
AcDbEntity
  8
0
  6
Continuous
100
AcDbLine
 10
163.4043224582
 20
220.1884737928999
 30
0.0
 11
165.4043224581999
 21
226.1884737928999
 31
0.0
  0
LINE
  5
1E92
330
74
100
AcDbEntity
  8
0
  6
Continuous
100
AcDbLine
 10
166.4043224582
 20
225.6884737929
 30
0.0
 11
164.4043224582
 21
219.6884737928999
 31
0.0
  0
LINE
  5
1E93
330
74
100
AcDbEntity
  8
DEFAULT_1
  6
CENTER
100
AcDbLine
 10
135.4043224581999
 20
247.6884737929
 30
0.0
 11
127.9043224582
 21
247.6884737929
 31
0.0
  0
LINE
  5
1E94
330
74
100
AcDbEntity
  8
DEFAULT_1
  6
CENTER
100
AcDbLine
 10
135.4043224581999
 20
247.6884737929
 30
0.0
 11
142.9043224581999
 21
247.6884737929
 31
0.0
  0
LINE
  5
1E9A
330
74
100
AcDbEntity
  8
0
  6
Continuous
100
AcDbLine
 10
166.6043224581999
 20
227.1884737929
 30
0.0
 11
167.1043224581999
 21
226.6884737929
 31
0.0
  0
LINE
  5
1EA0
330
74
100
AcDbEntity
  8
0
  6
Continuous
100
AcDbLine
 10
166.6043224581999
 20
234.6884737928999
 30
0.0
 11
166.6043224581999
 21
227.1884737929
 31
0.0
  0
LINE
  5
1EA1
330
74
100
AcDbEntity
  8
0
  6
Continuous
100
AcDbLine
 10
167.9043224581999
 20
225.6884737929
 30
0.0
 11
167.9043224581999
 21
231.5163294077999
 31
0.0
  0
LINE
  5
1EA2
330
74
100
AcDbEntity
  8
0
  6
Continuous
100
AcDbLine
 10
168.9043224581999
 20
232.4384737928999
 30
0.0
 11
168.9043224581999
 21
236.9384737928999
 31
0.0
  0
LINE
  5
1EA3
330
74
100
AcDbEntity
  8
0
  6
Continuous
100
AcDbLine
 10
191.8520687145999
 20
236.4904191282
 30
0.0
 11
191.6704764781999
 21
236.2699199255
 31
0.0
  0
LINE
  5
1EAE
330
74
100
AcDbEntity
  8
0
  6
Continuous
100
AcDbLine
 10
116.8228763254999
 20
161.4223197727999
 30
0.0
 11
116.6023771229
 21
161.2407275365
 31
0.0
  0
LINE
  5
1EAF
330
74
100
AcDbEntity
  8
0
  6
Continuous
100
AcDbLine
 10
116.6023771229
 20
274.1362200493
 30
0.0
 11
116.8228763254999
 21
273.9546278129
 31
0.0
  0
LINE
  5
1EC1
330
74
100
AcDbEntity
  8
0
  6
Continuous
100
AcDbLine
 10
191.6704764781999
 20
199.1070276602
 30
0.0
 11
191.8520687145999
 21
198.8865284574999
 31
0.0
  0
LINE
  5
1EC3
330
74
100
AcDbEntity
  8
DEFAULT_1
  6
CENTER
100
AcDbLine
 10
135.4043224581999
 20
259.4384737929
 30
0.0
 11
132.9042224581999
 21
259.4384737929
 31
0.0
  0
LINE
  5
1EC8
330
74
100
AcDbEntity
  8
DEFAULT_1
  6
CENTER
100
AcDbLine
 10
177.1543224581999
 20
217.6884737928999
 30
0.0
 11
177.1543224581999
 21
220.1885737928999
 31
0.0
  0
LINE
  5
1EC9
330
74
100
AcDbEntity
  8
0
  6
Continuous
100
AcDbLine
 10
178.0043224581999
 20
215.4884737929
 30
0.0
 11
178.0043224581999
 21
215.3590341899999
 31
0.0
  0
LINE
  5
1ECA
330
74
100
AcDbEntity
  8
0
  6
Continuous
100
AcDbLine
 10
169.0449137355999
 20
185.9980869459999
 30
0.0
 11
160.77163375
 21
179.0559807614
 31
0.0
  0
LINE
  5
1F12
330
74
100
AcDbEntity
  8
0
  6
Continuous
100
AcDbLine
 10
146.0287068845999
 20
262.6672738609
 30
0.0
 11
156.1773871890999
 21
258.9734563129999
 31
0.0
  0
LINE
  5
1F13
330
74
100
AcDbEntity
  8
0
  6
Continuous
100
AcDbLine
 10
155.3406457206
 20
260.7678541826999
 30
0.0
 11
147.8231047543
 21
263.5040153293999
 31
0.0
  0
LINE
  5
1F1A
330
74
100
AcDbEntity
  8
0
  6
Continuous
100
AcDbLine
 10
162.7439986238999
 20
178.8834211946
 30
0.0
 11
168.8723541687999
 21
184.0257220720999
 31
0.0
  0
LINE
  5
1F1B
330
74
100
AcDbEntity
  8
0
  6
Continuous
100
AcDbLine
 10
163.5998992325999
 20
175.6853852116999
 30
0.0
 11
171.8731792183
 21
182.6274913963
 31
0.0
  0
LINE
  5
1F29
330
74
100
AcDbEntity
  8
0
  6
Continuous
100
AcDbLine
 10
157.6822758196999
 20
263.1081038443999
 30
0.0
 11
147.5335955152
 21
266.8019213923999
 31
0.0
  0
LINE
  5
1F33
330
74
100
AcDbEntity
  8
0
  6
Continuous
100
AcDbLine
 10
190.9043224581999
 20
212.6884737929
 30
0.0
 11
190.9043224581999
 21
222.6884737929
 31
0.0
  0
LINE
  5
1F34
330
74
100
AcDbEntity
  8
0
  6
Continuous
100
AcDbLine
 10
191.4043224582
 20
222.6884737929
 30
0.0
 11
191.4043224582
 21
221.0884737929
 31
0.0
  0
LINE
  5
1F35
330
74
100
AcDbEntity
  8
0
  6
Continuous
100
AcDbLine
 10
191.4043224582
 20
214.2884737929
 30
0.0
 11
191.4043224582
 21
212.6884737929
 31
0.0
  0
LINE
  5
1F36
330
74
100
AcDbEntity
  8
0
  6
Continuous
100
AcDbLine
 10
193.4043224582
 20
214.2884737929
 30
0.0
 11
193.4043224582
 21
221.0884737929
 31
0.0
  0
LINE
  5
1F73
330
74
100
AcDbEntity
  8
0
  6
Continuous
100
AcDbLine
 10
130.4043224581999
 20
273.1884737929
 30
0.0
 11
140.4043224581999
 21
273.1884737929
 31
0.0
  0
LINE
  5
1F74
330
74
100
AcDbEntity
  8
0
  6
Continuous
100
AcDbLine
 10
130.4043224581999
 20
273.6884737929
 30
0.0
 11
132.0043224581999
 21
273.6884737929
 31
0.0
  0
LINE
  5
1F75
330
74
100
AcDbEntity
  8
0
  6
Continuous
100
AcDbLine
 10
138.8043224582
 20
273.6884737929
 30
0.0
 11
140.4043224581999
 21
273.6884737929
 31
0.0
  0
LINE
  5
1F76
330
74
100
AcDbEntity
  8
0
  6
Continuous
100
AcDbLine
 10
138.8043224582
 20
275.6884737929
 30
0.0
 11
132.0043224581999
 21
275.6884737929
 31
0.0
  0
ARC
  5
2023
330
74
100
AcDbEntity
  8
0
  6
Continuous
100
AcDbCircle
 10
135.4043224581999
 20
89.68467704540001
 30
0.0
 40
47.5
100
AcDbArc
 50
180.0
 51
0.0
  0
ARC
  5
2024
330
74
100
AcDbEntity
  8
0
  6
Continuous
100
AcDbCircle
 10
190.5589783176999
 20
90.1846770454
 30
0.0
 40
0.5
100
AcDbArc
 50
270.0
 51
339.264766062
  0
ARC
  5
2025
330
74
100
AcDbEntity
  8
0
  6
Continuous
100
AcDbCircle
 10
80.24966659870001
 20
90.1846770454
 30
0.0
 40
0.5
100
AcDbArc
 50
200.735233938
 51
270.0
  0
ARC
  5
2026
330
74
100
AcDbEntity
  8
0
  6
Continuous
100
AcDbCircle
 10
79.55699625930001
 20
93.42660581229999
 30
0.0
 40
0.9999999993999999
100
AcDbArc
 50
185.3135932699
 51
200.7355013766999
  0
ARC
  5
2027
330
74
100
AcDbEntity
  8
0
  6
Continuous
100
AcDbCircle
 10
191.2516486572999
 20
93.42660581450001
 30
0.0
 40
0.9999999993999999
100
AcDbArc
 50
339.2644985061999
 51
354.6864067487999
  0
ARC
  5
2028
330
74
100
AcDbEntity
  8
0
  6
Continuous
100
AcDbCircle
 10
305.7896700819
 20
89.68467704540001
 30
0.0
 40
47.5
100
AcDbArc
 50
180.0
 51
0.0
  0
ARC
  5
2029
330
74
100
AcDbEntity
  8
0
  6
Continuous
100
AcDbCircle
 10
360.9443259414
 20
90.1846770454
 30
0.0
 40
0.5
100
AcDbArc
 50
270.0
 51
339.2647659647
  0
ARC
  5
202A
330
74
100
AcDbEntity
  8
0
  6
Continuous
100
AcDbCircle
 10
250.6350142224
 20
90.1846770454
 30
0.0
 40
0.5
100
AcDbArc
 50
200.7352340353
 51
270.0
  0
ARC
  5
202B
330
74
100
AcDbEntity
  8
0
  6
Continuous
100
AcDbCircle
 10
361.6370009570999
 20
93.4266582967
 30
0.0
 40
0.9999999937
100
AcDbArc
 50
339.2652030450999
 51
354.6903656341001
  0
ARC
  5
202C
330
74
100
AcDbEntity
  8
0
  6
Continuous
100
AcDbCircle
 10
249.9423392068
 20
93.42665829620001
 30
0.0
 40
0.9999999937
100
AcDbArc
 50
185.3096343622999
 51
200.7347969572999
  0
CIRCLE
  5
2032
330
74
100
AcDbEntity
  8
0
  6
Continuous
100
AcDbCircle
 10
114.8831138586
 20
242.1446978658
 30
0.0
 40
10.0
  0
ARC
  5
2033
330
74
100
AcDbEntity
  8
0
  6
Continuous
100
AcDbCircle
 10
162.7448206495
 20
221.6884737928999
 30
0.0
 40
0.5
100
AcDbArc
 50
270.0
 51
341.5650511770999
  0
ARC
  5
2034
330
74
100
AcDbEntity
  8
0
  6
Continuous
100
AcDbCircle
 10
78.8374831527
 20
184.5306287032
 30
0.0
 40
0.5
100
AcDbArc
 50
123.0
 51
213.0
  0
ARC
  5
2035
330
74
100
AcDbEntity
  8
0
  6
Continuous
100
AcDbCircle
 10
82.1053173628
 20
179.4986052956
 30
0.0
 40
0.5
100
AcDbArc
 50
213.0
 51
303.0
  0
ARC
  5
2036
330
74
100
AcDbEntity
  8
0
  6
Continuous
100
AcDbCircle
 10
79.2690925088
 20
211.2786408362
 30
0.0
 40
1.0
100
AcDbArc
 50
95.49999999989999
 51
186.5141375456
  0
ARC
  5
2037
330
74
100
AcDbEntity
  8
0
  6
Continuous
100
AcDbCircle
 10
81.5235085778
 20
234.6916468964999
 30
0.0
 40
1.0
100
AcDbArc
 50
162.4858624542999
 51
253.5
  0
ARC
  5
2038
330
74
100
AcDbEntity
  8
0
  6
Continuous
100
AcDbCircle
 10
128.9944895015
 20
273.8237037421999
 30
0.0
 40
1.0
100
AcDbArc
 50
5.499999999899999
 51
96.5141375456
  0
ARC
  5
2039
330
74
100
AcDbEntity
  8
0
  6
Continuous
100
AcDbCircle
 10
152.4074955617999
 20
271.5692876732
 30
0.0
 40
1.0
100
AcDbArc
 50
72.48586245430002
 51
163.4999999999999
  0
ARC
  5
203A
330
74
100
AcDbEntity
  8
0
  6
Continuous
100
AcDbCircle
 10
191.5395524075
 20
224.0983067495999
 30
0.0
 40
1.0
100
AcDbArc
 50
275.4999999999
 51
6.514137545599997
  0
ARC
  5
203B
330
74
100
AcDbEntity
  8
0
  6
Continuous
100
AcDbCircle
 10
189.2851363384999
 20
200.6853006891999
 30
0.0
 40
1.0
100
AcDbArc
 50
342.4858624542999
 51
73.5
  0
ARC
  5
203C
330
74
100
AcDbEntity
  8
0
  6
Continuous
100
AcDbCircle
 10
141.8141554149
 20
161.5532438435
 30
0.0
 40
1.0
100
AcDbArc
 50
185.4999999999
 51
276.5141375456
  0
ARC
  5
203D
330
74
100
AcDbEntity
  8
0
  6
Continuous
100
AcDbCircle
 10
118.4011493545
 20
163.8076599124999
 30
0.0
 40
1.0
100
AcDbArc
 50
252.4858624543
 51
343.5
  0
ARC
  5
203E
330
74
100
AcDbEntity
  8
0
  6
Continuous
100
AcDbCircle
 10
165.9043224581999
 20
234.6884737928999
 30
0.0
 40
3.75
100
AcDbArc
 50
302.2309526354999
 51
323.1301023542
  0
ARC
  5
203F
330
74
100
AcDbEntity
  8
0
  6
Continuous
100
AcDbCircle
 10
165.9043224581999
 20
234.6884737928999
 30
0.0
 40
3.75
100
AcDbArc
 50
36.8698976458
 51
143.1301023542
  0
ARC
  5
2040
330
74
100
AcDbEntity
  8
0
  6
Continuous
100
AcDbCircle
 10
165.9043224581999
 20
234.6884737928999
 30
0.0
 40
3.75
100
AcDbArc
 50
216.8698976458
 51
241.3145979859
  0
ARC
  5
2041
330
74
100
AcDbEntity
  8
0
  6
Continuous
100
AcDbCircle
 10
165.9043224581999
 20
234.6884737928999
 30
0.0
 40
0.7
100
AcDbArc
 50
0.0
 51
180.0
  0
ARC
  5
2042
330
74
100
AcDbEntity
  8
0
  6
Continuous
100
AcDbCircle
 10
135.4043224581999
 20
217.6884737928999
 30
0.0
 40
55.5
100
AcDbArc
 50
207.31270503
 51
209.3827728771
  0
ARC
  5
2043
330
74
100
AcDbEntity
  8
0
  6
Continuous
100
AcDbCircle
 10
135.4043224581999
 20
217.6884737928999
 30
0.0
 40
55.5
100
AcDbArc
 50
216.6172271229
 51
218.68729497
  0
ARC
  5
2044
330
74
100
AcDbEntity
  8
0
  6
Continuous
100
AcDbCircle
 10
135.4043224581999
 20
217.6884737928999
 30
0.0
 40
55.4
100
AcDbArc
 50
163.4999999999999
 51
185.4999999999
  0
ARC
  5
2045
330
74
100
AcDbEntity
  8
0
  6
Continuous
100
AcDbCircle
 10
135.4043224581999
 20
217.6884737928999
 30
0.0
 40
55.4
100
AcDbArc
 50
73.5
 51
95.49999999989999
  0
ARC
  5
2046
330
74
100
AcDbEntity
  8
0
  6
Continuous
100
AcDbCircle
 10
135.4043224581999
 20
217.6884737928999
 30
0.0
 40
55.4
100
AcDbArc
 50
343.5
 51
5.499999999899999
  0
ARC
  5
2047
330
74
100
AcDbEntity
  8
0
  6
Continuous
100
AcDbCircle
 10
135.4043224581999
 20
217.6884737928999
 30
0.0
 40
55.4
100
AcDbArc
 50
253.5
 51
275.4999999999
  0
ARC
  5
2048
330
74
100
AcDbEntity
  8
0
  6
Continuous
100
AcDbCircle
 10
130.9852818980999
 20
161.3615523385
 30
0.0
 40
1.0
100
AcDbArc
 50
174.5
 51
234.0676178984999
  0
ARC
  5
2049
330
74
100
AcDbEntity
  8
0
  6
Continuous
100
AcDbCircle
 10
135.4043224581999
 20
217.6884737928999
 30
0.0
 40
57.5
100
AcDbArc
 50
274.9899797875999
 51
342.4858624542999
  0
ARC
  5
204A
330
74
100
AcDbEntity
  8
0
  6
Continuous
100
AcDbCircle
 10
191.7312439126
 20
213.2694332328
 30
0.0
 40
1.0
100
AcDbArc
 50
264.5
 51
324.0676178984999
  0
ARC
  5
204B
330
74
100
AcDbEntity
  8
0
  6
Continuous
100
AcDbCircle
 10
139.8233630183
 20
274.0153952472999
 30
0.0
 40
1.0
100
AcDbArc
 50
354.4999999999999
 51
54.0676178985
  0
ARC
  5
204C
330
74
100
AcDbEntity
  8
0
  6
Continuous
100
AcDbCircle
 10
135.4043224581999
 20
217.6884737928999
 30
0.0
 40
57.5
100
AcDbArc
 50
94.9899797876
 51
162.4858624542999
  0
ARC
  5
204D
330
74
100
AcDbEntity
  8
0
  6
Continuous
100
AcDbCircle
 10
79.0774010038
 20
222.107514353
 30
0.0
 40
1.0
100
AcDbArc
 50
84.50000000000001
 51
144.0676178985
  0
CIRCLE
  5
204E
330
74
100
AcDbEntity
  8
0
  6
Continuous
100
AcDbCircle
 10
135.4043224581999
 20
247.6884737929
 30
0.0
 40
2.0
  0
CIRCLE
  5
204F
330
74
100
AcDbEntity
  8
0
  6
Continuous
100
AcDbCircle
 10
135.4043224581999
 20
187.6884737929
 30
0.0
 40
2.0
  0
CIRCLE
  5
2050
330
74
100
AcDbEntity
  8
0
  6
Continuous
100
AcDbCircle
 10
135.4043224581999
 20
247.6884737929
 30
0.0
 40
5.0
  0
CIRCLE
  5
2051
330
74
100
AcDbEntity
  8
0
  6
Continuous
100
AcDbCircle
 10
135.4043224581999
 20
187.6884737929
 30
0.0
 40
5.0
  0
ARC
  5
2052
330
74
100
AcDbEntity
  8
0
  6
Continuous
100
AcDbCircle
 10
135.4043224581999
 20
217.6884737928999
 30
0.0
 40
57.5
100
AcDbArc
 50
4.9899798076
 51
72.48586245430002
  0
ARC
  5
2053
330
74
100
AcDbEntity
  8
0
  6
Continuous
100
AcDbCircle
 10
135.4043224581999
 20
217.6884737928999
 30
0.0
 40
39.25
100
AcDbArc
 50
0.0
 51
9.702227563899999
  0
ARC
  5
2054
330
74
100
AcDbEntity
  8
0
  6
Continuous
100
AcDbCircle
 10
135.4043224581999
 20
217.6884737928999
 30
0.0
 40
44.24999999999999
100
AcDbArc
 50
0.0
 51
10.0107071279
  0
ARC
  5
2055
330
74
100
AcDbEntity
  8
0
  6
Continuous
100
AcDbCircle
 10
177.1543224581999
 20
217.6884737928999
 30
0.0
 40
2.5
100
AcDbArc
 50
180.0
 51
0.0
  0
ARC
  5
2056
330
74
100
AcDbEntity
  8
0
  6
Continuous
100
AcDbCircle
 10
175.7317257058
 20
228.4941689258999
 30
0.0
 40
6.0
100
AcDbArc
 50
15.0
 51
195.0
  0
ARC
  5
2057
330
74
100
AcDbEntity
  8
0
  6
Continuous
100
AcDbCircle
 10
135.4043224581999
 20
217.6884737928999
 30
0.0
 40
35.75
100
AcDbArc
 50
0.0
 51
15.0
  0
ARC
  5
2058
330
74
100
AcDbEntity
  8
0
  6
Continuous
100
AcDbCircle
 10
177.1543224581999
 20
217.6884737928999
 30
0.0
 40
6.0
100
AcDbArc
 50
180.0
 51
0.0
  0
ARC
  5
2059
330
74
100
AcDbEntity
  8
0
  6
Continuous
100
AcDbCircle
 10
135.4043224581999
 20
217.6884737928999
 30
0.0
 40
47.75
100
AcDbArc
 50
0.0
 51
15.0
  0
ARC
  5
205A
330
74
100
AcDbEntity
  8
0
  6
Continuous
100
AcDbCircle
 10
135.4043224581999
 20
217.6884737928999
 30
0.0
 40
57.5
100
AcDbArc
 50
184.9899797875998
 51
209.5088529345999
  0
ARC
  5
205B
330
74
100
AcDbEntity
  8
0
  6
Continuous
100
AcDbCircle
 10
135.4043224581999
 20
217.6884737928999
 30
0.0
 40
39.25
100
AcDbArc
 50
270.0
 51
279.7022275639
  0
ARC
  5
205C
330
74
100
AcDbEntity
  8
0
  6
Continuous
100
AcDbCircle
 10
135.4043224581999
 20
217.6884737928999
 30
0.0
 40
57.5
100
AcDbArc
 50
216.4911470654
 51
252.4858624543
  0
ARC
  5
205D
330
74
100
AcDbEntity
  8
0
  6
Continuous
100
AcDbCircle
 10
135.4043224581999
 20
217.6884737928999
 30
0.0
 40
44.24999999999999
100
AcDbArc
 50
270.0
 51
280.0107071279
  0
ARC
  5
205E
330
74
100
AcDbEntity
  8
0
  6
Continuous
100
AcDbCircle
 10
135.4043224581999
 20
175.9384737928999
 30
0.0
 40
2.5
100
AcDbArc
 50
90.0
 51
270.0
  0
ARC
  5
205F
330
74
100
AcDbEntity
  8
0
  6
Continuous
100
AcDbCircle
 10
146.2100175912
 20
177.3610705452999
 30
0.0
 40
6.0
100
AcDbArc
 50
285.0
 51
105.0
  0
ARC
  5
2060
330
74
100
AcDbEntity
  8
0
  6
Continuous
100
AcDbCircle
 10
135.4043224581999
 20
217.6884737928999
 30
0.0
 40
35.75
100
AcDbArc
 50
270.0
 51
285.0
  0
ARC
  5
2061
330
74
100
AcDbEntity
  8
0
  6
Continuous
100
AcDbCircle
 10
135.4043224581999
 20
175.9384737928999
 30
0.0
 40
6.0
100
AcDbArc
 50
90.0
 51
270.0
  0
ARC
  5
2062
330
74
100
AcDbEntity
  8
0
  6
Continuous
100
AcDbCircle
 10
135.4043224581999
 20
217.6884737928999
 30
0.0
 40
47.75
100
AcDbArc
 50
270.0
 51
285.0
  0
ARC
  5
2063
330
74
100
AcDbEntity
  8
0
  6
Continuous
100
AcDbCircle
 10
135.4043224581999
 20
217.6884737928999
 30
0.0
 40
44.24999999999999
100
AcDbArc
 50
180.0
 51
182.4238615018999
  0
ARC
  5
2064
330
74
100
AcDbEntity
  8
0
  6
Continuous
100
AcDbCircle
 10
93.65432245820001
 20
217.6884737928999
 30
0.0
 40
2.5
100
AcDbArc
 50
0.0
 51
180.0
  0
ARC
  5
2065
330
74
100
AcDbEntity
  8
0
  6
Continuous
100
AcDbCircle
 10
135.4043224581999
 20
217.6884737928999
 30
0.0
 40
39.25
100
AcDbArc
 50
180.0
 51
189.7022275638999
  0
ARC
  5
2066
330
74
100
AcDbEntity
  8
0
  6
Continuous
100
AcDbCircle
 10
95.07691921059999
 20
206.8827786597999
 30
0.0
 40
6.0
100
AcDbArc
 50
207.0700873361
 51
15.0
  0
ARC
  5
2067
330
74
100
AcDbEntity
  8
0
  6
Continuous
100
AcDbCircle
 10
135.4043224581999
 20
217.6884737928999
 30
0.0
 40
35.75
100
AcDbArc
 50
180.0
 51
195.0
  0
ARC
  5
2068
330
74
100
AcDbEntity
  8
0
  6
Continuous
100
AcDbCircle
 10
93.65432245820001
 20
217.6884737928999
 30
0.0
 40
6.0
100
AcDbArc
 50
0.0
 51
180.0
  0
ARC
  5
2069
330
74
100
AcDbEntity
  8
0
  6
Continuous
100
AcDbCircle
 10
135.4043224581999
 20
217.6884737928999
 30
0.0
 40
47.75
100
AcDbArc
 50
180.0
 51
183.5065859594999
  0
ARC
  5
206A
330
74
100
AcDbEntity
  8
0
  6
Continuous
100
AcDbCircle
 10
135.4043224581999
 20
217.6884737928999
 30
0.0
 40
39.25
100
AcDbArc
 50
90.0
 51
99.7022275639
  0
ARC
  5
206B
330
74
100
AcDbEntity
  8
0
  6
Continuous
100
AcDbCircle
 10
135.4043224581999
 20
217.6884737928999
 30
0.0
 40
44.24999999999999
100
AcDbArc
 50
90.0
 51
100.0107071279
  0
ARC
  5
206C
330
74
100
AcDbEntity
  8
0
  6
Continuous
100
AcDbCircle
 10
135.4043224581999
 20
259.4384737929
 30
0.0
 40
2.5
100
AcDbArc
 50
270.0
 51
90.0
  0
ARC
  5
206D
330
74
100
AcDbEntity
  8
0
  6
Continuous
100
AcDbCircle
 10
124.5986273251999
 20
258.0158770404
 30
0.0
 40
6.0
100
AcDbArc
 50
105.0
 51
285.0
  0
ARC
  5
206E
330
74
100
AcDbEntity
  8
0
  6
Continuous
100
AcDbCircle
 10
135.4043224581999
 20
217.6884737928999
 30
0.0
 40
35.75
100
AcDbArc
 50
90.0
 51
105.0
  0
ARC
  5
206F
330
74
100
AcDbEntity
  8
0
  6
Continuous
100
AcDbCircle
 10
135.4043224581999
 20
259.4384737929
 30
0.0
 40
6.0
100
AcDbArc
 50
270.0
 51
90.0
  0
ARC
  5
2070
330
74
100
AcDbEntity
  8
0
  6
Continuous
100
AcDbCircle
 10
135.4043224581999
 20
217.6884737928999
 30
0.0
 40
47.75
100
AcDbArc
 50
90.0
 51
105.0
  0
ARC
  5
2071
330
74
100
AcDbEntity
  8
0
  6
Continuous
100
AcDbCircle
 10
175.7317257058
 20
228.4941689258999
 30
0.0
 40
4.5
100
AcDbArc
 50
316.2180693713001
 51
248.643020082
  0
ARC
  5
2072
330
74
100
AcDbEntity
  8
0
  6
Continuous
100
AcDbCircle
 10
146.2100175912
 20
177.3610705452999
 30
0.0
 40
4.5
100
AcDbArc
 50
226.2180693713
 51
158.643020082
  0
ARC
  5
2073
330
74
100
AcDbEntity
  8
0
  6
Continuous
100
AcDbCircle
 10
95.07691921059999
 20
206.8827786597999
 30
0.0
 40
4.5
100
AcDbArc
 50
213.040916498
 51
68.64302008199999
  0
ARC
  5
2074
330
74
100
AcDbEntity
  8
0
  6
Continuous
100
AcDbCircle
 10
124.5986273251999
 20
258.0158770404
 30
0.0
 40
4.5
100
AcDbArc
 50
46.21806937130001
 51
338.643020082
  0
ARC
  5
2075
330
74
100
AcDbEntity
  8
0
  6
Continuous
100
AcDbCircle
 10
135.4043224581999
 20
217.6884737928999
 30
0.0
 40
64.0
100
AcDbArc
 50
289.8964806109
 51
340.1035193890999
  0
ARC
  5
2076
330
74
100
AcDbEntity
  8
0
  6
Continuous
100
AcDbCircle
 10
135.4043224581999
 20
217.6884737928999
 30
0.0
 40
64.0
100
AcDbArc
 50
19.89648061089999
 51
70.10351938939999
  0
ARC
  5
2077
330
74
100
AcDbEntity
  8
0
  6
Continuous
100
AcDbCircle
 10
135.4043224581999
 20
217.6884737928999
 30
0.0
 40
64.0
100
AcDbArc
 50
109.8964806106
 51
160.1035193893999
  0
ARC
  5
2078
330
74
100
AcDbEntity
  8
0
  6
Continuous
100
AcDbCircle
 10
135.4043224581999
 20
217.6884737928999
 30
0.0
 40
63.8608695652
100
AcDbArc
 50
216.3214889059999
 51
228.0
  0
ARC
  5
2079
330
74
100
AcDbEntity
  8
0
  6
Continuous
100
AcDbCircle
 10
135.4043224581999
 20
217.6884737928999
 30
0.0
 40
64.0
100
AcDbArc
 50
228.0
 51
250.1035193891
  0
ARC
  5
207A
330
74
100
AcDbEntity
  8
0
  6
Continuous
100
AcDbCircle
 10
135.4043224581999
 20
217.6884737928999
 30
0.0
 40
64.0
100
AcDbArc
 50
199.8964806106
 51
209.6857397950999
  0
ARC
  5
207B
330
74
100
AcDbEntity
  8
0
  6
Continuous
100
AcDbCircle
 10
135.4043224581999
 20
217.6884737928999
 30
0.0
 40
63.72173913040001
100
AcDbArc
 50
216.1487223881
 51
216.3287492268
  0
ARC
  5
207C
330
74
100
AcDbEntity
  8
0
  6
Continuous
100
AcDbCircle
 10
135.4043224581999
 20
217.6884737928999
 30
0.0
 40
63.72173913040001
100
AcDbArc
 50
209.6712507732
 51
209.8512776118999
  0
ARC
  5
207D
330
74
100
AcDbEntity
  8
0
  6
Continuous
100
AcDbCircle
 10
87.15433573549999
 20
250.2335007749
 30
0.0
 40
0.6
100
AcDbArc
 50
236.0
 51
56.0
  0
ARC
  5
207E
330
74
100
AcDbEntity
  8
0
  6
Continuous
100
AcDbCircle
 10
80.37514135829999
 20
236.6365403822999
 30
0.0
 40
0.6
100
AcDbArc
 50
251.0
 51
71.0
  0
ARC
  5
207F
330
74
100
AcDbEntity
  8
0
  6
Continuous
100
AcDbCircle
 10
80.37514135829999
 20
198.7404072034999
 30
0.0
 40
0.6
100
AcDbArc
 50
289.0
 51
109.0
  0
ARC
  5
2080
330
74
100
AcDbEntity
  8
0
  6
Continuous
100
AcDbCircle
 10
-282.9341390803
 20
217.6884737928999
 30
0.0
 40
358.7384615384999
100
AcDbArc
 50
356.5832208928
 51
3.4167791072
  0
ARC
  5
2081
330
74
100
AcDbEntity
  8
0
  6
Continuous
100
AcDbCircle
 10
135.4043224581999
 20
636.0269353313
 30
0.0
 40
358.7384615384999
100
AcDbArc
 50
266.5832208928
 51
273.4167791072
  0
ARC
  5
2082
330
74
100
AcDbEntity
  8
0
  6
Continuous
100
AcDbCircle
 10
553.7427839965999
 20
217.6884737928999
 30
0.0
 40
358.7384615384999
100
AcDbArc
 50
176.5832208928
 51
183.4167791071999
  0
ARC
  5
2083
330
74
100
AcDbEntity
  8
0
  6
Continuous
100
AcDbCircle
 10
135.4043224581999
 20
-200.6499877456
 30
0.0
 40
358.7384615384999
100
AcDbArc
 50
86.5832208928
 51
89.95208561469999
  0
ARC
  5
2084
330
74
100
AcDbEntity
  8
0
  6
Continuous
100
AcDbCircle
 10
135.4043224581999
 20
-200.6499877456
 30
0.0
 40
358.7384615384999
100
AcDbArc
 50
90.0479143853
 51
93.41677910719999
  0
ARC
  5
2085
330
74
100
AcDbEntity
  8
0
  6
Continuous
100
AcDbCircle
 10
102.8592954762
 20
169.4384870702
 30
0.0
 40
0.6
100
AcDbArc
 50
326.0
 51
146.0
  0
ARC
  5
2086
330
74
100
AcDbEntity
  8
0
  6
Continuous
100
AcDbCircle
 10
116.4562558687999
 20
162.6592926929999
 30
0.0
 40
0.6
100
AcDbArc
 50
341.0
 51
161.0
  0
ARC
  5
2087
330
74
100
AcDbEntity
  8
0
  6
Continuous
100
AcDbCircle
 10
154.3523890476
 20
162.6592926929999
 30
0.0
 40
0.6
100
AcDbArc
 50
19.0
 51
199.0
  0
ARC
  5
2088
330
74
100
AcDbEntity
  8
0
  6
Continuous
100
AcDbCircle
 10
167.9493494401999
 20
169.4384870702
 30
0.0
 40
0.6
100
AcDbArc
 50
34.0
 51
214.0
  0
ARC
  5
2089
330
74
100
AcDbEntity
  8
0
  6
Continuous
100
AcDbCircle
 10
183.6543091809
 20
185.1434468108999
 30
0.0
 40
0.6
100
AcDbArc
 50
56.0
 51
236.0
  0
ARC
  5
208A
330
74
100
AcDbEntity
  8
0
  6
Continuous
100
AcDbCircle
 10
190.4335035581
 20
198.7404072034999
 30
0.0
 40
0.6
100
AcDbArc
 50
71.0
 51
251.0
  0
ARC
  5
208B
330
74
100
AcDbEntity
  8
0
  6
Continuous
100
AcDbCircle
 10
190.4335035581
 20
236.6365403822999
 30
0.0
 40
0.6
100
AcDbArc
 50
109.0
 51
289.0
  0
ARC
  5
208C
330
74
100
AcDbEntity
  8
0
  6
Continuous
100
AcDbCircle
 10
183.6543091809
 20
250.2335007749
 30
0.0
 40
0.6
100
AcDbArc
 50
124.0
 51
304.0
  0
ARC
  5
208D
330
74
100
AcDbEntity
  8
0
  6
Continuous
100
AcDbCircle
 10
167.9493494401999
 20
265.9384605156
 30
0.0
 40
0.6
100
AcDbArc
 50
146.0
 51
326.0
  0
ARC
  5
208E
330
74
100
AcDbEntity
  8
0
  6
Continuous
100
AcDbCircle
 10
154.3523890476
 20
272.7176548927999
 30
0.0
 40
0.6
100
AcDbArc
 50
161.0
 51
341.0
  0
ARC
  5
208F
330
74
100
AcDbEntity
  8
0
  6
Continuous
100
AcDbCircle
 10
116.4562558687999
 20
272.7176548927999
 30
0.0
 40
0.6
100
AcDbArc
 50
199.0
 51
19.0
  0
ARC
  5
2090
330
74
100
AcDbEntity
  8
0
  6
Continuous
100
AcDbCircle
 10
102.8592954762
 20
265.9384605156
 30
0.0
 40
0.6
100
AcDbArc
 50
214.0
 51
34.0
  0
CIRCLE
  5
2091
330
74
100
AcDbEntity
  8
0
  6
Continuous
100
AcDbCircle
 10
177.8307293293999
 20
260.1148806641
 30
0.0
 40
1.5
  0
ARC
  5
2092
330
74
100
AcDbEntity
  8
0
  6
Continuous
100
AcDbCircle
 10
135.4043224581999
 20
217.6884737928999
 30
0.0
 40
47.7
100
AcDbArc
 50
63.4929675362
 51
65.16621054649999
  0
ARC
  5
2093
330
74
100
AcDbEntity
  8
0
  6
Continuous
100
AcDbCircle
 10
135.4043224581999
 20
217.6884737928999
 30
0.0
 40
47.7
100
AcDbArc
 50
74.81175145609999
 51
76.5086845083
  0
ARC
  5
2094
330
74
100
AcDbEntity
  8
0
  6
Continuous
100
AcDbCircle
 10
135.4043224581999
 20
217.6884737928999
 30
0.0
 40
47.7
100
AcDbArc
 50
183.511456813
 51
185.1587299691999
  0
ARC
  5
2095
330
74
100
AcDbEntity
  8
0
  6
Continuous
100
AcDbCircle
 10
135.4043224581999
 20
217.6884737928999
 30
0.0
 40
47.7
100
AcDbArc
 50
194.8169301784999
 51
196.5091782152
  0
ARC
  5
2096
330
74
100
AcDbEntity
  8
0
  6
Continuous
100
AcDbCircle
 10
135.4043224581999
 20
217.6884737928999
 30
0.0
 40
47.7
100
AcDbArc
 50
206.3715300397999
 51
206.4922285084999
  0
ARC
  5
2097
330
74
100
AcDbEntity
  8
0
  6
Continuous
100
AcDbCircle
 10
135.4043224581999
 20
217.6884737928999
 30
0.0
 40
47.7
100
AcDbArc
 50
217.207996142
 51
219.6304132424
  0
ARC
  5
2098
330
74
100
AcDbEntity
  8
0
  6
Continuous
100
AcDbCircle
 10
135.4043224581999
 20
217.6884737928999
 30
0.0
 40
47.7
100
AcDbArc
 50
303.496199089
 51
305.1745616545999
  0
ARC
  5
2099
330
74
100
AcDbEntity
  8
0
  6
Continuous
100
AcDbCircle
 10
135.4043224581999
 20
217.6884737928999
 30
0.0
 40
47.7
100
AcDbArc
 50
314.8287149899999
 51
316.5005602625
  0
ARC
  5
209A
330
74
100
AcDbEntity
  8
0
  6
Continuous
100
AcDbCircle
 10
-282.9341390803
 20
217.6884737928999
 30
0.0
 40
360.3403740019
100
AcDbArc
 50
356.8950421473999
 51
359.2049514515
  0
ARC
  5
209B
330
74
100
AcDbEntity
  8
0
  6
Continuous
100
AcDbCircle
 10
135.4043224581999
 20
636.0269353313
 30
0.0
 40
360.3403740019
100
AcDbArc
 50
266.8950421474
 51
269.2049514514999
  0
ARC
  5
209C
330
74
100
AcDbEntity
  8
0
  6
Continuous
100
AcDbCircle
 10
553.7427839965999
 20
217.6884737928999
 30
0.0
 40
360.3403740019
100
AcDbArc
 50
180.7950485484999
 51
183.1049578525999
  0
ARC
  5
209D
330
74
100
AcDbEntity
  8
0
  6
Continuous
100
AcDbCircle
 10
-282.9341390803
 20
217.6884737928999
 30
0.0
 40
360.3403740019
100
AcDbArc
 50
3.311052003999997
 51
3.3962413317
  0
ARC
  5
209E
330
74
100
AcDbEntity
  8
0
  6
Continuous
100
AcDbCircle
 10
135.4043224581999
 20
636.0269353313
 30
0.0
 40
360.3403740019
100
AcDbArc
 50
266.6037586683
 51
266.688947996
  0
ARC
  5
209F
330
74
100
AcDbEntity
  8
0
  6
Continuous
100
AcDbCircle
 10
135.4043224581999
 20
217.6884737928999
 30
0.0
 40
62.3961332169
100
AcDbArc
 50
110.0060090853
 51
123.4490364104999
  0
ARC
  5
20A0
330
74
100
AcDbEntity
  8
0
  6
Continuous
100
AcDbCircle
 10
135.4043224581999
 20
217.6884737928999
 30
0.0
 40
62.3961332169
100
AcDbArc
 50
228.0
 51
235.4490364105
  0
ARC
  5
20A1
330
74
100
AcDbEntity
  8
0
  6
Continuous
100
AcDbCircle
 10
135.4043224581999
 20
-200.6499877456
 30
0.0
 40
360.3403740019
100
AcDbArc
 50
86.89504214739995
 51
89.20495145149997
  0
ARC
  5
20A2
330
74
100
AcDbEntity
  8
0
  6
Continuous
100
AcDbCircle
 10
553.7427839965999
 20
217.6884737928999
 30
0.0
 40
360.3403740019
100
AcDbArc
 50
176.8950421474
 51
179.2049514515
  0
ARC
  5
20A3
330
74
100
AcDbEntity
  8
0
  6
Continuous
100
AcDbCircle
 10
135.4043224581999
 20
217.6884737928999
 30
0.0
 40
62.3961332169
100
AcDbArc
 50
124.5509635895
 51
145.4490364105
  0
ARC
  5
20A4
330
74
100
AcDbEntity
  8
0
  6
Continuous
100
AcDbCircle
 10
-282.9341390803
 20
217.6884737928999
 30
0.0
 40
360.3403740019
100
AcDbArc
 50
356.6037586683999
 51
356.6889479959999
  0
ARC
  5
20A5
330
74
100
AcDbEntity
  8
0
  6
Continuous
100
AcDbCircle
 10
135.4043224581999
 20
217.6884737928999
 30
0.0
 40
62.3961332169
100
AcDbArc
 50
200.0060090849999
 51
209.6004492555
  0
ARC
  5
20A6
330
74
100
AcDbEntity
  8
0
  6
Continuous
100
AcDbCircle
 10
553.7427839965999
 20
217.6884737928999
 30
0.0
 40
360.3403740019
100
AcDbArc
 50
176.6037586683
 51
176.6889479959999
  0
ARC
  5
20A7
330
74
100
AcDbEntity
  8
0
  6
Continuous
100
AcDbCircle
 10
135.4043224581999
 20
217.6884737928999
 30
0.0
 40
62.3961332169
100
AcDbArc
 50
20.0060090853
 51
33.4490364105
  0
ARC
  5
20A8
330
74
100
AcDbEntity
  8
0
  6
Continuous
100
AcDbCircle
 10
135.4043224581999
 20
-200.6499877456
 30
0.0
 40
360.3403740019
100
AcDbArc
 50
86.6037586684
 51
86.68894799600002
  0
ARC
  5
20A9
330
74
100
AcDbEntity
  8
0
  6
Continuous
100
AcDbCircle
 10
135.4043224581999
 20
217.6884737928999
 30
0.0
 40
62.3961332169
100
AcDbArc
 50
290.0060090847
 51
303.4490364105
  0
ARC
  5
20AA
330
74
100
AcDbEntity
  8
0
  6
Continuous
100
AcDbCircle
 10
135.4043224581999
 20
217.6884737928999
 30
0.0
 40
62.3961332169
100
AcDbArc
 50
236.5509635895
 51
249.9939909152999
  0
ARC
  5
20AB
330
74
100
AcDbEntity
  8
0
  6
Continuous
100
AcDbCircle
 10
135.4043224581999
 20
217.6884737928999
 30
0.0
 40
62.3961332169
100
AcDbArc
 50
34.5509635895
 51
55.44903641050002
  0
ARC
  5
20AC
330
74
100
AcDbEntity
  8
0
  6
Continuous
100
AcDbCircle
 10
-282.9341390803
 20
217.6884737928999
 30
0.0
 40
360.7414209091999
100
AcDbArc
 50
358.2854124447
 51
358.4799920001
  0
ARC
  5
20AD
330
74
100
AcDbEntity
  8
0
  6
Continuous
100
AcDbCircle
 10
135.4043224581999
 20
-200.6499877456
 30
0.0
 40
360.3403740019
100
AcDbArc
 50
93.31105200399999
 51
93.39624133159999
  0
ARC
  5
20AE
330
74
100
AcDbEntity
  8
0
  6
Continuous
100
AcDbCircle
 10
135.4043224581999
 20
636.0269353313
 30
0.0
 40
360.7414209091999
100
AcDbArc
 50
268.2854124447
 51
268.4799920000999
  0
ARC
  5
20AF
330
74
100
AcDbEntity
  8
0
  6
Continuous
100
AcDbCircle
 10
553.7427839965999
 20
217.6884737928999
 30
0.0
 40
360.7414209091999
100
AcDbArc
 50
178.2854124446999
 51
178.4799920000999
  0
ARC
  5
20B0
330
74
100
AcDbEntity
  8
0
  6
Continuous
100
AcDbCircle
 10
135.4043224581999
 20
-200.6499877456
 30
0.0
 40
360.7414209091999
100
AcDbArc
 50
88.28541244469999
 51
88.47999200009999
  0
ARC
  5
20B1
330
74
100
AcDbEntity
  8
0
  6
Continuous
100
AcDbCircle
 10
135.4043224581999
 20
217.6884737928999
 30
0.0
 40
59.0429266809
100
AcDbArc
 50
146.5822553412
 51
160.4177446587999
  0
ARC
  5
20B2
330
74
100
AcDbEntity
  8
0
  6
Continuous
100
AcDbCircle
 10
135.4043224581999
 20
217.6884737928999
 30
0.0
 40
59.0429266809
100
AcDbArc
 50
161.5822553412
 51
162.1323323242
  0
ARC
  5
20B3
330
74
100
AcDbEntity
  8
0
  6
Continuous
100
AcDbCircle
 10
135.4043224581999
 20
217.6884737928999
 30
0.0
 40
62.3961332169
100
AcDbArc
 50
304.5509635894999
 51
325.4490364105
  0
ARC
  5
20B4
330
74
100
AcDbEntity
  8
0
  6
Continuous
100
AcDbCircle
 10
135.4043224581999
 20
217.6884737928999
 30
0.0
 40
62.3961332169
100
AcDbArc
 50
56.5509635895
 51
69.9939909147
  0
ARC
  5
20B5
330
74
100
AcDbEntity
  8
0
  6
Continuous
100
AcDbCircle
 10
135.4043224581999
 20
217.6884737928999
 30
0.0
 40
59.0429266809
100
AcDbArc
 50
107.8676676758
 51
108.4177446587999
  0
ARC
  5
20B6
330
74
100
AcDbEntity
  8
0
  6
Continuous
100
AcDbCircle
 10
135.4043224581999
 20
217.6884737928999
 30
0.0
 40
59.0429266809
100
AcDbArc
 50
109.5822553412
 51
123.4177446587999
  0
ARC
  5
20B7
330
74
100
AcDbEntity
  8
0
  6
Continuous
100
AcDbCircle
 10
135.4043224581999
 20
217.6884737928999
 30
0.0
 40
59.0429266809
100
AcDbArc
 50
124.5822553412
 51
145.4177446587999
  0
ARC
  5
20B8
330
74
100
AcDbEntity
  8
0
  6
Continuous
100
AcDbCircle
 10
135.4043224581999
 20
217.6884737928999
 30
0.0
 40
59.0429266809
100
AcDbArc
 50
236.5822553411998
 51
250.4177446588
  0
ARC
  5
20B9
330
74
100
AcDbEntity
  8
0
  6
Continuous
100
AcDbCircle
 10
135.4043224581999
 20
217.6884737928999
 30
0.0
 40
61.70048104300001
100
AcDbArc
 50
40.3518453808
 51
49.6481546192
  0
ARC
  5
20BA
330
74
100
AcDbEntity
  8
0
  6
Continuous
100
AcDbCircle
 10
135.4043224581999
 20
217.6884737928999
 30
0.0
 40
59.25495952729999
100
AcDbArc
 50
18.2753919322
 51
18.4198282226
  0
ARC
  5
20BB
330
74
100
AcDbEntity
  8
0
  6
Continuous
100
AcDbCircle
 10
135.4043224581999
 20
217.6884737928999
 30
0.0
 40
59.0429266809
100
AcDbArc
 50
251.5822553411999
 51
252.1323323242
  0
ARC
  5
20BC
330
74
100
AcDbEntity
  8
0
  6
Continuous
100
AcDbCircle
 10
135.4043224581999
 20
217.6884737928999
 30
0.0
 40
59.25495952729999
100
AcDbArc
 50
341.5801717774
 51
341.7246080677999
  0
ARC
  5
20BD
330
74
100
AcDbEntity
  8
0
  6
Continuous
100
AcDbCircle
 10
135.4043224581999
 20
636.0269353313
 30
0.0
 40
360.3403740019
100
AcDbArc
 50
273.311052004
 51
273.3962413316999
  0
ARC
  5
20BE
330
74
100
AcDbEntity
  8
0
  6
Continuous
100
AcDbCircle
 10
135.4043224581999
 20
217.6884737928999
 30
0.0
 40
59.25495952729999
100
AcDbArc
 50
288.2753919322
 51
288.4198282225999
  0
ARC
  5
20BF
330
74
100
AcDbEntity
  8
0
  6
Continuous
100
AcDbCircle
 10
135.4043224581999
 20
217.6884737928999
 30
0.0
 40
54.6220416075
100
AcDbArc
 50
207.2160999010999
 51
209.3235214612
  0
ARC
  5
20C0
330
74
100
AcDbEntity
  8
0
  6
Continuous
100
AcDbCircle
 10
135.4043224581999
 20
217.6884737928999
 30
0.0
 40
54.6220416075
100
AcDbArc
 50
216.6785648299
 51
218.7846754626999
  0
ARC
  5
20C1
330
74
100
AcDbEntity
  8
0
  6
Continuous
100
AcDbCircle
 10
135.4043224581999
 20
217.6884737928999
 30
0.0
 40
59.25495952729999
100
AcDbArc
 50
251.5801717773999
 51
251.7246080677999
  0
ARC
  5
20C2
330
74
100
AcDbEntity
  8
0
  6
Continuous
100
AcDbCircle
 10
135.4043224581999
 20
217.6884737928999
 30
0.0
 40
62.3961332169
100
AcDbArc
 50
146.5509635895
 51
159.9939909146999
  0
ARC
  5
20C3
330
74
100
AcDbEntity
  8
0
  6
Continuous
100
AcDbCircle
 10
135.4043224581999
 20
217.6884737928999
 30
0.0
 40
59.25495952729999
100
AcDbArc
 50
198.2753919322
 51
198.4198282226
  0
ARC
  5
20C4
330
74
100
AcDbEntity
  8
0
  6
Continuous
100
AcDbCircle
 10
135.4043224581999
 20
217.6884737928999
 30
0.0
 40
59.25495952729999
100
AcDbArc
 50
161.5801717774
 51
161.7246080678
  0
ARC
  5
20C5
330
74
100
AcDbEntity
  8
0
  6
Continuous
100
AcDbCircle
 10
135.4043224581999
 20
217.6884737928999
 30
0.0
 40
59.0429266809
100
AcDbArc
 50
197.8676676758
 51
198.4177446588
  0
ARC
  5
20C6
330
74
100
AcDbEntity
  8
0
  6
Continuous
100
AcDbCircle
 10
135.4043224581999
 20
217.6884737928999
 30
0.0
 40
59.25495952729999
100
AcDbArc
 50
108.2753919321999
 51
108.4198282226
  0
ARC
  5
20C7
330
74
100
AcDbEntity
  8
0
  6
Continuous
100
AcDbCircle
 10
135.4043224581999
 20
217.6884737928999
 30
0.0
 40
59.0429266809
100
AcDbArc
 50
199.5822553412
 51
209.6004108606
  0
ARC
  5
20C8
330
74
100
AcDbEntity
  8
0
  6
Continuous
100
AcDbCircle
 10
135.4043224581999
 20
217.6884737928999
 30
0.0
 40
59.25495952729999
100
AcDbArc
 50
71.58017177739998
 51
71.72460806779999
  0
ARC
  5
20C9
330
74
100
AcDbEntity
  8
0
  6
Continuous
100
AcDbCircle
 10
135.4043224581999
 20
217.6884737928999
 30
0.0
 40
59.0429266809
100
AcDbArc
 50
216.4007228802999
 51
235.4177446588
  0
ARC
  5
20CA
330
74
100
AcDbEntity
  8
0
  6
Continuous
100
AcDbCircle
 10
135.4043224581999
 20
217.6884737928999
 30
0.0
 40
59.0429266809
100
AcDbArc
 50
326.5822553411999
 51
340.4177446588
  0
ARC
  5
20CB
330
74
100
AcDbEntity
  8
0
  6
Continuous
100
AcDbCircle
 10
135.4043224581999
 20
217.6884737928999
 30
0.0
 40
59.25495952729999
100
AcDbArc
 50
19.5801717774
 51
33.4198282226
  0
ARC
  5
20CC
330
74
100
AcDbEntity
  8
0
  6
Continuous
100
AcDbCircle
 10
135.4043224581999
 20
217.6884737928999
 30
0.0
 40
59.0429266809
100
AcDbArc
 50
341.5822553411999
 51
342.1323323241999
  0
ARC
  5
20CD
330
74
100
AcDbEntity
  8
0
  6
Continuous
100
AcDbCircle
 10
135.4043224581999
 20
217.6884737928999
 30
0.0
 40
59.25495952729999
100
AcDbArc
 50
56.58017177739999
 51
70.4198282226
  0
ARC
  5
20CE
330
74
100
AcDbEntity
  8
0
  6
Continuous
100
AcDbCircle
 10
135.4043224581999
 20
217.6884737928999
 30
0.0
 40
59.25495952729999
100
AcDbArc
 50
34.58017177739999
 51
40.1569416032
  0
ARC
  5
20CF
330
74
100
AcDbEntity
  8
0
  6
Continuous
100
AcDbCircle
 10
135.4043224581999
 20
217.6884737928999
 30
0.0
 40
59.25495952729999
100
AcDbArc
 50
43.7756716513
 51
46.2352797214
  0
ARC
  5
20D0
330
74
100
AcDbEntity
  8
0
  6
Continuous
100
AcDbCircle
 10
135.4043224581999
 20
217.6884737928999
 30
0.0
 40
59.25495952729999
100
AcDbArc
 50
49.8430563283
 51
55.41982822260001
  0
ARC
  5
20D1
330
74
100
AcDbEntity
  8
0
  6
Continuous
100
AcDbCircle
 10
135.4043224581999
 20
-200.6499877456
 30
0.0
 40
360.3403740019
100
AcDbArc
 50
90.79504854849998
 51
93.1049578526
  0
ARC
  5
20D2
330
74
100
AcDbEntity
  8
0
  6
Continuous
100
AcDbCircle
 10
135.4043224581999
 20
217.6884737928999
 30
0.0
 40
59.25495952729999
100
AcDbArc
 50
289.5801717774
 51
303.4198282225999
  0
ARC
  5
20D3
330
74
100
AcDbEntity
  8
0
  6
Continuous
100
AcDbCircle
 10
135.4043224581999
 20
217.6884737928999
 30
0.0
 40
59.0429266809
100
AcDbArc
 50
287.8676676758
 51
288.4177446588
  0
ARC
  5
20D4
330
74
100
AcDbEntity
  8
0
  6
Continuous
100
AcDbCircle
 10
135.4043224581999
 20
217.6884737928999
 30
0.0
 40
59.25495952729999
100
AcDbArc
 50
326.5801717774
 51
340.4198282225998
  0
ARC
  5
20D5
330
74
100
AcDbEntity
  8
0
  6
Continuous
100
AcDbCircle
 10
135.4043224581999
 20
217.6884737928999
 30
0.0
 40
59.0429266809
100
AcDbArc
 50
289.5822553411999
 51
303.4177446588
  0
ARC
  5
20D6
330
74
100
AcDbEntity
  8
0
  6
Continuous
100
AcDbCircle
 10
135.4043224581999
 20
217.6884737928999
 30
0.0
 40
59.0429266809
100
AcDbArc
 50
304.5822553412
 51
325.4177446588
  0
ARC
  5
20D7
330
74
100
AcDbEntity
  8
0
  6
Continuous
100
AcDbCircle
 10
135.4043224581999
 20
217.6884737928999
 30
0.0
 40
59.0429266809
100
AcDbArc
 50
56.58225534119999
 51
70.4177446588
  0
ARC
  5
20D8
330
74
100
AcDbEntity
  8
0
  6
Continuous
100
AcDbCircle
 10
135.4043224581999
 20
217.6884737928999
 30
0.0
 40
59.25495952729999
100
AcDbArc
 50
304.5801717774001
 51
325.4198282225999
  0
ARC
  5
20D9
330
74
100
AcDbEntity
  8
0
  6
Continuous
100
AcDbCircle
 10
135.4043224581999
 20
217.6884737928999
 30
0.0
 40
59.0429266809
100
AcDbArc
 50
71.58225534119998
 51
72.13233232420002
  0
ARC
  5
20DA
330
74
100
AcDbEntity
  8
0
  6
Continuous
100
AcDbCircle
 10
135.4043224581999
 20
217.6884737928999
 30
0.0
 40
59.25495952729999
100
AcDbArc
 50
236.5801717774
 51
250.4198282226
  0
ARC
  5
20DB
330
74
100
AcDbEntity
  8
0
  6
Continuous
100
AcDbCircle
 10
135.4043224581999
 20
636.0269353313
 30
0.0
 40
360.3403740019
100
AcDbArc
 50
270.7950485485
 51
273.1049578525999
  0
ARC
  5
20DC
330
74
100
AcDbEntity
  8
0
  6
Continuous
100
AcDbCircle
 10
135.4043224581999
 20
217.6884737928999
 30
0.0
 40
59.25495952729999
100
AcDbArc
 50
109.5801717774
 51
123.4198282226
  0
ARC
  5
20DD
330
74
100
AcDbEntity
  8
0
  6
Continuous
100
AcDbCircle
 10
135.4043224581999
 20
217.6884737928999
 30
0.0
 40
59.25495952729999
100
AcDbArc
 50
146.5801717774
 51
160.4198282225999
  0
ARC
  5
20DE
330
74
100
AcDbEntity
  8
0
  6
Continuous
100
AcDbCircle
 10
135.4043224581999
 20
217.6884737928999
 30
0.0
 40
59.0429266809
100
AcDbArc
 50
17.8676676758
 51
18.4177446588
  0
ARC
  5
20DF
330
74
100
AcDbEntity
  8
0
  6
Continuous
100
AcDbCircle
 10
135.4043224581999
 20
217.6884737928999
 30
0.0
 40
59.0429266809
100
AcDbArc
 50
19.5822553412
 51
33.4177446588
  0
ARC
  5
20E0
330
74
100
AcDbEntity
  8
0
  6
Continuous
100
AcDbCircle
 10
135.4043224581999
 20
217.6884737928999
 30
0.0
 40
59.0429266809
100
AcDbArc
 50
34.58225534119999
 51
40.13952899809999
  0
ARC
  5
20E1
330
74
100
AcDbEntity
  8
0
  6
Continuous
100
AcDbCircle
 10
135.4043224581999
 20
217.6884737928999
 30
0.0
 40
59.0429266809
100
AcDbArc
 50
43.92286581359999
 51
46.07859785689999
  0
ARC
  5
20E2
330
74
100
AcDbEntity
  8
0
  6
Continuous
100
AcDbCircle
 10
135.4043224581999
 20
217.6884737928999
 30
0.0
 40
59.0429266809
100
AcDbArc
 50
49.86046383319999
 51
55.41774465880001
  0
ARC
  5
20E3
330
74
100
AcDbEntity
  8
0
  6
Continuous
100
AcDbCircle
 10
135.4043224581999
 20
217.6884737928999
 30
0.0
 40
59.25495952729999
100
AcDbArc
 50
124.5801717774
 51
145.4198282225999
  0
ARC
  5
20E4
330
74
100
AcDbEntity
  8
0
  6
Continuous
100
AcDbCircle
 10
135.4043224581999
 20
217.6884737928999
 30
0.0
 40
59.25495952729999
100
AcDbArc
 50
216.3885440836999
 51
235.4198282226
  0
ARC
  5
20E5
330
74
100
AcDbEntity
  8
0
  6
Continuous
100
AcDbCircle
 10
135.4043224581999
 20
217.6884737928999
 30
0.0
 40
62.3961332169
100
AcDbArc
 50
326.5509635894999
 51
339.9939909149999
  0
ARC
  5
20E6
330
74
100
AcDbEntity
  8
0
  6
Continuous
100
AcDbCircle
 10
135.4043224581999
 20
217.6884737928999
 30
0.0
 40
62.2570027821
100
AcDbArc
 50
216.4071569355999
 51
228.0
  0
ARC
  5
20E7
330
74
100
AcDbEntity
  8
0
  6
Continuous
100
AcDbCircle
 10
553.7427839965999
 20
217.6884737928999
 30
0.0
 40
360.3403740019
100
AcDbArc
 50
183.3110520039999
 51
183.3962413316
  0
ARC
  5
20E8
330
74
100
AcDbEntity
  8
0
  6
Continuous
100
AcDbCircle
 10
135.4043224581999
 20
217.6884737928999
 30
0.0
 40
62.1178723474
100
AcDbArc
 50
216.2300477206999
 51
216.4147972596
  0
ARC
  5
20E9
330
74
100
AcDbEntity
  8
0
  6
Continuous
100
AcDbCircle
 10
135.4043224581999
 20
217.6884737928999
 30
0.0
 40
62.1178723474
100
AcDbArc
 50
209.5852027404
 51
209.7698878001
  0
ARC
  5
20EA
330
74
100
AcDbEntity
  8
0
  6
Continuous
100
AcDbCircle
 10
-282.9341390803
 20
217.6884737928999
 30
0.0
 40
360.3403740019
100
AcDbArc
 50
0.7950485485000001
 51
3.1049578526
  0
ARC
  5
20EB
330
74
100
AcDbEntity
  8
0
  6
Continuous
100
AcDbCircle
 10
135.4043224581999
 20
217.6884737928999
 30
0.0
 40
59.25495952729999
100
AcDbArc
 50
199.5801717774
 51
209.6125817366999
  0
LINE
  5
2140
330
74
100
AcDbEntity
  8
0
  6
Continuous
100
AcDbLine
 10
157.1849171741
 20
277.8682519066999
 30
0.0
 11
156.9878085235
 21
277.9176258856999
 31
0.0
  0
LINE
  5
2141
330
74
100
AcDbEntity
  8
0
  6
Continuous
100
AcDbLine
 10
156.9878085235
 20
277.9176258856999
 30
0.0
 11
156.78467064
 21
277.9261611091
 31
0.0
  0
LINE
  5
2142
330
74
100
AcDbEntity
  8
0
  6
Continuous
100
AcDbLine
 10
114.0239742764
 20
277.9261611091
 30
0.0
 11
113.8208563228
 21
277.917628769
 31
0.0
  0
LINE
  5
2143
330
74
100
AcDbEntity
  8
0
  6
Continuous
100
AcDbLine
 10
113.8208563228
 20
277.917628769
 30
0.0
 11
113.6237277421999
 21
277.8682519066999
 31
0.0
  0
LINE
  5
2155
330
74
100
AcDbEntity
  8
0
  6
Continuous
100
AcDbLine
 10
195.5841005719
 20
195.9078790766
 30
0.0
 11
195.6334745511999
 21
196.1049877275
 31
0.0
  0
LINE
  5
2156
330
74
100
AcDbEntity
  8
0
  6
Continuous
100
AcDbLine
 10
195.6334745511999
 20
196.1049877275
 30
0.0
 11
195.6420097743999
 21
196.3081256113999
 31
0.0
  0
LINE
  5
2157
330
74
100
AcDbEntity
  8
0
  6
Continuous
100
AcDbLine
 10
195.6420097743999
 20
239.0688219743
 30
0.0
 11
195.6334765511999
 21
239.271946034
 31
0.0
  0
LINE
  5
2158
330
74
100
AcDbEntity
  8
0
  6
Continuous
100
AcDbLine
 10
195.6334765511999
 20
239.271946034
 30
0.0
 11
195.5841005719
 21
239.4690685091
 31
0.0
  0
LINE
  5
2159
330
74
100
AcDbEntity
  8
0
  6
Continuous
100
AcDbLine
 10
191.5994727143999
 20
199.5729478901999
 30
0.0
 11
191.6278635218
 21
199.3231315042999
 31
0.0
  0
LINE
  5
215A
330
74
100
AcDbEntity
  8
0
  6
Continuous
100
AcDbLine
 10
191.6278635218
 20
199.3231315042999
 30
0.0
 11
191.6516545840999
 21
199.1694110279999
 31
0.0
  0
LINE
  5
215B
330
74
100
AcDbEntity
  8
0
  6
Continuous
100
AcDbLine
 10
191.6516545840999
 20
199.1694110279999
 30
0.0
 11
191.6704764781999
 21
199.1070276602
 31
0.0
  0
LINE
  5
215C
330
74
100
AcDbEntity
  8
0
  6
Continuous
100
AcDbLine
 10
117.2887965554999
 20
273.8836240491
 30
0.0
 11
119.9863308001
 21
273.6270591783999
 31
0.0
  0
LINE
  5
215D
330
74
100
AcDbEntity
  8
0
  6
Continuous
100
AcDbLine
 10
119.9863308001
 20
273.6270591783999
 30
0.0
 11
121.58303775
 21
273.4979911434999
 31
0.0
  0
LINE
  5
216B
330
74
100
AcDbEntity
  8
0
  6
Continuous
100
AcDbLine
 10
140.7327238048999
 20
273.0260375808999
 30
0.0
 11
142.1967702601
 21
273.0756829603
 31
0.0
  0
LINE
  5
216C
330
74
100
AcDbEntity
  8
0
  6
Continuous
100
AcDbLine
 10
142.1967702601
 20
273.0756829603
 30
0.0
 11
144.2361826816999
 21
273.1681904249999
 31
0.0
  0
LINE
  5
216D
330
74
100
AcDbEntity
  8
0
  6
Continuous
100
AcDbLine
 10
144.2361826816999
 20
273.1681904249999
 30
0.0
 11
146.3901447078
 21
273.2916029186999
 31
0.0
  0
LINE
  5
216E
330
74
100
AcDbEntity
  8
0
  6
Continuous
100
AcDbLine
 10
146.3901447078
 20
273.2916029186999
 30
0.0
 11
148.6589330799
 21
273.4497646006
 31
0.0
  0
LINE
  5
216F
330
74
100
AcDbEntity
  8
0
  6
Continuous
100
AcDbLine
 10
148.6589330799
 20
273.4497646006
 30
0.0
 11
151.0366762991
 21
273.646016564
 31
0.0
  0
LINE
  5
2170
330
74
100
AcDbEntity
  8
0
  6
Continuous
100
AcDbLine
 10
151.0366762991
 20
273.646016564
 30
0.0
 11
153.5198483608
 21
273.8836240491
 31
0.0
  0
LINE
  5
2171
330
74
100
AcDbEntity
  8
0
  6
Continuous
100
AcDbLine
 10
153.5198483608
 20
273.8836240491
 30
0.0
 11
153.7696647437999
 21
273.9120148561
 31
0.0
  0
LINE
  5
2172
330
74
100
AcDbEntity
  8
0
  6
Continuous
100
AcDbLine
 10
153.7696647437999
 20
273.9120148561
 30
0.0
 11
153.9233852218999
 21
273.9358059186
 31
0.0
  0
LINE
  5
2173
330
74
100
AcDbEntity
  8
0
  6
Continuous
100
AcDbLine
 10
153.9233852218999
 20
273.9358059186
 30
0.0
 11
153.9857685908
 21
273.9546278129
 31
0.0
  0
LINE
  5
2185
330
74
100
AcDbEntity
  8
0
  6
Continuous
100
AcDbLine
 10
191.5994727143999
 20
235.8039996954999
 30
0.0
 11
191.4605340433999
 21
234.3943318781
 31
0.0
  0
LINE
  5
2186
330
74
100
AcDbEntity
  8
0
  6
Continuous
100
AcDbLine
 10
191.4605340433999
 20
234.3943318781
 30
0.0
 11
191.3254089554
 21
232.9060465741999
 31
0.0
  0
LINE
  5
2187
330
74
100
AcDbEntity
  8
0
  6
Continuous
100
AcDbLine
 10
191.3254089554
 20
232.9060465741999
 30
0.0
 11
191.2109523517999
 21
231.5190282922999
 31
0.0
  0
LINE
  5
2188
330
74
100
AcDbEntity
  8
0
  6
Continuous
100
AcDbLine
 10
190.7410651124999
 20
212.3601515123
 30
0.0
 11
190.7468109274
 21
212.1410060452999
 31
0.0
  0
LINE
  5
2189
330
74
100
AcDbEntity
  8
0
  6
Continuous
100
AcDbLine
 10
190.7468109274
 20
212.1410060452999
 30
0.0
 11
190.8324547523
 21
209.9283646032
 31
0.0
  0
LINE
  5
218A
330
74
100
AcDbEntity
  8
0
  6
Continuous
100
AcDbLine
 10
190.8324547523
 20
209.9283646032
 30
0.0
 11
190.9546569059
 21
207.5690448970999
 31
0.0
  0
LINE
  5
218B
330
74
100
AcDbEntity
  8
0
  6
Continuous
100
AcDbLine
 10
190.9546569059
 20
207.5690448970999
 30
0.0
 11
191.1197123583999
 21
205.0515979072
 31
0.0
  0
LINE
  5
218C
330
74
100
AcDbEntity
  8
0
  6
Continuous
100
AcDbLine
 10
191.1197123583999
 20
205.0515979072
 30
0.0
 11
191.332908879
 21
202.3846965690999
 31
0.0
  0
LINE
  5
218D
330
74
100
AcDbEntity
  8
0
  6
Continuous
100
AcDbLine
 10
191.332908879
 20
202.3846965690999
 30
0.0
 11
191.5994727143999
 21
199.5729478901999
 31
0.0
  0
LINE
  5
218E
330
74
100
AcDbEntity
  8
0
  6
Continuous
100
AcDbLine
 10
116.8228763254999
 20
273.9546278129
 30
0.0
 11
116.8852584938
 21
273.9358061586
 31
0.0
  0
LINE
  5
218F
330
74
100
AcDbEntity
  8
0
  6
Continuous
100
AcDbLine
 10
116.8852584938
 20
273.9358061586
 30
0.0
 11
117.038979056
 21
273.9120150011999
 31
0.0
  0
LINE
  5
2190
330
74
100
AcDbEntity
  8
0
  6
Continuous
100
AcDbLine
 10
117.038979056
 20
273.9120150011999
 30
0.0
 11
117.2887965554999
 21
273.8836240491
 31
0.0
  0
LINE
  5
2194
330
74
100
AcDbEntity
  8
0
  6
Continuous
100
AcDbLine
 10
191.6704764781999
 20
236.2699199255
 30
0.0
 11
191.6516548240999
 21
236.2075377583999
 31
0.0
  0
LINE
  5
2195
330
74
100
AcDbEntity
  8
0
  6
Continuous
100
AcDbLine
 10
191.6516548240999
 20
236.2075377583999
 30
0.0
 11
191.6278636669
 21
236.053817198
 31
0.0
  0
LINE
  5
2196
330
74
100
AcDbEntity
  8
0
  6
Continuous
100
AcDbLine
 10
191.6278636669
 20
236.053817198
 30
0.0
 11
191.5994727143999
 21
235.8039996954999
 31
0.0
  0
LINE
  5
21D3
330
74
100
AcDbEntity
  8
0
  6
Continuous
100
AcDbLine
 10
114.8090676108999
 20
159.718442729
 30
0.0
 11
114.4341054225999
 21
159.3903592538999
 31
0.0
  0
LINE
  5
21D4
330
74
100
AcDbEntity
  8
0
  6
Continuous
100
AcDbLine
 10
114.4341054225999
 20
159.3903592538999
 30
0.0
 11
114.0574388002
 21
159.057526346
 31
0.0
  0
LINE
  5
21D5
330
74
100
AcDbEntity
  8
0
  6
Continuous
100
AcDbLine
 10
194.0352699051
 20
239.0353574508
 30
0.0
 11
193.7024546066999
 21
238.6587108547
 31
0.0
  0
LINE
  5
21D6
330
74
100
AcDbEntity
  8
0
  6
Continuous
100
AcDbLine
 10
193.7024546066999
 20
238.6587108547
 30
0.0
 11
193.3743535220999
 21
238.2837286400999
 31
0.0
  0
LINE
  5
21D7
330
74
100
AcDbEntity
  8
0
  6
Continuous
100
AcDbLine
 10
193.3743535220999
 20
197.0932189456
 30
0.0
 11
193.7024369972
 21
196.7182567572999
 31
0.0
  0
LINE
  5
21D8
330
74
100
AcDbEntity
  8
0
  6
Continuous
100
AcDbLine
 10
193.7024369972
 20
196.7182567572999
 30
0.0
 11
194.0352699051
 21
196.3415901349
 31
0.0
  0
LINE
  5
21D9
330
74
100
AcDbEntity
  8
0
  6
Continuous
100
AcDbLine
 10
114.0574388002
 20
276.3194212398
 30
0.0
 11
114.4340853962
 21
275.9866059415999
 31
0.0
  0
LINE
  5
21DA
330
74
100
AcDbEntity
  8
0
  6
Continuous
100
AcDbLine
 10
114.4340853962
 20
275.9866059415999
 30
0.0
 11
114.8090676108999
 21
275.6585048568
 31
0.0
  0
LINE
  5
2234
330
74
100
AcDbEntity
  8
0
  6
Continuous
100
AcDbLine
 10
135.1043224581999
 20
157.9899166808999
 30
0.0
 11
135.1196558613
 21
157.9125625595
 31
0.0
  0
LINE
  5
2235
330
74
100
AcDbEntity
  8
0
  6
Continuous
100
AcDbLine
 10
135.1196558613
 20
157.9125625595
 30
0.0
 11
135.1631865988999
 21
157.8471880714999
 31
0.0
  0
LINE
  5
2236
330
74
100
AcDbEntity
  8
0
  6
Continuous
100
AcDbLine
 10
135.1631865988999
 20
157.8471880714999
 30
0.0
 11
135.2280493165
 21
157.80369799
 31
0.0
  0
LINE
  5
2237
330
74
100
AcDbEntity
  8
0
  6
Continuous
100
AcDbLine
 10
135.2280493165
 20
157.80369799
 30
0.0
 11
135.3043224582
 21
157.7884737929
 31
0.0
  0
LINE
  5
225F
330
74
100
AcDbEntity
  8
0
  6
Continuous
100
AcDbLine
 10
77.4342913943
 20
238.2837286400999
 30
0.0
 11
77.1062079191
 21
238.6586908286
 31
0.0
  0
LINE
  5
2260
330
74
100
AcDbEntity
  8
0
  6
Continuous
100
AcDbLine
 10
77.1062079191
 20
238.6586908286
 30
0.0
 11
76.77337501130002
 21
239.0353574508
 31
0.0
  0
LINE
  5
2261
330
74
100
AcDbEntity
  8
0
  6
Continuous
100
AcDbLine
 10
156.7512061161
 20
159.057526346
 30
0.0
 11
156.3745595199999
 21
159.3903416443
 31
0.0
  0
LINE
  5
2262
330
74
100
AcDbEntity
  8
0
  6
Continuous
100
AcDbLine
 10
156.3745595199999
 20
159.3903416443
 30
0.0
 11
155.9995773055
 21
159.718442729
 31
0.0
  0
LINE
  5
2273
330
74
100
AcDbEntity
  8
0
  6
Continuous
100
AcDbLine
 10
155.9995773055
 20
275.6585048568
 30
0.0
 11
156.3745394938999
 21
275.9865883319999
 31
0.0
  0
LINE
  5
2274
330
74
100
AcDbEntity
  8
0
  6
Continuous
100
AcDbLine
 10
156.3745394938999
 20
275.9865883319999
 30
0.0
 11
156.7512061161
 21
276.3194212398
 31
0.0
  0
LINE
  5
2275
330
74
100
AcDbEntity
  8
0
  6
Continuous
100
AcDbLine
 10
76.77337501130002
 20
196.3415901349
 30
0.0
 11
77.10619030949999
 21
196.7182367309
 31
0.0
  0
LINE
  5
2276
330
74
100
AcDbEntity
  8
0
  6
Continuous
100
AcDbLine
 10
77.10619030949999
 20
196.7182367309
 30
0.0
 11
77.4342913943
 21
197.0932189456
 31
0.0
  0
LINE
  5
229C
330
74
100
AcDbEntity
  8
0
  6
Continuous
100
AcDbLine
 10
153.9857685908
 20
161.4223197727999
 30
0.0
 11
153.9233864226
 21
161.4411414270999
 31
0.0
  0
LINE
  5
229D
330
74
100
AcDbEntity
  8
0
  6
Continuous
100
AcDbLine
 10
153.9233864226
 20
161.4411414270999
 30
0.0
 11
153.7696658604
 21
161.4649325845
 31
0.0
  0
LINE
  5
229E
330
74
100
AcDbEntity
  8
0
  6
Continuous
100
AcDbLine
 10
153.7696658604
 20
161.4649325845
 30
0.0
 11
153.5198483608
 21
161.4933235366
 31
0.0
  0
LINE
  5
22A3
330
74
100
AcDbEntity
  8
0
  6
Continuous
100
AcDbLine
 10
79.13816843810001
 20
199.1070276602
 30
0.0
 11
79.1569900922
 21
199.1694098274
 31
0.0
  0
LINE
  5
22A4
330
74
100
AcDbEntity
  8
0
  6
Continuous
100
AcDbLine
 10
79.1569900922
 20
199.1694098274
 30
0.0
 11
79.1807812495
 21
199.3231303877999
 31
0.0
  0
LINE
  5
22A5
330
74
100
AcDbEntity
  8
0
  6
Continuous
100
AcDbLine
 10
79.1807812495
 20
199.3231303877999
 30
0.0
 11
79.20917220189998
 21
199.5729478901999
 31
0.0
  0
LINE
  5
22AE
330
74
100
AcDbEntity
  8
0
  6
Continuous
100
AcDbLine
 10
79.20917220189998
 20
235.8039996954999
 30
0.0
 11
79.1807813946
 21
236.0538160813999
 31
0.0
  0
LINE
  5
22AF
330
74
100
AcDbEntity
  8
0
  6
Continuous
100
AcDbLine
 10
79.1807813946
 20
236.0538160813999
 30
0.0
 11
79.1569903322
 21
236.2075365577999
 31
0.0
  0
LINE
  5
22B0
330
74
100
AcDbEntity
  8
0
  6
Continuous
100
AcDbLine
 10
79.1569903322
 20
236.2075365577999
 30
0.0
 11
79.13816843810001
 21
236.2699199255
 31
0.0
  0
LINE
  5
22B1
330
74
100
AcDbEntity
  8
0
  6
Continuous
100
AcDbLine
 10
153.5198483608
 20
161.4933235366
 30
0.0
 11
150.8223141163999
 21
161.7498884073
 31
0.0
  0
LINE
  5
22B2
330
74
100
AcDbEntity
  8
0
  6
Continuous
100
AcDbLine
 10
150.8223141163999
 20
161.7498884073
 30
0.0
 11
149.2256071663999
 21
161.8789564422999
 31
0.0
  0
LINE
  5
22BB
330
74
100
AcDbEntity
  8
0
  6
Continuous
100
AcDbLine
 10
130.0759648702
 20
162.3513644566
 30
0.0
 11
129.7795430779999
 21
162.3434689225
 31
0.0
  0
LINE
  5
22BC
330
74
100
AcDbEntity
  8
0
  6
Continuous
100
AcDbLine
 10
129.7795430779999
 20
162.3434689225
 30
0.0
 11
127.5603823803
 21
162.2565433727
 31
0.0
  0
LINE
  5
22BD
330
74
100
AcDbEntity
  8
0
  6
Continuous
100
AcDbLine
 10
127.5603823803
 20
162.2565433727
 30
0.0
 11
125.2034230478
 21
162.1333551254
 31
0.0
  0
LINE
  5
22BE
330
74
100
AcDbEntity
  8
0
  6
Continuous
100
AcDbLine
 10
125.2034230478
 20
162.1333551254
 30
0.0
 11
122.7013287959999
 21
161.9682720205998
 31
0.0
  0
LINE
  5
22BF
330
74
100
AcDbEntity
  8
0
  6
Continuous
100
AcDbLine
 10
122.7013287959999
 20
161.9682720205998
 30
0.0
 11
120.0613926823
 21
161.756467714
 31
0.0
  0
LINE
  5
22C0
330
74
100
AcDbEntity
  8
0
  6
Continuous
100
AcDbLine
 10
120.0613926823
 20
161.756467714
 30
0.0
 11
117.2887965554999
 21
161.4933235366
 31
0.0
  0
LINE
  5
22C1
330
74
100
AcDbEntity
  8
0
  6
Continuous
100
AcDbLine
 10
117.2887965554999
 20
161.4933235366
 30
0.0
 11
117.0389801726
 21
161.4649327295999
 31
0.0
  0
LINE
  5
22C2
330
74
100
AcDbEntity
  8
0
  6
Continuous
100
AcDbLine
 10
117.0389801726
 20
161.4649327295999
 30
0.0
 11
116.8852596944
 21
161.4411416671999
 31
0.0
  0
LINE
  5
22C3
330
74
100
AcDbEntity
  8
0
  6
Continuous
100
AcDbLine
 10
116.8852596944
 20
161.4411416671999
 30
0.0
 11
116.8228763254999
 21
161.4223197727999
 31
0.0
  0
LINE
  5
22CB
330
74
100
AcDbEntity
  8
0
  6
Continuous
100
AcDbLine
 10
79.20917220189998
 20
199.5729478901999
 30
0.0
 11
79.4663243095
 21
202.2771676479
 31
0.0
  0
LINE
  5
22CC
330
74
100
AcDbEntity
  8
0
  6
Continuous
100
AcDbLine
 10
79.4663243095
 20
202.2771676479
 30
0.0
 11
79.5988626849
 21
203.9175695254
 31
0.0
  0
LINE
  5
22D2
330
74
100
AcDbEntity
  8
0
  6
Continuous
100
AcDbLine
 10
80.0675932576
 20
223.016794778
 30
0.0
 11
80.0619192621
 21
223.2333029375
 31
0.0
  0
LINE
  5
22D3
330
74
100
AcDbEntity
  8
0
  6
Continuous
100
AcDbLine
 10
80.0619192621
 20
223.2333029375
 30
0.0
 11
79.97633427050002
 21
225.4453847234999
 31
0.0
  0
LINE
  5
22D4
330
74
100
AcDbEntity
  8
0
  6
Continuous
100
AcDbLine
 10
79.97633427050002
 20
225.4453847234999
 30
0.0
 11
79.8541764007
 21
227.8046814665999
 31
0.0
  0
LINE
  5
22D5
330
74
100
AcDbEntity
  8
0
  6
Continuous
100
AcDbLine
 10
79.8541764007
 20
227.8046814665999
 30
0.0
 11
79.6891010516
 21
230.3230284270999
 31
0.0
  0
LINE
  5
22D6
330
74
100
AcDbEntity
  8
0
  6
Continuous
100
AcDbLine
 10
79.6891010516
 20
230.3230284270999
 30
0.0
 11
79.4758403316
 21
232.9910554261
 31
0.0
  0
LINE
  5
22D7
330
74
100
AcDbEntity
  8
0
  6
Continuous
100
AcDbLine
 10
79.4758403316
 20
232.9910554261
 30
0.0
 11
79.20917220189998
 21
235.8039996954999
 31
0.0
  0
LINE
  5
22DB
330
74
100
AcDbEntity
  8
0
  6
Continuous
100
AcDbLine
 10
156.7846706395999
 20
157.4507864765999
 30
0.0
 11
156.9877946992999
 21
157.4593196998999
 31
0.0
  0
LINE
  5
22DC
330
74
100
AcDbEntity
  8
0
  6
Continuous
100
AcDbLine
 10
156.9877946992999
 20
157.4593196998999
 30
0.0
 11
157.1849171743999
 21
157.5086956792
 31
0.0
  0
LINE
  5
22DD
330
74
100
AcDbEntity
  8
0
  6
Continuous
100
AcDbLine
 10
135.5043224581999
 20
157.7884737929
 30
0.0
 11
135.5805955998999
 21
157.80369799
 31
0.0
  0
LINE
  5
22DE
330
74
100
AcDbEntity
  8
0
  6
Continuous
100
AcDbLine
 10
135.5805955998999
 20
157.80369799
 30
0.0
 11
135.6454583174999
 21
157.8471880714999
 31
0.0
  0
LINE
  5
22DF
330
74
100
AcDbEntity
  8
0
  6
Continuous
100
AcDbLine
 10
135.6454583174999
 20
157.8471880714999
 30
0.0
 11
135.6889890551
 21
157.9125625595
 31
0.0
  0
LINE
  5
22E0
330
74
100
AcDbEntity
  8
0
  6
Continuous
100
AcDbLine
 10
135.6889890551
 20
157.9125625595
 30
0.0
 11
135.7043224582
 21
157.9899166808999
 31
0.0
  0
LINE
  5
22F0
330
74
100
AcDbEntity
  8
0
  6
Continuous
100
AcDbLine
 10
75.16663514200002
 20
196.3081256110999
 30
0.0
 11
75.17516748209998
 21
196.1050076575
 31
0.0
  0
LINE
  5
22F1
330
74
100
AcDbEntity
  8
0
  6
Continuous
100
AcDbLine
 10
75.17516748209998
 20
196.1050076575
 30
0.0
 11
75.2245443444
 21
195.9078790768999
 31
0.0
  0
LINE
  5
22F9
330
74
100
AcDbEntity
  8
0
  6
Continuous
100
AcDbLine
 10
113.6237277419
 20
157.5086956792
 30
0.0
 11
113.8208363928
 21
157.4593216999
 31
0.0
  0
LINE
  5
22FA
330
74
100
AcDbEntity
  8
0
  6
Continuous
100
AcDbLine
 10
113.8208363928
 20
157.4593216999
 30
0.0
 11
114.0239742767
 21
157.4507864765999
 31
0.0
  0
LINE
  5
230D
330
74
100
AcDbEntity
  8
0
  6
Continuous
100
AcDbLine
 10
75.2245443444
 20
239.4690685088
 30
0.0
 11
75.17517036539998
 21
239.2719598582
 31
0.0
  0
LINE
  5
230E
330
74
100
AcDbEntity
  8
0
  6
Continuous
100
AcDbLine
 10
75.17517036539998
 20
239.2719598582
 30
0.0
 11
75.16663514200002
 21
239.0688219745999
 31
0.0
  0
LINE
  5
2369
330
74
100
AcDbEntity
  8
0
  6
Continuous
100
AcDbLine
 10
363.514802815
 20
103.357722871
 30
0.0
 11
363.5543936162
 21
103.7213633558
 31
0.0
  0
LINE
  5
236A
330
74
100
AcDbEntity
  8
0
  6
Continuous
100
AcDbLine
 10
363.5543936162
 20
103.7213633558
 30
0.0
 11
363.5851654097
 21
104.0786038647
 31
0.0
  0
LINE
  5
236B
330
74
100
AcDbEntity
  8
0
  6
Continuous
100
AcDbLine
 10
363.5851654097
 20
104.0786038647
 30
0.0
 11
363.6073043614
 21
104.4192692295999
 31
0.0
  0
LINE
  5
236C
330
74
100
AcDbEntity
  8
0
  6
Continuous
100
AcDbLine
 10
362.6327100777999
 20
93.3341202809
 30
0.0
 11
362.6917727662
 21
93.9690344323
 31
0.0
  0
LINE
  5
236D
330
74
100
AcDbEntity
  8
0
  6
Continuous
100
AcDbLine
 10
362.6917727662
 20
93.9690344323
 30
0.0
 11
362.7687813137
 21
94.79467970549999
 31
0.0
  0
LINE
  5
236E
330
74
100
AcDbEntity
  8
0
  6
Continuous
100
AcDbLine
 10
362.7687813137
 20
94.79467970549999
 30
0.0
 11
362.8771977326
 21
95.9529127216
 31
0.0
  0
LINE
  5
236F
330
74
100
AcDbEntity
  8
0
  6
Continuous
100
AcDbLine
 10
362.8771977326
 20
95.9529127216
 30
0.0
 11
363.0149844122
 21
97.4179951742
 31
0.0
  0
LINE
  5
2370
330
74
100
AcDbEntity
  8
0
  6
Continuous
100
AcDbLine
 10
363.0149844122
 20
97.4179951742
 30
0.0
 11
363.1797042070999
 21
99.1594545699
 31
0.0
  0
LINE
  5
2371
330
74
100
AcDbEntity
  8
0
  6
Continuous
100
AcDbLine
 10
363.1797042070999
 20
99.1594545699
 30
0.0
 11
363.3690984699
 21
101.148564197
 31
0.0
  0
LINE
  5
2372
330
74
100
AcDbEntity
  8
0
  6
Continuous
100
AcDbLine
 10
363.5710469134999
 20
103.2542588395999
 30
0.0
 11
363.5921068531999
 21
103.4842154539999
 31
0.0
  0
LINE
  5
2373
330
74
100
AcDbEntity
  8
0
  6
Continuous
100
AcDbLine
 10
363.5921068531999
 20
103.4842154539999
 30
0.0
 11
363.6208688112
 21
103.8432118273
 31
0.0
  0
LINE
  5
2374
330
74
100
AcDbEntity
  8
0
  6
Continuous
100
AcDbLine
 10
363.6208688112
 20
103.8432118273
 30
0.0
 11
363.645451021
 21
104.2116815543999
 31
0.0
  0
LINE
  5
2375
330
74
100
AcDbEntity
  8
0
  6
Continuous
100
AcDbLine
 10
362.5992866406999
 20
93.37941337049999
 30
0.0
 11
362.6495080935999
 21
93.94769145469998
 31
0.0
  0
LINE
  5
2376
330
74
100
AcDbEntity
  8
0
  6
Continuous
100
AcDbLine
 10
362.6495080935999
 20
93.94769145469998
 30
0.0
 11
362.7297762976999
 21
94.8529000987
 31
0.0
  0
LINE
  5
2377
330
74
100
AcDbEntity
  8
0
  6
Continuous
100
AcDbLine
 10
362.7297762976999
 20
94.8529000987
 30
0.0
 11
362.8461484819
 21
96.1586798359
 31
0.0
  0
LINE
  5
2378
330
74
100
AcDbEntity
  8
0
  6
Continuous
100
AcDbLine
 10
362.8461484819
 20
96.1586798359
 30
0.0
 11
363.0041929249999
 21
97.9198453951
 31
0.0
  0
LINE
  5
2379
330
74
100
AcDbEntity
  8
0
  6
Continuous
100
AcDbLine
 10
363.0041929249999
 20
97.9198453951
 30
0.0
 11
363.2091211603
 21
100.1831328462
 31
0.0
  0
LINE
  5
237A
330
74
100
AcDbEntity
  8
0
  6
Continuous
100
AcDbLine
 10
363.2091211603
 20
100.1831328462
 30
0.0
 11
363.4666560609999
 21
102.9960355450999
 31
0.0
  0
LINE
  5
237B
330
74
100
AcDbEntity
  8
0
  6
Continuous
100
AcDbLine
 10
363.658082533
 20
104.4364692407999
 30
0.0
 11
364.3916364159999
 21
118.4597317272999
 31
0.0
  0
LINE
  5
237C
330
74
100
AcDbEntity
  8
0
  6
Continuous
100
AcDbLine
 10
364.3916364159999
 20
118.4597317272999
 30
0.0
 11
365.187574669
 21
133.6507726756999
 31
0.0
  0
LINE
  5
237D
330
74
100
AcDbEntity
  8
0
  6
Continuous
100
AcDbLine
 10
365.187574669
 20
133.6507726756999
 30
0.0
 11
366.0291394055
 21
149.6846770454
 31
0.0
  0
LINE
  5
237E
330
74
100
AcDbEntity
  8
0
  6
Continuous
100
AcDbLine
 10
363.6073043608999
 20
104.4192692295999
 30
0.0
 11
364.366787595
 21
119.0007471686999
 31
0.0
  0
LINE
  5
237F
330
74
100
AcDbEntity
  8
0
  6
Continuous
100
AcDbLine
 10
364.366787595
 20
119.0007471686999
 30
0.0
 11
365.1534585030999
 21
134.0765146193
 31
0.0
  0
LINE
  5
2380
330
74
100
AcDbEntity
  8
0
  6
Continuous
100
AcDbLine
 10
365.1534585030999
 20
134.0765146193
 30
0.0
 11
365.9694481958999
 21
149.6846770454
 31
0.0
  0
LINE
  5
2381
330
74
100
AcDbEntity
  8
0
  6
Continuous
100
AcDbLine
 10
363.4666650753999
 20
102.9960022924999
 30
0.0
 11
363.5256583544
 21
103.0922795344
 31
0.0
  0
LINE
  5
2382
330
74
100
AcDbEntity
  8
0
  6
Continuous
100
AcDbLine
 10
363.5256583544
 20
103.0922795344
 30
0.0
 11
363.5614616089
 21
103.1948489729999
 31
0.0
  0
LINE
  5
2383
330
74
100
AcDbEntity
  8
0
  6
Continuous
100
AcDbLine
 10
363.5614616089
 20
103.1948489729999
 30
0.0
 11
363.5710449513999
 21
103.2542384485999
 31
0.0
  0
LINE
  5
2384
330
74
100
AcDbEntity
  8
0
  6
Continuous
100
AcDbLine
 10
324.1845344623
 20
102.9960063537
 30
0.0
 11
324.0765422214999
 21
103.0922817148999
 31
0.0
  0
LINE
  5
2385
330
74
100
AcDbEntity
  8
0
  6
Continuous
100
AcDbLine
 10
324.0765422214999
 20
103.0922817148999
 30
0.0
 11
323.9642491801999
 21
103.1948498604999
 31
0.0
  0
LINE
  5
2386
330
74
100
AcDbEntity
  8
0
  6
Continuous
100
AcDbLine
 10
323.9642491801999
 20
103.1948498604999
 30
0.0
 11
323.850396642
 21
103.3012068921999
 31
0.0
  0
LINE
  5
2387
330
74
100
AcDbEntity
  8
0
  6
Continuous
100
AcDbLine
 10
327.5702647974
 20
149.6846770454
 30
0.0
 11
326.6256754518
 21
134.0765432521999
 31
0.0
  0
LINE
  5
2388
330
74
100
AcDbEntity
  8
0
  6
Continuous
100
AcDbLine
 10
326.6256754518
 20
134.0765432521999
 30
0.0
 11
325.6908579427
 21
119.0007960558
 31
0.0
  0
LINE
  5
2389
330
74
100
AcDbEntity
  8
0
  6
Continuous
100
AcDbLine
 10
325.6908579427
 20
119.0007960558
 30
0.0
 11
324.7627507204
 21
104.41926923
 31
0.0
  0
LINE
  5
238A
330
74
100
AcDbEntity
  8
0
  6
Continuous
100
AcDbLine
 10
327.1700182642999
 20
149.6846770454
 30
0.0
 11
326.2376790189
 21
134.0838519925
 31
0.0
  0
LINE
  5
238B
330
74
100
AcDbEntity
  8
0
  6
Continuous
100
AcDbLine
 10
326.2376790189
 20
134.0838519925
 30
0.0
 11
325.3154133507
 21
119.0149455955999
 31
0.0
  0
LINE
  5
238C
330
74
100
AcDbEntity
  8
0
  6
Continuous
100
AcDbLine
 10
325.3154133507
 20
119.0149455955999
 30
0.0
 11
324.4002091084
 21
104.4398169868999
 31
0.0
  0
LINE
  5
238D
330
74
100
AcDbEntity
  8
0
  6
Continuous
100
AcDbLine
 10
324.4002091084
 20
104.4398169868999
 30
0.0
 11
324.356824398
 21
104.1672966919999
 31
0.0
  0
LINE
  5
238E
330
74
100
AcDbEntity
  8
0
  6
Continuous
100
AcDbLine
 10
324.356824398
 20
104.1672966919999
 30
0.0
 11
324.2541263169
 21
103.8814952489
 31
0.0
  0
LINE
  5
238F
330
74
100
AcDbEntity
  8
0
  6
Continuous
100
AcDbLine
 10
324.2541263169
 20
103.8814952489
 30
0.0
 11
324.0861585797
 21
103.5905549356999
 31
0.0
  0
LINE
  5
2390
330
74
100
AcDbEntity
  8
0
  6
Continuous
100
AcDbLine
 10
324.0861585797
 20
103.5905549356999
 30
0.0
 11
323.8503966371999
 21
103.3012068874999
 31
0.0
  0
LINE
  5
2391
330
74
100
AcDbEntity
  8
0
  6
Continuous
100
AcDbLine
 10
324.7627507189
 20
104.41926923
 30
0.0
 11
324.7164586025999
 21
104.0786056079
 31
0.0
  0
LINE
  5
2392
330
74
100
AcDbEntity
  8
0
  6
Continuous
100
AcDbLine
 10
324.7164586025999
 20
104.0786056079
 30
0.0
 11
324.6081259489
 21
103.7213639123999
 31
0.0
  0
LINE
  5
2393
330
74
100
AcDbEntity
  8
0
  6
Continuous
100
AcDbLine
 10
324.6081259489
 20
103.7213639123999
 30
0.0
 11
324.4316825108999
 21
103.3577221687999
 31
0.0
  0
LINE
  5
2394
330
74
100
AcDbEntity
  8
0
  6
Continuous
100
AcDbLine
 10
324.4316825108999
 20
103.3577221687999
 30
0.0
 11
324.1845519569
 21
102.9960318207
 31
0.0
  0
LINE
  5
2395
330
74
100
AcDbEntity
  8
0
  6
Continuous
100
AcDbLine
 10
324.7627439194
 20
104.4192707752
 30
0.0
 11
324.6441912736
 21
104.4251973399999
 31
0.0
  0
LINE
  5
2396
330
74
100
AcDbEntity
  8
0
  6
Continuous
100
AcDbLine
 10
324.6441912736
 20
104.4251973399999
 30
0.0
 11
324.5227359305
 21
104.4320806683
 31
0.0
  0
LINE
  5
2397
330
74
100
AcDbEntity
  8
0
  6
Continuous
100
AcDbLine
 10
324.5227359305
 20
104.4320806683
 30
0.0
 11
324.4002091138
 21
104.439816992
 31
0.0
  0
LINE
  5
2398
330
74
100
AcDbEntity
  8
0
  6
Continuous
100
AcDbLine
 10
286.8165894416999
 20
104.4192692548999
 30
0.0
 11
286.9351451177
 21
104.4251962324
 31
0.0
  0
LINE
  5
2399
330
74
100
AcDbEntity
  8
0
  6
Continuous
100
AcDbLine
 10
286.9351451177
 20
104.4251962324
 30
0.0
 11
287.0566026727999
 21
104.4320800687999
 31
0.0
  0
LINE
  5
239A
330
74
100
AcDbEntity
  8
0
  6
Continuous
100
AcDbLine
 10
287.0566026727999
 20
104.4320800687999
 30
0.0
 11
287.1791310555
 21
104.4398169868999
 31
0.0
  0
LINE
  5
239B
330
74
100
AcDbEntity
  8
0
  6
Continuous
100
AcDbLine
 10
324.1845602791998
 20
102.9960318205999
 30
0.0
 11
321.4804775005999
 21
100.3562176390999
 31
0.0
  0
LINE
  5
239C
330
74
100
AcDbEntity
  8
0
  6
Continuous
100
AcDbLine
 10
321.4804775005999
 20
100.3562176390999
 30
0.0
 11
318.9002458557
 21
98.1944752683
 31
0.0
  0
LINE
  5
239D
330
74
100
AcDbEntity
  8
0
  6
Continuous
100
AcDbLine
 10
318.9002458557
 20
98.1944752683
 30
0.0
 11
316.416951653
 21
96.4576104422
 31
0.0
  0
LINE
  5
239E
330
74
100
AcDbEntity
  8
0
  6
Continuous
100
AcDbLine
 10
316.416951653
 20
96.4576104422
 30
0.0
 11
314.0845836041999
 21
95.14398499129999
 31
0.0
  0
LINE
  5
239F
330
74
100
AcDbEntity
  8
0
  6
Continuous
100
AcDbLine
 10
314.0845836041999
 20
95.14398499129999
 30
0.0
 11
311.8853614013
 21
94.19480156170001
 31
0.0
  0
LINE
  5
23A0
330
74
100
AcDbEntity
  8
0
  6
Continuous
100
AcDbLine
 10
311.8853614013
 20
94.19480156170001
 30
0.0
 11
309.7943073643
 21
93.55796300839999
 31
0.0
  0
LINE
  5
23A1
330
74
100
AcDbEntity
  8
0
  6
Continuous
100
AcDbLine
 10
309.7943073643
 20
93.55796300839999
 30
0.0
 11
307.7747208856
 21
93.1919675171
 31
0.0
  0
LINE
  5
23A2
330
74
100
AcDbEntity
  8
0
  6
Continuous
100
AcDbLine
 10
307.7747208856
 20
93.1919675171
 30
0.0
 11
305.7896700819
 21
93.07255088499999
 31
0.0
  0
LINE
  5
23A3
330
74
100
AcDbEntity
  8
0
  6
Continuous
100
AcDbLine
 10
323.8503966371999
 20
103.3012068874999
 30
0.0
 11
321.1913675699
 21
100.6613731622999
 31
0.0
  0
LINE
  5
23A4
330
74
100
AcDbEntity
  8
0
  6
Continuous
100
AcDbLine
 10
321.1913675699
 20
100.6613731622999
 30
0.0
 11
318.6558387393
 21
98.49965376390001
 31
0.0
  0
LINE
  5
23A5
330
74
100
AcDbEntity
  8
0
  6
Continuous
100
AcDbLine
 10
318.6558387393
 20
98.49965376390001
 30
0.0
 11
316.2169506591
 21
96.76280714829999
 31
0.0
  0
LINE
  5
23A6
330
74
100
AcDbEntity
  8
0
  6
Continuous
100
AcDbLine
 10
316.2169506591
 20
96.76280714829999
 30
0.0
 11
313.9273558215001
 21
95.4491961857
 31
0.0
  0
LINE
  5
23A7
330
74
100
AcDbEntity
  8
0
  6
Continuous
100
AcDbLine
 10
313.9273558215001
 20
95.4491961857
 30
0.0
 11
311.7692260077
 21
94.5000171668
 31
0.0
  0
LINE
  5
23A8
330
74
100
AcDbEntity
  8
0
  6
Continuous
100
AcDbLine
 10
311.7692260077
 20
94.5000171668
 30
0.0
 11
309.7177610497
 21
93.86317645990001
 31
0.0
  0
LINE
  5
23A9
330
74
100
AcDbEntity
  8
0
  6
Continuous
100
AcDbLine
 10
309.7177610497
 20
93.86317645990001
 30
0.0
 11
307.7367345787
 21
93.4971753065
 31
0.0
  0
LINE
  5
23AA
330
74
100
AcDbEntity
  8
0
  6
Continuous
100
AcDbLine
 10
307.7367345787
 20
93.4971753065
 30
0.0
 11
305.7896700819
 21
93.37775114180001
 31
0.0
  0
LINE
  5
23AB
330
74
100
AcDbEntity
  8
0
  6
Continuous
100
AcDbLine
 10
247.9720565263999
 20
104.4192707752
 30
0.0
 11
247.9406621409
 21
104.4251973399999
 31
0.0
  0
LINE
  5
23AC
330
74
100
AcDbEntity
  8
0
  6
Continuous
100
AcDbLine
 10
247.9406621409
 20
104.4251973399999
 30
0.0
 11
247.9240320119
 21
104.4320806683
 31
0.0
  0
LINE
  5
23AD
330
74
100
AcDbEntity
  8
0
  6
Continuous
100
AcDbLine
 10
247.9240320119
 20
104.4320806683
 30
0.0
 11
247.9212597526999
 21
104.4364694658999
 31
0.0
  0
LINE
  5
23AE
330
74
100
AcDbEntity
  8
0
  6
Continuous
100
AcDbLine
 10
305.7896700819
 20
93.37775114180001
 30
0.0
 11
303.8427887496999
 21
93.49715292319999
 31
0.0
  0
LINE
  5
23AF
330
74
100
AcDbEntity
  8
0
  6
Continuous
100
AcDbLine
 10
303.8427887496999
 20
93.49715292319999
 30
0.0
 11
301.8621605208001
 21
93.86303312649999
 31
0.0
  0
LINE
  5
23B0
330
74
100
AcDbEntity
  8
0
  6
Continuous
100
AcDbLine
 10
301.8621605208001
 20
93.86303312649999
 30
0.0
 11
299.8110930897
 21
94.4996510188
 31
0.0
  0
LINE
  5
23B1
330
74
100
AcDbEntity
  8
0
  6
Continuous
100
AcDbLine
 10
299.8110930897
 20
94.4996510188
 30
0.0
 11
297.6533050442999
 21
95.4485286335
 31
0.0
  0
LINE
  5
23B2
330
74
100
AcDbEntity
  8
0
  6
Continuous
100
AcDbLine
 10
297.6533050442999
 20
95.4485286335
 30
0.0
 11
295.3633280506
 21
96.76220495309999
 31
0.0
  0
LINE
  5
23B3
330
74
100
AcDbEntity
  8
0
  6
Continuous
100
AcDbLine
 10
295.3633280506
 20
96.76220495309999
 30
0.0
 11
292.9239899470999
 21
98.49927177239999
 31
0.0
  0
LINE
  5
23B4
330
74
100
AcDbEntity
  8
0
  6
Continuous
100
AcDbLine
 10
292.9239899470999
 20
98.49927177239999
 30
0.0
 11
290.3882263328
 21
100.6611392391999
 31
0.0
  0
LINE
  5
23B5
330
74
100
AcDbEntity
  8
0
  6
Continuous
100
AcDbLine
 10
290.3882263328
 20
100.6611392391999
 30
0.0
 11
287.7289435267
 21
103.3012068874999
 31
0.0
  0
LINE
  5
23B6
330
74
100
AcDbEntity
  8
0
  6
Continuous
100
AcDbLine
 10
305.7896700819
 20
93.07255088499999
 30
0.0
 11
303.8048108982999
 21
93.19194455340001
 31
0.0
  0
LINE
  5
23B7
330
74
100
AcDbEntity
  8
0
  6
Continuous
100
AcDbLine
 10
303.8048108982999
 20
93.19194455340001
 30
0.0
 11
301.7856306024
 21
93.557818405
 31
0.0
  0
LINE
  5
23B8
330
74
100
AcDbEntity
  8
0
  6
Continuous
100
AcDbLine
 10
301.7856306024
 20
93.557818405
 30
0.0
 11
299.6949820162999
 21
94.1944333652
 31
0.0
  0
LINE
  5
23B9
330
74
100
AcDbEntity
  8
0
  6
Continuous
100
AcDbLine
 10
299.6949820162999
 20
94.1944333652
 30
0.0
 11
297.4961078448
 21
95.14331463159999
 31
0.0
  0
LINE
  5
23BA
330
74
100
AcDbEntity
  8
0
  6
Continuous
100
AcDbLine
 10
297.4961078448
 20
95.14331463159999
 30
0.0
 11
295.1633492917999
 21
96.45700516760001
 31
0.0
  0
LINE
  5
23BB
330
74
100
AcDbEntity
  8
0
  6
Continuous
100
AcDbLine
 10
295.1633492917999
 20
96.45700516760001
 30
0.0
 11
292.6795940366
 21
98.1940914121
 31
0.0
  0
LINE
  5
23BC
330
74
100
AcDbEntity
  8
0
  6
Continuous
100
AcDbLine
 10
292.6795940366
 20
98.1940914121
 30
0.0
 11
290.0991218212999
 21
100.3559827840999
 31
0.0
  0
LINE
  5
23BD
330
74
100
AcDbEntity
  8
0
  6
Continuous
100
AcDbLine
 10
290.0991218212999
 20
100.3559827840999
 30
0.0
 11
287.3947796184998
 21
102.9960320778
 31
0.0
  0
LINE
  5
23BE
330
74
100
AcDbEntity
  8
0
  6
Continuous
100
AcDbLine
 10
363.6073043626
 20
104.4192692548999
 30
0.0
 11
363.638690329
 21
104.4251962324
 31
0.0
  0
LINE
  5
23BF
330
74
100
AcDbEntity
  8
0
  6
Continuous
100
AcDbLine
 10
363.638690329
 20
104.4251962324
 30
0.0
 11
363.6553135406999
 21
104.4320800687999
 31
0.0
  0
LINE
  5
23C0
330
74
100
AcDbEntity
  8
0
  6
Continuous
100
AcDbLine
 10
363.6553135406999
 20
104.4320800687999
 30
0.0
 11
363.658082533
 21
104.4364692407999
 31
0.0
  0
LINE
  5
23C1
330
74
100
AcDbEntity
  8
0
  6
Continuous
100
AcDbLine
 10
287.7289435267
 20
103.3012068874999
 30
0.0
 11
287.4931811674
 21
103.5905554815999
 31
0.0
  0
LINE
  5
23C2
330
74
100
AcDbEntity
  8
0
  6
Continuous
100
AcDbLine
 10
287.4931811674
 20
103.5905554815999
 30
0.0
 11
287.3252140502999
 21
103.8814947991
 31
0.0
  0
LINE
  5
23C3
330
74
100
AcDbEntity
  8
0
  6
Continuous
100
AcDbLine
 10
287.3252140502999
 20
103.8814947991
 30
0.0
 11
287.2225161924999
 21
104.1672952922999
 31
0.0
  0
LINE
  5
23C4
330
74
100
AcDbEntity
  8
0
  6
Continuous
100
AcDbLine
 10
287.2225161924999
 20
104.1672952922999
 30
0.0
 11
287.1791310555
 21
104.4398169868999
 31
0.0
  0
LINE
  5
23C5
330
74
100
AcDbEntity
  8
0
  6
Continuous
100
AcDbLine
 10
287.3947880259999
 20
102.9960320779
 30
0.0
 11
287.1476572369
 21
103.357722871
 31
0.0
  0
LINE
  5
23C6
330
74
100
AcDbEntity
  8
0
  6
Continuous
100
AcDbLine
 10
287.1476572369
 20
103.357722871
 30
0.0
 11
286.9712144425999
 21
103.7213633558
 31
0.0
  0
LINE
  5
23C7
330
74
100
AcDbEntity
  8
0
  6
Continuous
100
AcDbLine
 10
286.9712144425999
 20
103.7213633558
 30
0.0
 11
286.8628820861999
 21
104.0786038647
 31
0.0
  0
LINE
  5
23C8
330
74
100
AcDbEntity
  8
0
  6
Continuous
100
AcDbLine
 10
286.8628820861999
 20
104.0786038647
 30
0.0
 11
286.8165894449999
 21
104.4192692295999
 31
0.0
  0
LINE
  5
23C9
330
74
100
AcDbEntity
  8
0
  6
Continuous
100
AcDbLine
 10
287.3948024433
 20
102.9960022924999
 30
0.0
 11
287.5027959818
 21
103.0922795344
 31
0.0
  0
LINE
  5
23CA
330
74
100
AcDbEntity
  8
0
  6
Continuous
100
AcDbLine
 10
287.5027959818
 20
103.0922795344
 30
0.0
 11
287.615090057
 21
103.1948489729999
 31
0.0
  0
LINE
  5
23CB
330
74
100
AcDbEntity
  8
0
  6
Continuous
100
AcDbLine
 10
287.615090057
 20
103.1948489729999
 30
0.0
 11
287.7289435350999
 21
103.3012068791999
 31
0.0
  0
LINE
  5
23CC
330
74
100
AcDbEntity
  8
0
  6
Continuous
100
AcDbLine
 10
287.1791310555
 20
104.4398169868999
 30
0.0
 11
286.2639268131999
 21
119.0149455950999
 31
0.0
  0
LINE
  5
23CD
330
74
100
AcDbEntity
  8
0
  6
Continuous
100
AcDbLine
 10
286.2639268131999
 20
119.0149455950999
 30
0.0
 11
285.341661145
 21
134.0838519921999
 31
0.0
  0
LINE
  5
23CE
330
74
100
AcDbEntity
  8
0
  6
Continuous
100
AcDbLine
 10
285.341661145
 20
134.0838519921999
 30
0.0
 11
284.4093218995
 21
149.6846770454
 31
0.0
  0
LINE
  5
23CF
330
74
100
AcDbEntity
  8
0
  6
Continuous
100
AcDbLine
 10
286.8165894435
 20
104.4192692295999
 30
0.0
 11
285.8884822211999
 21
119.0007960553
 31
0.0
  0
LINE
  5
23D0
330
74
100
AcDbEntity
  8
0
  6
Continuous
100
AcDbLine
 10
285.8884822211999
 20
119.0007960553
 30
0.0
 11
284.9536647120998
 21
134.0765432519
 31
0.0
  0
LINE
  5
23D1
330
74
100
AcDbEntity
  8
0
  6
Continuous
100
AcDbLine
 10
284.9536647120998
 20
134.0765432519
 30
0.0
 11
284.0090753665
 21
149.6846770454
 31
0.0
  0
LINE
  5
23D2
330
74
100
AcDbEntity
  8
0
  6
Continuous
100
AcDbLine
 10
248.1126852203999
 20
102.9960063187999
 30
0.0
 11
248.0536869887
 21
103.0922816951
 31
0.0
  0
LINE
  5
23D3
330
74
100
AcDbEntity
  8
0
  6
Continuous
100
AcDbLine
 10
248.0536869887
 20
103.0922816951
 30
0.0
 11
248.0178803985999
 21
103.1948498526
 31
0.0
  0
LINE
  5
23D4
330
74
100
AcDbEntity
  8
0
  6
Continuous
100
AcDbLine
 10
248.0178803985999
 20
103.1948498526
 30
0.0
 11
248.0082959777999
 21
103.2542385301999
 31
0.0
  0
LINE
  5
23D5
330
74
100
AcDbEntity
  8
0
  6
Continuous
100
AcDbLine
 10
245.609891968
 20
149.6846770454
 30
0.0
 11
246.4258801656999
 21
134.0765432521999
 31
0.0
  0
LINE
  5
23D6
330
74
100
AcDbEntity
  8
0
  6
Continuous
100
AcDbLine
 10
246.4258801656999
 20
134.0765432521999
 30
0.0
 11
247.2125500204
 21
119.0007960558
 31
0.0
  0
LINE
  5
23D7
330
74
100
AcDbEntity
  8
0
  6
Continuous
100
AcDbLine
 10
245.5502007584
 20
149.6846770454
 30
0.0
 11
246.3910638002
 21
133.6641536532
 31
0.0
  0
LINE
  5
23D8
330
74
100
AcDbEntity
  8
0
  6
Continuous
100
AcDbLine
 10
246.3910638002
 20
133.6641536532
 30
0.0
 11
247.1870033055
 21
118.4731114992999
 31
0.0
  0
LINE
  5
23D9
330
74
100
AcDbEntity
  8
0
  6
Continuous
100
AcDbLine
 10
247.1870033055
 20
118.4731114992999
 30
0.0
 11
247.9212576247999
 21
104.4364693577999
 31
0.0
  0
LINE
  5
23DA
330
74
100
AcDbEntity
  8
0
  6
Continuous
100
AcDbLine
 10
247.9720358024999
 20
104.41926923
 30
0.0
 11
247.9941746714
 21
104.0786056079
 31
0.0
  0
LINE
  5
23DB
330
74
100
AcDbEntity
  8
0
  6
Continuous
100
AcDbLine
 10
247.9941746714
 20
104.0786056079
 30
0.0
 11
248.0249464966999
 21
103.7213639123999
 31
0.0
  0
LINE
  5
23DC
330
74
100
AcDbEntity
  8
0
  6
Continuous
100
AcDbLine
 10
248.0249464966999
 20
103.7213639123999
 30
0.0
 11
248.0645374310999
 21
103.3577221687999
 31
0.0
  0
LINE
  5
23DD
330
74
100
AcDbEntity
  8
0
  6
Continuous
100
AcDbLine
 10
247.9331770042
 20
104.2235659706999
 30
0.0
 11
247.9576590706
 21
103.8543128993999
 31
0.0
  0
LINE
  5
23DE
330
74
100
AcDbEntity
  8
0
  6
Continuous
100
AcDbLine
 10
247.9576590706
 20
103.8543128993999
 30
0.0
 11
247.9863688887999
 21
103.494175207
 31
0.0
  0
LINE
  5
23DF
330
74
100
AcDbEntity
  8
0
  6
Continuous
100
AcDbLine
 10
247.9863688887999
 20
103.494175207
 30
0.0
 11
248.0082934272
 21
103.2542567159
 31
0.0
  0
LINE
  5
23E0
330
74
100
AcDbEntity
  8
0
  6
Continuous
100
AcDbLine
 10
248.9837596266
 20
93.33739525570001
 30
0.0
 11
249.0041274323
 21
93.10647830879998
 31
0.0
  0
LINE
  5
23E1
330
74
100
AcDbEntity
  8
0
  6
Continuous
100
AcDbLine
 10
249.0041274323
 20
93.10647830879998
 30
0.0
 11
249.0072973063
 21
93.07207682999999
 31
0.0
  0
LINE
  5
23E2
330
74
100
AcDbEntity
  8
0
  6
Continuous
100
AcDbLine
 10
248.1126841218
 20
102.9960352429
 30
0.0
 11
248.3699326625
 21
100.1862794997
 31
0.0
  0
LINE
  5
23E3
330
74
100
AcDbEntity
  8
0
  6
Continuous
100
AcDbLine
 10
248.3699326625
 20
100.1862794997
 30
0.0
 11
248.5747326145999
 21
97.924447631
 31
0.0
  0
LINE
  5
23E4
330
74
100
AcDbEntity
  8
0
  6
Continuous
100
AcDbLine
 10
248.5747326145999
 20
97.924447631
 30
0.0
 11
248.7327638643999
 21
96.16346607149999
 31
0.0
  0
LINE
  5
23E5
330
74
100
AcDbEntity
  8
0
  6
Continuous
100
AcDbLine
 10
248.7327638643999
 20
96.16346607149999
 30
0.0
 11
248.849291537
 21
94.8559648604
 31
0.0
  0
LINE
  5
23E6
330
74
100
AcDbEntity
  8
0
  6
Continuous
100
AcDbLine
 10
248.849291537
 20
94.8559648604
 30
0.0
 11
248.9296540122
 21
93.949703611
 31
0.0
  0
LINE
  5
23E7
330
74
100
AcDbEntity
  8
0
  6
Continuous
100
AcDbLine
 10
248.0082959777999
 20
103.2542385301999
 30
0.0
 11
248.2095262081
 21
101.1560520833999
 31
0.0
  0
LINE
  5
23E8
330
74
100
AcDbEntity
  8
0
  6
Continuous
100
AcDbLine
 10
248.2095262081
 20
101.1560520833999
 30
0.0
 11
248.3990996256
 21
99.16510722339999
 31
0.0
  0
LINE
  5
23E9
330
74
100
AcDbEntity
  8
0
  6
Continuous
100
AcDbLine
 10
248.3990996256
 20
99.16510722339999
 30
0.0
 11
248.5639725855
 21
97.42205869680001
 31
0.0
  0
LINE
  5
23EA
330
74
100
AcDbEntity
  8
0
  6
Continuous
100
AcDbLine
 10
248.5639725855
 20
97.42205869680001
 30
0.0
 11
248.7018885163
 21
95.9556196699
 31
0.0
  0
LINE
  5
23EB
330
74
100
AcDbEntity
  8
0
  6
Continuous
100
AcDbLine
 10
248.7018885163
 20
95.9556196699
 30
0.0
 11
248.8104108031
 21
94.79626461950001
 31
0.0
  0
LINE
  5
23EC
330
74
100
AcDbEntity
  8
0
  6
Continuous
100
AcDbLine
 10
248.8104108031
 20
94.79626461950001
 30
0.0
 11
248.8874996015
 21
93.969762393
 31
0.0
  0
LINE
  5
23ED
330
74
100
AcDbEntity
  8
0
  6
Continuous
100
AcDbLine
 10
248.8874996015
 20
93.969762393
 30
0.0
 11
248.9324137197999
 21
93.48707737179999
 31
0.0
  0
LINE
  5
23F2
330
74
100
AcDbEntity
  8
0
  6
Continuous
100
AcDbLine
 10
78.8374831527
 20
147.7846770454
 30
0.0
 11
78.68107093449999
 21
147.7485926412
 31
0.0
  0
LINE
  5
23F3
330
74
100
AcDbEntity
  8
0
  6
Continuous
100
AcDbLine
 10
78.68107093449999
 20
147.7485926412
 30
0.0
 11
78.5446437653
 21
147.6425592288999
 31
0.0
  0
LINE
  5
23F4
330
74
100
AcDbEntity
  8
0
  6
Continuous
100
AcDbLine
 10
78.5446437653
 20
147.6425592288999
 30
0.0
 11
78.4505875637
 21
147.4775079730999
 31
0.0
  0
LINE
  5
23F5
330
74
100
AcDbEntity
  8
0
  6
Continuous
100
AcDbLine
 10
78.4505875637
 20
147.4775079730999
 30
0.0
 11
78.4181478687
 21
147.2846770453999
 31
0.0
  0
LINE
  5
23F6
330
74
100
AcDbEntity
  8
0
  6
Continuous
100
AcDbLine
 10
82.1053173628
 20
147.7846770454
 30
0.0
 11
81.9489051855
 21
147.7485926607999
 31
0.0
  0
LINE
  5
23F7
330
74
100
AcDbEntity
  8
0
  6
Continuous
100
AcDbLine
 10
81.9489051855
 20
147.7485926607999
 30
0.0
 11
81.81247798559999
 21
147.6425592408
 31
0.0
  0
LINE
  5
23F8
330
74
100
AcDbEntity
  8
0
  6
Continuous
100
AcDbLine
 10
81.81247798559999
 20
147.6425592408
 30
0.0
 11
81.71842176529999
 21
147.477507949
 31
0.0
  0
LINE
  5
23F9
330
74
100
AcDbEntity
  8
0
  6
Continuous
100
AcDbLine
 10
81.71842176529999
 20
147.477507949
 30
0.0
 11
81.6859820788
 21
147.2846770453999
 31
0.0
  0
LINE
  5
2417
330
74
100
AcDbEntity
  8
0
  6
Continuous
100
AcDbLine
 10
193.1294551913
 20
103.357722871
 30
0.0
 11
193.1690459924999
 21
103.7213633558
 31
0.0
  0
LINE
  5
2418
330
74
100
AcDbEntity
  8
0
  6
Continuous
100
AcDbLine
 10
193.1690459924999
 20
103.7213633558
 30
0.0
 11
193.1998177859
 21
104.0786038647
 31
0.0
  0
LINE
  5
2419
330
74
100
AcDbEntity
  8
0
  6
Continuous
100
AcDbLine
 10
193.1998177859
 20
104.0786038647
 30
0.0
 11
193.2219567375999
 21
104.4192692295999
 31
0.0
  0
LINE
  5
241A
330
74
100
AcDbEntity
  8
0
  6
Continuous
100
AcDbLine
 10
192.2473507387
 20
93.33399179370001
 30
0.0
 11
192.3065618559
 21
93.9705014539
 31
0.0
  0
LINE
  5
241B
330
74
100
AcDbEntity
  8
0
  6
Continuous
100
AcDbLine
 10
192.3065618559
 20
93.9705014539
 30
0.0
 11
192.3822559677
 21
94.78207061459999
 31
0.0
  0
LINE
  5
241C
330
74
100
AcDbEntity
  8
0
  6
Continuous
100
AcDbLine
 10
192.3822559677
 20
94.78207061459999
 30
0.0
 11
192.4883384315999
 21
95.91547194639998
 31
0.0
  0
LINE
  5
241D
330
74
100
AcDbEntity
  8
0
  6
Continuous
100
AcDbLine
 10
192.4883384315999
 20
95.91547194639998
 30
0.0
 11
192.623658818
 21
97.3545913897
 31
0.0
  0
LINE
  5
241E
330
74
100
AcDbEntity
  8
0
  6
Continuous
100
AcDbLine
 10
192.623658818
 20
97.3545913897
 30
0.0
 11
192.7871158897
 21
99.08313307610001
 31
0.0
  0
LINE
  5
241F
330
74
100
AcDbEntity
  8
0
  6
Continuous
100
AcDbLine
 10
192.7871158897
 20
99.08313307610001
 30
0.0
 11
192.9779670515999
 21
101.0880286317
 31
0.0
  0
LINE
  5
2420
330
74
100
AcDbEntity
  8
0
  6
Continuous
100
AcDbLine
 10
193.1856992897
 20
103.2542588395999
 30
0.0
 11
193.2067592293999
 21
103.4842154539999
 31
0.0
  0
LINE
  5
2421
330
74
100
AcDbEntity
  8
0
  6
Continuous
100
AcDbLine
 10
193.2067592293999
 20
103.4842154539999
 30
0.0
 11
193.2355211874
 21
103.8432118273
 31
0.0
  0
LINE
  5
2422
330
74
100
AcDbEntity
  8
0
  6
Continuous
100
AcDbLine
 10
193.2355211874
 20
103.8432118273
 30
0.0
 11
193.2601033973
 21
104.2116815543999
 31
0.0
  0
LINE
  5
2423
330
74
100
AcDbEntity
  8
0
  6
Continuous
100
AcDbLine
 10
192.1868746974999
 20
93.07255088499999
 30
0.0
 11
192.2296910989
 21
93.557818405
 31
0.0
  0
LINE
  5
2424
330
74
100
AcDbEntity
  8
0
  6
Continuous
100
AcDbLine
 10
192.2296910989
 20
93.557818405
 30
0.0
 11
192.2860060995
 21
94.1944333652
 31
0.0
  0
LINE
  5
2425
330
74
100
AcDbEntity
  8
0
  6
Continuous
100
AcDbLine
 10
192.2860060995
 20
94.1944333652
 30
0.0
 11
192.370250274
 21
95.14331463159999
 31
0.0
  0
LINE
  5
2426
330
74
100
AcDbEntity
  8
0
  6
Continuous
100
AcDbLine
 10
192.370250274
 20
95.14331463159999
 30
0.0
 11
192.4874839884
 21
96.45700516760001
 31
0.0
  0
LINE
  5
2427
330
74
100
AcDbEntity
  8
0
  6
Continuous
100
AcDbLine
 10
192.4874839884
 20
96.45700516760001
 30
0.0
 11
192.643567809
 21
98.1940914121
 31
0.0
  0
LINE
  5
2428
330
74
100
AcDbEntity
  8
0
  6
Continuous
100
AcDbLine
 10
192.643567809
 20
98.1940914121
 30
0.0
 11
192.8395085983
 21
100.3559827840999
 31
0.0
  0
LINE
  5
2429
330
74
100
AcDbEntity
  8
0
  6
Continuous
100
AcDbLine
 10
192.8395085983
 20
100.3559827840999
 30
0.0
 11
193.0813082568999
 21
102.9960320778
 31
0.0
  0
LINE
  5
242A
330
74
100
AcDbEntity
  8
0
  6
Continuous
100
AcDbLine
 10
193.2727349092999
 20
104.4364692407999
 30
0.0
 11
194.0062929245
 21
118.4598106599
 31
0.0
  0
LINE
  5
242B
330
74
100
AcDbEntity
  8
0
  6
Continuous
100
AcDbLine
 10
194.0062929245
 20
118.4598106599
 30
0.0
 11
194.8022311847999
 21
133.6508516158
 31
0.0
  0
LINE
  5
242C
330
74
100
AcDbEntity
  8
0
  6
Continuous
100
AcDbLine
 10
194.8022311847999
 20
133.6508516158
 30
0.0
 11
195.6437917816999
 21
149.6846770454
 31
0.0
  0
LINE
  5
242D
330
74
100
AcDbEntity
  8
0
  6
Continuous
100
AcDbLine
 10
193.2219567370999
 20
104.4192692295999
 30
0.0
 11
193.9814425197
 21
119.0007960553
 31
0.0
  0
LINE
  5
242E
330
74
100
AcDbEntity
  8
0
  6
Continuous
100
AcDbLine
 10
193.9814425197
 20
119.0007960553
 30
0.0
 11
194.7681123743999
 21
134.0765432519
 31
0.0
  0
LINE
  5
242F
330
74
100
AcDbEntity
  8
0
  6
Continuous
100
AcDbLine
 10
194.7681123743999
 20
134.0765432519
 30
0.0
 11
195.5841005721
 21
149.6846770454
 31
0.0
  0
LINE
  5
2430
330
74
100
AcDbEntity
  8
0
  6
Continuous
100
AcDbLine
 10
135.3043224582
 20
145.4848720619
 30
0.0
 11
135.2929305014
 21
145.4894976952
 31
0.0
  0
LINE
  5
2431
330
74
100
AcDbEntity
  8
0
  6
Continuous
100
AcDbLine
 10
135.2929305014
 20
145.4894976952
 30
0.0
 11
135.2840539166999
 21
145.4994787193
 31
0.0
  0
LINE
  5
2432
330
74
100
AcDbEntity
  8
0
  6
Continuous
100
AcDbLine
 10
135.2840539166999
 20
145.4994787193
 30
0.0
 11
135.2767159837999
 21
145.5119903543
 31
0.0
  0
LINE
  5
2433
330
74
100
AcDbEntity
  8
0
  6
Continuous
100
AcDbLine
 10
135.2767159837999
 20
145.5119903543
 30
0.0
 11
135.2701161461
 21
145.5265823987
 31
0.0
  0
LINE
  5
2434
330
74
100
AcDbEntity
  8
0
  6
Continuous
100
AcDbLine
 10
135.2701161461
 20
145.5265823987
 30
0.0
 11
135.2640333926
 21
145.5428756467
 31
0.0
  0
LINE
  5
2435
330
74
100
AcDbEntity
  8
0
  6
Continuous
100
AcDbLine
 10
135.2640333926
 20
145.5428756467
 30
0.0
 11
135.2585317482999
 21
145.5600035561
 31
0.0
  0
LINE
  5
2436
330
74
100
AcDbEntity
  8
0
  6
Continuous
100
AcDbLine
 10
135.2585317482999
 20
145.5600035561
 30
0.0
 11
135.2536517190999
 21
145.5771324332999
 31
0.0
  0
LINE
  5
2437
330
74
100
AcDbEntity
  8
0
  6
Continuous
100
AcDbLine
 10
135.2536517190999
 20
145.5771324332999
 30
0.0
 11
135.2491385316
 21
145.5946248724999
 31
0.0
  0
LINE
  5
2438
330
74
100
AcDbEntity
  8
0
  6
Continuous
100
AcDbLine
 10
135.2491385316
 20
145.5946248724999
 30
0.0
 11
135.2448664341999
 21
145.6126733035
 31
0.0
  0
LINE
  5
2439
330
74
100
AcDbEntity
  8
0
  6
Continuous
100
AcDbLine
 10
135.2448664341999
 20
145.6126733035
 30
0.0
 11
135.2407752014
 21
145.6313439333999
 31
0.0
  0
LINE
  5
243A
330
74
100
AcDbEntity
  8
0
  6
Continuous
100
AcDbLine
 10
135.2407752014
 20
145.6313439333999
 30
0.0
 11
135.2368184212
 21
145.6507184087999
 31
0.0
  0
LINE
  5
243B
330
74
100
AcDbEntity
  8
0
  6
Continuous
100
AcDbLine
 10
135.2368184212
 20
145.6507184087999
 30
0.0
 11
135.2329606856999
 21
145.6708826168
 31
0.0
  0
LINE
  5
243C
330
74
100
AcDbEntity
  8
0
  6
Continuous
100
AcDbLine
 10
135.2329606856999
 20
145.6708826168
 30
0.0
 11
135.2291743892999
 21
145.6919255468999
 31
0.0
  0
LINE
  5
243D
330
74
100
AcDbEntity
  8
0
  6
Continuous
100
AcDbLine
 10
135.2291743892999
 20
145.6919255468999
 30
0.0
 11
135.2254376904
 21
145.7139386136
 31
0.0
  0
LINE
  5
243E
330
74
100
AcDbEntity
  8
0
  6
Continuous
100
AcDbLine
 10
135.2254376904
 20
145.7139386136
 30
0.0
 11
135.2217331546999
 21
145.7370152384999
 31
0.0
  0
LINE
  5
243F
330
74
100
AcDbEntity
  8
0
  6
Continuous
100
AcDbLine
 10
135.2217331546999
 20
145.7370152384999
 30
0.0
 11
135.2180468245
 21
145.7612505724999
 31
0.0
  0
LINE
  5
2440
330
74
100
AcDbEntity
  8
0
  6
Continuous
100
AcDbLine
 10
135.2180468245
 20
145.7612505724999
 30
0.0
 11
135.2143675618
 21
145.7867412807999
 31
0.0
  0
LINE
  5
2441
330
74
100
AcDbEntity
  8
0
  6
Continuous
100
AcDbLine
 10
135.2143675618
 20
145.7867412807999
 30
0.0
 11
135.2106865764999
 21
145.8135853361
 31
0.0
  0
LINE
  5
2442
330
74
100
AcDbEntity
  8
0
  6
Continuous
100
AcDbLine
 10
135.2106865764999
 20
145.8135853361
 30
0.0
 11
135.2069970857999
 21
145.8418817749999
 31
0.0
  0
LINE
  5
2443
330
74
100
AcDbEntity
  8
0
  6
Continuous
100
AcDbLine
 10
135.2069970857999
 20
145.8418817749999
 30
0.0
 11
135.2032940649
 21
145.8717303823999
 31
0.0
  0
LINE
  5
2444
330
74
100
AcDbEntity
  8
0
  6
Continuous
100
AcDbLine
 10
135.2032940649
 20
145.8717303823999
 30
0.0
 11
135.1995740686
 21
145.9032312719999
 31
0.0
  0
LINE
  5
2445
330
74
100
AcDbEntity
  8
0
  6
Continuous
100
AcDbLine
 10
135.1995740686
 20
145.9032312719999
 30
0.0
 11
135.1958351027
 21
145.9364843376999
 31
0.0
  0
LINE
  5
2446
330
74
100
AcDbEntity
  8
0
  6
Continuous
100
AcDbLine
 10
135.1958351027
 20
145.9364843376999
 30
0.0
 11
135.1920765341
 21
145.9715885588999
 31
0.0
  0
LINE
  5
2447
330
74
100
AcDbEntity
  8
0
  6
Continuous
100
AcDbLine
 10
135.1920765341
 20
145.9715885588999
 30
0.0
 11
135.1882990272999
 21
146.0086411542
 31
0.0
  0
LINE
  5
2448
330
74
100
AcDbEntity
  8
0
  6
Continuous
100
AcDbLine
 10
135.1882990272999
 20
146.0086411542
 30
0.0
 11
135.1845044980999
 21
146.0477365943
 31
0.0
  0
LINE
  5
2449
330
74
100
AcDbEntity
  8
0
  6
Continuous
100
AcDbLine
 10
135.1845044980999
 20
146.0477365943
 30
0.0
 11
135.180696074
 21
146.0889655105999
 31
0.0
  0
LINE
  5
244A
330
74
100
AcDbEntity
  8
0
  6
Continuous
100
AcDbLine
 10
135.180696074
 20
146.0889655105999
 30
0.0
 11
135.1768780515999
 21
146.1324135713
 31
0.0
  0
LINE
  5
244B
330
74
100
AcDbEntity
  8
0
  6
Continuous
100
AcDbLine
 10
135.1768780515999
 20
146.1324135713
 30
0.0
 11
135.1730558404
 21
146.1781604454
 31
0.0
  0
LINE
  5
244C
330
74
100
AcDbEntity
  8
0
  6
Continuous
100
AcDbLine
 10
135.1730558404
 20
146.1781604454
 30
0.0
 11
135.1692358795
 21
146.2262790448999
 31
0.0
  0
LINE
  5
244D
330
74
100
AcDbEntity
  8
0
  6
Continuous
100
AcDbLine
 10
135.1692358795
 20
146.2262790448999
 30
0.0
 11
135.1654255197999
 21
146.2768352873999
 31
0.0
  0
LINE
  5
244E
330
74
100
AcDbEntity
  8
0
  6
Continuous
100
AcDbLine
 10
135.1654255197999
 20
146.2768352873999
 30
0.0
 11
135.1616329260999
 21
146.3298877396
 31
0.0
  0
LINE
  5
244F
330
74
100
AcDbEntity
  8
0
  6
Continuous
100
AcDbLine
 10
135.1616329260999
 20
146.3298877396
 30
0.0
 11
135.1578647436999
 21
146.3855213265999
 31
0.0
  0
LINE
  5
2450
330
74
100
AcDbEntity
  8
0
  6
Continuous
100
AcDbLine
 10
135.1578647436999
 20
146.3855213265999
 30
0.0
 11
135.1541041357
 21
146.4442079566
 31
0.0
  0
LINE
  5
2451
330
74
100
AcDbEntity
  8
0
  6
Continuous
100
AcDbLine
 10
135.1541041357
 20
146.4442079566
 30
0.0
 11
135.1503149593
 21
146.5068518733
 31
0.0
  0
LINE
  5
2452
330
74
100
AcDbEntity
  8
0
  6
Continuous
100
AcDbLine
 10
135.1503149593
 20
146.5068518733
 30
0.0
 11
135.1464729909999
 21
146.5743584503
 31
0.0
  0
LINE
  5
2453
330
74
100
AcDbEntity
  8
0
  6
Continuous
100
AcDbLine
 10
135.1464729909999
 20
146.5743584503
 30
0.0
 11
135.1425659015
 21
146.6476329037
 31
0.0
  0
LINE
  5
2454
330
74
100
AcDbEntity
  8
0
  6
Continuous
100
AcDbLine
 10
135.1425659015
 20
146.6476329037
 30
0.0
 11
135.1385933398999
 21
146.7275810120999
 31
0.0
  0
LINE
  5
2455
330
74
100
AcDbEntity
  8
0
  6
Continuous
100
AcDbLine
 10
135.1385933398999
 20
146.7275810120999
 30
0.0
 11
135.1345672356
 21
146.8151090572
 31
0.0
  0
LINE
  5
2456
330
74
100
AcDbEntity
  8
0
  6
Continuous
100
AcDbLine
 10
135.1345672356
 20
146.8151090572
 30
0.0
 11
135.1305122365
 21
146.9111237483
 31
0.0
  0
LINE
  5
2457
330
74
100
AcDbEntity
  8
0
  6
Continuous
100
AcDbLine
 10
135.1305122365
 20
146.9111237483
 30
0.0
 11
135.1264662919
 21
147.0165321095
 31
0.0
  0
LINE
  5
2458
330
74
100
AcDbEntity
  8
0
  6
Continuous
100
AcDbLine
 10
135.1264662919
 20
147.0165321095
 30
0.0
 11
135.1224814175999
 21
147.1322412998
 31
0.0
  0
LINE
  5
2459
330
74
100
AcDbEntity
  8
0
  6
Continuous
100
AcDbLine
 10
135.1224814175999
 20
147.1322412998
 30
0.0
 11
135.1186247141
 21
147.2591583247
 31
0.0
  0
LINE
  5
245A
330
74
100
AcDbEntity
  8
0
  6
Continuous
100
AcDbLine
 10
135.1186247141
 20
147.2591583247
 30
0.0
 11
135.1149797455999
 21
147.3981895896999
 31
0.0
  0
LINE
  5
245B
330
74
100
AcDbEntity
  8
0
  6
Continuous
100
AcDbLine
 10
135.1149797455999
 20
147.3981895896999
 30
0.0
 11
135.1116484337999
 21
147.5502402365
 31
0.0
  0
LINE
  5
245C
330
74
100
AcDbEntity
  8
0
  6
Continuous
100
AcDbLine
 10
135.1116484337999
 20
147.5502402365
 30
0.0
 11
135.1087536889999
 21
147.7162132008
 31
0.0
  0
LINE
  5
245D
330
74
100
AcDbEntity
  8
0
  6
Continuous
100
AcDbLine
 10
135.1087536889999
 20
147.7162132008
 30
0.0
 11
135.1064431115999
 21
147.8970079296999
 31
0.0
  0
LINE
  5
245E
330
74
100
AcDbEntity
  8
0
  6
Continuous
100
AcDbLine
 10
135.1064431115999
 20
147.8970079296999
 30
0.0
 11
135.1048942797
 21
148.0935186549
 31
0.0
  0
LINE
  5
245F
330
74
100
AcDbEntity
  8
0
  6
Continuous
100
AcDbLine
 10
135.1048942797
 20
148.0935186549
 30
0.0
 11
135.1043224581999
 21
148.3066333026999
 31
0.0
  0
LINE
  5
2460
330
74
100
AcDbEntity
  8
0
  6
Continuous
100
AcDbLine
 10
135.5043224581999
 20
145.4848720619
 30
0.0
 11
135.4043224573
 21
145.4846770454
 31
0.0
  0
LINE
  5
2461
330
74
100
AcDbEntity
  8
0
  6
Continuous
100
AcDbLine
 10
135.4043224573
 20
145.4846770454
 30
0.0
 11
135.3043224582
 21
145.4848720619
 31
0.0
  0
LINE
  5
2467
330
74
100
AcDbEntity
  8
0
  6
Continuous
100
AcDbLine
 10
193.0813174516
 20
102.9960022924999
 30
0.0
 11
193.1403107307
 21
103.0922795344
 31
0.0
  0
LINE
  5
2468
330
74
100
AcDbEntity
  8
0
  6
Continuous
100
AcDbLine
 10
193.1403107307
 20
103.0922795344
 30
0.0
 11
193.1761139850999
 21
103.1948489729999
 31
0.0
  0
LINE
  5
2469
330
74
100
AcDbEntity
  8
0
  6
Continuous
100
AcDbLine
 10
193.1761139850999
 20
103.1948489729999
 30
0.0
 11
193.1856973449
 21
103.254238628
 31
0.0
  0
LINE
  5
2471
330
74
100
AcDbEntity
  8
0
  6
Continuous
100
AcDbLine
 10
82.1053173628
 20
147.7846770454
 30
0.0
 11
82.14997774750001
 21
147.7779072196999
 31
0.0
  0
LINE
  5
2472
330
74
100
AcDbEntity
  8
0
  6
Continuous
100
AcDbLine
 10
82.14997774750001
 20
147.7779072196999
 30
0.0
 11
82.1979468047
 21
147.7548626688999
 31
0.0
  0
LINE
  5
2473
330
74
100
AcDbEntity
  8
0
  6
Continuous
100
AcDbLine
 10
82.1979468047
 20
147.7548626688999
 30
0.0
 11
82.24749239260001
 21
147.7111225447999
 31
0.0
  0
LINE
  5
2474
330
74
100
AcDbEntity
  8
0
  6
Continuous
100
AcDbLine
 10
82.24749239260001
 20
147.7111225447999
 30
0.0
 11
82.2956590218
 21
147.6422552577
 31
0.0
  0
LINE
  5
2475
330
74
100
AcDbEntity
  8
0
  6
Continuous
100
AcDbLine
 10
82.2956590218
 20
147.6422552577
 30
0.0
 11
82.3376452671
 21
147.5455143636
 31
0.0
  0
LINE
  5
2476
330
74
100
AcDbEntity
  8
0
  6
Continuous
100
AcDbLine
 10
82.3376452671
 20
147.5455143636
 30
0.0
 11
82.3669349987
 21
147.4234696662999
 31
0.0
  0
LINE
  5
2477
330
74
100
AcDbEntity
  8
0
  6
Continuous
100
AcDbLine
 10
82.3669349987
 20
147.4234696662999
 30
0.0
 11
82.3776368803
 21
147.2846770453999
 31
0.0
  0
LINE
  5
2482
330
74
100
AcDbEntity
  8
0
  6
Continuous
100
AcDbLine
 10
82.1053173628
 20
145.6846770453999
 30
0.0
 11
81.94890514449999
 21
145.7207614496
 31
0.0
  0
LINE
  5
2483
330
74
100
AcDbEntity
  8
0
  6
Continuous
100
AcDbLine
 10
81.94890514449999
 20
145.7207614496
 30
0.0
 11
81.81247797540001
 21
145.8267948618999
 31
0.0
  0
LINE
  5
2484
330
74
100
AcDbEntity
  8
0
  6
Continuous
100
AcDbLine
 10
81.81247797540001
 20
145.8267948618999
 30
0.0
 11
81.7184217738
 21
145.9918461176
 31
0.0
  0
LINE
  5
2485
330
74
100
AcDbEntity
  8
0
  6
Continuous
100
AcDbLine
 10
81.7184217738
 20
145.9918461176
 30
0.0
 11
81.6859820788
 21
146.1846770454
 31
0.0
  0
LINE
  5
2486
330
74
100
AcDbEntity
  8
0
  6
Continuous
100
AcDbLine
 10
78.8374831527
 20
145.6846770453999
 30
0.0
 11
78.68107097540002
 21
145.7207614299
 31
0.0
  0
LINE
  5
2487
330
74
100
AcDbEntity
  8
0
  6
Continuous
100
AcDbLine
 10
78.68107097540002
 20
145.7207614299
 30
0.0
 11
78.54464377550001
 21
145.8267948499
 31
0.0
  0
LINE
  5
248E
330
74
100
AcDbEntity
  8
0
  6
Continuous
100
AcDbLine
 10
83.36332321470001
 20
147.7846770454
 30
0.0
 11
83.46753538239999
 21
147.7466168116
 31
0.0
  0
LINE
  5
248F
330
74
100
AcDbEntity
  8
0
  6
Continuous
100
AcDbLine
 10
83.46753538239999
 20
147.7466168116
 30
0.0
 11
83.55588219220001
 21
147.638230436
 31
0.0
  0
LINE
  5
2490
330
74
100
AcDbEntity
  8
0
  6
Continuous
100
AcDbLine
 10
83.55588219220001
 20
147.638230436
 30
0.0
 11
83.61491364329998
 21
147.4760187615
 31
0.0
  0
LINE
  5
2491
330
74
100
AcDbEntity
  8
0
  6
Continuous
100
AcDbLine
 10
83.61491364329998
 20
147.4760187615
 30
0.0
 11
83.63564273219997
 21
147.2846770453999
 31
0.0
  0
LINE
  5
2494
330
74
100
AcDbEntity
  8
0
  6
Continuous
100
AcDbLine
 10
153.7991868665999
 20
102.9960063187999
 30
0.0
 11
153.6911946130999
 21
103.0922816951
 31
0.0
  0
LINE
  5
2495
330
74
100
AcDbEntity
  8
0
  6
Continuous
100
AcDbLine
 10
153.6911946130999
 20
103.0922816951
 30
0.0
 11
153.5789015626
 21
103.1948498526
 31
0.0
  0
LINE
  5
2496
330
74
100
AcDbEntity
  8
0
  6
Continuous
100
AcDbLine
 10
153.5789015626
 20
103.1948498526
 30
0.0
 11
153.4650490186999
 21
103.3012068926
 31
0.0
  0
LINE
  5
2497
330
74
100
AcDbEntity
  8
0
  6
Continuous
100
AcDbLine
 10
154.3774030950999
 20
104.41926923
 30
0.0
 11
154.3311109789
 21
104.0786056079
 31
0.0
  0
LINE
  5
2498
330
74
100
AcDbEntity
  8
0
  6
Continuous
100
AcDbLine
 10
154.3311109789
 20
104.0786056079
 30
0.0
 11
154.2227783252
 21
103.7213639123999
 31
0.0
  0
LINE
  5
2499
330
74
100
AcDbEntity
  8
0
  6
Continuous
100
AcDbLine
 10
154.2227783252
 20
103.7213639123999
 30
0.0
 11
154.0463348871
 21
103.3577221687999
 31
0.0
  0
LINE
  5
249A
330
74
100
AcDbEntity
  8
0
  6
Continuous
100
AcDbLine
 10
154.0463348871
 20
103.3577221687999
 30
0.0
 11
153.7992067402
 21
102.9960352429
 31
0.0
  0
LINE
  5
249B
330
74
100
AcDbEntity
  8
0
  6
Continuous
100
AcDbLine
 10
157.1849171737
 20
149.6846770454
 30
0.0
 11
156.240327828
 21
134.0765432521999
 31
0.0
  0
LINE
  5
249C
330
74
100
AcDbEntity
  8
0
  6
Continuous
100
AcDbLine
 10
156.240327828
 20
134.0765432521999
 30
0.0
 11
155.3055103188999
 21
119.0007960558
 31
0.0
  0
LINE
  5
249D
330
74
100
AcDbEntity
  8
0
  6
Continuous
100
AcDbLine
 10
155.3055103188999
 20
119.0007960558
 30
0.0
 11
154.3774030967
 21
104.41926923
 31
0.0
  0
LINE
  5
249E
330
74
100
AcDbEntity
  8
0
  6
Continuous
100
AcDbLine
 10
156.7846706405999
 20
149.6846770454
 30
0.0
 11
155.8523313951
 21
134.0838519925
 31
0.0
  0
LINE
  5
249F
330
74
100
AcDbEntity
  8
0
  6
Continuous
100
AcDbLine
 10
155.8523313951
 20
134.0838519925
 30
0.0
 11
154.930065727
 21
119.0149455955999
 31
0.0
  0
LINE
  5
24A0
330
74
100
AcDbEntity
  8
0
  6
Continuous
100
AcDbLine
 10
154.930065727
 20
119.0149455955999
 30
0.0
 11
154.0148614846
 21
104.4398169868999
 31
0.0
  0
LINE
  5
24A1
330
74
100
AcDbEntity
  8
0
  6
Continuous
100
AcDbLine
 10
154.0148614846
 20
104.4398169868999
 30
0.0
 11
153.9714767741999
 21
104.1672966920999
 31
0.0
  0
LINE
  5
24A2
330
74
100
AcDbEntity
  8
0
  6
Continuous
100
AcDbLine
 10
153.9714767741999
 20
104.1672966920999
 30
0.0
 11
153.8687786930999
 21
103.8814952489
 31
0.0
  0
LINE
  5
24A3
330
74
100
AcDbEntity
  8
0
  6
Continuous
100
AcDbLine
 10
153.8687786930999
 20
103.8814952489
 30
0.0
 11
153.700810956
 21
103.5905549356999
 31
0.0
  0
LINE
  5
24A4
330
74
100
AcDbEntity
  8
0
  6
Continuous
100
AcDbLine
 10
153.700810956
 20
103.5905549356999
 30
0.0
 11
153.4650490134
 21
103.3012068874999
 31
0.0
  0
LINE
  5
24A5
330
74
100
AcDbEntity
  8
0
  6
Continuous
100
AcDbLine
 10
154.3773962957
 20
104.4192707752
 30
0.0
 11
154.2588436497998
 21
104.4251973399999
 31
0.0
  0
LINE
  5
24A6
330
74
100
AcDbEntity
  8
0
  6
Continuous
100
AcDbLine
 10
154.2588436497998
 20
104.4251973399999
 30
0.0
 11
154.1373883068
 21
104.4320806683
 31
0.0
  0
LINE
  5
24A7
330
74
100
AcDbEntity
  8
0
  6
Continuous
100
AcDbLine
 10
154.1373883068
 20
104.4320806683
 30
0.0
 11
154.0148614899999
 21
104.439816992
 31
0.0
  0
LINE
  5
24A8
330
74
100
AcDbEntity
  8
0
  6
Continuous
100
AcDbLine
 10
116.4312418179999
 20
104.4192692548999
 30
0.0
 11
116.5497974938999
 21
104.4251962324
 31
0.0
  0
LINE
  5
24A9
330
74
100
AcDbEntity
  8
0
  6
Continuous
100
AcDbLine
 10
116.5497974938999
 20
104.4251962324
 30
0.0
 11
116.6712550489999
 21
104.4320800687999
 31
0.0
  0
LINE
  5
24AA
330
74
100
AcDbEntity
  8
0
  6
Continuous
100
AcDbLine
 10
116.6712550489999
 20
104.4320800687999
 30
0.0
 11
116.7937834317
 21
104.4398169868999
 31
0.0
  0
LINE
  5
24AB
330
74
100
AcDbEntity
  8
0
  6
Continuous
100
AcDbLine
 10
153.7992163587999
 20
102.9960352429
 30
0.0
 11
150.9066300375
 21
100.1862794997
 31
0.0
  0
LINE
  5
24AC
330
74
100
AcDbEntity
  8
0
  6
Continuous
100
AcDbLine
 10
150.9066300375
 20
100.1862794997
 30
0.0
 11
148.158857122
 21
97.924447631
 31
0.0
  0
LINE
  5
24AD
330
74
100
AcDbEntity
  8
0
  6
Continuous
100
AcDbLine
 10
148.158857122
 20
97.924447631
 30
0.0
 11
145.5543512277
 21
96.16346607149999
 31
0.0
  0
LINE
  5
24AE
330
74
100
AcDbEntity
  8
0
  6
Continuous
100
AcDbLine
 10
145.5543512277
 20
96.16346607149999
 30
0.0
 11
143.0972275725
 21
94.8559648604
 31
0.0
  0
LINE
  5
24AF
330
74
100
AcDbEntity
  8
0
  6
Continuous
100
AcDbLine
 10
143.0972275725
 20
94.8559648604
 30
0.0
 11
140.7911648019999
 21
93.949703611
 31
0.0
  0
LINE
  5
24B0
330
74
100
AcDbEntity
  8
0
  6
Continuous
100
AcDbLine
 10
140.7911648019999
 20
93.949703611
 30
0.0
 11
138.5932863668
 21
93.38054803750001
 31
0.0
  0
LINE
  5
24B1
330
74
100
AcDbEntity
  8
0
  6
Continuous
100
AcDbLine
 10
138.5932863668
 20
93.38054803750001
 30
0.0
 11
136.4622329773
 21
93.10647830879998
 31
0.0
  0
LINE
  5
24B2
330
74
100
AcDbEntity
  8
0
  6
Continuous
100
AcDbLine
 10
136.4622329773
 20
93.10647830879998
 30
0.0
 11
134.3523904582999
 21
93.1060959702
 31
0.0
  0
LINE
  5
24B3
330
74
100
AcDbEntity
  8
0
  6
Continuous
100
AcDbLine
 10
134.3523904582999
 20
93.1060959702
 30
0.0
 11
132.2213813212
 21
93.37938696170001
 31
0.0
  0
LINE
  5
24B4
330
74
100
AcDbEntity
  8
0
  6
Continuous
100
AcDbLine
 10
132.2213813212
 20
93.37938696170001
 30
0.0
 11
130.023768418
 21
93.94766299089999
 31
0.0
  0
LINE
  5
24B5
330
74
100
AcDbEntity
  8
0
  6
Continuous
100
AcDbLine
 10
130.023768418
 20
93.94766299089999
 30
0.0
 11
127.7181173936
 21
94.85287833079999
 31
0.0
  0
LINE
  5
24B6
330
74
100
AcDbEntity
  8
0
  6
Continuous
100
AcDbLine
 10
127.7181173936
 20
94.85287833079999
 30
0.0
 11
125.2623274479
 21
96.15862544950001
 31
0.0
  0
LINE
  5
24B7
330
74
100
AcDbEntity
  8
0
  6
Continuous
100
AcDbLine
 10
125.2623274479
 20
96.15862544950001
 30
0.0
 11
122.6560142961
 21
97.91978729200002
 31
0.0
  0
LINE
  5
24B8
330
74
100
AcDbEntity
  8
0
  6
Continuous
100
AcDbLine
 10
122.6560142961
 20
97.91978729200002
 30
0.0
 11
119.9055677162
 21
100.1830944516
 31
0.0
  0
LINE
  5
24B9
330
74
100
AcDbEntity
  8
0
  6
Continuous
100
AcDbLine
 10
119.9055677162
 20
100.1830944516
 30
0.0
 11
117.009428239
 21
102.9960355462999
 31
0.0
  0
LINE
  5
24BA
330
74
100
AcDbEntity
  8
0
  6
Continuous
100
AcDbLine
 10
153.4650490134
 20
103.3012068874999
 30
0.0
 11
150.6207110061
 21
100.4914173679
 31
0.0
  0
LINE
  5
24BB
330
74
100
AcDbEntity
  8
0
  6
Continuous
100
AcDbLine
 10
150.6207110061
 20
100.4914173679
 30
0.0
 11
147.9206983444
 21
98.2295993201
 31
0.0
  0
LINE
  5
24BC
330
74
100
AcDbEntity
  8
0
  6
Continuous
100
AcDbLine
 10
147.9206983444
 20
98.2295993201
 30
0.0
 11
145.3629691559
 21
96.4686322198
 31
0.0
  0
LINE
  5
24BD
330
74
100
AcDbEntity
  8
0
  6
Continuous
100
AcDbLine
 10
145.3629691559
 20
96.4686322198
 30
0.0
 11
142.9511115329
 21
95.16114475489999
 31
0.0
  0
LINE
  5
24BE
330
74
100
AcDbEntity
  8
0
  6
Continuous
100
AcDbLine
 10
142.9511115329
 20
95.16114475489999
 30
0.0
 11
140.6883289588999
 21
94.25489479479999
 31
0.0
  0
LINE
  5
24BF
330
74
100
AcDbEntity
  8
0
  6
Continuous
100
AcDbLine
 10
140.6883289588999
 20
94.25489479479999
 30
0.0
 11
138.5322134404
 21
93.68574537629999
 31
0.0
  0
LINE
  5
24C0
330
74
100
AcDbEntity
  8
0
  6
Continuous
100
AcDbLine
 10
138.5322134404
 20
93.68574537629999
 30
0.0
 11
136.4419412583999
 21
93.41167825879999
 31
0.0
  0
LINE
  5
24C1
330
74
100
AcDbEntity
  8
0
  6
Continuous
100
AcDbLine
 10
136.4419412583999
 20
93.41167825879999
 30
0.0
 11
134.3725674831
 21
93.41129592780001
 31
0.0
  0
LINE
  5
24C2
330
74
100
AcDbEntity
  8
0
  6
Continuous
100
AcDbLine
 10
134.3725674831
 20
93.41129592780001
 30
0.0
 11
132.2823392322999
 21
93.684584326
 31
0.0
  0
LINE
  5
24C3
330
74
100
AcDbEntity
  8
0
  6
Continuous
100
AcDbLine
 10
132.2823392322999
 20
93.684584326
 30
0.0
 11
130.1264853138999
 21
94.25285422420001
 31
0.0
  0
LINE
  5
24C4
330
74
100
AcDbEntity
  8
0
  6
Continuous
100
AcDbLine
 10
130.1264853138999
 20
94.25285422420001
 30
0.0
 11
127.8641085254
 21
95.15805834389999
 31
0.0
  0
LINE
  5
24C5
330
74
100
AcDbEntity
  8
0
  6
Continuous
100
AcDbLine
 10
127.8641085254
 20
95.15805834389999
 30
0.0
 11
125.4535635386
 21
96.4637914308
 31
0.0
  0
LINE
  5
24C6
330
74
100
AcDbEntity
  8
0
  6
Continuous
100
AcDbLine
 10
125.4535635386
 20
96.4637914308
 30
0.0
 11
122.8940630856999
 21
98.22493888250001
 31
0.0
  0
LINE
  5
24C7
330
74
100
AcDbEntity
  8
0
  6
Continuous
100
AcDbLine
 10
122.8940630856999
 20
98.22493888250001
 30
0.0
 11
120.1914264003
 21
100.4882321028
 31
0.0
  0
LINE
  5
24C8
330
74
100
AcDbEntity
  8
0
  6
Continuous
100
AcDbLine
 10
120.1914264003
 20
100.4882321028
 30
0.0
 11
117.3435959028999
 21
103.3012068874999
 31
0.0
  0
LINE
  5
24C9
330
74
100
AcDbEntity
  8
0
  6
Continuous
100
AcDbLine
 10
78.45316347419998
 20
145.8648358587
 30
0.0
 11
78.62468868659999
 21
145.7322187432
 31
0.0
  0
LINE
  5
24CA
330
74
100
AcDbEntity
  8
0
  6
Continuous
100
AcDbLine
 10
78.62468868659999
 20
145.7322187432
 30
0.0
 11
78.8374831527
 21
145.6846770453999
 31
0.0
  0
LINE
  5
24EB
330
74
100
AcDbEntity
  8
0
  6
Continuous
100
AcDbLine
 10
77.58670890260001
 20
104.4192707752
 30
0.0
 11
77.5553145172
 21
104.4251973399999
 31
0.0
  0
LINE
  5
24EC
330
74
100
AcDbEntity
  8
0
  6
Continuous
100
AcDbLine
 10
77.5553145172
 20
104.4251973399999
 30
0.0
 11
77.53868438819998
 21
104.4320806683
 31
0.0
  0
LINE
  5
24ED
330
74
100
AcDbEntity
  8
0
  6
Continuous
100
AcDbLine
 10
77.53868438819998
 20
104.4320806683
 30
0.0
 11
77.53591212899998
 21
104.4364694658999
 31
0.0
  0
LINE
  5
24EE
330
74
100
AcDbEntity
  8
0
  6
Continuous
100
AcDbLine
 10
193.2219567387999
 20
104.4192692548999
 30
0.0
 11
193.2533427052
 21
104.4251962324
 31
0.0
  0
LINE
  5
24EF
330
74
100
AcDbEntity
  8
0
  6
Continuous
100
AcDbLine
 10
193.2533427052
 20
104.4251962324
 30
0.0
 11
193.2699659168999
 21
104.4320800687999
 31
0.0
  0
LINE
  5
24F0
330
74
100
AcDbEntity
  8
0
  6
Continuous
100
AcDbLine
 10
193.2699659168999
 20
104.4320800687999
 30
0.0
 11
193.2727349092999
 21
104.4364692407999
 31
0.0
  0
LINE
  5
24F1
330
74
100
AcDbEntity
  8
0
  6
Continuous
100
AcDbLine
 10
135.7043224582
 20
148.3066333026999
 30
0.0
 11
135.7037585740999
 21
148.0950008737
 31
0.0
  0
LINE
  5
24F2
330
74
100
AcDbEntity
  8
0
  6
Continuous
100
AcDbLine
 10
135.7037585740999
 20
148.0950008737
 30
0.0
 11
135.7022322834
 21
147.8999468016
 31
0.0
  0
LINE
  5
24F3
330
74
100
AcDbEntity
  8
0
  6
Continuous
100
AcDbLine
 10
135.7022322834
 20
147.8999468016
 30
0.0
 11
135.6999567866999
 21
147.7205488735
 31
0.0
  0
LINE
  5
24F4
330
74
100
AcDbEntity
  8
0
  6
Continuous
100
AcDbLine
 10
135.6999567866999
 20
147.7205488735
 30
0.0
 11
135.6971073523
 21
147.5558802722
 31
0.0
  0
LINE
  5
24F5
330
74
100
AcDbEntity
  8
0
  6
Continuous
100
AcDbLine
 10
135.6971073523
 20
147.5558802722
 30
0.0
 11
135.6938289623
 21
147.4050088815
 31
0.0
  0
LINE
  5
24F6
330
74
100
AcDbEntity
  8
0
  6
Continuous
100
AcDbLine
 10
135.6938289623
 20
147.4050088815
 30
0.0
 11
135.6902415673999
 21
147.2669991851
 31
0.0
  0
LINE
  5
24F7
330
74
100
AcDbEntity
  8
0
  6
Continuous
100
AcDbLine
 10
135.6902415673999
 20
147.2669991851
 30
0.0
 11
135.6864437712
 21
147.1409135273
 31
0.0
  0
LINE
  5
24F8
330
74
100
AcDbEntity
  8
0
  6
Continuous
100
AcDbLine
 10
135.6864437712
 20
147.1409135273
 30
0.0
 11
135.6825154579999
 21
147.0258130372999
 31
0.0
  0
LINE
  5
24F9
330
74
100
AcDbEntity
  8
0
  6
Continuous
100
AcDbLine
 10
135.6825154579999
 20
147.0258130372999
 30
0.0
 11
135.6785196928
 21
146.9207582796999
 31
0.0
  0
LINE
  5
24FA
330
74
100
AcDbEntity
  8
0
  6
Continuous
100
AcDbLine
 10
135.6785196928
 20
146.9207582796999
 30
0.0
 11
135.6745041119
 21
146.8248096942
 31
0.0
  0
LINE
  5
24FB
330
74
100
AcDbEntity
  8
0
  6
Continuous
100
AcDbLine
 10
135.6745041119
 20
146.8248096942
 30
0.0
 11
135.6705019534
 21
146.7370278812
 31
0.0
  0
LINE
  5
24FC
330
74
100
AcDbEntity
  8
0
  6
Continuous
100
AcDbLine
 10
135.6705019534
 20
146.7370278812
 30
0.0
 11
135.6665328260999
 21
146.6564737834
 31
0.0
  0
LINE
  5
24FD
330
74
100
AcDbEntity
  8
0
  6
Continuous
100
AcDbLine
 10
135.6665328260999
 20
146.6564737834
 30
0.0
 11
135.6626032751
 21
146.5822088031999
 31
0.0
  0
LINE
  5
24FE
330
74
100
AcDbEntity
  8
0
  6
Continuous
100
AcDbLine
 10
135.6626032751
 20
146.5822088031999
 30
0.0
 11
135.6587071687999
 21
146.513294885
 31
0.0
  0
LINE
  5
24FF
330
74
100
AcDbEntity
  8
0
  6
Continuous
100
AcDbLine
 10
135.6587071687999
 20
146.513294885
 30
0.0
 11
135.6548258920999
 21
146.4487945884999
 31
0.0
  0
LINE
  5
2500
330
74
100
AcDbEntity
  8
0
  6
Continuous
100
AcDbLine
 10
135.6548258920999
 20
146.4487945884999
 30
0.0
 11
135.6509275834
 21
146.3877603799
 31
0.0
  0
LINE
  5
2501
330
74
100
AcDbEntity
  8
0
  6
Continuous
100
AcDbLine
 10
135.6509275834
 20
146.3877603799
 30
0.0
 11
135.6469711419
 21
146.3293010499999
 31
0.0
  0
LINE
  5
2502
330
74
100
AcDbEntity
  8
0
  6
Continuous
100
AcDbLine
 10
135.6469711419
 20
146.3293010499999
 30
0.0
 11
135.6429371863999
 21
146.2729991319999
 31
0.0
  0
LINE
  5
2503
330
74
100
AcDbEntity
  8
0
  6
Continuous
100
AcDbLine
 10
135.6429371863999
 20
146.2729991319999
 30
0.0
 11
135.6388285794
 21
146.2188062536
 31
0.0
  0
LINE
  5
2504
330
74
100
AcDbEntity
  8
0
  6
Continuous
100
AcDbLine
 10
135.6388285794
 20
146.2188062536
 30
0.0
 11
135.6346509641999
 21
146.1667162116999
 31
0.0
  0
LINE
  5
2505
330
74
100
AcDbEntity
  8
0
  6
Continuous
100
AcDbLine
 10
135.6346509641999
 20
146.1667162116999
 30
0.0
 11
135.6304090367999
 21
146.1167114195999
 31
0.0
  0
LINE
  5
2506
330
74
100
AcDbEntity
  8
0
  6
Continuous
100
AcDbLine
 10
135.6304090367999
 20
146.1167114195999
 30
0.0
 11
135.6261071215999
 21
146.0687717797
 31
0.0
  0
LINE
  5
2507
330
74
100
AcDbEntity
  8
0
  6
Continuous
100
AcDbLine
 10
135.6261071215999
 20
146.0687717797
 30
0.0
 11
135.6217491424
 21
146.0228749279
 31
0.0
  0
LINE
  5
2508
330
74
100
AcDbEntity
  8
0
  6
Continuous
100
AcDbLine
 10
135.6217491424
 20
146.0228749279
 30
0.0
 11
135.6173386011
 21
145.9789966101
 31
0.0
  0
LINE
  5
2509
330
74
100
AcDbEntity
  8
0
  6
Continuous
100
AcDbLine
 10
135.6173386011
 20
145.9789966101
 30
0.0
 11
135.6128785637
 21
145.9371111327999
 31
0.0
  0
LINE
  5
250A
330
74
100
AcDbEntity
  8
0
  6
Continuous
100
AcDbLine
 10
135.6128785637
 20
145.9371111327999
 30
0.0
 11
135.6083716482
 21
145.8971918441999
 31
0.0
  0
LINE
  5
250B
330
74
100
AcDbEntity
  8
0
  6
Continuous
100
AcDbLine
 10
135.6083716482
 20
145.8971918441999
 30
0.0
 11
135.6038200119999
 21
145.8592116062999
 31
0.0
  0
LINE
  5
250C
330
74
100
AcDbEntity
  8
0
  6
Continuous
100
AcDbLine
 10
135.6038200119999
 20
145.8592116062999
 30
0.0
 11
135.5992253337999
 21
145.8231432328
 31
0.0
  0
LINE
  5
250D
330
74
100
AcDbEntity
  8
0
  6
Continuous
100
AcDbLine
 10
135.5992253337999
 20
145.8231432328
 30
0.0
 11
135.5945887829
 21
145.7889598701
 31
0.0
  0
LINE
  5
250E
330
74
100
AcDbEntity
  8
0
  6
Continuous
100
AcDbLine
 10
135.5945887829
 20
145.7889598701
 30
0.0
 11
135.5899109694
 21
145.7566353107999
 31
0.0
  0
LINE
  5
250F
330
74
100
AcDbEntity
  8
0
  6
Continuous
100
AcDbLine
 10
135.5899109694
 20
145.7566353107999
 30
0.0
 11
135.5851918621
 21
145.7261442324999
 31
0.0
  0
LINE
  5
2510
330
74
100
AcDbEntity
  8
0
  6
Continuous
100
AcDbLine
 10
135.5851918621
 20
145.7261442324999
 30
0.0
 11
135.5804309212999
 21
145.6974638777
 31
0.0
  0
LINE
  5
2511
330
74
100
AcDbEntity
  8
0
  6
Continuous
100
AcDbLine
 10
135.5804309212999
 20
145.6974638777
 30
0.0
 11
135.5756242825
 21
145.6705594981
 31
0.0
  0
LINE
  5
2512
330
74
100
AcDbEntity
  8
0
  6
Continuous
100
AcDbLine
 10
135.5756242825
 20
145.6705594981
 30
0.0
 11
135.5707590780999
 21
145.6453625783
 31
0.0
  0
LINE
  5
2513
330
74
100
AcDbEntity
  8
0
  6
Continuous
100
AcDbLine
 10
135.5707590780999
 20
145.6453625783
 30
0.0
 11
135.5658195846999
 21
145.6218167137
 31
0.0
  0
LINE
  5
2514
330
74
100
AcDbEntity
  8
0
  6
Continuous
100
AcDbLine
 10
135.5658195846999
 20
145.6218167137
 30
0.0
 11
135.5607886975999
 21
145.5998887170999
 31
0.0
  0
LINE
  5
2515
330
74
100
AcDbEntity
  8
0
  6
Continuous
100
AcDbLine
 10
135.5607886975999
 20
145.5998887170999
 30
0.0
 11
135.5556341394
 21
145.5795192385
 31
0.0
  0
LINE
  5
2516
330
74
100
AcDbEntity
  8
0
  6
Continuous
100
AcDbLine
 10
135.5556341394
 20
145.5795192385
 30
0.0
 11
135.5503038584
 21
145.5606384693
 31
0.0
  0
LINE
  5
2517
330
74
100
AcDbEntity
  8
0
  6
Continuous
100
AcDbLine
 10
135.5503038584
 20
145.5606384693
 30
0.0
 11
135.5447170633
 21
145.5431827103
 31
0.0
  0
LINE
  5
2518
330
74
100
AcDbEntity
  8
0
  6
Continuous
100
AcDbLine
 10
135.5447170633
 20
145.5431827103
 30
0.0
 11
135.5387404875999
 21
145.5271033981999
 31
0.0
  0
LINE
  5
2519
330
74
100
AcDbEntity
  8
0
  6
Continuous
100
AcDbLine
 10
135.5387404875999
 20
145.5271033981999
 30
0.0
 11
135.5321459578
 21
145.5124196440999
 31
0.0
  0
LINE
  5
251A
330
74
100
AcDbEntity
  8
0
  6
Continuous
100
AcDbLine
 10
135.5321459578
 20
145.5124196440999
 30
0.0
 11
135.5246495362
 21
145.4995632002999
 31
0.0
  0
LINE
  5
251B
330
74
100
AcDbEntity
  8
0
  6
Continuous
100
AcDbLine
 10
135.5246495362
 20
145.4995632002999
 30
0.0
 11
135.5155705909
 21
145.4893820976
 31
0.0
  0
LINE
  5
251C
330
74
100
AcDbEntity
  8
0
  6
Continuous
100
AcDbLine
 10
135.5155705909
 20
145.4893820976
 30
0.0
 11
135.5043224581999
 21
145.4848720619
 31
0.0
  0
LINE
  5
251D
330
74
100
AcDbEntity
  8
0
  6
Continuous
100
AcDbLine
 10
117.3435959028999
 20
103.3012068874999
 30
0.0
 11
117.1078335436
 21
103.5905554815999
 31
0.0
  0
LINE
  5
251E
330
74
100
AcDbEntity
  8
0
  6
Continuous
100
AcDbLine
 10
117.1078335436
 20
103.5905554815999
 30
0.0
 11
116.9398664264999
 21
103.8814947991
 31
0.0
  0
LINE
  5
251F
330
74
100
AcDbEntity
  8
0
  6
Continuous
100
AcDbLine
 10
116.9398664264999
 20
103.8814947991
 30
0.0
 11
116.8371685687999
 21
104.1672952922999
 31
0.0
  0
LINE
  5
2520
330
74
100
AcDbEntity
  8
0
  6
Continuous
100
AcDbLine
 10
116.8371685687999
 20
104.1672952922999
 30
0.0
 11
116.7937834318
 21
104.4398169868999
 31
0.0
  0
LINE
  5
252E
330
74
100
AcDbEntity
  8
0
  6
Continuous
100
AcDbLine
 10
117.0094379628
 20
102.9960355463999
 30
0.0
 11
116.7623096131
 21
103.357722871
 31
0.0
  0
LINE
  5
252F
330
74
100
AcDbEntity
  8
0
  6
Continuous
100
AcDbLine
 10
116.7623096131
 20
103.357722871
 30
0.0
 11
116.5858668188999
 21
103.7213633558
 31
0.0
  0
LINE
  5
2530
330
74
100
AcDbEntity
  8
0
  6
Continuous
100
AcDbLine
 10
116.5858668188999
 20
103.7213633558
 30
0.0
 11
116.4775344624999
 21
104.0786038647
 31
0.0
  0
LINE
  5
2531
330
74
100
AcDbEntity
  8
0
  6
Continuous
100
AcDbLine
 10
116.4775344624999
 20
104.0786038647
 30
0.0
 11
116.4312418213
 21
104.4192692295999
 31
0.0
  0
LINE
  5
2532
330
74
100
AcDbEntity
  8
0
  6
Continuous
100
AcDbLine
 10
117.0094548195
 20
102.9960022924999
 30
0.0
 11
117.1174483579999
 21
103.0922795344
 31
0.0
  0
LINE
  5
2533
330
74
100
AcDbEntity
  8
0
  6
Continuous
100
AcDbLine
 10
117.1174483579999
 20
103.0922795344
 30
0.0
 11
117.2297424332999
 21
103.1948489729999
 31
0.0
  0
LINE
  5
2534
330
74
100
AcDbEntity
  8
0
  6
Continuous
100
AcDbLine
 10
117.2297424332999
 20
103.1948489729999
 30
0.0
 11
117.3435959114
 21
103.3012068791999
 31
0.0
  0
LINE
  5
2535
330
74
100
AcDbEntity
  8
0
  6
Continuous
100
AcDbLine
 10
116.7937834318
 20
104.4398169868999
 30
0.0
 11
115.8785791894999
 21
119.0149455950999
 31
0.0
  0
LINE
  5
2536
330
74
100
AcDbEntity
  8
0
  6
Continuous
100
AcDbLine
 10
115.8785791894999
 20
119.0149455950999
 30
0.0
 11
114.9563135213
 21
134.0838519921999
 31
0.0
  0
LINE
  5
2537
330
74
100
AcDbEntity
  8
0
  6
Continuous
100
AcDbLine
 10
114.9563135213
 20
134.0838519921999
 30
0.0
 11
114.0239742757999
 21
149.6846770454
 31
0.0
  0
LINE
  5
2538
330
74
100
AcDbEntity
  8
0
  6
Continuous
100
AcDbLine
 10
116.4312418196999
 20
104.4192692295999
 30
0.0
 11
115.5031345974999
 21
119.0007960553
 31
0.0
  0
LINE
  5
2539
330
74
100
AcDbEntity
  8
0
  6
Continuous
100
AcDbLine
 10
115.5031345974999
 20
119.0007960553
 30
0.0
 11
114.5683170884
 21
134.0765432519
 31
0.0
  0
LINE
  5
253A
330
74
100
AcDbEntity
  8
0
  6
Continuous
100
AcDbLine
 10
114.5683170884
 20
134.0765432519
 30
0.0
 11
113.6237277426999
 21
149.6846770454
 31
0.0
  0
LINE
  5
253B
330
74
100
AcDbEntity
  8
0
  6
Continuous
100
AcDbLine
 10
78.54464377550001
 20
145.8267948499
 30
0.0
 11
78.4505875552
 21
145.9918461416999
 31
0.0
  0
LINE
  5
253C
330
74
100
AcDbEntity
  8
0
  6
Continuous
100
AcDbLine
 10
78.4505875552
 20
145.9918461416999
 30
0.0
 11
78.4181478687
 21
146.1846770454
 31
0.0
  0
LINE
  5
2548
330
74
100
AcDbEntity
  8
0
  6
Continuous
100
AcDbLine
 10
77.7273376842
 20
102.9960063536
 30
0.0
 11
77.6683394205
 21
103.0922817148999
 31
0.0
  0
LINE
  5
2549
330
74
100
AcDbEntity
  8
0
  6
Continuous
100
AcDbLine
 10
77.6683394205
 20
103.0922817148999
 30
0.0
 11
77.63253279779998
 21
103.1948498604999
 31
0.0
  0
LINE
  5
254A
330
74
100
AcDbEntity
  8
0
  6
Continuous
100
AcDbLine
 10
77.63253279779998
 20
103.1948498604999
 30
0.0
 11
77.6229483418
 21
103.2542387081999
 31
0.0
  0
LINE
  5
255B
330
74
100
AcDbEntity
  8
0
  6
Continuous
100
AcDbLine
 10
82.3776368803
 20
146.1846770454
 30
0.0
 11
82.37387779009997
 21
146.1018860601
 31
0.0
  0
LINE
  5
255C
330
74
100
AcDbEntity
  8
0
  6
Continuous
100
AcDbLine
 10
82.37387779009997
 20
146.1018860601
 30
0.0
 11
82.361106328
 21
146.0131247674999
 31
0.0
  0
LINE
  5
255D
330
74
100
AcDbEntity
  8
0
  6
Continuous
100
AcDbLine
 10
82.361106328
 20
146.0131247674999
 30
0.0
 11
82.3369371206
 21
145.9217251765999
 31
0.0
  0
LINE
  5
255E
330
74
100
AcDbEntity
  8
0
  6
Continuous
100
AcDbLine
 10
82.3369371206
 20
145.9217251765999
 30
0.0
 11
82.299051548
 21
145.8332946786
 31
0.0
  0
LINE
  5
255F
330
74
100
AcDbEntity
  8
0
  6
Continuous
100
AcDbLine
 10
82.299051548
 20
145.8332946786
 30
0.0
 11
82.2461343802
 21
145.7567152098999
 31
0.0
  0
LINE
  5
2560
330
74
100
AcDbEntity
  8
0
  6
Continuous
100
AcDbLine
 10
82.2461343802
 20
145.7567152098999
 30
0.0
 11
82.17998617079997
 21
145.7038400709
 31
0.0
  0
LINE
  5
2561
330
74
100
AcDbEntity
  8
0
  6
Continuous
100
AcDbLine
 10
82.17998617079997
 20
145.7038400709
 30
0.0
 11
82.1053173628
 21
145.6846770453999
 31
0.0
  0
LINE
  5
2562
330
74
100
AcDbEntity
  8
0
  6
Continuous
100
AcDbLine
 10
75.2245443443
 20
149.6846770454
 30
0.0
 11
76.040534037
 21
134.0765146196
 31
0.0
  0
LINE
  5
2563
330
74
100
AcDbEntity
  8
0
  6
Continuous
100
AcDbLine
 10
76.040534037
 20
134.0765146196
 30
0.0
 11
76.8272049451
 21
119.0007471693
 31
0.0
  0
LINE
  5
2564
330
74
100
AcDbEntity
  8
0
  6
Continuous
100
AcDbLine
 10
75.16485313459998
 20
149.6846770454
 30
0.0
 11
76.00572032159999
 21
133.6640746087
 31
0.0
  0
LINE
  5
2565
330
74
100
AcDbEntity
  8
0
  6
Continuous
100
AcDbLine
 10
76.00572032159999
 20
133.6640746087
 30
0.0
 11
76.8016598194
 21
118.4730324623
 31
0.0
  0
LINE
  5
2566
330
74
100
AcDbEntity
  8
0
  6
Continuous
100
AcDbLine
 10
76.8016598194
 20
118.4730324623
 30
0.0
 11
77.53591000100001
 21
104.4364693577999
 31
0.0
  0
LINE
  5
2567
330
74
100
AcDbEntity
  8
0
  6
Continuous
100
AcDbLine
 10
77.5866881787
 20
104.41926923
 30
0.0
 11
77.60882704770001
 21
104.0786056079
 31
0.0
  0
LINE
  5
2568
330
74
100
AcDbEntity
  8
0
  6
Continuous
100
AcDbLine
 10
77.60882704770001
 20
104.0786056079
 30
0.0
 11
77.639598873
 21
103.7213639123999
 31
0.0
  0
LINE
  5
2569
330
74
100
AcDbEntity
  8
0
  6
Continuous
100
AcDbLine
 10
77.639598873
 20
103.7213639123999
 30
0.0
 11
77.67918980739999
 21
103.3577221687999
 31
0.0
  0
LINE
  5
256A
330
74
100
AcDbEntity
  8
0
  6
Continuous
100
AcDbLine
 10
77.5478293805
 20
104.2235659706999
 30
0.0
 11
77.5723114469
 21
103.8543128993999
 31
0.0
  0
LINE
  5
256B
330
74
100
AcDbEntity
  8
0
  6
Continuous
100
AcDbLine
 10
77.5723114469
 20
103.8543128993999
 30
0.0
 11
77.6010212651
 21
103.494175207
 31
0.0
  0
LINE
  5
256C
330
74
100
AcDbEntity
  8
0
  6
Continuous
100
AcDbLine
 10
77.6010212651
 20
103.494175207
 30
0.0
 11
77.6229458035
 21
103.2542567159
 31
0.0
  0
LINE
  5
256D
330
74
100
AcDbEntity
  8
0
  6
Continuous
100
AcDbLine
 10
77.7273366764
 20
102.9960318296999
 30
0.0
 11
77.96915291170002
 21
100.3558007773999
 31
0.0
  0
LINE
  5
256E
330
74
100
AcDbEntity
  8
0
  6
Continuous
100
AcDbLine
 10
77.96915291170002
 20
100.3558007773999
 30
0.0
 11
78.1651076806
 21
98.19375252090001
 31
0.0
  0
LINE
  5
256F
330
74
100
AcDbEntity
  8
0
  6
Continuous
100
AcDbLine
 10
78.1651076806
 20
98.19375252090001
 30
0.0
 11
78.3211811246
 21
96.4567790809
 31
0.0
  0
LINE
  5
2570
330
74
100
AcDbEntity
  8
0
  6
Continuous
100
AcDbLine
 10
78.3211811246
 20
96.4567790809
 30
0.0
 11
78.4384050972
 21
95.1431964232
 31
0.0
  0
LINE
  5
2571
330
74
100
AcDbEntity
  8
0
  6
Continuous
100
AcDbLine
 10
78.4384050972
 20
95.1431964232
 30
0.0
 11
78.5226452694
 21
94.19435980379999
 31
0.0
  0
LINE
  5
2572
330
74
100
AcDbEntity
  8
0
  6
Continuous
100
AcDbLine
 10
78.5226452694
 20
94.19435980379999
 30
0.0
 11
78.5789572539
 21
93.55777972410001
 31
0.0
  0
LINE
  5
2573
330
74
100
AcDbEntity
  8
0
  6
Continuous
100
AcDbLine
 10
77.6229483418
 20
103.2542387081999
 30
0.0
 11
77.82995501479999
 21
101.0955951928
 31
0.0
  0
LINE
  5
2574
330
74
100
AcDbEntity
  8
0
  6
Continuous
100
AcDbLine
 10
77.82995501479999
 20
101.0955951928
 30
0.0
 11
78.0209816839
 21
99.08890332170001
 31
0.0
  0
LINE
  5
2575
330
74
100
AcDbEntity
  8
0
  6
Continuous
100
AcDbLine
 10
78.0209816839
 20
99.08890332170001
 30
0.0
 11
78.184589153
 21
97.35880198930001
 31
0.0
  0
LINE
  5
2576
330
74
100
AcDbEntity
  8
0
  6
Continuous
100
AcDbLine
 10
78.184589153
 20
97.35880198930001
 30
0.0
 11
78.3200381112
 21
95.91833344360001
 31
0.0
  0
LINE
  5
2577
330
74
100
AcDbEntity
  8
0
  6
Continuous
100
AcDbLine
 10
78.3200381112
 20
95.91833344360001
 30
0.0
 11
78.4262283316
 21
94.78379017299998
 31
0.0
  0
LINE
  5
2578
330
74
100
AcDbEntity
  8
0
  6
Continuous
100
AcDbLine
 10
78.4262283316
 20
94.78379017299998
 30
0.0
 11
78.5020069177
 21
93.97131901739999
 31
0.0
  0
LINE
  5
2579
330
74
100
AcDbEntity
  8
0
  6
Continuous
100
AcDbLine
 10
78.5020069177
 20
93.97131901739999
 30
0.0
 11
78.5467926075
 21
93.4900173007
 31
0.0
  0
LINE
  5
2596
330
74
100
AcDbEntity
  8
0
  6
Continuous
100
AcDbLine
 10
78.3571610873
 20
147.4235680584
 30
0.0
 11
78.45316347419998
 21
147.604518232
 31
0.0
  0
LINE
  5
2597
330
74
100
AcDbEntity
  8
0
  6
Continuous
100
AcDbLine
 10
78.45316347419998
 20
147.604518232
 30
0.0
 11
78.62468868649999
 21
147.7371353474999
 31
0.0
  0
LINE
  5
2598
330
74
100
AcDbEntity
  8
0
  6
Continuous
100
AcDbLine
 10
78.62468868649999
 20
147.7371353474999
 30
0.0
 11
78.8374831527
 21
147.7846770454
 31
0.0
  0
LINE
  5
2813
330
74
100
AcDbEntity
  8
2_ALL_NOTES
  6
Continuous
100
AcDbLine
 10
103.9687222359999
 20
247.1656408502999
 30
0.0
 11
106.0313352874999
 21
246.7965170227999
 31
0.0
  0
LINE
  5
2814
330
74
100
AcDbEntity
  8
2_ALL_NOTES
  6
Continuous
100
AcDbLine
 10
106.0313352874999
 20
246.7965170227999
 30
0.0
 11
104.5459125028
 21
248.2744020490999
 31
0.0
  0
LINE
  5
2815
330
74
100
AcDbEntity
  8
2_ALL_NOTES
  6
Continuous
100
AcDbLine
 10
137.3838755677
 20
145.7102074847
 30
0.0
 11
135.5043224581999
 21
146.6364391557999
 31
0.0
  0
LINE
  5
2816
330
74
100
AcDbEntity
  8
2_ALL_NOTES
  6
Continuous
100
AcDbLine
 10
135.5043224581999
 20
146.6364391557999
 30
0.0
 11
136.5220438137999
 21
144.8048092143999
 31
0.0
  0
LINE
  5
2817
330
74
100
AcDbEntity
  8
2_ALL_NOTES
  6
Continuous
100
AcDbLine
 10
77.5321717073
 20
148.5184280659
 30
0.0
 11
79.22583147819999
 21
147.2846770453999
 31
0.0
  0
LINE
  5
2818
330
74
100
AcDbEntity
  8
2_ALL_NOTES
  6
Continuous
100
AcDbLine
 10
79.22583147819999
 20
147.2846770453999
 30
0.0
 11
78.53602634020001
 21
149.2632608499
 31
0.0
  0
LINE
  5
2819
330
74
100
AcDbEntity
  8
2_ALL_NOTES
  6
Continuous
100
AcDbLine
 10
79.52325795819999
 20
180.1876871106999
 30
0.0
 11
80.43155582729999
 21
182.0759720418
 31
0.0
  0
LINE
  5
281A
330
74
100
AcDbEntity
  8
2_ALL_NOTES
  6
Continuous
100
AcDbLine
 10
80.43155582729999
 20
182.0759720418
 30
0.0
 11
78.60969676419998
 21
181.0408611520999
 31
0.0
  0
LINE
  5
2E91
330
74
100
AcDbEntity
  8
0
  6
Continuous
100
AcDbLine
 10
133.7689920003999
 20
186.5370858057
 30
0.0
 11
135.4043224581999
 21
187.6884737929
 31
0.0
  0
LINE
  5
2E92
330
74
100
AcDbEntity
  8
0
  6
Continuous
100
AcDbLine
 10
135.4043224581999
 20
187.6884737929
 30
0.0
 11
113.9926695612206
 21
172.6131599236701
 31
0.0
  0
LINE
  5
2E93
330
74
100
AcDbEntity
  8
0
  6
Continuous
100
AcDbLine
 10
137.0396529159999
 20
188.8398617800999
 30
0.0
 11
135.4043224581999
 21
187.6884737929
 31
0.0
  0
LINE
  5
2E94
330
74
100
AcDbEntity
  8
0
  6
Continuous
100
AcDbLine
 10
135.4043224581999
 20
187.6884737929
 30
0.0
 11
141.1279790582
 21
191.7183317463999
 31
0.0
  0
LINE
  5
2E97
330
74
100
AcDbEntity
  8
0
  6
Continuous
100
AcDbLine
 10
180.0637733398
 20
229.7121029538999
 30
0.0
 11
175.7317257058
 21
228.4941689258999
 31
0.0
  0
LINE
  5
2E98
330
74
100
AcDbEntity
  8
0
  6
Continuous
100
AcDbLine
 10
175.7317257058
 20
228.4941689258999
 30
0.0
 11
213.8757475265081
 21
239.218174307551
 31
0.0
  0
LINE
  5
2E99
330
74
100
AcDbEntity
  8
0
  6
Continuous
100
AcDbLine
 10
171.3996780717
 20
227.2762348979
 30
0.0
 11
175.7317257058
 21
228.4941689258999
 31
0.0
  0
LINE
  5
2E9C
330
74
100
AcDbEntity
  8
0
  6
Continuous
100
AcDbLine
 10
179.412498552
 20
216.6157945634999
 30
0.0
 11
177.1543224581999
 21
217.6884737928999
 31
0.0
  0
LINE
  5
2E9D
330
74
100
AcDbEntity
  8
0
  6
Continuous
100
AcDbLine
 10
177.1543224581999
 20
217.6884737928999
 30
0.0
 11
210.2957336608
 21
201.9456344608999
 31
0.0
  0
LINE
  5
2E9E
330
74
100
AcDbEntity
  8
0
  6
Continuous
100
AcDbLine
 10
174.8961463642999
 20
218.7611530222
 30
0.0
 11
177.1543224581999
 21
217.6884737928999
 31
0.0
  0
LINE
  5
2EA1
330
74
100
AcDbEntity
  8
0
  6
Continuous
100
AcDbLine
 10
173.0584438125999
 20
60.72924327159999
 30
0.0
 11
195.7079492508133
 21
43.31212580510388
 31
0.0
  0
LINE
  5
2EA9
330
74
100
AcDbEntity
  8
1_ALL_DRAFT_DIMS
  6
Continuous
100
AcDbLine
 10
91.04269969749999
 20
171.5577202109
 30
0.0
 11
135.4043224581999
 21
217.6884737928999
 31
0.0
  0
LINE
  5
2EAA
330
74
100
AcDbEntity
  8
1_ALL_DRAFT_DIMS
  6
Continuous
100
AcDbLine
 10
135.4043224581999
 20
217.6884737928999
 30
0.0
 11
79.7130100139
 21
159.7762052340999
 31
0.0
  0
LINE
  5
2EAB
330
74
100
AcDbEntity
  8
1_ALL_DRAFT_DIMS
  6
Continuous
100
AcDbLine
 10
179.7659452188999
 20
263.8192273747999
 30
0.0
 11
135.4043224581999
 21
217.6884737928999
 31
0.0
  0
LINE
  5
2EBA
330
74
100
AcDbEntity
  8
1_ALL_DRAFT_DIMS
  6
Continuous
100
AcDbLine
 10
107.4231888831
 20
248.8042413456
 30
0.0
 11
114.8831138586
 21
242.1446978658
 31
0.0
  0
LINE
  5
2EBB
330
74
100
AcDbEntity
  8
1_ALL_DRAFT_DIMS
  6
Continuous
100
AcDbLine
 10
114.8831138586
 20
242.1446978658
 30
0.0
 11
81.44982914729999
 21
271.9908979199999
 31
0.0
  0
LINE
  5
2EBC
330
74
100
AcDbEntity
  8
1_ALL_DRAFT_DIMS
  6
Continuous
100
AcDbLine
 10
122.3430388342
 20
235.4851543859
 30
0.0
 11
114.8831138586
 21
242.1446978658
 31
0.0
  0
LINE
  5
2EEF
330
74
100
AcDbEntity
  8
0
  6
ByBlock
100
AcDbLine
 10
122.3430388342
 20
235.4851543859
 30
0.0
 11
121.2672753040787
 21
237.2833083913348
 31
0.0
  0
LINE
  5
2EF0
330
74
100
AcDbEntity
  8
0
  6
ByBlock
100
AcDbLine
 10
120.4348323704008
 20
236.3508177682346
 30
0.0
 11
122.3430388342
 21
235.4851543859
 31
0.0
  0
LINE
  5
2EF1
330
74
100
AcDbEntity
  8
0
  6
ByBlock
100
AcDbLine
 10
120.8510538372397
 20
236.8170630797846
 30
0.0
 11
122.3430388342
 21
235.4851543859
 31
0.0
  0
LINE
  5
2EF2
330
74
100
AcDbEntity
  8
0
  6
ByBlock
100
AcDbLine
 10
107.4231888831
 20
248.8042413456
 30
0.0
 11
108.4989524132212
 21
247.0060873401652
 31
0.0
  0
LINE
  5
2EF3
330
74
100
AcDbEntity
  8
0
  6
ByBlock
100
AcDbLine
 10
109.331395346899
 20
247.9385779632654
 30
0.0
 11
107.4231888831
 21
248.8042413456
 31
0.0
  0
LINE
  5
2EF4
330
74
100
AcDbEntity
  8
0
  6
ByBlock
100
AcDbLine
 10
108.9151738800602
 20
247.4723326517153
 30
0.0
 11
107.4231888831
 21
248.8042413456
 31
0.0
  0
LINE
  5
2F01
330
74
100
AcDbEntity
  8
0
  6
ByBlock
100
AcDbLine
 10
179.7659452188999
 20
263.8192273747999
 30
0.0
 11
177.9291488690325
 21
262.8108602942615
 31
0.0
  0
LINE
  5
2F02
330
74
100
AcDbEntity
  8
0
  6
ByBlock
100
AcDbLine
 10
178.8301401515217
 20
261.9444223513724
 30
0.0
 11
179.7659452188999
 21
263.8192273747999
 31
0.0
  0
LINE
  5
2F03
330
74
100
AcDbEntity
  8
0
  6
ByBlock
100
AcDbLine
 10
178.3796445102771
 20
262.377641322817
 30
0.0
 11
179.7659452188999
 21
263.8192273747999
 31
0.0
  0
LINE
  5
2F04
330
74
100
AcDbEntity
  8
0
  6
ByBlock
100
AcDbLine
 10
91.04269969749999
 20
171.5577202109
 30
0.0
 11
92.87949604736748
 21
172.5660872914384
 31
0.0
  0
LINE
  5
2F05
330
74
100
AcDbEntity
  8
0
  6
ByBlock
100
AcDbLine
 10
91.97850476487813
 20
173.4325252343275
 30
0.0
 11
91.04269969749999
 21
171.5577202109
 31
0.0
  0
LINE
  5
2F06
330
74
100
AcDbEntity
  8
0
  6
ByBlock
100
AcDbLine
 10
92.4290004061228
 20
172.9993062628829
 30
0.0
 11
91.04269969749999
 21
171.5577202109
 31
0.0
  0
LINE
  5
2F0D
330
74
100
AcDbEntity
  8
0
  6
ByBlock
100
AcDbLine
 10
173.0584438125999
 20
60.72924327159999
 30
0.0
 11
174.2628879630371
 21
59.01461815558256
 31
0.0
  0
LINE
  5
2F0E
330
74
100
AcDbEntity
  8
0
  6
ByBlock
100
AcDbLine
 10
175.0248730557094
 20
60.0055160910659
 30
0.0
 11
173.0584438125999
 21
60.72924327159999
 31
0.0
  0
LINE
  5
2F0F
330
74
100
AcDbEntity
  8
0
  6
ByBlock
100
AcDbLine
 10
174.6438805093733
 20
59.51006712332424
 30
0.0
 11
173.0584438125999
 21
60.72924327159999
 31
0.0
  0
LINE
  5
2F10
330
74
100
AcDbEntity
  8
0
  6
ByBlock
100
AcDbLine
 10
174.8961463642999
 20
218.7611530222
 30
0.0
 11
176.4345174267502
 21
217.3384656095139
 31
0.0
  0
LINE
  5
2F11
330
74
100
AcDbEntity
  8
0
  6
ByBlock
100
AcDbLine
 10
176.9708570456373
 20
218.4675536544475
 30
0.0
 11
174.8961463642999
 21
218.7611530222
 31
0.0
  0
LINE
  5
2F12
330
74
100
AcDbEntity
  8
0
  6
ByBlock
100
AcDbLine
 10
176.7026872361938
 20
217.9030096319806
 30
0.0
 11
174.8961463642999
 21
218.7611530222
 31
0.0
  0
LINE
  5
2F13
330
74
100
AcDbEntity
  8
0
  6
ByBlock
100
AcDbLine
 10
179.412498552
 20
216.6157945634999
 30
0.0
 11
177.8741274895496
 21
218.0384819761861
 31
0.0
  0
LINE
  5
2F14
330
74
100
AcDbEntity
  8
0
  6
ByBlock
100
AcDbLine
 10
177.3377878706625
 20
216.9093939312525
 30
0.0
 11
179.412498552
 21
216.6157945634999
 31
0.0
  0
LINE
  5
2F15
330
74
100
AcDbEntity
  8
0
  6
ByBlock
100
AcDbLine
 10
177.6059576801062
 20
217.4739379537193
 30
0.0
 11
179.412498552
 21
216.6157945634999
 31
0.0
  0
LINE
  5
2F16
330
74
100
AcDbEntity
  8
0
  6
ByBlock
100
AcDbLine
 10
171.3996780717
 20
227.2762348979
 30
0.0
 11
173.4941900799209
 21
227.2158656390138
 31
0.0
  0
LINE
  5
2F17
330
74
100
AcDbEntity
  8
0
  6
ByBlock
100
AcDbLine
 10
173.1558750657241
 20
228.4192122022155
 30
0.0
 11
171.3996780717
 21
227.2762348979
 31
0.0
  0
LINE
  5
2F18
330
74
100
AcDbEntity
  8
0
  6
ByBlock
100
AcDbLine
 10
173.3250325728226
 20
227.8175389206146
 30
0.0
 11
171.3996780717
 21
227.2762348979
 31
0.0
  0
LINE
  5
2F19
330
74
100
AcDbEntity
  8
0
  6
ByBlock
100
AcDbLine
 10
180.0637733398
 20
229.7121029538999
 30
0.0
 11
177.9692613315791
 21
229.7724722127861
 31
0.0
  0
LINE
  5
2F1A
330
74
100
AcDbEntity
  8
0
  6
ByBlock
100
AcDbLine
 10
178.3075763457756
 20
228.5691256495844
 30
0.0
 11
180.0637733398
 21
229.7121029538999
 31
0.0
  0
LINE
  5
2F1B
330
74
100
AcDbEntity
  8
0
  6
ByBlock
100
AcDbLine
 10
178.1384188386773
 20
229.1707989311853
 30
0.0
 11
180.0637733398
 21
229.7121029538999
 31
0.0
  0
LINE
  5
2F1C
330
74
100
AcDbEntity
  8
0
  6
ByBlock
100
AcDbLine
 10
137.0396529153
 20
188.8398617795999
 30
0.0
 11
139.034784478926
 21
189.4802328000426
 31
0.0
  0
LINE
  5
2F1D
330
74
100
AcDbEntity
  8
0
  6
ByBlock
100
AcDbLine
 10
138.3151547940431
 20
190.5023057507829
 30
0.0
 11
137.0396529153
 21
188.8398617795999
 31
0.0
  0
LINE
  5
2F1E
330
74
100
AcDbEntity
  8
0
  6
ByBlock
100
AcDbLine
 10
138.6749696364845
 20
189.9912692754128
 30
0.0
 11
137.0396529153
 21
188.8398617795999
 31
0.0
  0
LINE
  5
2F1F
330
74
100
AcDbEntity
  8
0
  6
ByBlock
100
AcDbLine
 10
133.768992001
 20
186.5370858062
 30
0.0
 11
131.7738604373739
 21
185.8967147857573
 31
0.0
  0
LINE
  5
2F20
330
74
100
AcDbEntity
  8
0
  6
ByBlock
100
AcDbLine
 10
132.4934901222569
 20
184.874641835017
 30
0.0
 11
133.768992001
 21
186.5370858062
 31
0.0
  0
LINE
  5
2F21
330
74
100
AcDbEntity
  8
0
  6
ByBlock
100
AcDbLine
 10
132.1336752798154
 20
185.385678310387
 30
0.0
 11
133.768992001
 21
186.5370858062
 31
0.0
  0
LINE
  5
352A
330
74
100
AcDbEntity
  8
非表示
100
AcDbLine
 10
0.000000092522555
 20
0.0000000528651754
 30
0.0
 11
420.0000000925226
 21
0.0000000528651754
 31
0.0
  0
LINE
  5
352B
330
74
100
AcDbEntity
  8
非表示
100
AcDbLine
 10
420.0000000925226
 20
0.0000000528651754
 30
0.0
 11
420.0000000925226
 21
297.0000000528651
 31
0.0
  0
LINE
  5
352C
330
74
100
AcDbEntity
  8
0
100
AcDbLine
 10
410.0000000925224
 20
10.00000005286516
 30
0.0
 11
320.0000000925224
 21
10.00000005286516
 31
0.0
  0
LINE
  5
352D
330
74
100
AcDbEntity
  8
0
100
AcDbLine
 10
410.0000000925224
 20
18.00000005286516
 30
0.0
 11
320.0000000925224
 21
18.00000005286516
 31
0.0
  0
LINE
  5
352E
330
74
100
AcDbEntity
  8
0
100
AcDbLine
 10
410.0000000925224
 20
26.00000005286517
 30
0.0
 11
320.0000000925224
 21
26.00000005286517
 31
0.0
  0
LINE
  5
352F
330
74
100
AcDbEntity
  8
0
100
AcDbLine
 10
340.0000000925225
 20
26.00000005286517
 30
0.0
 11
340.0000000925225
 21
10.00000005286516
 31
0.0
  0
TEXT
  5
3530
330
74
100
AcDbEntity
  8
0
100
AcDbText
 10
325.9352900925225
 20
19.67168605286516
 30
0.0
 40
4.0
  1
品名
  7
STANDARD1
100
AcDbText
  0
TEXT
  5
3531
330
74
100
AcDbEntity
  8
0
100
AcDbText
 10
325.9352900925225
 20
11.67168605286516
 30
0.0
 40
4.0
  1
型名
  7
STANDARD1
100
AcDbText
  0
TEXT
  5
3532
330
74
100
AcDbEntity
  8
0
100
AcDbText
 10
341.9352900925225
 20
19.67168605286516
 30
0.0
 40
4.0
  1
ネットワークカメラ
  7
STANDARD1
100
AcDbText
  0
TEXT
  5
3533
330
74
100
AcDbEntity
  8
0
100
AcDbText
 10
341.9352900925225
 20
11.67168605286516
 30
0.0
 40
4.0
  1
NC-6600
  7
STANDARD1
100
AcDbText
  0
LINE
  5
3534
330
74
100
AcDbEntity
  8
0
100
AcDbLine
 10
410.0000000925224
 20
26.00000005286517
 30
0.0
 11
410.0000000925224
 21
10.00000005286516
 31
0.0
  0
LINE
  5
3535
330
74
100
AcDbEntity
  8
非表示
100
AcDbLine
 10
0.000000092522555
 20
0.0000000528651754
 30
0.0
 11
0.000000092522555
 21
297.0000000528651
 31
0.0
  0
LINE
  5
3536
330
74
100
AcDbEntity
  8
非表示
100
AcDbLine
 10
0.000000092522555
 20
297.0000000528651
 30
0.0
 11
420.0000000925226
 21
297.0000000528651
 31
0.0
  0
LINE
  5
3547
330
74
100
AcDbEntity
  8
0
100
AcDbLine
 10
320.0000000925224
 20
26.00000005286517
 30
0.0
 11
320.0000000925224
 21
10.00000005286516
 31
0.0
  0
DIMENSION
  5
3548
330
74
100
AcDbEntity
  8
0
100
AcDbDimension
  2
*D3
 10
57.79847534179998
 20
42.18467704540002
 30
0.0
 11
55.04847534179997
 21
96.18467704540003
 31
0.0
 70
    32
 71
     5
 42
108.0
  3
Standard
100
AcDbAlignedDimension
 13
87.65432245819997
 23
150.1846770454
 33
0.0
 14
135.4043224581999
 24
42.1846770454
 34
0.0
 50
90.0
100
AcDbRotatedDimension
1001
ACAD
1000
DSTYLE
1002
{
1070
    41
1040
2.0
1070
    42
1040
0.0
1070
    43
1040
15.96
1070
    44
1040
1.0
1070
    73
1070
     0
1070
    77
1070
     3
1070
   140
1040
3.5
1070
   141
1040
3.779999999999998
1070
   147
1040
1.0
1070
   271
1070
     0
1070
   272
1070
     0
1070
   341
1005
B9
1070
   342
1005
B9
1002
}
  0
DIMENSION
  5
3556
330
74
100
AcDbEntity
  8
0
100
AcDbDimension
  2
*D4
 10
66.52472731539998
 20
89.68467704540001
 30
0.0
 11
63.77472731539998
 21
119.9346770454
 31
0.0
 70
    32
 71
     5
 42
60.50000000000004
  3
Standard
100
AcDbAlignedDimension
 13
66.52472731540001
 23
150.1846770454
 33
0.0
 14
80.24966659870001
 24
89.68467704540001
 34
0.0
 50
90.0
100
AcDbRotatedDimension
1001
ACAD
1000
DSTYLE
1002
{
1070
    41
1040
2.0
1070
    42
1040
0.0
1070
    43
1040
15.96
1070
    44
1040
1.0
1070
    73
1070
     0
1070
    77
1070
     3
1070
   140
1040
3.5
1070
   141
1040
3.779999999999998
1070
   147
1040
1.0
1070
   271
1070
     1
1070
   272
1070
     1
1070
   341
1005
B9
1070
   342
1005
B9
1002
}
  0
DIMENSION
  5
357B
330
74
100
AcDbEntity
  8
0
100
AcDbDimension
  2
*D6
 10
68.31327439479996
 20
217.6884737928999
 30
0.0
 11
65.56327439479993
 21
229.91658582935
 31
0.0
 70
    32
 71
     5
 42
24.45622407290002
  3
Standard
100
AcDbAlignedDimension
 13
101.8831138586
 23
242.1446978658
 33
0.0
 14
93.65432245820001
 24
217.6884737928999
 34
0.0
 50
90.0
100
AcDbRotatedDimension
1001
ACAD
1000
DSTYLE
1002
{
1070
    41
1040
2.0
1070
    42
1040
0.0
1070
    43
1040
15.96
1070
    44
1040
1.0
1070
    73
1070
     0
1070
    77
1070
     3
1070
   140
1040
3.5
1070
   141
1040
3.779999999999998
1070
   147
1040
1.0
1070
   271
1070
     1
1070
   272
1070
     1
1070
   341
1005
B9
1070
   342
1005
B9
1002
}
  0
DIMENSION
  5
35B4
330
74
100
AcDbEntity
  8
0
100
AcDbDimension
  2
*D9
 10
222.1261471586
 20
175.9384737928999
 30
0.0
 11
219.3761471585999
 21
217.6884737929
 31
0.0
 70
    32
 71
     5
 42
83.50000000000006
  3
Standard
100
AcDbAlignedDimension
 13
135.4043224581999
 23
259.4384737929
 33
0.0
 14
135.4043224581999
 24
175.9384737928999
 34
0.0
 50
90.0
100
AcDbRotatedDimension
1001
ACAD
1000
DSTYLE
1002
{
1070
    41
1040
2.0
1070
    42
1040
0.0
1070
    43
1040
15.96
1070
    44
1040
1.0
1070
    73
1070
     0
1070
    77
1070
     3
1070
   140
1040
3.5
1070
   141
1040
3.779999999999998
1070
   147
1040
1.0
1070
   271
1070
     1
1070
   272
1070
     1
1070
   341
1005
B9
1070
   342
1005
B9
1002
}
  0
TEXT
  5
35C1
330
74
100
AcDbEntity
  8
0
100
AcDbText
 10
79.24702501646414
 20
161.0155791520404
 30
0.0
 40
3.5
  1
φ128
 50
46.11999289470348
 41
0.8
100
AcDbText
  0
TEXT
  5
35C3
330
74
100
AcDbEntity
  8
0
100
AcDbText
 10
177.2922970670093
 20
58.73495805619053
 30
0.0
 40
3.5
  1
(SR47.5)
 50
322.4402756160997
 41
0.8
100
AcDbText
  0
TEXT
  5
35C4
330
74
100
AcDbEntity
  8
0
100
AcDbText
 10
115.0523060250028
 20
174.5822131389549
 30
0.0
 40
3.5
  1
2-(φ4）
 50
35.14824747229907
 41
0.8
100
AcDbText
  0
TEXT
  5
35C5
330
74
100
AcDbEntity
  8
0
100
AcDbText
 10
82.11578349528295
 20
272.7368904175511
 30
0.0
 40
3.5
  1
φ20
 50
318.2444179200752
 41
0.8
100
AcDbText
  0
TEXT
  5
35C6
330
74
100
AcDbEntity
  8
0
100
AcDbText
 10
196.2724783518437
 20
209.7140519664046
 30
0.0
 40
3.5
  1
4-(φ5）
 50
334.5913382132644
 41
0.8
100
AcDbText
  0
TEXT
  5
35C7
330
74
100
AcDbEntity
  8
0
100
AcDbText
 10
197.2395822362134
 20
235.5797674537212
 30
0.0
 40
3.5
  1
4-(φ9）
 50
15.70306869456971
 41
0.8
100
AcDbText
  0
DIMENSION
  5
35C8
330
74
100
AcDbEntity
  8
0
100
AcDbDimension
  2
*D10
 10
135.4043224581999
 20
282.0
 30
0.0
 11
125.1437181584
 21
284.75
 31
0.0
 70
    32
 71
     5
 42
20.52120859959998
  3
Standard
100
AcDbAlignedDimension
 13
114.8831138586
 23
255.1446978658
 33
0.0
 14
135.4043224581999
 24
255.1884737928999
 34
0.0
100
AcDbRotatedDimension
1001
ACAD
1000
DSTYLE
1002
{
1070
    41
1040
2.0
1070
    42
1040
0.0
1070
    43
1040
15.96
1070
    44
1040
1.0
1070
    73
1070
     0
1070
    77
1070
     3
1070
   140
1040
3.5
1070
   141
1040
3.779999999999998
1070
   147
1040
1.0
1070
   271
1070
     1
1070
   272
1070
     1
1070
   341
1005
B9
1070
   342
1005
B9
1002
}
  0
DIMENSION
  5
35D5
330
74
100
AcDbEntity
  8
0
100
AcDbDimension
  2
*D11
 10
215.1789928487999
 20
187.6884737928999
 30
0.0
 11
212.4289928487999
 21
217.6884737929
 31
0.0
 70
    32
 71
     5
 42
60.0
  3
Standard
100
AcDbAlignedDimension
 13
142.9043224581999
 23
247.6884737929
 33
0.0
 14
143.4043224582
 24
187.6884737929
 34
0.0
 50
90.0
100
AcDbRotatedDimension
1001
ACAD
1000
DSTYLE
1002
{
1070
    41
1040
2.0
1070
    42
1040
0.0
1070
    43
1040
15.96
1070
    44
1040
1.0
1070
    73
1070
     0
1070
    77
1070
     3
1070
   140
1040
3.5
1070
   141
1040
3.779999999999998
1070
   147
1040
1.0
1070
   271
1070
     0
1070
   272
1070
     0
1070
   341
1005
B9
1070
   342
1005
B9
1002
}
  0
DIMENSION
  5
35E2
330
74
100
AcDbEntity
  8
0
100
AcDbDimension
  2
*D12
 10
177.1543224581999
 20
206.2481428033
 30
0.0
 11
141.0695194674073
 21
209.1681827485197
 31
0.0
 70
   160
 71
     5
 42
83.49999999999999
  3
Standard
100
AcDbAlignedDimension
 13
93.65432245820001
 23
217.6884737928999
 33
0.0
 14
177.1543224581999
 24
217.6884737928999
 34
0.0
100
AcDbRotatedDimension
1001
ACAD
1000
DSTYLE
1002
{
1070
    41
1040
2.0
1070
    42
1040
0.0
1070
    43
1040
15.96
1070
    44
1040
1.0
1070
    73
1070
     0
1070
    77
1070
     3
1070
   140
1040
3.5
1070
   141
1040
3.779999999999998
1070
   147
1040
1.0
1070
   271
1070
     0
1070
   272
1070
     0
1070
   279
1070
     2
1070
   341
1005
B9
1070
   342
1005
B9
1002
}
  0
TEXT
  5
3601
330
74
100
AcDbEntity
  8
0
100
AcDbText
 10
202.3913233070876
 20
84.7755853849469
 30
0.0
 40
3.0
  1
フロントマーク
 41
0.8
100
AcDbText
  0
TEXT
  5
3602
330
74
100
AcDbEntity
  8
0
100
AcDbText
 10
39.39132330708764
 20
164.7755853849469
 30
0.0
 40
3.0
  1
カバー着脱ロック
 41
0.8
100
AcDbText
  0
TEXT
  5
3603
330
74
100
AcDbEntity
  8
0
100
AcDbText
 10
59.39132330708765
 20
257.7755853849469
 30
0.0
 40
3.0
  1
ケーブル導入孔
 41
0.8
100
AcDbText
  0
ENDSEC
  0
SECTION
  2
OBJECTS
  0
DICTIONARY
  5
C
330
0
100
AcDbDictionary
281
     1
  3
ACAD_COLOR
350
6A
  3
ACAD_GROUP
350
D
  3
ACAD_LAYOUT
350
69
  3
ACAD_MATERIAL
350
10
  3
ACAD_MLEADERSTYLE
350
6D
  3
ACAD_MLINESTYLE
350
66
  3
ACAD_PLOTSETTINGS
350
68
  3
ACAD_PLOTSTYLENAME
350
E
  3
ACAD_SCALELIST
350
3A
  3
ACAD_TABLESTYLE
350
6B
  3
ACAD_VISUALSTYLE
350
29
  3
ACDB_RECOMPOSE_DATA
350
349E
  3
AcDbVariableDictionary
350
3495
  3
DWGPROPS
350
34AE
  0
DICTIONARY
  5
34B8
330
2
100
AcDbDictionary
280
     1
281
     1
  3
ACAD_LAYERFILTERS
360
34B9
  3
ACAD_LAYERSTATES
360
3516
  0
DICTIONARY
  5
342F
330
5C
100
AcDbDictionary
280
     1
281
     1
  3
ADSK_XREC_LAYER_RECONCILED
360
3430
  0
DICTIONARY
  5
3431
330
7F
100
AcDbDictionary
280
     1
281
     1
  3
ADSK_XREC_LAYER_RECONCILED
360
3432
  0
DICTIONARY
  5
3453
330
90
100
AcDbDictionary
280
     1
281
     1
  3
ADSK_XREC_LAYER_RECONCILED
360
3454
  0
DICTIONARY
  5
3463
330
98
100
AcDbDictionary
280
     1
281
     1
  3
ADSK_XREC_LAYER_RECONCILED
360
3464
  0
DICTIONARY
  5
20F0
330
74
100
AcDbDictionary
280
     1
281
     1
  3
ACAD_SORTENTS
360
20F1
  0
DICTIONARY
  5
6A
102
{ACAD_REACTORS
330
C
102
}
330
C
100
AcDbDictionary
281
     1
  0
DICTIONARY
  5
D
102
{ACAD_REACTORS
330
C
102
}
330
C
100
AcDbDictionary
281
     1
  0
DICTIONARY
  5
69
102
{ACAD_REACTORS
330
C
102
}
330
C
100
AcDbDictionary
281
     1
  3
Model
350
77
  3
レイアウト1
350
73
  0
DICTIONARY
  5
10
102
{ACAD_REACTORS
330
C
102
}
330
C
100
AcDbDictionary
281
     1
  3
ByBlock
350
19
  3
ByLayer
350
11
  3
Global
350
21
  0
DICTIONARY
  5
6D
102
{ACAD_REACTORS
330
C
102
}
330
C
100
AcDbDictionary
281
     1
  3
Standard
350
6E
  0
DICTIONARY
  5
66
102
{ACAD_REACTORS
330
C
102
}
330
C
100
AcDbDictionary
281
     1
  3
Standard
350
67
  0
DICTIONARY
  5
68
102
{ACAD_REACTORS
330
C
102
}
330
C
100
AcDbDictionary
281
     1
  0
ACDBDICTIONARYWDFLT
  5
E
102
{ACAD_REACTORS
330
C
102
}
330
C
100
AcDbDictionary
281
     1
  3
Normal
350
F
100
AcDbDictionaryWithDefault
340
F
  0
DICTIONARY
  5
3A
102
{ACAD_REACTORS
330
C
102
}
330
C
100
AcDbDictionary
281
     1
  3
A0
350
3B
  3
A1
350
3C
  3
A2
350
3D
  3
A3
350
3E
  3
A4
350
3F
  3
A5
350
40
  3
A6
350
41
  3
A7
350
42
  3
A8
350
43
  3
A9
350
44
  3
B0
350
45
  3
B1
350
46
  3
B2
350
47
  3
B3
350
48
  3
B4
350
49
  3
B5
350
4A
  3
B6
350
4B
  3
B7
350
4C
  3
B8
350
4D
  3
B9
350
4E
  3
C0
350
4F
  3
C1
350
50
  3
C2
350
51
  3
C3
350
52
  3
C4
350
53
  3
C5
350
54
  3
C6
350
55
  3
C7
350
56
  3
C8
350
57
  3
C9
350
58
  3
D0
350
59
  3
D1
350
5A
  3
D2
350
5B
  0
DICTIONARY
  5
6B
102
{ACAD_REACTORS
330
C
102
}
330
C
100
AcDbDictionary
281
     1
  3
Standard
350
6C
  0
DICTIONARY
  5
29
102
{ACAD_REACTORS
330
C
102
}
330
C
100
AcDbDictionary
281
     1
  3
2dWireframe
350
2F
  3
3D Hidden
350
31
  3
3dWireframe
350
30
  3
Basic
350
2E
  3
Brighten
350
35
  3
ColorChange
350
39
  3
Conceptual
350
32
  3
Dim
350
34
  3
Facepattern
350
38
  3
Flat
350
2A
  3
FlatWithEdges
350
2B
  3
Gouraud
350
2C
  3
GouraudWithEdges
350
2D
  3
Linepattern
350
37
  3
Realistic
350
33
  3
Thicken
350
36
  0
XRECORD
  5
349E
102
{ACAD_REACTORS
330
C
102
}
330
C
100
AcDbXrecord
280
     1
 90
        1
330
6C
  0
DICTIONARY
  5
3495
102
{ACAD_REACTORS
330
C
102
}
330
C
100
AcDbDictionary
281
     1
  3
CANNOSCALE
350
3498
  3
CMLEADERSTYLE
350
3497
  3
CTABLESTYLE
350
3496
  3
DIMASSOC
350
349B
  3
INDEXCTL
350
349A
  3
SORTENTS
350
3499
  0
XRECORD
  5
34AE
102
{ACAD_REACTORS
330
C
102
}
330
C
100
AcDbXrecord
280
     1
  1
DWGPROPS COOKIE
  2

  3

  4

  6

  7

  8
DS30385
  9

300
=
301
=
302
=
303
=
304
=
305
=
306
=
307
=
308
=
309
=
 40
0.0020833680555556
 41
2455477.381612535
 42
2455477.385569919
  1

 90
        0
  0
DICTIONARY
  5
34B9
102
{ACAD_REACTORS
330
34B8
102
}
330
34B8
100
AcDbDictionary
280
     1
281
     1
  3
0
360
34BA
  3
01全体計画平面図
360
34BB
  3
02現況平面図
360
34BC
  3
03撤去平面図
360
34BD
  3
04造成平面図
360
34BE
  3
05施設平面図
360
34BF
  3
06排水平面図
360
34C0
  3
07給水平面図
360
34C1
  3
08電気平面図
360
34C2
  3
09植栽平面図-1
360
34C3
  3
1
360
34C4
  3
1-交差点処理図（最新1案）
360
34C5
  3
10植栽平面図-2
360
34C6
  3
11寸法図
360
34C7
  3
1次施工
360
34C8
  3
2
360
34C9
  3
2-線形図1
360
34CA
  3
2次施工
360
34CB
  3
3
360
34CC
  3
3-線形図2
360
34CD
  3
3次施工
360
34CE
  3
4
360
34CF
  3
4次施工
360
34D0
  3
5
360
34D1
  3
50
360
34D2
  3
6
360
34D3
  3
7
360
34D4
  3
7-専用部北行
360
34D5
  3
8-ONﾗﾝﾌﾟ
360
34D6
  3
9-OFFﾗﾝﾌﾟ
360
34D7
  3
a
360
34D8
  3
b
360
34D9
  3
B北
360
34DA
  3
c
360
34DB
  3
CAR
360
34DC
  3
d
360
34DD
  3
DIM
360
34DE
  3
DIM2
360
34DF
  3
DIM3
360
34E0
  3
e
360
34E1
  3
E南
360
34E2
  3
GENKYOU
360
34E3
  3
HTXT
360
34E4
  3
HTXT2
360
34E5
  3
KAN
360
34E6
  3
LAND
360
34E7
  3
MASU
360
34E8
  3
OFF
360
34E9
  3
OFST
360
34EA
  3
ON
360
34EB
  3
ｼｭｳｾｲ
360
34EC
  3
ｾﾒﾝﾄ注入量上半円
360
34ED
  3
ﾌﾘｰｽﾞ解除
360
34EE
  3
ﾙｼﾞｵﾝ値下半円
360
34EF
  3
ｓ
360
34F0
  3
その他
360
34F1
  3
セメント注入量
360
34F2
  3
フリーズ以外
360
34F3
  3
ランプ
360
34F4
  3
ルジオン値
360
34F5
  3
ロック
360
34F6
  3
ロック解除
360
34F7
  3
案1
360
34F8
  3
案2
360
34F9
  3
一般
360
34FA
  3
外部参照の非表示画層
360
34FB
  3
形状
360
34FC
  3
形状以外
360
34FD
  3
計画
360
34FE
  3
現況
360
34FF
  3
暫定形
360
3500
  3
縦断セット
360
3501
  3
縦断計画
360
3502
  3
縦断埋設
360
3503
  3
数量用
360
3504
  3
専北
360
3505
  3
専用
360
3506
  3
線形
360
3507
  3
全帯
360
3508
  3
断面
360
3509
  3
東西線
360
350A
  3
道路詳細設計　平面図
360
350B
  3
南北線
360
350C
  3
非表示
360
350D
  3
非表示を表示
360
350E
  3
非表示画層を表示
360
350F
  3
表示レイヤ－を表示
360
3510
  3
副道
360
3511
  3
平面図
360
3512
  3
埋設
360
3513
  0
DICTIONARY
  5
3516
102
{ACAD_REACTORS
330
34B8
102
}
330
34B8
100
AcDbDictionary
281
     1
  0
XRECORD
  5
3430
102
{ACAD_REACTORS
330
342F
102
}
330
342F
100
AcDbXrecord
280
     1
290
     1
  0
XRECORD
  5
3432
102
{ACAD_REACTORS
330
3431
102
}
330
3431
100
AcDbXrecord
280
     1
290
     1
  0
XRECORD
  5
3454
102
{ACAD_REACTORS
330
3453
102
}
330
3453
100
AcDbXrecord
280
     1
290
     1
  0
XRECORD
  5
3464
102
{ACAD_REACTORS
330
3463
102
}
330
3463
100
AcDbXrecord
280
     1
290
     1
  0
SORTENTSTABLE
  5
20F1
102
{ACAD_REACTORS
330
20F0
102
}
330
20F0
100
AcDbSortentsTable
330
74
331
23C0
  5
2F8B
331
2382
  5
2FD0
331
23A1
  5
2FAD
331
232D
  5
303A
331
234C
  5
3017
331
184A
  5
2DE5
331
17E4
  5
2D9D
331
230E
  5
305C
331
236B
  5
2FF4
331
20F7
  5
3358
331
17B5
  5
2D80
331
22E0
  5
3093
331
22FF
  5
3066
331
228B
  5
3106
331
22A2
  5
30E0
331
224D
  5
314F
331
226C
  5
312D
331
21F8
  5
3221
331
2217
  5
3186
331
21BA
  5
3281
331
2165
  5
32E9
331
2184
  5
32CC
331
2146
  5
3302
331
21D9
  5
3253
331
222E
  5
317E
331
22C1
  5
30B2
331
23E0
  5
2F5A
331
23A2
  5
2FAE
331
23C1
  5
2F84
331
234D
  5
3018
331
236C
  5
2FEB
331
1902
  5
2E76
331
230F
  5
3055
331
232E
  5
303B
331
184B
  5
2DE6
331
2383
  5
2FD1
331
17E5
  5
2D9E
331
2300
  5
3067
331
22A3
  5
30DA
331
22C2
  5
30B3
331
226D
  5
312E
331
228C
  5
3107
331
222F
  5
317F
331
21DA
  5
3254
331
21F9
  5
3222
331
21BB
  5
3282
331
224E
  5
3150
331
22E1
  5
3086
331
2147
  5
3303
331
2166
  5
32EA
331
2185
  5
32C5
331
24E8
  5
2E40
331
23F8
  5
2F41
331
23C2
  5
2F85
331
23E1
  5
2F5B
331
2384
  5
2FC9
331
23A3
  5
2F9F
331
232F
  5
302A
331
234E
  5
3013
331
196A
  5
2EB7
331
184C
  5
2DE7
331
17E6
  5
2D9F
331
1520
  5
2552
331
1903
  5
2E77
331
2310
  5
3056
331
236D
  5
2FEC
331
22C3
  5
30B4
331
22E2
  5
3087
331
228D
  5
3108
331
22A4
  5
30DB
331
224F
  5
3151
331
226E
  5
3122
331
2301
  5
3068
331
21FA
  5
3223
331
21BC
  5
3283
331
2167
  5
32EB
331
2186
  5
32C6
331
21DB
  5
323C
331
2230
  5
316C
331
1A60
  5
2F62
331
2508
  5
2E17
331
24E9
  5
2E41
331
23E2
  5
2F54
331
23F9
  5
2F42
331
23A4
  5
2FA0
331
23C3
  5
2F86
331
234F
  5
3014
331
236E
  5
2FED
331
1904
  5
2E78
331
2311
  5
3057
331
1521
  5
2553
331
17C0
  5
2D88
331
2330
  5
302B
331
2385
  5
2FCA
331
2418
  5
2F1E
331
2302
  5
3069
331
22A5
  5
30DC
331
22C4
  5
30B0
331
226F
  5
3123
331
228E
  5
3109
331
2231
  5
316D
331
21DC
  5
323D
331
21FB
  5
3217
331
2187
  5
32C7
331
21BD
  5
3284
331
2250
  5
3152
331
22E3
  5
3088
331
2528
  5
2DEA
331
24EA
  5
2E42
331
2509
  5
2E18
331
23FA
  5
2F3D
331
2419
  5
2F1F
331
23C4
  5
2F87
331
23E3
  5
2F55
331
236F
  5
2FEE
331
2386
  5
2FCB
331
2331
  5
302C
331
2350
  5
3015
331
19D3
  5
2F0B
331
1905
  5
2E79
331
2312
  5
3058
331
23A5
  5
2FA1
331
2438
  5
2ED2
331
22C5
  5
30B1
331
22E4
  5
3089
331
228F
  5
30EF
331
22A6
  5
30D6
331
2232
  5
316E
331
21FC
  5
3218
331
2251
  5
3153
331
21BE
  5
3285
331
21DD
  5
323E
331
2270
  5
3124
331
2303
  5
306A
331
1AE0
  5
2FB5
331
2548
  5
2DC4
331
250A
  5
2E19
331
2529
  5
2DEB
331
24EB
  5
2E30
331
241A
  5
2F16
331
2439
  5
2ED3
331
23E4
  5
2F56
331
23FB
  5
2F3E
331
23A6
  5
2FA2
331
23C5
  5
2F7C
331
2458
  5
2EF2
331
2351
  5
3016
331
2370
  5
2FEF
331
2313
  5
3059
331
2332
  5
302D
331
2387
  5
2FC6
331
22E5
  5
308A
331
2304
  5
306B
331
22A7
  5
30D7
331
2271
  5
3125
331
22C6
  5
30AB
331
2233
  5
316F
331
21DE
  5
323F
331
21FD
  5
3219
331
21BF
  5
3286
331
2252
  5
3154
331
19FC
  5
2F25
331
252A
  5
2DEC
331
2549
  5
2DC5
331
24EC
  5
2E31
331
250B
  5
2E1A
331
2560
  5
2DA5
331
2459
  5
2EF3
331
2470
  5
2EBE
331
23FC
  5
2F3B
331
241B
  5
2F17
331
23C6
  5
2F7D
331
23E5
  5
2F57
331
2371
  5
2FF0
331
2388
  5
2FC7
331
2333
  5
302E
331
2352
  5
300E
331
1860
  5
2DF5
331
2314
  5
305A
331
23A7
  5
2FA3
331
1829
  5
2DD3
331
243A
  5
2ED4
331
22C7
  5
30AC
331
22E6
  5
308B
331
22A8
  5
30D8
331
2234
  5
3168
331
21FE
  5
321A
331
2253
  5
3146
331
21DF
  5
3240
331
2272
  5
3126
331
2305
  5
306C
331
19FD
  5
2F26
331
1B40
  5
2FF1
331
254A
  5
2DC6
331
2561
  5
2DA6
331
250C
  5
2E1B
331
252B
  5
2DED
331
24ED
  5
2E32
331
2580
  5
2D7B
331
2471
  5
2EB0
331
2490
  5
2E95
331
241C
  5
2F18
331
243B
  5
2ED5
331
23E6
  5
2F58
331
23FD
  5
2F3C
331
2389
  5
2FC8
331
23A8
  5
2FA4
331
2353
  5
300F
331
2372
  5
2FE7
331
2315
  5
3051
331
2334
  5
302F
331
23C7
  5
2F7E
331
1861
  5
2DF6
331
245A
  5
2EF4
331
22E7
  5
308C
331
2306
  5
3061
331
22A9
  5
30D9
331
2254
  5
3147
331
2273
  5
311D
331
2235
  5
3169
331
22C8
  5
30AD
331
21FF
  5
3215
331
1B12
  5
2FD2
331
2562
  5
2D9B
331
2581
  5
2D7C
331
252C
  5
2DEE
331
254B
  5
2DB5
331
24EE
  5
2E2C
331
250D
  5
2E1C
331
25A0
  5
2D5A
331
2491
  5
2E96
331
24B0
  5
2E69
331
243C
  5
2ED6
331
245B
  5
2EF5
331
23FE
  5
2F32
331
241D
  5
2F19
331
23C8
  5
2F7F
331
23E7
  5
2F4C
331
2472
  5
2EB1
331
2373
  5
2FE8
331
238A
  5
2FC3
331
2335
  5
3030
331
2354
  5
3010
331
1988
  5
2EC9
331
2316
  5
3052
331
23A9
  5
2FA5
331
2307
  5
3062
331
22C9
  5
30AE
331
22E8
  5
308D
331
22AA
  5
30D2
331
2236
  5
316A
331
2255
  5
3148
331
2274
  5
311E
331
1B13
  5
2FD3
331
1A85
  5
2F78
331
1C28
  5
3085
331
25A1
  5
2D5B
331
2E98
  5
E65
331
254C
  5
2DB6
331
2563
  5
2D9C
331
250E
  5
2E1D
331
252D
  5
2DEF
331
24EF
  5
2E2D
331
2582
  5
2D7D
331
24B1
  5
2E6A
331
24D0
  5
2E4B
331
2473
  5
2EB2
331
2492
  5
2E90
331
241E
  5
2F1A
331
243D
  5
2ED7
331
23E8
  5
2F4D
331
23FF
  5
2F33
331
238B
  5
2FC4
331
23AA
  5
2FA6
331
2355
  5
3011
331
2374
  5
2FE9
331
1527
  5
2556
331
2317
  5
3053
331
2336
  5
3031
331
23C9
  5
2F79
331
245C
  5
2EF6
331
22E9
  5
3081
331
22AB
  5
30D3
331
2256
  5
313C
331
2275
  5
311B
331
2237
  5
316B
331
22CA
  5
30AF
331
1BB2
  5
303C
331
1B14
  5
2FD4
331
2E99
  5
E66
331
2EB0
  5
BEE
331
2564
  5
2D98
331
2583
  5
2D7E
331
252E
  5
2DE1
331
254D
  5
2DA7
331
24F0
  5
2E2E
331
250F
  5
2E1E
331
25A2
  5
2D5C
331
24D1
  5
2E4C
331
2493
  5
2E91
331
24B2
  5
2E6B
331
243E
  5
2ED8
331
245D
  5
2EF7
331
2400
  5
2F34
331
241F
  5
2F1B
331
23AB
  5
2F9C
331
23CA
  5
2F7A
331
2375
  5
2FE1
331
238C
  5
2FC5
331
2337
  5
3032
331
2356
  5
3012
331
23E9
  5
2F4E
331
2474
  5
2EB3
331
1528
  5
2557
331
2318
  5
3054
331
22CB
  5
30A9
331
22EA
  5
3082
331
2276
  5
311C
331
2257
  5
313D
331
22AC
  5
30D4
331
1BB3
  5
303D
331
1B15
  5
2FD5
331
2EB1
  5
BF6
331
2584
  5
2D7F
331
25A3
  5
2D5D
331
254E
  5
2DA8
331
2565
  5
2D99
331
2510
  5
2E1F
331
252F
  5
2DE2
331
24F1
  5
2E00
331
24B3
  5
2E6C
331
24D2
  5
2E4D
331
245E
  5
2EF8
331
2475
  5
2EB4
331
2420
  5
2F13
331
243F
  5
2ED9
331
23EA
  5
2F4F
331
2401
  5
2F35
331
2494
  5
2E8D
331
238D
  5
2FBF
331
23AC
  5
2F9D
331
2357
  5
300A
331
2376
  5
2FE2
331
1807
  5
2DB7
331
190C
  5
2E7D
331
2319
  5
304E
331
2338
  5
3033
331
23CB
  5
2F7B
331
22EB
  5
3083
331
22AD
  5
30D5
331
2277
  5
3115
331
22CC
  5
30AA
331
1A3A
  5
2F4B
331
1AE7
  5
2FB9
331
1B16
  5
2FD6
331
2ED1
  5
928
331
2EF0
  5
AC2
331
2566
  5
2D9A
331
2585
  5
2D66
331
2530
  5
2DE3
331
254F
  5
2DA9
331
24F2
  5
2E01
331
2511
  5
2E20
331
25A4
  5
2D5E
331
24D3
  5
2E4E
331
2495
  5
2E8E
331
24B4
  5
2E6D
331
2440
  5
2EDA
331
245F
  5
2EF9
331
2402
  5
2F36
331
2421
  5
2F14
331
23AD
  5
2F9E
331
23CC
  5
2F75
331
2377
  5
2FE3
331
238E
  5
2FC0
331
231A
  5
304F
331
2339
  5
3034
331
2358
  5
300B
331
23EB
  5
2F50
331
182F
  5
2DD6
331
1808
  5
2DB8
331
190D
  5
2E7E
331
2476
  5
2EB5
331
22CD
  5
30A1
331
22EC
  5
3084
331
22AE
  5
30CF
331
1C5B
  5
30A6
331
1B17
  5
2FD7
331
1CBA
  5
30E1
331
1AE8
  5
2FBA
331
2EF1
  5
AC9
331
2F10
  5
E07
331
2ED2
  5
929
331
2586
  5
2D67
331
25A5
  5
2D5F
331
2550
  5
2DAA
331
2567
  5
2D94
331
24F3
  5
2E02
331
2512
  5
2E21
331
2531
  5
2DE4
331
2E9C
  5
DAD
331
24B5
  5
2E6E
331
24D4
  5
2E4F
331
2460
  5
2EC7
331
2477
  5
2EB6
331
2422
  5
2F15
331
2441
  5
2EDB
331
23CD
  5
2F76
331
23EC
  5
2F51
331
238F
  5
2FC1
331
23AE
  5
2F94
331
2359
  5
300C
331
2378
  5
2FE4
331
2403
  5
2F37
331
2496
  5
2E8F
331
1809
  5
2DB9
331
231B
  5
3050
331
17CA
  5
2D8F
331
233A
  5
3035
331
22ED
  5
307E
331
22AF
  5
30D0
331
22CE
  5
30A2
331
1D70
  5
3161
331
1CFA
  5
3112
331
1B47
  5
2FF5
331
1C5C
  5
30A7
331
1B18
  5
2FD8
331
2F11
  5
E35
331
2ED3
  5
92A
331
2EF2
  5
AA4
331
2E9D
  5
DD0
331
2568
  5
2D95
331
2587
  5
2D68
331
2532
  5
2DDE
331
2551
  5
2DAB
331
2EB4
  5
AE1
331
24F4
  5
2E03
331
2513
  5
2E22
331
24D5
  5
2E50
331
2478
  5
2EA6
331
2497
  5
2E89
331
2442
  5
2EDC
331
2461
  5
2EC8
331
2404
  5
2F38
331
2423
  5
2F0C
331
24B6
  5
2E6F
331
23AF
  5
2F95
331
23CE
  5
2F77
331
2379
  5
2FE5
331
2390
  5
2FC2
331
231C
  5
304A
331
233B
  5
3036
331
17CB
  5
2D90
331
180A
  5
2DBA
331
19ED
  5
2F1C
331
235A
  5
300D
331
23ED
  5
2F52
331
22CF
  5
30A3
331
22EE
  5
307F
331
1D71
  5
3162
331
1C5D
  5
30A8
331
1A6C
  5
2F68
331
1A93
  5
2F80
331
1B48
  5
2FF6
331
1CFB
  5
3113
331
2EF3
  5
AAC
331
2F12
  5
E4C
331
2EB5
  5
B35
331
2ED4
  5
92B
331
2588
  5
2D69
331
2552
  5
2DAC
331
2569
  5
2D96
331
24F5
  5
2E04
331
2514
  5
2E23
331
2533
  5
2DDF
331
2E9E
  5
DD1
331
24B7
  5
2E70
331
24D6
  5
2E51
331
2462
  5
2EC2
331
2479
  5
2EA7
331
2424
  5
2F0D
331
2443
  5
2EDD
331
23CF
  5
2F72
331
23EE
  5
2F47
331
2391
  5
2FBB
331
23B0
  5
2F96
331
233C
  5
301E
331
235B
  5
3006
331
1869
  5
2DFB
331
180B
  5
2DBB
331
231D
  5
304B
331
237A
  5
2FE6
331
2405
  5
2F39
331
2498
  5
2E8A
331
22EF
  5
3080
331
1DD0
  5
31AF
331
1D72
  5
3163
331
1CFC
  5
3114
331
1DB1
  5
3190
331
1A94
  5
2F81
331
1B49
  5
2FF7
331
1A6D
  5
2F69
331
1BC8
  5
304C
331
2F13
  5
DD4
331
2EF4
  5
AC0
331
256A
  5
2D91
331
2589
  5
2D6A
331
2515
  5
2E24
331
2534
  5
2DE0
331
24F6
  5
2E05
331
2553
  5
2DAD
331
2EB6
  5
B36
331
24D7
  5
2E52
331
247A
  5
2EA8
331
2499
  5
2E8B
331
2444
  5
2EDE
331
2463
  5
2EC3
331
23EF
  5
2F48
331
2406
  5
2F3A
331
23B1
  5
2F97
331
23D0
  5
2F73
331
237B
  5
2FDC
331
2392
  5
2FBC
331
2425
  5
2F0E
331
24B8
  5
2E71
331
231E
  5
303E
331
233D
  5
301F
331
186A
  5
2DFC
331
180C
  5
2DBC
331
235C
  5
3007
331
1DF0
  5
31CC
331
1DB2
  5
3191
331
1BC9
  5
304D
331
1DD1
  5
31B0
331
1A6E
  5
2F6A
331
1A95
  5
2F82
331
1B4A
  5
2FF8
331
2EF5
  5
B65
331
258A
  5
2D6B
331
2EB7
  5
B37
331
2F14
  5
DD5
331
2554
  5
2DAE
331
256B
  5
2D92
331
24F7
  5
2E06
331
2516
  5
2E25
331
2535
  5
2DDA
331
249A
  5
2E8C
331
24B9
  5
2E72
331
2464
  5
2EC4
331
247B
  5
2EA9
331
2426
  5
2F0F
331
2445
  5
2EDF
331
24D8
  5
2E43
331
23D1
  5
2F74
331
23F0
  5
2F49
331
2393
  5
2FBD
331
23B2
  5
2F98
331
233E
  5
3020
331
235D
  5
3008
331
186B
  5
2DFD
331
180D
  5
2DBD
331
231F
  5
303F
331
237C
  5
2FDD
331
2407
  5
2F2F
331
1DD2
  5
31B1
331
1DF1
  5
31CD
331
1A96
  5
2F83
331
1B4B
  5
2FF9
331
1DB3
  5
3192
331
1A6F
  5
2F6B
331
2F15
  5
DF1
331
2ED7
  5
931
331
2EA1
  5
D7A
331
256C
  5
2D93
331
258B
  5
2D6C
331
2EF6
  5
B72
331
2517
  5
2E26
331
2536
  5
2DDB
331
24F8
  5
2E07
331
2555
  5
2DAF
331
24D9
  5
2E44
331
247C
  5
2EAA
331
249B
  5
2E86
331
2446
  5
2EE0
331
2465
  5
2EC5
331
23F1
  5
2F4A
331
2408
  5
2F30
331
23B3
  5
2F99
331
23D2
  5
2F6D
331
235E
  5
3009
331
237D
  5
2FDE
331
1933
  5
2E92
331
2320
  5
3040
331
233F
  5
3021
331
186C
  5
2DFE
331
2394
  5
2FBE
331
180E
  5
2DBE
331
2427
  5
2F10
331
24BA
  5
2E55
331
1DF2
  5
31CE
331
1DB4
  5
3193
331
1DD3
  5
31B2
331
1A70
  5
2F6C
331
1B4C
  5
2FFA
331
1E28
  5
31FB
331
2EF7
  5
B93
331
2F16
  5
E77
331
258C
  5
2D6D
331
2813
  5
2558
331
2537
  5
2DDC
331
2556
  5
2DB0
331
24F9
  5
2E08
331
2518
  5
2E27
331
256D
  5
2D89
331
2ED8
  5
932
331
249C
  5
2E87
331
24BB
  5
2E56
331
2466
  5
2EC6
331
247D
  5
2EAB
331
2409
  5
2F31
331
2428
  5
2F11
331
23D3
  5
2F6E
331
23F2
  5
2F43
331
2395
  5
2FB6
331
23B4
  5
2F9A
331
2447
  5
2EE1
331
24DA
  5
2E45
331
2340
  5
3022
331
235F
  5
3003
331
186D
  5
2DFF
331
180F
  5
2DBF
331
2321
  5
3041
331
237E
  5
2FD9
331
1DD4
  5
31B3
331
1DF3
  5
31CF
331
1DB5
  5
3194
331
1CC1
  5
30E5
331
1D37
  5
3137
331
1E60
  5
3224
331
1E29
  5
31FC
331
2F17
  5
E89
331
2EBA
  5
A72
331
2ED9
  5
933
331
2814
  5
2559
331
2EA3
  5
CEB
331
256E
  5
2D8A
331
258D
  5
2D6E
331
2EF8
  5
B40
331
2519
  5
2E28
331
2538
  5
2DD7
331
24FA
  5
2E09
331
2557
  5
2DB1
331
24BC
  5
2E57
331
24DB
  5
2E33
331
247E
  5
2EAC
331
249D
  5
2E88
331
2448
  5
2EE2
331
2467
  5
2EBF
331
23F3
  5
2F44
331
240A
  5
2F27
331
23B5
  5
2F9B
331
23D4
  5
2F6F
331
2360
  5
3004
331
237F
  5
2FDA
331
2322
  5
3042
331
19BC
  5
2EFA
331
2341
  5
3023
331
2396
  5
2FB7
331
2429
  5
2F12
331
1DF4
  5
31D0
331
1DB6
  5
3195
331
1D38
  5
3138
331
1CC2
  5
30E6
331
1DD5
  5
31B4
331
1C34
  5
308E
331
1E2A
  5
31FD
331
1E61
  5
3225
331
1E0B
  5
31E4
331
2EF9
  5
B58
331
2F18
  5
E8A
331
2EA4
  5
D07
331
2EBB
  5
A73
331
258E
  5
2D6F
331
2815
  5
2554
331
2539
  5
2DD8
331
2558
  5
2DB2
331
24FB
  5
2E0A
331
251A
  5
2E29
331
256F
  5
2D8B
331
2EDA
  5
92E
331
249E
  5
2E83
331
24BD
  5
2E58
331
2468
  5
2EC0
331
247F
  5
2EAD
331
240B
  5
2F28
331
242A
  5
2F08
331
23D5
  5
2F66
331
23F4
  5
2F45
331
2397
  5
2FB8
331
2342
  5
3024
331
2361
  5
3005
331
19BD
  5
2EFB
331
2323
  5
3043
331
23B6
  5
2F8C
331
2449
  5
2EE3
331
24DC
  5
2E34
331
1DD6
  5
31B5
331
1DF5
  5
31D1
331
1D39
  5
3139
331
1CC3
  5
30E7
331
1C35
  5
308F
331
1B09
  5
2FCC
331
1DB7
  5
3196
331
1E62
  5
3226
331
1E0C
  5
31E5
331
1E2B
  5
31FE
331
2F19
  5
E69
331
2EBC
  5
A94
331
2EDB
  5
92F
331
2816
  5
2555
331
2EA5
  5
D08
331
2559
  5
2DB3
331
2570
  5
2D8C
331
251B
  5
2E2A
331
253A
  5
2DD9
331
24FC
  5
2E0B
331
258F
  5
2D70
331
2EFA
  5
B59
331
24BE
  5
2E59
331
24DD
  5
2E35
331
2480
  5
2EAE
331
249F
  5
2E84
331
242B
  5
2F09
331
244A
  5
2EE4
331
23F5
  5
2F46
331
240C
  5
2F29
331
23B7
  5
2F8D
331
23D6
  5
2F67
331
2469
  5
2EC1
331
2362
  5
2FFE
331
2324
  5
3044
331
19BE
  5
2EFC
331
2343
  5
3025
331
2398
  5
2FAF
331
1DF6
  5
31D2
331
1DB8
  5
3197
331
1DD7
  5
31B6
331
1D03
  5
3118
331
1D3A
  5
313A
331
1A45
  5
2F53
331
1B0A
  5
2FCD
331
1CC4
  5
30E8
331
1D79
  5
3167
331
1E9A
  5
3255
331
1EC1
  5
3270
331
1E2C
  5
31FF
331
1E63
  5
3227
331
1EF0
  5
3293
331
2EDC
  5
930
331
2EA6
  5
D13
331
2EFB
  5
C3E
331
2590
  5
2D71
331
2817
  5
2550
331
2F1A
  5
E75
331
253B
  5
2DD4
331
255A
  5
2DB4
331
24FD
  5
2E0C
331
251C
  5
2E2B
331
2571
  5
2D8D
331
24DE
  5
2E36
331
24A0
  5
2E85
331
24BF
  5
2E5A
331
246A
  5
2EB8
331
2481
  5
2EAF
331
240D
  5
2F2A
331
242C
  5
2F0A
331
23D7
  5
2F63
331
23F6
  5
2F3F
331
2399
  5
2FB0
331
2344
  5
3026
331
2363
  5
2FFF
331
19BF
  5
2EFD
331
2325
  5
3045
331
23B8
  5
2F8E
331
244B
  5
2EE5
331
1DD8
  5
31B7
331
1DF7
  5
31D3
331
1D3B
  5
313B
331
1CC5
  5
30E9
331
1D04
  5
3119
331
1B0B
  5
2FCE
331
1DB9
  5
3198
331
1EC2
  5
3271
331
1E64
  5
3228
331
1E2D
  5
3200
331
2F1B
  5
E76
331
2818
  5
2551
331
2EDD
  5
95A
331
255B
  5
2DA0
331
2572
  5
2D8E
331
251D
  5
2DF7
331
253C
  5
2DD5
331
24FE
  5
2E0D
331
2591
  5
2D72
331
2EFC
  5
C3F
331
24C0
  5
2E5B
331
24DF
  5
2E37
331
2482
  5
2EA2
331
24A1
  5
2E7F
331
242D
  5
2F05
331
244C
  5
2EE6
331
23F7
  5
2F40
331
240E
  5
2F2B
331
239A
  5
2FB1
331
2364
  5
3000
331
23B9
  5
2F8F
331
2326
  5
3046
331
2345
  5
3027
331
23D8
  5
2F64
331
246B
  5
2EB9
331
1DF8
  5
31D4
331
1D05
  5
311A
331
1DBA
  5
3199
331
1B5A
  5
3002
331
1C7F
  5
30BB
331
1CC6
  5
30EA
331
1DD9
  5
31B8
331
1F29
  5
32BA
331
1EC3
  5
3272
331
1E2E
  5
3201
331
1E65
  5
3229
331
2EDE
  5
95B
331
2EFD
  5
C40
331
2EBF
  5
9BD
331
2573
  5
2D81
331
2592
  5
2D73
331
253D
  5
2DC8
331
255C
  5
2DA1
331
24FF
  5
2E0E
331
251E
  5
2DF8
331
2819
  5
254C
331
2F1C
  5
ECA
331
24E0
  5
2E38
331
24A2
  5
2E80
331
24C1
  5
2E5C
331
244D
  5
2EE7
331
246C
  5
2EBA
331
240F
  5
2F2C
331
23D9
  5
2F65
331
242E
  5
2F06
331
2483
  5
2EA3
331
239B
  5
2FA7
331
2346
  5
3028
331
2365
  5
3001
331
2327
  5
3047
331
23BA
  5
2F90
331
1DDA
  5
31B9
331
1DF9
  5
31D5
331
1CC7
  5
30EB
331
1BF2
  5
3064
331
1A77
  5
2F70
331
1A9E
  5
2F88
331
1C80
  5
30BC
331
1DBB
  5
319A
331
1EC4
  5
3273
331
1E66
  5
322A
331
1E2F
  5
3202
331
2EFE
  5
C26
331
2F1D
  5
ECB
331
2EC0
  5
9D9
331
2EDF
  5
95C
331
281A
  5
254D
331
2EA9
  5
C47
331
255D
  5
2DA2
331
2574
  5
2D82
331
251F
  5
2DF9
331
253E
  5
2DC9
331
2500
  5
2E0F
331
2593
  5
2D63
331
24C2
  5
2E5D
331
24E1
  5
2E39
331
2484
  5
2EA4
331
24A3
  5
2E81
331
242F
  5
2F07
331
244E
  5
2EE8
331
2410
  5
2F2D
331
239C
  5
2FA8
331
2366
  5
2FFB
331
23BB
  5
2F91
331
2347
  5
3029
331
23DA
  5
2F5F
331
246D
  5
2EBB
331
1DFA
  5
31D6
331
1DBC
  5
319B
331
1C42
  5
3096
331
1C81
  5
30BD
331
1A78
  5
2F71
331
1B25
  5
2FDF
331
1CC8
  5
30EC
331
1DDB
  5
31BA
331
2050
  5
3393
331
1E30
  5
3203
331
1EC5
  5
3274
331
201A
  5
3360
331
2EE0
  5
944
331
2EFF
  5
C27
331
2EAA
  5
C53
331
2575
  5
2D83
331
2594
  5
2D64
331
253F
  5
2DCA
331
255E
  5
2DA3
331
2EC1
  5
9E0
331
2501
  5
2E10
331
2520
  5
2DFA
331
2F1E
  5
EEC
331
24E2
  5
2E3A
331
24A4
  5
2E82
331
24C3
  5
2E5E
331
244F
  5
2EE9
331
246E
  5
2EBC
331
2411
  5
2F2E
331
23BC
  5
2F92
331
23DB
  5
2F60
331
239D
  5
2FA9
331
2430
  5
2ECA
331
2367
  5
2FFC
331
2485
  5
2EA5
331
1DBD
  5
319C
331
1DDC
  5
31BB
331
1D10
  5
311F
331
1DFB
  5
31D7
331
1B26
  5
2FE0
331
1C43
  5
3097
331
1C82
  5
30BE
331
2051
  5
3394
331
2070
  5
33B3
331
1EC6
  5
3275
331
2032
  5
3375
331
1E12
  5
31E8
331
1E31
  5
3204
331
2F00
  5
C3D
331
2F1F
  5
EC1
331
2EC2
  5
9EF
331
2EE1
  5
945
331
2595
  5
2D65
331
255F
  5
2DA4
331
2576
  5
2D84
331
2521
  5
2DF0
331
2540
  5
2DCB
331
2EAB
  5
C65
331
2502
  5
2E11
331
24C4
  5
2E5F
331
24E3
  5
2E3B
331
246F
  5
2EBD
331
2486
  5
2EA0
331
2431
  5
2ECB
331
2450
  5
2EEA
331
2412
  5
2F20
331
24A5
  5
2E7A
331
239E
  5
2FAA
331
23BD
  5
2F93
331
23DC
  5
2F61
331
1DFC
  5
31D8
331
1DBE
  5
319D
331
1D11
  5
3120
331
1C83
  5
30BF
331
1D48
  5
3145
331
1DDD
  5
31BC
331
2071
  5
33B4
331
2090
  5
33D3
331
2033
  5
3376
331
1EA0
  5
3258
331
1E13
  5
31E9
331
1E32
  5
3205
331
1EC7
  5
3276
331
2052
  5
3395
331
2F20
  5
EC8
331
2EE2
  5
954
331
2577
  5
2D85
331
2541
  5
2DCC
331
2596
  5
2D60
331
2F01
  5
CE8
331
2503
  5
2E12
331
2522
  5
2DF1
331
24E4
  5
2E3C
331
24A6
  5
2E7B
331
24C5
  5
2E60
331
2451
  5
2EEB
331
2413
  5
2F21
331
23BE
  5
2F89
331
23DD
  5
2F5C
331
239F
  5
2FAB
331
2432
  5
2ECC
331
2487
  5
2EA1
331
1DBF
  5
319E
331
1DDE
  5
31BD
331
1D88
  5
3170
331
1C84
  5
30C0
331
1D12
  5
3121
331
1DFD
  5
31D9
331
2091
  5
33D4
331
20A8
  5
33EB
331
2053
  5
3396
331
2072
  5
33B5
331
1EC8
  5
3277
331
1E7A
  5
323B
331
1EA1
  5
3259
331
2034
  5
3377
331
1E33
  5
3206
331
2F02
  5
CE9
331
2F21
  5
EC9
331
2597
  5
2D61
331
2578
  5
2D86
331
2EE3
  5
984
331
2504
  5
2E13
331
2523
  5
2DF2
331
2542
  5
2DCD
331
24C6
  5
2E61
331
24E5
  5
2E3D
331
2488
  5
2E9A
331
2433
  5
2ECD
331
2452
  5
2EEC
331
23DE
  5
2F5D
331
23BF
  5
2F8A
331
2414
  5
2F22
331
24A7
  5
2E7C
331
1DDF
  5
31BE
331
1DFE
  5
31DA
331
1D89
  5
3171
331
1C85
  5
30C1
331
1DC0
  5
319F
331
20A9
  5
33EC
331
20C8
  5
340B
331
2073
  5
33B6
331
2092
  5
33D5
331
2035
  5
3378
331
1EA2
  5
325A
331
1E34
  5
3207
331
1EC9
  5
3278
331
2054
  5
3397
331
2EE4
  5
993
331
2F03
  5
CEA
331
2EAE
  5
BA5
331
2579
  5
2D87
331
2543
  5
2DCE
331
2598
  5
2D62
331
2EC5
  5
971
331
2505
  5
2E14
331
2524
  5
2DF3
331
24E6
  5
2E3E
331
2489
  5
2E9B
331
2453
  5
2EED
331
24A8
  5
2E73
331
2415
  5
2F23
331
23DF
  5
2F5E
331
2434
  5
2ECE
331
24C7
  5
2E62
331
1DC1
  5
31A0
331
1C86
  5
30C2
331
1D8A
  5
3172
331
1A4E
  5
2F59
331
1DFF
  5
31DB
331
20E8
  5
342B
331
2093
  5
33D6
331
20AA
  5
33ED
331
2055
  5
3398
331
2074
  5
33B7
331
1ECA
  5
3279
331
1EA3
  5
325B
331
2036
  5
3379
331
20C9
  5
340C
331
2F04
  5
C73
331
2EC6
  5
972
331
2EE5
  5
9A1
331
2599
  5
2D53
331
257A
  5
2D75
331
2506
  5
2E15
331
2525
  5
2DF4
331
2544
  5
2DCF
331
2EAF
  5
BCA
331
24C8
  5
2E63
331
24E7
  5
2E3F
331
248A
  5
2E9C
331
2435
  5
2ECF
331
2454
  5
2EEE
331
2416
  5
2F24
331
24A9
  5
2E74
331
1E00
  5
31DC
331
1C87
  5
30C3
331
1DC2
  5
31A1
331
1ADD
  5
2FB2
331
1B8A
  5
301D
331
1C09
  5
3072
331
2110
  5
333F
331
20AB
  5
33EE
331
20CA
  5
340D
331
2075
  5
33B8
331
2094
  5
33D7
331
2037
  5
337A
331
2056
  5
3399
331
20E9
  5
342C
331
2EE6
  5
981
331
2F05
  5
CB6
331
2E91
  5
E8B
331
257B
  5
2D76
331
2526
  5
2DE8
331
2545
  5
2DD0
331
2507
  5
2E16
331
259A
  5
2D54
331
2EC7
  5
973
331
248B
  5
2E9D
331
2455
  5
2EEF
331
24AA
  5
2E75
331
2417
  5
2F1D
331
2436
  5
2ED0
331
24C9
  5
2E53
331
1E01
  5
31DD
331
1C88
  5
30C4
331
1DC3
  5
31A2
331
1C0A
  5
3073
331
1ADE
  5
2FB3
331
20CB
  5
340E
331
20EA
  5
342D
331
2095
  5
33D8
331
20AC
  5
33EF
331
2057
  5
339A
331
2076
  5
33B9
331
2111
  5
3340
331
2038
  5
337B
331
2F06
  5
CE2
331
2EC8
  5
974
331
259B
  5
2D55
331
2E92
  5
E92
331
257C
  5
2D77
331
2EE7
  5
982
331
2527
  5
2DE9
331
2546
  5
2DD1
331
24AB
  5
2E64
331
24CA
  5
2E54
331
248C
  5
2E9E
331
2128
  5
3333
331
2437
  5
2ED1
331
2456
  5
2EF0
331
1E02
  5
31DE
331
1DC4
  5
31A3
331
1ADF
  5
2FB4
331
1C0B
  5
3074
331
2112
  5
3341
331
20AD
  5
33F0
331
20CC
  5
340F
331
2077
  5
33BA
331
2096
  5
33D9
331
2039
  5
337C
331
1E19
  5
31EC
331
1EFC
  5
329C
331
1F33
  5
32C1
331
2058
  5
339B
331
20EB
  5
342E
331
2E93
  5
EA4
331
2EE8
  5
983
331
257D
  5
2D78
331
2547
  5
2DD2
331
259C
  5
2D56
331
2F07
  5
D44
331
2129
  5
331D
331
2148
  5
3304
331
248D
  5
2E9F
331
2457
  5
2EF1
331
24AC
  5
2E65
331
24CB
  5
2E46
331
1E03
  5
31DF
331
1DC5
  5
31A4
331
1B36
  5
2FEA
331
20CD
  5
3410
331
2097
  5
33DA
331
20AE
  5
33F1
331
203A
  5
337D
331
2059
  5
339C
331
1F34
  5
32C2
331
2023
  5
3366
331
1E1A
  5
31ED
331
2078
  5
33BB
331
2113
  5
3342
331
2F08
  5
D4D
331
259D
  5
2D57
331
2E94
  5
EA5
331
257E
  5
2D79
331
2EE9
  5
A69
331
2149
  5
3305
331
2168
  5
32EC
331
24AD
  5
2E66
331
24CC
  5
2E47
331
248E
  5
2E93
331
212A
  5
331E
331
1DE5
  5
31C1
331
1E04
  5
31E0
331
1DC6
  5
31A5
331
20ED
  5
3361
331
2114
  5
333B
331
20AF
  5
33F2
331
20CE
  5
3411
331
2079
  5
33BC
331
2098
  5
33DB
331
2024
  5
3367
331
203B
  5
337E
331
1E1B
  5
31EE
331
1F35
  5
32C3
331
205A
  5
339D
331
2ECB
  5
934
331
2EEA
  5
A70
331
257F
  5
2D7A
331
259E
  5
2D58
331
2F09
  5
D58
331
2169
  5
32ED
331
2188
  5
32BB
331
24CD
  5
2E48
331
212B
  5
331F
331
248F
  5
2E94
331
24AE
  5
2E67
331
214A
  5
3306
331
1E05
  5
31E1
331
1DC7
  5
31A6
331
1DE6
  5
31C2
331
20CF
  5
3412
331
20EE
  5
3362
331
2099
  5
33DC
331
20B0
  5
33F3
331
203C
  5
337F
331
205B
  5
339E
331
1F36
  5
32C4
331
2025
  5
3368
331
1E1C
  5
31EF
331
207A
  5
33BD
331
2115
  5
333C
331
2F0A
  5
D2A
331
259F
  5
2D59
331
2ECC
  5
935
331
2EEB
  5
A71
331
2189
  5
32BC
331
21A0
  5
32A1
331
214B
  5
3307
331
216A
  5
32EE
331
24AF
  5
2E68
331
24CE
  5
2E49
331
212C
  5
3320
331
1DE7
  5
31C3
331
1CDC
  5
30FA
331
1DC8
  5
31A7
331
20EF
  5
3363
331
2116
  5
333D
331
20B1
  5
33F4
331
20D0
  5
3413
331
205C
  5
339F
331
207B
  5
33BE
331
1E8B
  5
3249
331
2026
  5
3369
331
203D
  5
3380
331
1E1D
  5
31F0
331
1E54
  5
321B
331
209A
  5
33DD
331
2ECD
  5
936
331
2E97
  5
E64
331
2EEC
  5
A16
331
2F0B
  5
D2B
331
21A1
  5
32A2
331
21C0
  5
327A
331
216B
  5
32DC
331
218A
  5
32BD
331
24CF
  5
2E4A
331
212D
  5
3321
331
214C
  5
3308
331
1D2C
  5
3132
331
1DC9
  5
31A8
331
1CDD
  5
30FB
331
1DE8
  5
31C4
331
2117
  5
3336
331
20D1
  5
3414
331
20F8
  5
3359
331
209B
  5
33DE
331
20B2
  5
33F5
331
203E
  5
3381
331
205D
  5
33A0
331
1E55
  5
321C
331
1E8C
  5
324A
331
2027
  5
336A
331
1E1E
  5
31F1
331
207C
  5
33BF
331
2EED
  5
A57
331
2F0C
  5
D43
331
2ECE
  5
937
331
21E0
  5
3241
331
218B
  5
32BE
331
21A2
  5
32A3
331
214D
  5
3309
331
216C
  5
32DD
331
212E
  5
3322
331
21C1
  5
327B
331
1DE9
  5
31C5
331
1D9B
  5
3180
331
1DCA
  5
31A9
331
20F9
  5
335A
331
2118
  5
3337
331
20B3
  5
33F6
331
20D2
  5
3415
331
205E
  5
33A1
331
207D
  5
33C0
331
2028
  5
336B
331
1E8D
  5
324B
331
1F12
  5
32AC
331
203F
  5
3382
331
1E1F
  5
31F2
331
1E56
  5
321D
331
209C
  5
33DF
331
2EEE
  5
A63
331
2F0D
  5
DAA
331
2200
  5
3216
331
21A3
  5
32A4
331
21C2
  5
327C
331
216D
  5
32DE
331
218C
  5
32BF
331
212F
  5
3323
331
214E
  5
330A
331
21E1
  5
3242
331
1D9C
  5
3181
331
1DCB
  5
31AA
331
1DEA
  5
31C6
331
2119
  5
3338
331
20D3
  5
3416
331
20FA
  5
335B
331
207E
  5
33C1
331
209D
  5
33E0
331
2040
  5
3383
331
205F
  5
33A2
331
2029
  5
336C
331
20B4
  5
33F7
331
1E57
  5
321E
331
1E8E
  5
324C
331
1E20
  5
31F3
331
1F13
  5
32AD
331
2EEF
  5
AC1
331
2F0E
  5
DAB
331
2218
  5
3187
331
21C3
  5
327D
331
21E2
  5
3243
331
218D
  5
32C0
331
21A4
  5
32A5
331
214F
  5
330B
331
216E
  5
32DF
331
2201
  5
320C
331
2130
  5
3324
331
1DEB
  5
31C7
331
1DCC
  5
31AB
331
20FB
  5
335C
331
211A
  5
3339
331
20B5
  5
33F8
331
20D4
  5
3417
331
2060
  5
33A3
331
207F
  5
33C2
331
202A
  5
336D
331
2041
  5
3384
331
1E8F
  5
324D
331
1EAE
  5
3260
331
1E21
  5
31F4
331
1E58
  5
321F
331
1F73
  5
32EF
331
209E
  5
33E1
331
2F0F
  5
DAC
331
2238
  5
3164
331
2202
  5
320D
331
2219
  5
3188
331
21A5
  5
32A6
331
21C4
  5
327E
331
216F
  5
32E0
331
218E
  5
32B7
331
2131
  5
3325
331
2150
  5
330C
331
21E3
  5
3244
331
1DCD
  5
31AC
331
1DEC
  5
31C8
331
211B
  5
333A
331
20D5
  5
3418
331
20FC
  5
335D
331
2080
  5
33C3
331
209F
  5
33E2
331
2042
  5
3385
331
2061
  5
33A4
331
1EAF
  5
3261
331
1F74
  5
32F0
331
1E59
  5
3220
331
1E90
  5
324E
331
202B
  5
336E
331
20B6
  5
33F9
331
1E22
  5
31F5
331
2258
  5
313E
331
221A
  5
3189
331
2239
  5
3165
331
21C5
  5
3262
331
21E4
  5
3245
331
218F
  5
32B8
331
21A6
  5
3294
331
2132
  5
3326
331
2151
  5
330D
331
2170
  5
32E1
331
2203
  5
320E
331
1DCE
  5
31AD
331
1DED
  5
31C9
331
20FD
  5
335E
331
211C
  5
3334
331
20A0
  5
33E3
331
20B7
  5
33FA
331
2062
  5
33A5
331
2081
  5
33C4
331
202C
  5
336F
331
2043
  5
3386
331
20D6
  5
3419
331
1EE7
  5
328D
331
1E91
  5
324F
331
1E23
  5
31F6
331
1F75
  5
32F1
331
2278
  5
3116
331
223A
  5
3166
331
2259
  5
313F
331
21E5
  5
3246
331
2204
  5
320F
331
21A7
  5
3295
331
21C6
  5
3263
331
2171
  5
32D9
331
2190
  5
32B9
331
221B
  5
318A
331
2133
  5
3327
331
2152
  5
32FD
331
1DCF
  5
31AE
331
1DEE
  5
31CA
331
211D
  5
3335
331
20D7
  5
341A
331
20FE
  5
335F
331
2082
  5
33C5
331
20A1
  5
33E4
331
2044
  5
3387
331
1F76
  5
32F2
331
2063
  5
33A6
331
1E24
  5
31F7
331
1E92
  5
3250
331
20B8
  5
33FB
331
2290
  5
30F0
331
225A
  5
3140
331
2279
  5
3117
331
221C
  5
318B
331
223B
  5
315C
331
21C7
  5
3264
331
21E6
  5
3247
331
2191
  5
32B4
331
21A8
  5
3296
331
2134
  5
3328
331
2153
  5
32FE
331
2172
  5
32DA
331
2205
  5
3210
331
1DEF
  5
31CB
331
20FF
  5
3343
331
211E
  5
3329
331
20A2
  5
33E5
331
20B9
  5
33FC
331
2064
  5
33A7
331
2083
  5
33C6
331
1E93
  5
3251
331
1E25
  5
31F8
331
2045
  5
3388
331
20D8
  5
341B
331
227A
  5
310B
331
2291
  5
30F1
331
223C
  5
315D
331
225B
  5
3141
331
21E7
  5
3248
331
2206
  5
3211
331
21A9
  5
3297
331
21C8
  5
3265
331
2154
  5
32FF
331
2173
  5
32DB
331
2135
  5
3315
331
2192
  5
32B5
331
221D
  5
318C
331
22B0
  5
30D1
331
211F
  5
332A
331
20BA
  5
33FD
331
20D9
  5
341C
331
2084
  5
33C7
331
20A3
  5
33E6
331
2046
  5
3389
331
2065
  5
33A8
331
2100
  5
3344
331
1E26
  5
31F9
331
1E94
  5
3252
331
2292
  5
30F2
331
22B1
  5
30CD
331
225C
  5
3142
331
227B
  5
310C
331
2207
  5
3212
331
221E
  5
318D
331
21C9
  5
3266
331
21E8
  5
322B
331
2193
  5
32B6
331
21AA
  5
3298
331
223D
  5
315E
331
22D0
  5
30A4
331
2136
  5
3316
331
2155
  5
32FB
331
2174
  5
32CD
331
2101
  5
3345
331
2120
  5
332B
331
20A4
  5
33E7
331
20BB
  5
33FE
331
2066
  5
33A9
331
2085
  5
33C8
331
1E27
  5
31FA
331
1F1A
  5
32B1
331
2047
  5
338A
331
20DA
  5
341D
331
22B2
  5
30CE
331
22D1
  5
30A5
331
227C
  5
310D
331
2293
  5
30F3
331
223E
  5
315F
331
225D
  5
3143
331
22F0
  5
307C
331
21E9
  5
322C
331
2208
  5
3213
331
21AB
  5
3299
331
21CA
  5
3267
331
2156
  5
32FC
331
2175
  5
32CE
331
2137
  5
3317
331
2194
  5
32AE
331
221F
  5
318E
331
2121
  5
332C
331
20BC
  5
33FF
331
20DB
  5
341E
331
2086
  5
33C9
331
20A5
  5
33E8
331
1F1B
  5
32B2
331
2048
  5
338B
331
2067
  5
33AA
331
2102
  5
3346
331
22F1
  5
307D
331
2294
  5
30F4
331
22B3
  5
30C5
331
225E
  5
3144
331
227D
  5
310E
331
2209
  5
3214
331
2220
  5
318F
331
21CB
  5
3268
331
21EA
  5
322D
331
2176
  5
32CF
331
2195
  5
32AF
331
2138
  5
3318
331
2157
  5
32F8
331
21AC
  5
329A
331
223F
  5
3160
331
22D2
  5
309B
331
20DC
  5
341F
331
2103
  5
3347
331
20A6
  5
33E9
331
20BD
  5
3400
331
2068
  5
33AB
331
2087
  5
33CA
331
2122
  5
332D
331
1F1C
  5
32B3
331
2049
  5
338C
331
22B4
  5
30C6
331
22D3
  5
309C
331
227E
  5
310F
331
2295
  5
30F5
331
2221
  5
3183
331
2240
  5
3155
331
21EB
  5
322E
331
220A
  5
3208
331
21AD
  5
329B
331
21CC
  5
3269
331
225F
  5
3135
331
22F2
  5
3075
331
2158
  5
32F9
331
2177
  5
32D0
331
2139
  5
3319
331
2196
  5
32B0
331
2123
  5
332E
331
20BE
  5
3401
331
20DD
  5
3420
331
2088
  5
33CB
331
20A7
  5
33EA
331
204A
  5
338D
331
2069
  5
33AC
331
2104
  5
3348
331
17D8
  5
2D97
331
1512
  5
254A
331
22D4
  5
309D
331
22F3
  5
3076
331
2296
  5
30F6
331
22B5
  5
30C7
331
2260
  5
3136
331
227F
  5
3110
331
220B
  5
3209
331
2222
  5
3184
331
21CD
  5
326A
331
21EC
  5
322F
331
2178
  5
32D1
331
2197
  5
32A7
331
213A
  5
331A
331
2159
  5
32F5
331
21AE
  5
328E
331
2241
  5
3156
331
20DE
  5
3421
331
2105
  5
3349
331
20BF
  5
3402
331
204B
  5
338E
331
1EEF
  5
3292
331
206A
  5
33AD
331
2089
  5
33CC
331
2124
  5
332F
331
1513
  5
254B
331
1810
  5
2DC0
331
22B6
  5
30C8
331
22D5
  5
309E
331
2280
  5
3111
331
2297
  5
30F7
331
2223
  5
3173
331
2242
  5
3157
331
21ED
  5
3230
331
220C
  5
320A
331
2198
  5
32A8
331
21AF
  5
328F
331
215A
  5
32F6
331
2179
  5
32D2
331
213B
  5
331B
331
21CE
  5
326B
331
2261
  5
3133
331
22F4
  5
3077
331
2106
  5
334A
331
2125
  5
3330
331
20C0
  5
3403
331
208A
  5
33CD
331
20DF
  5
3422
331
204C
  5
338F
331
206B
  5
33AE
331
1811
  5
2DC1
331
22D6
  5
309F
331
22F5
  5
3078
331
2298
  5
30F8
331
22B7
  5
30C9
331
2243
  5
3158
331
2262
  5
3134
331
220D
  5
320B
331
2224
  5
3174
331
21CF
  5
326C
331
21EE
  5
3231
331
2281
  5
30FC
331
217A
  5
32D3
331
2199
  5
32A9
331
213C
  5
331C
331
215B
  5
32F7
331
21B0
  5
3290
331
20E0
  5
3423
331
2107
  5
334B
331
20C1
  5
3404
331
204D
  5
3390
331
1F87
  5
32FA
331
206C
  5
33AF
331
208B
  5
33CE
331
2126
  5
3331
331
1812
  5
2DC2
331
22F6
  5
3079
331
22B8
  5
30CA
331
22D7
  5
30A0
331
2282
  5
30FD
331
2299
  5
30F9
331
2225
  5
3175
331
2244
  5
3159
331
21EF
  5
3232
331
220E
  5
31EA
331
219A
  5
32AA
331
21B1
  5
3291
331
215C
  5
32F3
331
217B
  5
32D4
331
213D
  5
3312
331
21D0
  5
326D
331
2263
  5
312F
331
2108
  5
334C
331
2127
  5
3332
331
20C2
  5
3405
331
206D
  5
33B0
331
208C
  5
33CF
331
204E
  5
3391
331
20E1
  5
3424
331
1813
  5
2DC3
331
22D8
  5
3098
331
22F7
  5
307A
331
229A
  5
30ED
331
22B9
  5
30CB
331
2245
  5
315A
331
2264
  5
3130
331
220F
  5
31EB
331
2226
  5
3176
331
21B2
  5
3287
331
21D1
  5
326E
331
217C
  5
32D5
331
219B
  5
32AB
331
213E
  5
3313
331
215D
  5
32F4
331
21F0
  5
3233
331
2283
  5
30FE
331
20E2
  5
3425
331
2109
  5
334D
331
20C3
  5
3406
331
204F
  5
3392
331
206E
  5
33B1
331
208D
  5
33D0
331
17A6
  5
2D74
331
19C0
  5
2EFE
331
22F8
  5
307B
331
22BA
  5
30CC
331
22D9
  5
3099
331
2265
  5
3131
331
2284
  5
30FF
331
2227
  5
3177
331
2246
  5
315B
331
21F1
  5
3234
331
2210
  5
31E6
331
229B
  5
30EE
331
219C
  5
329D
331
21B3
  5
3288
331
215E
  5
32E2
331
217D
  5
32D6
331
213F
  5
3314
331
21D2
  5
326F
331
210A
  5
334E
331
20C4
  5
3407
331
206F
  5
33B2
331
208E
  5
33D1
331
20E3
  5
3426
331
19C1
  5
2EFF
331
183C
  5
2DDD
331
18A3
  5
2E2F
331
2308
  5
3063
331
22DA
  5
309A
331
22F9
  5
3070
331
229C
  5
30E2
331
22BB
  5
30B5
331
2247
  5
3149
331
2266
  5
3127
331
2211
  5
31E7
331
2228
  5
3178
331
21B4
  5
3289
331
21D3
  5
325E
331
217E
  5
32D7
331
219D
  5
329E
331
2140
  5
3310
331
215F
  5
32E3
331
21F2
  5
3235
331
2285
  5
3100
331
20E4
  5
3427
331
210B
  5
334F
331
208F
  5
33D2
331
20C5
  5
3408
331
2309
  5
305D
331
2328
  5
3048
331
193B
  5
2E97
331
19C2
  5
2F00
331
20F2
  5
3353
331
1519
  5
254E
331
22FA
  5
3071
331
22BC
  5
30B6
331
22DB
  5
3094
331
2267
  5
3128
331
2286
  5
3101
331
2229
  5
3179
331
2248
  5
314A
331
21D4
  5
325F
331
21F3
  5
3236
331
219E
  5
329F
331
21B5
  5
328A
331
2160
  5
32E4
331
217F
  5
32D8
331
2212
  5
31E2
331
229D
  5
30E3
331
2141
  5
3311
331
210C
  5
3350
331
20C6
  5
3409
331
20E5
  5
3428
331
2348
  5
3019
331
19C3
  5
2F01
331
230A
  5
305E
331
20F3
  5
3354
331
151A
  5
254F
331
193C
  5
2E98
331
2329
  5
3049
331
22DC
  5
3095
331
22FB
  5
306D
331
2287
  5
3102
331
229E
  5
30E4
331
2249
  5
314B
331
2268
  5
3129
331
2213
  5
31E3
331
222A
  5
317A
331
22BD
  5
30B7
331
21B6
  5
328B
331
21D5
  5
325C
331
2180
  5
32C8
331
219F
  5
32A0
331
2142
  5
330E
331
2161
  5
32E5
331
21F4
  5
3237
331
20E6
  5
3429
331
210D
  5
3351
331
20C7
  5
340A
331
2368
  5
2FFD
331
230B
  5
305F
331
232A
  5
3037
331
193D
  5
2E99
331
20F4
  5
3355
331
19C4
  5
2F02
331
2349
  5
301A
331
22FC
  5
306E
331
22BE
  5
30B8
331
22DD
  5
3090
331
2269
  5
312A
331
2288
  5
3103
331
222B
  5
317B
331
224A
  5
314C
331
21D6
  5
325D
331
21F5
  5
3238
331
21B7
  5
328C
331
2143
  5
330F
331
2162
  5
32E6
331
2181
  5
32C9
331
2214
  5
31BF
331
229F
  5
30DD
331
210E
  5
3352
331
20E7
  5
342A
331
2380
  5
2FDB
331
232B
  5
3038
331
234A
  5
301B
331
20F5
  5
3356
331
19C5
  5
2F03
331
230C
  5
3060
331
2369
  5
2FF2
331
22DE
  5
3091
331
22FD
  5
306F
331
2289
  5
3104
331
22A0
  5
30DE
331
224B
  5
314D
331
226A
  5
312B
331
21F6
  5
3239
331
2215
  5
31C0
331
21B8
  5
327F
331
2182
  5
32CA
331
21D7
  5
3256
331
222C
  5
317C
331
22BF
  5
30B9
331
2144
  5
3300
331
2163
  5
32E7
331
210F
  5
333E
331
23A0
  5
2FAC
331
236A
  5
2FF3
331
2381
  5
2FCF
331
230D
  5
305B
331
232C
  5
3039
331
181A
  5
2DC7
331
20F6
  5
3357
331
19C6
  5
2F04
331
234B
  5
301C
331
22FE
  5
3065
331
22A1
  5
30DF
331
22C0
  5
30BA
331
226B
  5
312C
331
228A
  5
3105
331
222D
  5
317D
331
224C
  5
314E
331
22DF
  5
3092
331
21D8
  5
3257
331
21F7
  5
323A
331
21B9
  5
3280
331
2145
  5
3301
331
2164
  5
32E8
331
2183
  5
32CB
331
2216
  5
3185
  0
LAYOUT
  5
77
102
{ACAD_XDICTIONARY
360
34B2
102
}
102
{ACAD_REACTORS
330
69
102
}
330
69
100
AcDbPlotSettings
  1

  2
PDF Complete
  4

  6

 40
0.0
 41
0.0
 42
0.0
 43
0.0
 44
0.0
 45
0.0
 46
0.0
 47
0.0
 48
0.0
 49
0.0
140
0.0
141
0.0
142
1.0
143
1.0
 70
  1712
 72
     0
 73
     0
 74
     0
  7

 75
     0
147
1.0
148
0.0
149
0.0
100
AcDbLayout
  1
Model
 70
     1
 71
     0
 10
0.0
 20
0.0
 11
12.0
 21
9.0
 12
0.0
 22
0.0
 32
0.0
 14
0.0
 24
0.0
 34
0.0
 15
0.0
 25
0.0
 35
0.0
146
0.0
 13
0.0
 23
0.0
 33
0.0
 16
1.0
 26
0.0
 36
0.0
 17
0.0
 27
1.0
 37
0.0
 76
     0
330
74
331
B2
  0
LAYOUT
  5
73
102
{ACAD_XDICTIONARY
360
34B0
102
}
102
{ACAD_REACTORS
330
69
102
}
330
69
100
AcDbPlotSettings
  1

  2
PDF Complete
  4

  6

 40
0.0
 41
0.0
 42
0.0
 43
0.0
 44
0.0
 45
0.0
 46
0.0
 47
0.0
 48
0.0
 49
0.0
140
0.0
141
0.0
142
1.0
143
1.0
 70
   688
 72
     0
 73
     0
 74
     5
  7

 75
    16
147
1.0
148
0.0
149
0.0
100
AcDbLayout
  1
レイアウト1
 70
     1
 71
     1
 10
0.0
 20
0.0
 11
12.0
 21
9.0
 12
0.0
 22
0.0
 32
0.0
 14
1.000000000000000E+20
 24
1.000000000000000E+20
 34
1.000000000000000E+20
 15
-1.000000000000000E+20
 25
-1.000000000000000E+20
 35
-1.000000000000000E+20
146
0.0
 13
0.0
 23
0.0
 33
0.0
 16
1.0
 26
0.0
 36
0.0
 17
0.0
 27
1.0
 37
0.0
 76
     0
330
70
  0
MATERIAL
  5
19
102
{ACAD_XDICTIONARY
360
1A
102
}
102
{ACAD_REACTORS
330
10
102
}
330
10
100
AcDbMaterial
  1
ByBlock
 72
     0
 43
0.0208333333333333
 43
0.0
 43
0.0
 43
0.0
 43
0.0
 43
0.0208333333333333
 43
0.0
 43
0.0
 43
0.0
 43
0.0
 43
1.0
 43
0.0
 43
0.0
 43
0.0
 43
0.0
 43
1.0
 77
     0
 47
0.0208333333333333
 47
0.0
 47
0.0
 47
0.0
 47
0.0
 47
0.0208333333333333
 47
0.0
 47
0.0
 47
0.0
 47
0.0
 47
1.0
 47
0.0
 47
0.0
 47
0.0
 47
0.0
 47
1.0
171
     0
 49
0.0208333333333333
 49
0.0
 49
0.0
 49
0.0
 49
0.0
 49
0.0208333333333333
 49
0.0
 49
0.0
 49
0.0
 49
0.0
 49
1.0
 49
0.0
 49
0.0
 49
0.0
 49
0.0
 49
1.0
175
     0
142
0.0208333333333333
142
0.0
142
0.0
142
0.0
142
0.0
142
0.0208333333333333
142
0.0
142
0.0
142
0.0
142
0.0
142
1.0
142
0.0
142
0.0
142
0.0
142
0.0
142
1.0
179
     0
144
0.0208333333333333
144
0.0
144
0.0
144
0.0
144
0.0
144
0.0208333333333333
144
0.0
144
0.0
144
0.0
144
0.0
144
1.0
144
0.0
144
0.0
144
0.0
144
0.0
144
1.0
147
0.0208333333333333
147
0.0
147
0.0
147
0.0
147
0.0
147
0.0208333333333333
147
0.0
147
0.0
147
0.0
147
0.0
147
1.0
147
0.0
147
0.0
147
0.0
147
0.0
147
1.0
  0
MATERIAL
  5
11
102
{ACAD_XDICTIONARY
360
12
102
}
102
{ACAD_REACTORS
330
10
102
}
330
10
100
AcDbMaterial
  1
ByLayer
 72
     0
 43
0.0208333333333333
 43
0.0
 43
0.0
 43
0.0
 43
0.0
 43
0.0208333333333333
 43
0.0
 43
0.0
 43
0.0
 43
0.0
 43
1.0
 43
0.0
 43
0.0
 43
0.0
 43
0.0
 43
1.0
 77
     0
 47
0.0208333333333333
 47
0.0
 47
0.0
 47
0.0
 47
0.0
 47
0.0208333333333333
 47
0.0
 47
0.0
 47
0.0
 47
0.0
 47
1.0
 47
0.0
 47
0.0
 47
0.0
 47
0.0
 47
1.0
171
     0
 49
0.0208333333333333
 49
0.0
 49
0.0
 49
0.0
 49
0.0
 49
0.0208333333333333
 49
0.0
 49
0.0
 49
0.0
 49
0.0
 49
1.0
 49
0.0
 49
0.0
 49
0.0
 49
0.0
 49
1.0
175
     0
142
0.0208333333333333
142
0.0
142
0.0
142
0.0
142
0.0
142
0.0208333333333333
142
0.0
142
0.0
142
0.0
142
0.0
142
1.0
142
0.0
142
0.0
142
0.0
142
0.0
142
1.0
179
     0
144
0.0208333333333333
144
0.0
144
0.0
144
0.0
144
0.0
144
0.0208333333333333
144
0.0
144
0.0
144
0.0
144
0.0
144
1.0
144
0.0
144
0.0
144
0.0
144
0.0
144
1.0
147
0.0208333333333333
147
0.0
147
0.0
147
0.0
147
0.0
147
0.0208333333333333
147
0.0
147
0.0
147
0.0
147
0.0
147
1.0
147
0.0
147
0.0
147
0.0
147
0.0
147
1.0
  0
MATERIAL
  5
21
102
{ACAD_XDICTIONARY
360
22
102
}
102
{ACAD_REACTORS
330
10
102
}
330
10
100
AcDbMaterial
  1
Global
 72
     0
 43
0.0208333333333333
 43
0.0
 43
0.0
 43
0.0
 43
0.0
 43
0.0208333333333333
 43
0.0
 43
0.0
 43
0.0
 43
0.0
 43
1.0
 43
0.0
 43
0.0
 43
0.0
 43
0.0
 43
1.0
 77
     0
 47
0.0208333333333333
 47
0.0
 47
0.0
 47
0.0
 47
0.0
 47
0.0208333333333333
 47
0.0
 47
0.0
 47
0.0
 47
0.0
 47
1.0
 47
0.0
 47
0.0
 47
0.0
 47
0.0
 47
1.0
171
     0
 49
0.0208333333333333
 49
0.0
 49
0.0
 49
0.0
 49
0.0
 49
0.0208333333333333
 49
0.0
 49
0.0
 49
0.0
 49
0.0
 49
1.0
 49
0.0
 49
0.0
 49
0.0
 49
0.0
 49
1.0
175
     0
142
0.0208333333333333
142
0.0
142
0.0
142
0.0
142
0.0
142
0.0208333333333333
142
0.0
142
0.0
142
0.0
142
0.0
142
1.0
142
0.0
142
0.0
142
0.0
142
0.0
142
1.0
179
     0
144
0.0208333333333333
144
0.0
144
0.0
144
0.0
144
0.0
144
0.0208333333333333
144
0.0
144
0.0
144
0.0
144
0.0
144
1.0
144
0.0
144
0.0
144
0.0
144
0.0
144
1.0
147
0.0208333333333333
147
0.0
147
0.0
147
0.0
147
0.0
147
0.0208333333333333
147
0.0
147
0.0
147
0.0
147
0.0
147
1.0
147
0.0
147
0.0
147
0.0
147
0.0
147
1.0
  0
MLEADERSTYLE
  5
6E
102
{ACAD_REACTORS
330
6D
102
}
330
6D
100
AcDbMLeaderStyle
170
     2
171
     1
172
     0
 90
        2
 40
0.0
 41
0.0
173
     1
 91
-1056964608
340
62
 92
       -2
290
     1
 42
0.09
291
     1
 43
0.36
  3
Standard
 44
0.18
300

342
5D
174
     1
178
     6
175
     1
176
     0
 93
-1056964608
 45
0.18
292
     0
297
     0
 46
0.18
 94
-1056964608
 47
1.0
 49
1.0
140
1.0
293
     1
141
0.0
294
     1
177
     0
142
1.0
295
     0
296
     0
143
0.125
1001
ACAD_MLEADERVER
1070
     2
  0
MLINESTYLE
  5
67
102
{ACAD_REACTORS
330
66
102
}
330
66
100
AcDbMlineStyle
  2
STANDARD
 70
     0
  3

 62
   256
 51
90.0
 52
90.0
 71
     2
 49
0.5
 62
   256
  6
BYLAYER
 49
-0.5
 62
   256
  6
BYLAYER
  0
ACDBPLACEHOLDER
  5
F
102
{ACAD_REACTORS
330
E
102
}
330
E
  0
SCALE
  5
3B
102
{ACAD_REACTORS
330
3A
102
}
330
3A
100
AcDbScale
 70
     0
300
1:1
140
1.0
141
1.0
290
     1
  0
SCALE
  5
3C
102
{ACAD_REACTORS
330
3A
102
}
330
3A
100
AcDbScale
 70
     0
300
1:2
140
1.0
141
2.0
290
     0
  0
SCALE
  5
3D
102
{ACAD_REACTORS
330
3A
102
}
330
3A
100
AcDbScale
 70
     0
300
1:4
140
1.0
141
4.0
290
     0
  0
SCALE
  5
3E
102
{ACAD_REACTORS
330
3A
102
}
330
3A
100
AcDbScale
 70
     0
300
1:5
140
1.0
141
5.0
290
     0
  0
SCALE
  5
3F
102
{ACAD_REACTORS
330
3A
102
}
330
3A
100
AcDbScale
 70
     0
300
1:8
140
1.0
141
8.0
290
     0
  0
SCALE
  5
40
102
{ACAD_REACTORS
330
3A
102
}
330
3A
100
AcDbScale
 70
     0
300
1:10
140
1.0
141
10.0
290
     0
  0
SCALE
  5
41
102
{ACAD_REACTORS
330
3A
102
}
330
3A
100
AcDbScale
 70
     0
300
1:16
140
1.0
141
16.0
290
     0
  0
SCALE
  5
42
102
{ACAD_REACTORS
330
3A
102
}
330
3A
100
AcDbScale
 70
     0
300
1:20
140
1.0
141
20.0
290
     0
  0
SCALE
  5
43
102
{ACAD_REACTORS
330
3A
102
}
330
3A
100
AcDbScale
 70
     0
300
1:30
140
1.0
141
30.0
290
     0
  0
SCALE
  5
44
102
{ACAD_REACTORS
330
3A
102
}
330
3A
100
AcDbScale
 70
     0
300
1:40
140
1.0
141
40.0
290
     0
  0
SCALE
  5
45
102
{ACAD_REACTORS
330
3A
102
}
330
3A
100
AcDbScale
 70
     0
300
1:50
140
1.0
141
50.0
290
     0
  0
SCALE
  5
46
102
{ACAD_REACTORS
330
3A
102
}
330
3A
100
AcDbScale
 70
     0
300
1:100
140
1.0
141
100.0
290
     0
  0
SCALE
  5
47
102
{ACAD_REACTORS
330
3A
102
}
330
3A
100
AcDbScale
 70
     0
300
2:1
140
2.0
141
1.0
290
     0
  0
SCALE
  5
48
102
{ACAD_REACTORS
330
3A
102
}
330
3A
100
AcDbScale
 70
     0
300
4:1
140
4.0
141
1.0
290
     0
  0
SCALE
  5
49
102
{ACAD_REACTORS
330
3A
102
}
330
3A
100
AcDbScale
 70
     0
300
8:1
140
8.0
141
1.0
290
     0
  0
SCALE
  5
4A
102
{ACAD_REACTORS
330
3A
102
}
330
3A
100
AcDbScale
 70
     0
300
10:1
140
10.0
141
1.0
290
     0
  0
SCALE
  5
4B
102
{ACAD_REACTORS
330
3A
102
}
330
3A
100
AcDbScale
 70
     0
300
100:1
140
100.0
141
1.0
290
     0
  0
SCALE
  5
4C
102
{ACAD_REACTORS
330
3A
102
}
330
3A
100
AcDbScale
 70
     0
300
1/128" = 1'-0"
140
0.0078125
141
12.0
290
     0
  0
SCALE
  5
4D
102
{ACAD_REACTORS
330
3A
102
}
330
3A
100
AcDbScale
 70
     0
300
1/64" = 1'-0"
140
0.015625
141
12.0
290
     0
  0
SCALE
  5
4E
102
{ACAD_REACTORS
330
3A
102
}
330
3A
100
AcDbScale
 70
     0
300
1/32" = 1'-0"
140
0.03125
141
12.0
290
     0
  0
SCALE
  5
4F
102
{ACAD_REACTORS
330
3A
102
}
330
3A
100
AcDbScale
 70
     0
300
1/16" = 1'-0"
140
0.0625
141
12.0
290
     0
  0
SCALE
  5
50
102
{ACAD_REACTORS
330
3A
102
}
330
3A
100
AcDbScale
 70
     0
300
3/32" = 1'-0"
140
0.09375
141
12.0
290
     0
  0
SCALE
  5
51
102
{ACAD_REACTORS
330
3A
102
}
330
3A
100
AcDbScale
 70
     0
300
1/8" = 1'-0"
140
0.125
141
12.0
290
     0
  0
SCALE
  5
52
102
{ACAD_REACTORS
330
3A
102
}
330
3A
100
AcDbScale
 70
     0
300
3/16" = 1'-0"
140
0.1875
141
12.0
290
     0
  0
SCALE
  5
53
102
{ACAD_REACTORS
330
3A
102
}
330
3A
100
AcDbScale
 70
     0
300
1/4" = 1'-0"
140
0.25
141
12.0
290
     0
  0
SCALE
  5
54
102
{ACAD_REACTORS
330
3A
102
}
330
3A
100
AcDbScale
 70
     0
300
3/8" = 1'-0"
140
0.375
141
12.0
290
     0
  0
SCALE
  5
55
102
{ACAD_REACTORS
330
3A
102
}
330
3A
100
AcDbScale
 70
     0
300
1/2" = 1'-0"
140
0.5
141
12.0
290
     0
  0
SCALE
  5
56
102
{ACAD_REACTORS
330
3A
102
}
330
3A
100
AcDbScale
 70
     0
300
3/4" = 1'-0"
140
0.75
141
12.0
290
     0
  0
SCALE
  5
57
102
{ACAD_REACTORS
330
3A
102
}
330
3A
100
AcDbScale
 70
     0
300
1" = 1'-0"
140
1.0
141
12.0
290
     0
  0
SCALE
  5
58
102
{ACAD_REACTORS
330
3A
102
}
330
3A
100
AcDbScale
 70
     0
300
1-1/2" = 1'-0"
140
1.5
141
12.0
290
     0
  0
SCALE
  5
59
102
{ACAD_REACTORS
330
3A
102
}
330
3A
100
AcDbScale
 70
     0
300
3" = 1'-0"
140
3.0
141
12.0
290
     0
  0
SCALE
  5
5A
102
{ACAD_REACTORS
330
3A
102
}
330
3A
100
AcDbScale
 70
     0
300
6" = 1'-0"
140
6.0
141
12.0
290
     0
  0
SCALE
  5
5B
102
{ACAD_REACTORS
330
3A
102
}
330
3A
100
AcDbScale
 70
     0
300
1'-0" = 1'-0"
140
12.0
141
12.0
290
     0
  0
TABLESTYLE
  5
6C
102
{ACAD_XDICTIONARY
360
349C
102
}
102
{ACAD_REACTORS
330
6B
102
}
330
6B
100
AcDbTableStyle
  3
Standard
 70
     0
 71
     0
 40
0.06
 41
0.06
280
     0
281
     0
  7
STANDARD
140
0.18
170
     2
 62
     0
 63
     7
283
     0
274
    -2
284
     1
 64
     0
275
    -2
285
     1
 65
     0
276
    -2
286
     1
 66
     0
277
    -2
287
     1
 67
     0
278
    -2
288
     1
 68
     0
279
    -2
289
     1
 69
     0
  7
STANDARD
140
0.25
170
     5
 62
     0
 63
     7
283
     0
274
    -2
284
     1
 64
     0
275
    -2
285
     1
 65
     0
276
    -2
286
     1
 66
     0
277
    -2
287
     1
 67
     0
278
    -2
288
     1
 68
     0
279
    -2
289
     1
 69
     0
  7
STANDARD
140
0.18
170
     5
 62
     0
 63
     7
283
     0
274
    -2
284
     1
 64
     0
275
    -2
285
     1
 65
     0
276
    -2
286
     1
 66
     0
277
    -2
287
     1
 67
     0
278
    -2
288
     1
 68
     0
279
    -2
289
     1
 69
     0
  0
VISUALSTYLE
  5
2F
102
{ACAD_REACTORS
330
29
102
}
330
29
100
AcDbVisualStyle
  2
2dWireframe
 70
     4
 71
     0
 72
     2
 73
     0
 90
        0
 40
-0.6
 41
-30.0
 62
     5
 63
     7
 74
     1
 91
        4
 64
     7
 65
   257
 75
     1
175
     1
 42
1.0
 92
        0
 66
   257
 43
1.0
 76
     1
 77
     6
 78
     2
 67
     7
 79
     5
170
     0
171
     0
290
     0
174
     0
 93
        1
 44
0.0
173
     0
291
     0
 45
0.0
1001
ACAD
1000
AcDbSavedByObjectVersion
1070
     0
1000
AcDbSavedByObjectVersion
1070
     0
  0
VISUALSTYLE
  5
31
102
{ACAD_REACTORS
330
29
102
}
330
29
100
AcDbVisualStyle
  2
3D Hidden
 70
     6
 71
     1
 72
     2
 73
     2
 90
        0
 40
-0.6
 41
-30.0
 62
     5
 63
     7
 74
     2
 91
        2
 64
     7
 65
   257
 75
     2
175
     1
 42
40.0
 92
        0
 66
   257
 43
1.0
 76
     1
 77
     6
 78
     2
 67
     7
 79
     3
170
     0
171
     0
290
     0
174
     0
 93
        1
 44
0.0
173
     0
291
     0
 45
0.0
1001
ACAD
1000
AcDbSavedByObjectVersion
1070
     0
1000
AcDbSavedByObjectVersion
1070
     0
  0
VISUALSTYLE
  5
30
102
{ACAD_REACTORS
330
29
102
}
330
29
100
AcDbVisualStyle
  2
3dWireframe
 70
     5
 71
     0
 72
     2
 73
     0
 90
        0
 40
-0.6
 41
-30.0
 62
     5
 63
     7
 74
     1
 91
        4
 64
     7
 65
   257
 75
     1
175
     1
 42
1.0
 92
        0
 66
   257
 43
1.0
 76
     1
 77
     6
 78
     2
 67
     7
 79
     5
170
     0
171
     0
290
     0
174
     0
 93
        1
 44
0.0
173
     0
291
     0
 45
0.0
1001
ACAD
1000
AcDbSavedByObjectVersion
1070
     0
1000
AcDbSavedByObjectVersion
1070
     0
  0
VISUALSTYLE
  5
2E
102
{ACAD_REACTORS
330
29
102
}
330
29
100
AcDbVisualStyle
  2
Basic
 70
     7
 71
     1
 72
     0
 73
     1
 90
        0
 40
-0.6
 41
-30.0
 62
     5
 63
     7
 74
     0
 91
        4
 64
     7
 65
   257
 75
     1
175
     1
 42
1.0
 92
        8
 66
     7
 43
1.0
 76
     1
 77
     6
 78
     2
 67
     7
 79
     5
170
     0
171
     0
290
     0
174
     0
 93
        1
 44
0.0
173
     0
291
     1
 45
0.0
1001
ACAD
1000
AcDbSavedByObjectVersion
1070
     0
1000
AcDbSavedByObjectVersion
1070
     0
  0
VISUALSTYLE
  5
35
102
{ACAD_REACTORS
330
29
102
}
330
29
100
AcDbVisualStyle
  2
Brighten
 70
    12
 71
     2
 72
     2
 73
     0
 90
        0
 40
-0.6
 41
-30.0
 62
     5
 63
     7
 74
     1
 91
        4
 64
     7
 65
   257
 75
     1
175
     1
 42
1.0
 92
        8
 66
     7
 43
1.0
 76
     1
 77
     6
 78
     2
 67
     7
 79
     5
170
     0
171
     0
290
     0
174
     0
 93
        1
 44
50.0
173
     0
291
     1
 45
0.0
1001
ACAD
1000
AcDbSavedByObjectVersion
1070
     0
1000
AcDbSavedByObjectVersion
1070
     0
  0
VISUALSTYLE
  5
39
102
{ACAD_REACTORS
330
29
102
}
330
29
100
AcDbVisualStyle
  2
ColorChange
 70
    16
 71
     2
 72
     2
 73
     3
 90
        0
 40
-0.6
 41
-30.0
 62
     5
 63
     8
 74
     1
 91
        4
 64
     7
 65
   257
 75
     1
175
     1
 42
1.0
 92
        8
 66
     8
 43
1.0
 76
     1
 77
     6
 78
     2
 67
     7
 79
     5
170
     0
171
     0
290
     0
174
     0
 93
        1
 44
0.0
173
     0
291
     1
 45
0.0
1001
ACAD
1000
AcDbSavedByObjectVersion
1070
     0
1000
AcDbSavedByObjectVersion
1070
     0
  0
VISUALSTYLE
  5
32
102
{ACAD_REACTORS
330
29
102
}
330
29
100
AcDbVisualStyle
  2
Conceptual
 70
     9
 71
     3
 72
     2
 73
     0
 90
        0
 40
-0.6
 41
-30.0
 62
     5
 63
     7
 74
     2
 91
        2
 64
     7
 65
   257
 75
     1
175
     1
 42
40.0
 92
        8
 66
     7
 43
1.0
 76
     1
 77
     6
 78
     2
 67
     7
 79
     3
170
     0
171
     0
290
     0
174
     0
 93
        1
 44
0.0
173
     0
291
     0
 45
0.0
1001
ACAD
1000
AcDbSavedByObjectVersion
1070
     0
1000
AcDbSavedByObjectVersion
1070
     0
  0
VISUALSTYLE
  5
34
102
{ACAD_REACTORS
330
29
102
}
330
29
100
AcDbVisualStyle
  2
Dim
 70
    11
 71
     2
 72
     2
 73
     0
 90
        0
 40
-0.6
 41
-30.0
 62
     5
 63
     7
 74
     1
 91
        4
 64
     7
 65
   257
 75
     1
175
     1
 42
1.0
 92
        8
 66
     7
 43
1.0
 76
     1
 77
     6
 78
     2
 67
     7
 79
     5
170
     0
171
     0
290
     0
174
     0
 93
        1
 44
-50.0
173
     0
291
     1
 45
0.0
1001
ACAD
1000
AcDbSavedByObjectVersion
1070
     0
1000
AcDbSavedByObjectVersion
1070
     0
  0
VISUALSTYLE
  5
38
102
{ACAD_REACTORS
330
29
102
}
330
29
100
AcDbVisualStyle
  2
Facepattern
 70
    15
 71
     2
 72
     2
 73
     0
 90
        0
 40
-0.6
 41
-30.0
 62
     5
 63
     7
 74
     1
 91
        4
 64
     7
 65
   257
 75
     1
175
     1
 42
1.0
 92
        8
 66
     7
 43
1.0
 76
     1
 77
     6
 78
     2
 67
     7
 79
     5
170
     0
171
     0
290
     0
174
     0
 93
        1
 44
0.0
173
     0
291
     1
 45
0.0
1001
ACAD
1000
AcDbSavedByObjectVersion
1070
     0
1000
AcDbSavedByObjectVersion
1070
     0
  0
VISUALSTYLE
  5
2A
102
{ACAD_REACTORS
330
29
102
}
330
29
100
AcDbVisualStyle
  2
Flat
 70
     0
 71
     2
 72
     1
 73
     1
 90
        2
 40
-0.6
 41
30.0
 62
     5
 63
     7
 74
     0
 91
        4
 64
     7
 65
   257
 75
     1
175
     1
 42
1.0
 92
        8
 66
     7
 43
1.0
 76
     1
 77
     6
 78
     2
 67
     7
 79
     5
170
     0
171
     0
290
     0
174
     0
 93
       13
 44
0.0
173
     0
291
     1
 45
0.0
1001
ACAD
1000
AcDbSavedByObjectVersion
1070
     0
1000
AcDbSavedByObjectVersion
1070
     0
  0
VISUALSTYLE
  5
2B
102
{ACAD_REACTORS
330
29
102
}
330
29
100
AcDbVisualStyle
  2
FlatWithEdges
 70
     1
 71
     2
 72
     1
 73
     1
 90
        2
 40
-0.6
 41
30.0
 62
     5
 63
     7
 74
     1
 91
        4
 64
     7
 65
   257
 75
     1
175
     1
 42
1.0
 92
        0
 66
   257
 43
1.0
 76
     1
 77
     6
 78
     2
 67
     7
 79
     5
170
     0
171
     0
290
     0
174
     0
 93
       13
 44
0.0
173
     0
291
     1
 45
0.0
1001
ACAD
1000
AcDbSavedByObjectVersion
1070
     0
1000
AcDbSavedByObjectVersion
1070
     0
  0
VISUALSTYLE
  5
2C
102
{ACAD_REACTORS
330
29
102
}
330
29
100
AcDbVisualStyle
  2
Gouraud
 70
     2
 71
     2
 72
     2
 73
     1
 90
        2
 40
-0.6
 41
30.0
 62
     5
 63
     7
 74
     0
 91
        4
 64
     7
 65
   257
 75
     1
175
     1
 42
1.0
 92
        0
 66
     7
 43
1.0
 76
     1
 77
     6
 78
     2
 67
     7
 79
     5
170
     0
171
     0
290
     0
174
     0
 93
       13
 44
0.0
173
     0
291
     1
 45
0.0
1001
ACAD
1000
AcDbSavedByObjectVersion
1070
     0
1000
AcDbSavedByObjectVersion
1070
     0
  0
VISUALSTYLE
  5
2D
102
{ACAD_REACTORS
330
29
102
}
330
29
100
AcDbVisualStyle
  2
GouraudWithEdges
 70
     3
 71
     2
 72
     2
 73
     1
 90
        2
 40
-0.6
 41
30.0
 62
     5
 63
     7
 74
     1
 91
        4
 64
     7
 65
   257
 75
     1
175
     1
 42
1.0
 92
        0
 66
   257
 43
1.0
 76
     1
 77
     6
 78
     2
 67
     7
 79
     5
170
     0
171
     0
290
     0
174
     0
 93
       13
 44
0.0
173
     0
291
     1
 45
0.0
1001
ACAD
1000
AcDbSavedByObjectVersion
1070
     0
1000
AcDbSavedByObjectVersion
1070
     0
  0
VISUALSTYLE
  5
37
102
{ACAD_REACTORS
330
29
102
}
330
29
100
AcDbVisualStyle
  2
Linepattern
 70
    14
 71
     2
 72
     2
 73
     0
 90
        0
 40
-0.6
 41
-30.0
 62
     5
 63
     7
 74
     1
 91
        4
 64
     7
 65
   257
 75
     7
175
     7
 42
1.0
 92
        8
 66
     7
 43
1.0
 76
     1
 77
     6
 78
     2
 67
     7
 79
     5
170
     0
171
     0
290
     0
174
     0
 93
        1
 44
0.0
173
     0
291
     1
 45
0.0
1001
ACAD
1000
AcDbSavedByObjectVersion
1070
     0
1000
AcDbSavedByObjectVersion
1070
     0
  0
VISUALSTYLE
  5
33
102
{ACAD_REACTORS
330
29
102
}
330
29
100
AcDbVisualStyle
  2
Realistic
 70
     8
 71
     2
 72
     2
 73
     0
 90
        0
 40
-0.6
 41
-30.0
 62
     5
 63
     7
 74
     1
 91
        0
 64
     7
 65
   257
 75
     1
175
     1
 42
1.0
 92
        8
 66
     8
 43
1.0
 76
     1
 77
     6
 78
     2
 67
     7
 79
     5
170
     0
171
     0
290
     0
174
     0
 93
       13
 44
0.0
173
     0
291
     0
 45
0.0
1001
ACAD
1000
AcDbSavedByObjectVersion
1070
     0
1000
AcDbSavedByObjectVersion
1070
     0
  0
VISUALSTYLE
  5
36
102
{ACAD_REACTORS
330
29
102
}
330
29
100
AcDbVisualStyle
  2
Thicken
 70
    13
 71
     2
 72
     2
 73
     0
 90
        0
 40
-0.6
 41
-30.0
 62
     5
 63
     7
 74
     1
 91
        4
 64
     7
 65
   257
 75
     1
175
     1
 42
1.0
 92
       12
 66
     7
 43
1.0
 76
     1
 77
     6
 78
     2
 67
     7
 79
     5
170
     0
171
     0
290
     0
174
     0
 93
        1
 44
0.0
173
     0
291
     1
 45
0.0
1001
ACAD
1000
AcDbSavedByObjectVersion
1070
     0
1000
AcDbSavedByObjectVersion
1070
     0
  0
DICTIONARYVAR
  5
3498
102
{ACAD_REACTORS
330
3495
102
}
330
3495
100
DictionaryVariables
280
     0
  1
1:1
  0
DICTIONARYVAR
  5
3497
102
{ACAD_REACTORS
330
3495
102
}
330
3495
100
DictionaryVariables
280
     0
  1
STANDARD
  0
DICTIONARYVAR
  5
3496
102
{ACAD_REACTORS
330
3495
102
}
330
3495
100
DictionaryVariables
280
     0
  1
STANDARD
  0
DICTIONARYVAR
  5
349B
102
{ACAD_REACTORS
330
3495
102
}
330
3495
100
DictionaryVariables
280
     0
  1
1
  0
DICTIONARYVAR
  5
349A
102
{ACAD_REACTORS
330
3495
102
}
330
3495
100
DictionaryVariables
280
     0
  1
0
  0
DICTIONARYVAR
  5
3499
102
{ACAD_REACTORS
330
3495
102
}
330
3495
100
DictionaryVariables
280
     0
  1
127
  0
XRECORD
  5
34BA
102
{ACAD_REACTORS
330
34B9
102
}
330
34B9
100
AcDbXrecord
280
     1
  1
0
  1
0*
  1
*
  1
*
 70
     0
  1
*
  1
*
  0
XRECORD
  5
34BB
102
{ACAD_REACTORS
330
34B9
102
}
330
34B9
100
AcDbXrecord
280
     1
  1
01全体計画平面図
  1
00*,01*,0A*,0E-2*
  1
*
  1
*
 70
     0
  1
*
  1
*
  0
XRECORD
  5
34BC
102
{ACAD_REACTORS
330
34B9
102
}
330
34B9
100
AcDbXrecord
280
     1
  1
02現況平面図
  1
00*,02*,0B*
  1
*
  1
*
 70
     0
  1
*
  1
*
  0
XRECORD
  5
34BD
102
{ACAD_REACTORS
330
34B9
102
}
330
34B9
100
AcDbXrecord
280
     1
  1
03撤去平面図
  1
00*,01*,0C*
  1
*
  1
*
 70
     0
  1
*
  1
*
  0
XRECORD
  5
34BE
102
{ACAD_REACTORS
330
34B9
102
}
330
34B9
100
AcDbXrecord
280
     1
  1
04造成平面図
  1
00*,02*,0D*,03*
  1
*
  1
*
 70
     0
  1
*
  1
*
  0
XRECORD
  5
34BF
102
{ACAD_REACTORS
330
34B9
102
}
330
34B9
100
AcDbXrecord
280
     1
  1
05施設平面図
  1
00*,02*,0E*
  1
*
  1
*
 70
     0
  1
*
  1
*
  0
XRECORD
  5
34C0
102
{ACAD_REACTORS
330
34B9
102
}
330
34B9
100
AcDbXrecord
280
     1
  1
06排水平面図
  1
00*,02*,0F*
  1
*
  1
*
 70
     0
  1
*
  1
*
  0
XRECORD
  5
34C1
102
{ACAD_REACTORS
330
34B9
102
}
330
34B9
100
AcDbXrecord
280
     1
  1
07給水平面図
  1
00*,02*,0G*
  1
*
  1
*
 70
     0
  1
*
  1
*
  0
XRECORD
  5
34C2
102
{ACAD_REACTORS
330
34B9
102
}
330
34B9
100
AcDbXrecord
280
     1
  1
08電気平面図
  1
00*,02*,0H*
  1
*
  1
*
 70
     0
  1
*
  1
*
  0
XRECORD
  5
34C3
102
{ACAD_REACTORS
330
34B9
102
}
330
34B9
100
AcDbXrecord
280
     1
  1
09植栽平面図-1
  1
00*,02*,0I*
  1
*
  1
*
 70
     0
  1
*
  1
*
  0
XRECORD
  5
34C4
102
{ACAD_REACTORS
330
34B9
102
}
330
34B9
100
AcDbXrecord
280
     1
  1
1
  1
*計画*
  1
*
  1
*
 70
     0
  1
*
  1
*
  0
XRECORD
  5
34C5
102
{ACAD_REACTORS
330
34B9
102
}
330
34B9
100
AcDbXrecord
280
     1
  1
1-交差点処理図（最新1案）
  1
*交差点処理図（最新1案）*
  1
*
  1
*
 70
     0
  1
*
  1
*
  0
XRECORD
  5
34C6
102
{ACAD_REACTORS
330
34B9
102
}
330
34B9
100
AcDbXrecord
280
     1
  1
10植栽平面図-2
  1
00*,02*,0J*
  1
*
  1
*
 70
     0
  1
*
  1
*
  0
XRECORD
  5
34C7
102
{ACAD_REACTORS
330
34B9
102
}
330
34B9
100
AcDbXrecord
280
     1
  1
11寸法図
  1
00*,02*,0K*,03*
  1
*
  1
*
 70
     0
  1
*
  1
*
  0
XRECORD
  5
34C8
102
{ACAD_REACTORS
330
34B9
102
}
330
34B9
100
AcDbXrecord
280
     1
  1
1次施工
  1
*1次*
  1
*
  1
*
 70
     0
  1
*
  1
*
  0
XRECORD
  5
34C9
102
{ACAD_REACTORS
330
34B9
102
}
330
34B9
100
AcDbXrecord
280
     1
  1
2
  1
*SOKUTENME
  1
*
  1
*
 70
     0
  1
*
  1
*
  0
XRECORD
  5
34CA
102
{ACAD_REACTORS
330
34B9
102
}
330
34B9
100
AcDbXrecord
280
     1
  1
2-線形図1
  1
*線形図1*
  1
*
  1
*
 70
     0
  1
*
  1
*
  0
XRECORD
  5
34CB
102
{ACAD_REACTORS
330
34B9
102
}
330
34B9
100
AcDbXrecord
280
     1
  1
2次施工
  1
*2次*
  1
*
  1
*
 70
     0
  1
*
  1
*
  0
XRECORD
  5
34CC
102
{ACAD_REACTORS
330
34B9
102
}
330
34B9
100
AcDbXrecord
280
     1
  1
3
  1
*下部工*
  1
*
  1
*
 70
     0
  1
*
  1
*
  0
XRECORD
  5
34CD
102
{ACAD_REACTORS
330
34B9
102
}
330
34B9
100
AcDbXrecord
280
     1
  1
3-線形図2
  1
*線形図2*
  1
*
  1
*
 70
     0
  1
*
  1
*
  0
XRECORD
  5
34CE
102
{ACAD_REACTORS
330
34B9
102
}
330
34B9
100
AcDbXrecord
280
     1
  1
3次施工
  1
*3次*
  1
*
  1
*
 70
     0
  1
*
  1
*
  0
XRECORD
  5
34CF
102
{ACAD_REACTORS
330
34B9
102
}
330
34B9
100
AcDbXrecord
280
     1
  1
4
  1
*
  1
4
  1
*
 70
     0
  1
*
  1
*
  0
XRECORD
  5
34D0
102
{ACAD_REACTORS
330
34B9
102
}
330
34B9
100
AcDbXrecord
280
     1
  1
4次施工
  1
*4次*
  1
*
  1
*
 70
     0
  1
*
  1
*
  0
XRECORD
  5
34D1
102
{ACAD_REACTORS
330
34B9
102
}
330
34B9
100
AcDbXrecord
280
     1
  1
5
  1
*
  1
5
  1
*
 70
     0
  1
*
  1
*
  0
XRECORD
  5
34D2
102
{ACAD_REACTORS
330
34B9
102
}
330
34B9
100
AcDbXrecord
280
     1
  1
50
  1
*-50
  1
*
  1
*
 70
     0
  1
*
  1
*
  0
XRECORD
  5
34D3
102
{ACAD_REACTORS
330
34B9
102
}
330
34B9
100
AcDbXrecord
280
     1
  1
6
  1
*
  1
6
  1
*
 70
     0
  1
*
  1
*
  0
XRECORD
  5
34D4
102
{ACAD_REACTORS
330
34B9
102
}
330
34B9
100
AcDbXrecord
280
     1
  1
7
  1
*
  1
7
  1
*
 70
     0
  1
*
  1
*
  0
XRECORD
  5
34D5
102
{ACAD_REACTORS
330
34B9
102
}
330
34B9
100
AcDbXrecord
280
     1
  1
7-専用部北行
  1
80*,90*,A0*,B0*,
  1
*
  1
*
 70
     0
  1
*
  1
*
  0
XRECORD
  5
34D6
102
{ACAD_REACTORS
330
34B9
102
}
330
34B9
100
AcDbXrecord
280
     1
  1
8-ONﾗﾝﾌﾟ
  1
70*,90*,A0*,B0*,
  1
*
  1
*
 70
     0
  1
*
  1
*
  0
XRECORD
  5
34D7
102
{ACAD_REACTORS
330
34B9
102
}
330
34B9
100
AcDbXrecord
280
     1
  1
9-OFFﾗﾝﾌﾟ
  1
70*,80*,A0*B0*,
  1
*
  1
*
 70
     0
  1
*
  1
*
  0
XRECORD
  5
34D8
102
{ACAD_REACTORS
330
34B9
102
}
330
34B9
100
AcDbXrecord
280
     1
  1
a
  1
*A_*
  1
*
  1
*
 70
    12
  1
*
  1
*
  0
XRECORD
  5
34D9
102
{ACAD_REACTORS
330
34B9
102
}
330
34B9
100
AcDbXrecord
280
     1
  1
b
  1
*b_*
  1
*
  1
*
 70
    12
  1
*
  1
*
  0
XRECORD
  5
34DA
102
{ACAD_REACTORS
330
34B9
102
}
330
34B9
100
AcDbXrecord
280
     1
  1
B北
  1
*B北*
  1
*
  1
*
 70
     0
  1
*
  1
*
  0
XRECORD
  5
34DB
102
{ACAD_REACTORS
330
34B9
102
}
330
34B9
100
AcDbXrecord
280
     1
  1
c
  1
*c_*
  1
*
  1
*
 70
    12
  1
*
  1
*
  0
XRECORD
  5
34DC
102
{ACAD_REACTORS
330
34B9
102
}
330
34B9
100
AcDbXrecord
280
     1
  1
CAR
  1
CAR*
  1
*
  1
*
 70
     0
  1
*
  1
*
  0
XRECORD
  5
34DD
102
{ACAD_REACTORS
330
34B9
102
}
330
34B9
100
AcDbXrecord
280
     1
  1
d
  1
*d_*
  1
*
  1
*
 70
    12
  1
*
  1
*
  0
XRECORD
  5
34DE
102
{ACAD_REACTORS
330
34B9
102
}
330
34B9
100
AcDbXrecord
280
     1
  1
DIM
  1
*DIM
  1
*
  1
*
 70
     0
  1
*
  1
*
  0
XRECORD
  5
34DF
102
{ACAD_REACTORS
330
34B9
102
}
330
34B9
100
AcDbXrecord
280
     1
  1
DIM2
  1
*DIM2
  1
*
  1
*
 70
     0
  1
*
  1
*
  0
XRECORD
  5
34E0
102
{ACAD_REACTORS
330
34B9
102
}
330
34B9
100
AcDbXrecord
280
     1
  1
DIM3
  1
*DIM3
  1
*
  1
*
 70
     0
  1
*
  1
*
  0
XRECORD
  5
34E1
102
{ACAD_REACTORS
330
34B9
102
}
330
34B9
100
AcDbXrecord
280
     1
  1
e
  1
*e_*
  1
*
  1
*
 70
    12
  1
*
  1
*
  0
XRECORD
  5
34E2
102
{ACAD_REACTORS
330
34B9
102
}
330
34B9
100
AcDbXrecord
280
     1
  1
E南
  1
*E*南*
  1
*
  1
*
 70
     0
  1
*
  1
*
  0
XRECORD
  5
34E3
102
{ACAD_REACTORS
330
34B9
102
}
330
34B9
100
AcDbXrecord
280
     1
  1
GENKYOU
  1
*G*
  1
*
  1
*
 70
     0
  1
*
  1
*
  0
XRECORD
  5
34E4
102
{ACAD_REACTORS
330
34B9
102
}
330
34B9
100
AcDbXrecord
280
     1
  1
HTXT
  1
*HTXT
  1
*
  1
*
 70
     0
  1
*
  1
*
  0
XRECORD
  5
34E5
102
{ACAD_REACTORS
330
34B9
102
}
330
34B9
100
AcDbXrecord
280
     1
  1
HTXT2
  1
*HTXT2
  1
*
  1
*
 70
     0
  1
*
  1
*
  0
XRECORD
  5
34E6
102
{ACAD_REACTORS
330
34B9
102
}
330
34B9
100
AcDbXrecord
280
     1
  1
KAN
  1
W,S,T,G,E,
  1
*
  1
*
 70
     0
  1
*
  1
*
  0
XRECORD
  5
34E7
102
{ACAD_REACTORS
330
34B9
102
}
330
34B9
100
AcDbXrecord
280
     1
  1
LAND
  1
*
  1
*
  1
*
 70
     0
  1
*
  1
*
  0
XRECORD
  5
34E8
102
{ACAD_REACTORS
330
34B9
102
}
330
34B9
100
AcDbXrecord
280
     1
  1
MASU
  1
*MASU
  1
*
  1
*
 70
     0
  1
*
  1
*
  0
XRECORD
  5
34E9
102
{ACAD_REACTORS
330
34B9
102
}
330
34B9
100
AcDbXrecord
280
     1
  1
OFF
  1
*OFF*
  1
*
  1
*
 70
     0
  1
*
  1
*
  0
XRECORD
  5
34EA
102
{ACAD_REACTORS
330
34B9
102
}
330
34B9
100
AcDbXrecord
280
     1
  1
OFST
  1
*OFST
  1
*
  1
*
 70
     0
  1
*
  1
*
  0
XRECORD
  5
34EB
102
{ACAD_REACTORS
330
34B9
102
}
330
34B9
100
AcDbXrecord
280
     1
  1
ON
  1
*ON*
  1
*
  1
*
 70
     0
  1
*
  1
*
  0
XRECORD
  5
34EC
102
{ACAD_REACTORS
330
34B9
102
}
330
34B9
100
AcDbXrecord
280
     1
  1
ｼｭｳｾｲ
  1
*
  1
*
  1
*
 70
     0
  1
*
  1
*
  0
XRECORD
  5
34ED
102
{ACAD_REACTORS
330
34B9
102
}
330
34B9
100
AcDbXrecord
280
     1
  1
ｾﾒﾝﾄ注入量上半円
  1
CE-?-T-?
  1
*
  1
*
 70
     0
  1
*
  1
*
  0
XRECORD
  5
34EE
102
{ACAD_REACTORS
330
34B9
102
}
330
34B9
100
AcDbXrecord
280
     1
  1
ﾌﾘｰｽﾞ解除
  1
*
  1
*
  1
*
 70
    12
  1
*
  1
*
  0
XRECORD
  5
34EF
102
{ACAD_REACTORS
330
34B9
102
}
330
34B9
100
AcDbXrecord
280
     1
  1
ﾙｼﾞｵﾝ値下半円
  1
LU-?-B-?
  1
*
  1
*
 70
     0
  1
*
  1
*
  0
XRECORD
  5
34F0
102
{ACAD_REACTORS
330
34B9
102
}
330
34B9
100
AcDbXrecord
280
     1
  1
ｓ
  1
*SOKUTENME
  1
*
  1
*
 70
     0
  1
*
  1
*
  0
XRECORD
  5
34F1
102
{ACAD_REACTORS
330
34B9
102
}
330
34B9
100
AcDbXrecord
280
     1
  1
その他
  1
O*
  1
*
  1
*
 70
     0
  1
*
  1
*
  0
XRECORD
  5
34F2
102
{ACAD_REACTORS
330
34B9
102
}
330
34B9
100
AcDbXrecord
280
     1
  1
セメント注入量
  1
CE-*
  1
*
  1
*
 70
     0
  1
*
  1
*
  0
XRECORD
  5
34F3
102
{ACAD_REACTORS
330
34B9
102
}
330
34B9
100
AcDbXrecord
280
     1
  1
フリーズ以外
  1
*
  1
*
  1
*
 70
    12
  1
*
  1
*
  0
XRECORD
  5
34F4
102
{ACAD_REACTORS
330
34B9
102
}
330
34B9
100
AcDbXrecord
280
     1
  1
ランプ
  1
*ランプ*
  1
*
  1
*
 70
     0
  1
*
  1
*
  0
XRECORD
  5
34F5
102
{ACAD_REACTORS
330
34B9
102
}
330
34B9
100
AcDbXrecord
280
     1
  1
ルジオン値
  1
LU-*
  1
*
  1
*
 70
     0
  1
*
  1
*
  0
XRECORD
  5
34F6
102
{ACAD_REACTORS
330
34B9
102
}
330
34B9
100
AcDbXrecord
280
     1
  1
ロック
  1
*
  1
*
  1
*
 70
   256
  1
*
  1
*
  0
XRECORD
  5
34F7
102
{ACAD_REACTORS
330
34B9
102
}
330
34B9
100
AcDbXrecord
280
     1
  1
ロック解除
  1
*
  1
*
  1
*
 70
   768
  1
*
  1
*
  0
XRECORD
  5
34F8
102
{ACAD_REACTORS
330
34B9
102
}
330
34B9
100
AcDbXrecord
280
     1
  1
案1
  1
*案1
  1
*
  1
*
 70
     0
  1
*
  1
*
  0
XRECORD
  5
34F9
102
{ACAD_REACTORS
330
34B9
102
}
330
34B9
100
AcDbXrecord
280
     1
  1
案2
  1
*案2
  1
*
  1
*
 70
     0
  1
*
  1
*
  0
XRECORD
  5
34FA
102
{ACAD_REACTORS
330
34B9
102
}
330
34B9
100
AcDbXrecord
280
     1
  1
一般
  1
*般*
  1
*
  1
*
 70
     0
  1
*
  1
*
  0
XRECORD
  5
34FB
102
{ACAD_REACTORS
330
34B9
102
}
330
34B9
100
AcDbXrecord
280
     1
  1
外部参照の非表示画層
  1
*
  1
*
  1
*
 70
     0
  1
*
  1
*
  0
XRECORD
  5
34FC
102
{ACAD_REACTORS
330
34B9
102
}
330
34B9
100
AcDbXrecord
280
     1
  1
形状
  1
pen1,pen3,pen4,up,dia,low
  1
*
  1
*
 70
     0
  1
*
  1
*
  0
XRECORD
  5
34FD
102
{ACAD_REACTORS
330
34B9
102
}
330
34B9
100
AcDbXrecord
280
     1
  1
形状以外
  1
dim,cen,text,sakuzu1,sakuzu2,siten,defpoints,0
  1
*
  1
*
 70
     0
  1
*
  1
*
  0
XRECORD
  5
34FE
102
{ACAD_REACTORS
330
34B9
102
}
330
34B9
100
AcDbXrecord
280
     1
  1
計画
  1
K*
  1
*
  1
*
 70
     0
  1
*
  1
*
  0
XRECORD
  5
34FF
102
{ACAD_REACTORS
330
34B9
102
}
330
34B9
100
AcDbXrecord
280
     1
  1
現況
  1
G*
  1
*
  1
*
 70
     0
  1
*
  1
*
  0
XRECORD
  5
3500
102
{ACAD_REACTORS
330
34B9
102
}
330
34B9
100
AcDbXrecord
280
     1
  1
暫定形
  1
*暫*
  1
*
  1
*
 70
     0
  1
*
  1
*
  0
XRECORD
  5
3501
102
{ACAD_REACTORS
330
34B9
102
}
330
34B9
100
AcDbXrecord
280
     1
  1
縦断セット
  1
JO*
  1
*
  1
*
 70
     0
  1
*
  1
*
  0
XRECORD
  5
3502
102
{ACAD_REACTORS
330
34B9
102
}
330
34B9
100
AcDbXrecord
280
     1
  1
縦断計画
  1
JK*
  1
*
  1
*
 70
     0
  1
*
  1
*
  0
XRECORD
  5
3503
102
{ACAD_REACTORS
330
34B9
102
}
330
34B9
100
AcDbXrecord
280
     1
  1
縦断埋設
  1
JM*
  1
*
  1
*
 70
     0
  1
*
  1
*
  0
XRECORD
  5
3504
102
{ACAD_REACTORS
330
34B9
102
}
330
34B9
100
AcDbXrecord
280
     1
  1
数量用
  1
*数量用*
  1
*
  1
*
 70
     0
  1
*
  1
*
  0
XRECORD
  5
3505
102
{ACAD_REACTORS
330
34B9
102
}
330
34B9
100
AcDbXrecord
280
     1
  1
専北
  1
*専北*
  1
*
  1
*
 70
     0
  1
*
  1
*
  0
XRECORD
  5
3506
102
{ACAD_REACTORS
330
34B9
102
}
330
34B9
100
AcDbXrecord
280
     1
  1
専用
  1
*専*
  1
*
  1
*
 70
     0
  1
*
  1
*
  0
XRECORD
  5
3507
102
{ACAD_REACTORS
330
34B9
102
}
330
34B9
100
AcDbXrecord
280
     1
  1
線形
  1
*線形*
  1
*
  1
*
 70
     0
  1
*
  1
*
  0
XRECORD
  5
3508
102
{ACAD_REACTORS
330
34B9
102
}
330
34B9
100
AcDbXrecord
280
     1
  1
全帯
  1
*帯*
  1
*
  1
*
 70
     0
  1
*
  1
*
  0
XRECORD
  5
3509
102
{ACAD_REACTORS
330
34B9
102
}
330
34B9
100
AcDbXrecord
280
     1
  1
断面
  1
*断面*
  1
*
  1
*
 70
     0
  1
*
  1
*
  0
XRECORD
  5
350A
102
{ACAD_REACTORS
330
34B9
102
}
330
34B9
100
AcDbXrecord
280
     1
  1
東西線
  1
*A
  1
*
  1
*
 70
     0
  1
*
  1
*
  0
XRECORD
  5
350B
102
{ACAD_REACTORS
330
34B9
102
}
330
34B9
100
AcDbXrecord
280
     1
  1
道路詳細設計　平面図
  1
道路中心線
  1
*
  1
*
 70
     0
  1
*
  1
*
  0
XRECORD
  5
350C
102
{ACAD_REACTORS
330
34B9
102
}
330
34B9
100
AcDbXrecord
280
     1
  1
南北線
  1
*B
  1
*
  1
*
 70
     0
  1
*
  1
*
  0
XRECORD
  5
350D
102
{ACAD_REACTORS
330
34B9
102
}
330
34B9
100
AcDbXrecord
280
     1
  1
非表示
  1
z*
  1
*
  1
*
 70
     0
  1
*
  1
*
  0
XRECORD
  5
350E
102
{ACAD_REACTORS
330
34B9
102
}
330
34B9
100
AcDbXrecord
280
     1
  1
非表示を表示
  1
*
  1
*
  1
*
 70
     3
  1
*
  1
*
  0
XRECORD
  5
350F
102
{ACAD_REACTORS
330
34B9
102
}
330
34B9
100
AcDbXrecord
280
     1
  1
非表示画層を表示
  1
*
  1
*
  1
*
 70
     3
  1
*
  1
*
  0
XRECORD
  5
3510
102
{ACAD_REACTORS
330
34B9
102
}
330
34B9
100
AcDbXrecord
280
     1
  1
表示レイヤ－を表示
  1
*
  1
*
  1
*
 70
     1
  1
*
  1
*
  0
XRECORD
  5
3511
102
{ACAD_REACTORS
330
34B9
102
}
330
34B9
100
AcDbXrecord
280
     1
  1
副道
  1
*副*
  1
*
  1
*
 70
     0
  1
*
  1
*
  0
XRECORD
  5
3512
102
{ACAD_REACTORS
330
34B9
102
}
330
34B9
100
AcDbXrecord
280
     1
  1
平面図
  1
*平*
  1
*
  1
*
 70
     0
  1
*
  1
*
  0
XRECORD
  5
3513
102
{ACAD_REACTORS
330
34B9
102
}
330
34B9
100
AcDbXrecord
280
     1
  1
埋設
  1
M*
  1
*
  1
*
 70
     0
  1
*
  1
*
  0
DICTIONARY
  5
34B2
330
77
100
AcDbDictionary
280
     1
281
     1
  3
ACAD_XREC_ROUNDTRIP
360
34B3
  0
DICTIONARY
  5
34B0
330
73
100
AcDbDictionary
280
     1
281
     1
  3
ACAD_XREC_ROUNDTRIP
360
34B1
  0
DICTIONARY
  5
1A
330
19
100
AcDbDictionary
280
     1
281
     1
  3
ACAD_XREC_ROUNDTRIP
360
34A1
  3
BUMPTILE
360
1C
  3
DIFFUSETILE
360
1B
  3
OPACITYTILE
360
1F
  3
REFLECTIONTILE
360
1E
  3
REFRACTIONTILE
360
20
  3
SPECULARTILE
360
1D
  0
DICTIONARY
  5
12
330
11
100
AcDbDictionary
280
     1
281
     1
  3
ACAD_XREC_ROUNDTRIP
360
34A0
  3
BUMPTILE
360
14
  3
DIFFUSETILE
360
13
  3
OPACITYTILE
360
17
  3
REFLECTIONTILE
360
16
  3
REFRACTIONTILE
360
18
  3
SPECULARTILE
360
15
  0
DICTIONARY
  5
22
330
21
100
AcDbDictionary
280
     1
281
     1
  3
ACAD_XREC_ROUNDTRIP
360
34A2
  3
BUMPTILE
360
24
  3
DIFFUSETILE
360
23
  3
OPACITYTILE
360
27
  3
REFLECTIONTILE
360
26
  3
REFRACTIONTILE
360
28
  3
SPECULARTILE
360
25
  0
DICTIONARY
  5
349C
330
6C
100
AcDbDictionary
280
     1
281
     1
  3
ACAD_ROUNDTRIP_2008_TABLESTYLE_CELLSTYLEMAP
360
34AD
  3
ACAD_XREC_ROUNDTRIP
360
34AF
  0
XRECORD
  5
34B3
102
{ACAD_REACTORS
330
34B2
102
}
330
34B2
100
AcDbXrecord
280
     1
102
SHADEPLOT
 70
     0
102
SHADEPLOTRESLEVEL
 70
     2
102
SHADEPLOTCUSTOMDPI
 70
   300
  0
XRECORD
  5
34B1
102
{ACAD_REACTORS
330
34B0
102
}
330
34B0
100
AcDbXrecord
280
     1
102
SHADEPLOT
 70
     0
102
SHADEPLOTRESLEVEL
 70
     2
102
SHADEPLOTCUSTOMDPI
 70
   300
  0
XRECORD
  5
34A1
102
{ACAD_REACTORS
330
1A
102
}
330
1A
100
AcDbXrecord
280
     1
102
MATERIAL
148
0.0
149
0.0
149
0.0
 93
        0
 94
      127
282
     0
 72
     0
 77
     0
171
     0
175
     0
179
     0
273
     0
  0
XRECORD
  5
1C
102
{ACAD_REACTORS
330
1A
102
}
330
1A
100
AcDbXrecord
280
     1
270
     1
271
     1
  0
XRECORD
  5
1B
102
{ACAD_REACTORS
330
1A
102
}
330
1A
100
AcDbXrecord
280
     1
270
     1
271
     1
  0
XRECORD
  5
1F
102
{ACAD_REACTORS
330
1A
102
}
330
1A
100
AcDbXrecord
280
     1
270
     1
271
     1
  0
XRECORD
  5
1E
102
{ACAD_REACTORS
330
1A
102
}
330
1A
100
AcDbXrecord
280
     1
270
     1
271
     1
  0
XRECORD
  5
20
102
{ACAD_REACTORS
330
1A
102
}
330
1A
100
AcDbXrecord
280
     1
270
     1
271
     1
  0
XRECORD
  5
1D
102
{ACAD_REACTORS
330
1A
102
}
330
1A
100
AcDbXrecord
280
     1
270
     1
271
     1
  0
XRECORD
  5
34A0
102
{ACAD_REACTORS
330
12
102
}
330
12
100
AcDbXrecord
280
     1
102
MATERIAL
148
0.0
149
0.0
149
0.0
 93
        0
 94
      127
282
     0
 72
     0
 77
     0
171
     0
175
     0
179
     0
273
     0
  0
XRECORD
  5
14
102
{ACAD_REACTORS
330
12
102
}
330
12
100
AcDbXrecord
280
     1
270
     1
271
     1
  0
XRECORD
  5
13
102
{ACAD_REACTORS
330
12
102
}
330
12
100
AcDbXrecord
280
     1
270
     1
271
     1
  0
XRECORD
  5
17
102
{ACAD_REACTORS
330
12
102
}
330
12
100
AcDbXrecord
280
     1
270
     1
271
     1
  0
XRECORD
  5
16
102
{ACAD_REACTORS
330
12
102
}
330
12
100
AcDbXrecord
280
     1
270
     1
271
     1
  0
XRECORD
  5
18
102
{ACAD_REACTORS
330
12
102
}
330
12
100
AcDbXrecord
280
     1
270
     1
271
     1
  0
XRECORD
  5
15
102
{ACAD_REACTORS
330
12
102
}
330
12
100
AcDbXrecord
280
     1
270
     1
271
     1
  0
XRECORD
  5
34A2
102
{ACAD_REACTORS
330
22
102
}
330
22
100
AcDbXrecord
280
     1
102
MATERIAL
148
0.0
149
0.0
149
0.0
 93
        0
 94
      127
282
     0
 72
     0
 77
     0
171
     0
175
     0
179
     0
273
     0
  0
XRECORD
  5
24
102
{ACAD_REACTORS
330
22
102
}
330
22
100
AcDbXrecord
280
     1
270
     1
271
     1
  0
XRECORD
  5
23
102
{ACAD_REACTORS
330
22
102
}
330
22
100
AcDbXrecord
280
     1
270
     1
271
     1
  0
XRECORD
  5
27
102
{ACAD_REACTORS
330
22
102
}
330
22
100
AcDbXrecord
280
     1
270
     1
271
     1
  0
XRECORD
  5
26
102
{ACAD_REACTORS
330
22
102
}
330
22
100
AcDbXrecord
280
     1
270
     1
271
     1
  0
XRECORD
  5
28
102
{ACAD_REACTORS
330
22
102
}
330
22
100
AcDbXrecord
280
     1
270
     1
271
     1
  0
XRECORD
  5
25
102
{ACAD_REACTORS
330
22
102
}
330
22
100
AcDbXrecord
280
     1
270
     1
271
     1
  0
CELLSTYLEMAP
  5
34AD
102
{ACAD_REACTORS
330
349C
102
}
330
349C
100
AcDbCellStyleMap
 90
        3
300
CELLSTYLE
  1
TABLEFORMAT_BEGIN
 90
        5
170
     1
 91
        0
 92
    32768
 62
   257
 93
        1
300
CONTENTFORMAT
  1
CONTENTFORMAT_BEGIN
 90
        0
 91
        0
 92
      512
 93
        0
300

 40
0.0
140
1.0
 94
        5
 62
     0
340
5D
144
0.25
309
CONTENTFORMAT_END
171
     1
301
MARGIN
  1
CELLMARGIN_BEGIN
 40
0.06
 40
0.06
 40
0.06
 40
0.06
 40
0.18
 40
0.18
309
CELLMARGIN_END
 94
        6
 95
        1
302
GRIDFORMAT
  1
GRIDFORMAT_BEGIN
 90
        0
 91
        1
 62
     0
 92
       -2
340
0
 93
        0
 40
0.045
309
GRIDFORMAT_END
 95
        2
302
GRIDFORMAT
  1
GRIDFORMAT_BEGIN
 90
        0
 91
        1
 62
     0
 92
       -2
340
0
 93
        0
 40
0.045
309
GRIDFORMAT_END
 95
        4
302
GRIDFORMAT
  1
GRIDFORMAT_BEGIN
 90
        0
 91
        1
 62
     0
 92
       -2
340
0
 93
        0
 40
0.045
309
GRIDFORMAT_END
 95
        8
302
GRIDFORMAT
  1
GRIDFORMAT_BEGIN
 90
        0
 91
        1
 62
     0
 92
       -2
340
0
 93
        0
 40
0.045
309
GRIDFORMAT_END
 95
       16
302
GRIDFORMAT
  1
GRIDFORMAT_BEGIN
 90
        0
 91
        1
 62
     0
 92
       -2
340
0
 93
        0
 40
0.045
309
GRIDFORMAT_END
 95
       32
302
GRIDFORMAT
  1
GRIDFORMAT_BEGIN
 90
        0
 91
        1
 62
     0
 92
       -2
340
0
 93
        0
 40
0.045
309
GRIDFORMAT_END
309
TABLEFORMAT_END
  1
CELLSTYLE_BEGIN
 90
        1
 91
        1
300
_TITLE
309
CELLSTYLE_END
300
CELLSTYLE
  1
TABLEFORMAT_BEGIN
 90
        5
170
     1
 91
        0
 92
        0
 62
   257
 93
        1
300
CONTENTFORMAT
  1
CONTENTFORMAT_BEGIN
 90
        0
 91
        0
 92
      512
 93
        0
300

 40
0.0
140
1.0
 94
        5
 62
     0
340
5D
144
0.18
309
CONTENTFORMAT_END
171
     1
301
MARGIN
  1
CELLMARGIN_BEGIN
 40
0.06
 40
0.06
 40
0.06
 40
0.06
 40
0.18
 40
0.18
309
CELLMARGIN_END
 94
        6
 95
        1
302
GRIDFORMAT
  1
GRIDFORMAT_BEGIN
 90
        0
 91
        1
 62
     0
 92
       -2
340
0
 93
        0
 40
0.045
309
GRIDFORMAT_END
 95
        2
302
GRIDFORMAT
  1
GRIDFORMAT_BEGIN
 90
        0
 91
        1
 62
     0
 92
       -2
340
0
 93
        0
 40
0.045
309
GRIDFORMAT_END
 95
        4
302
GRIDFORMAT
  1
GRIDFORMAT_BEGIN
 90
        0
 91
        1
 62
     0
 92
       -2
340
0
 93
        0
 40
0.045
309
GRIDFORMAT_END
 95
        8
302
GRIDFORMAT
  1
GRIDFORMAT_BEGIN
 90
        0
 91
        1
 62
     0
 92
       -2
340
0
 93
        0
 40
0.045
309
GRIDFORMAT_END
 95
       16
302
GRIDFORMAT
  1
GRIDFORMAT_BEGIN
 90
        0
 91
        1
 62
     0
 92
       -2
340
0
 93
        0
 40
0.045
309
GRIDFORMAT_END
 95
       32
302
GRIDFORMAT
  1
GRIDFORMAT_BEGIN
 90
        0
 91
        1
 62
     0
 92
       -2
340
0
 93
        0
 40
0.045
309
GRIDFORMAT_END
309
TABLEFORMAT_END
  1
CELLSTYLE_BEGIN
 90
        2
 91
        1
300
_HEADER
309
CELLSTYLE_END
300
CELLSTYLE
  1
TABLEFORMAT_BEGIN
 90
        5
170
     1
 91
        0
 92
        0
 62
   257
 93
        1
300
CONTENTFORMAT
  1
CONTENTFORMAT_BEGIN
 90
        0
 91
        0
 92
      512
 93
        0
300

 40
0.0
140
1.0
 94
        2
 62
     0
340
5D
144
0.18
309
CONTENTFORMAT_END
171
     1
301
MARGIN
  1
CELLMARGIN_BEGIN
 40
0.06
 40
0.06
 40
0.06
 40
0.06
 40
0.18
 40
0.18
309
CELLMARGIN_END
 94
        6
 95
        1
302
GRIDFORMAT
  1
GRIDFORMAT_BEGIN
 90
        0
 91
        1
 62
     0
 92
       -2
340
0
 93
        0
 40
0.045
309
GRIDFORMAT_END
 95
        2
302
GRIDFORMAT
  1
GRIDFORMAT_BEGIN
 90
        0
 91
        1
 62
     0
 92
       -2
340
0
 93
        0
 40
0.045
309
GRIDFORMAT_END
 95
        4
302
GRIDFORMAT
  1
GRIDFORMAT_BEGIN
 90
        0
 91
        1
 62
     0
 92
       -2
340
0
 93
        0
 40
0.045
309
GRIDFORMAT_END
 95
        8
302
GRIDFORMAT
  1
GRIDFORMAT_BEGIN
 90
        0
 91
        1
 62
     0
 92
       -2
340
0
 93
        0
 40
0.045
309
GRIDFORMAT_END
 95
       16
302
GRIDFORMAT
  1
GRIDFORMAT_BEGIN
 90
        0
 91
        1
 62
     0
 92
       -2
340
0
 93
        0
 40
0.045
309
GRIDFORMAT_END
 95
       32
302
GRIDFORMAT
  1
GRIDFORMAT_BEGIN
 90
        0
 91
        1
 62
     0
 92
       -2
340
0
 93
        0
 40
0.045
309
GRIDFORMAT_END
309
TABLEFORMAT_END
  1
CELLSTYLE_BEGIN
 90
        3
 91
        2
300
_DATA
309
CELLSTYLE_END
  0
XRECORD
  5
34AF
102
{ACAD_REACTORS
330
349C
102
}
330
349C
100
AcDbXrecord
280
     1
102
ACAD_ROUNDTRIP_PRE2007_TABLESTYLE
 90
      512
 91
        0
  1

 92
      512
 93
        0
  2

 94
      512
 95
        0
  3

  0
ENDSEC
  0
EOF
