  0
SECTION
  2
HEADER
  9
$ACADVER
  1
AC1014
  9
$ACADMAINTVER
 70
     0
  9
$DWGCODEPAGE
  3
ANSI_932
  9
$INSBASE
 10
0.0
 20
0.0
 30
0.0
  9
$EXTMIN
 10
-517.968374
 20
-959.705477
 30
0.0
  9
$EXTMAX
 10
347.103924
 20
269.48344
 30
0.0
  9
$LIMMIN
 10
-505.968374
 20
-309.51656
  9
$LIMMAX
 10
718.031626
 20
545.48344
  9
$ORTHOMODE
 70
     1
  9
$REGENMODE
 70
     1
  9
$FILLMODE
 70
     1
  9
$QTEXTMODE
 70
     0
  9
$MIRRTEXT
 70
     1
  9
$DRAGMODE
 70
     2
  9
$LTSCALE
 40
23.1
  9
$OSMODE
 70
    63
  9
$ATTMODE
 70
     1
  9
$TEXTSIZE
 40
12.0
  9
$TRACEWID
 40
0.05
  9
$TEXTSTYLE
  7
STANDARD
  9
$CLAYER
  8
文字
  9
$CELTYPE
  6
BYLAYER
  9
$CECOLOR
 62
   256
  9
$CELTSCALE
 40
1.0
  9
$DELOBJ
 70
     1
  9
$DISPSILH
 70
     0
  9
$DIMSCALE
 40
1.0
  9
$DIMASZ
 40
6.0
  9
$DIMEXO
 40
2.625
  9
$DIMDLI
 40
15.96
  9
$DIMRND
 40
0.0
  9
$DIMDLE
 40
0.0
  9
$DIMEXE
 40
2.0
  9
$DIMTP
 40
0.0
  9
$DIMTM
 40
0.0
  9
$DIMTXT
 40
8.0
  9
$DIMCEN
 40
3.78
  9
$DIMTSZ
 40
0.0
  9
$DIMTOL
 70
     0
  9
$DIMLIM
 70
     0
  9
$DIMTIH
 70
     0
  9
$DIMTOH
 70
     0
  9
$DIMSE1
 70
     0
  9
$DIMSE2
 70
     0
  9
$DIMTAD
 70
     1
  9
$DIMZIN
 70
     8
  9
$DIMBLK
  1

  9
$DIMASO
 70
     1
  9
$DIMSHO
 70
     1
  9
$DIMPOST
  1

  9
$DIMAPOST
  1

  9
$DIMALT
 70
     0
  9
$DIMALTD
 70
     2
  9
$DIMALTF
 40
25.4
  9
$DIMLFAC
 40
1.0
  9
$DIMTOFL
 70
     1
  9
$DIMTVP
 40
0.0
  9
$DIMTIX
 70
     0
  9
$DIMSOXD
 70
     0
  9
$DIMSAH
 70
     1
  9
$DIMBLK1
  1
_OPEN
  9
$DIMBLK2
  1
_OPEN
  9
$DIMSTYLE
  2
STANDARD
  9
$DIMCLRD
 70
     0
  9
$DIMCLRE
 70
     0
  9
$DIMCLRT
 70
     0
  9
$DIMTFAC
 40
1.0
  9
$DIMGAP
 40
1.0
  9
$DIMJUST
 70
     0
  9
$DIMSD1
 70
     0
  9
$DIMSD2
 70
     0
  9
$DIMTOLJ
 70
     1
  9
$DIMTZIN
 70
     8
  9
$DIMALTZ
 70
     0
  9
$DIMALTTZ
 70
     0
  9
$DIMFIT
 70
     3
  9
$DIMUPT
 70
     1
  9
$DIMUNIT
 70
     2
  9
$DIMDEC
 70
     1
  9
$DIMTDEC
 70
     1
  9
$DIMALTU
 70
     2
  9
$DIMALTTD
 70
     2
  9
$DIMTXSTY
  7
STANDARD
  9
$DIMAUNIT
 70
     0
  9
$LUNITS
 70
     2
  9
$LUPREC
 70
     4
  9
$SKETCHINC
 40
0.1
  9
$FILLETRAD
 40
0.0
  9
$AUNITS
 70
     0
  9
$AUPREC
 70
     0
  9
$MENU
  1
acad
  9
$ELEVATION
 40
0.0
  9
$PELEVATION
 40
0.0
  9
$THICKNESS
 40
0.0
  9
$LIMCHECK
 70
     0
  9
$BLIPMODE
 70
     0
  9
$CHAMFERA
 40
0.0
  9
$CHAMFERB
 40
0.0
  9
$CHAMFERC
 40
0.0
  9
$CHAMFERD
 40
0.0
  9
$SKPOLY
 70
     0
  9
$TDCREATE
 40
2452408.362025810
  9
$TDUPDATE
 40
2452544.593127893
  9
$TDINDWG
 40
0.2625895370
  9
$TDUSRTIMER
 40
0.2625895370
  9
$USRTIMER
 70
     1
  9
$ANGBASE
 50
0.0
  9
$ANGDIR
 70
     0
  9
$PDMODE
 70
     0
  9
$PDSIZE
 40
0.0
  9
$PLINEWID
 40
0.0
  9
$COORDS
 70
     1
  9
$SPLFRAME
 70
     0
  9
$SPLINETYPE
 70
     6
  9
$SPLINESEGS
 70
     8
  9
$ATTDIA
 70
     0
  9
$ATTREQ
 70
     1
  9
$HANDLING
 70
     1
  9
$HANDSEED
  5
24EF
  9
$SURFTAB1
 70
     6
  9
$SURFTAB2
 70
     6
  9
$SURFTYPE
 70
     6
  9
$SURFU
 70
     6
  9
$SURFV
 70
     6
  9
$UCSNAME
  2

  9
$UCSORG
 10
0.0
 20
0.0
 30
0.0
  9
$UCSXDIR
 10
1.0
 20
0.0
 30
0.0
  9
$UCSYDIR
 10
0.0
 20
1.0
 30
0.0
  9
$PUCSNAME
  2

  9
$PUCSORG
 10
0.0
 20
0.0
 30
0.0
  9
$PUCSXDIR
 10
1.0
 20
0.0
 30
0.0
  9
$PUCSYDIR
 10
0.0
 20
1.0
 30
0.0
  9
$USERI1
 70
     0
  9
$USERI2
 70
     0
  9
$USERI3
 70
     0
  9
$USERI4
 70
     0
  9
$USERI5
 70
     0
  9
$USERR1
 40
0.0
  9
$USERR2
 40
0.0
  9
$USERR3
 40
0.0
  9
$USERR4
 40
0.0
  9
$USERR5
 40
0.0
  9
$WORLDVIEW
 70
     1
  9
$SHADEDGE
 70
     3
  9
$SHADEDIF
 70
    70
  9
$TILEMODE
 70
     1
  9
$MAXACTVP
 70
    48
  9
$PINSBASE
 10
0.0
 20
0.0
 30
0.0
  9
$PLIMCHECK
 70
     0
  9
$PEXTMIN
 10
1.000000E+20
 20
1.000000E+20
 30
1.000000E+20
  9
$PEXTMAX
 10
-1.000000E+20
 20
-1.000000E+20
 30
-1.000000E+20
  9
$PLIMMIN
 10
0.0
 20
0.0
  9
$PLIMMAX
 10
12.0
 20
9.0
  9
$UNITMODE
 70
     0
  9
$VISRETAIN
 70
     1
  9
$PLINEGEN
 70
     0
  9
$PSLTSCALE
 70
     1
  9
$TREEDEPTH
 70
  3020
  9
$PICKSTYLE
 70
     0
  9
$CMLSTYLE
  2
STANDARD
  9
$CMLJUST
 70
     0
  9
$CMLSCALE
 40
1.0
  9
$PROXYGRAPHICS
 70
     1
  9
$MEASUREMENT
 70
     0
  0
ENDSEC
  0
SECTION
  2
CLASSES
  0
CLASS
  1
DICTIONARYVAR
  2
AcDbDictionaryVar
  3
"AutoCAD"
 90
        0
280
     0
281
     0
  0
CLASS
  1
HATCH
  2
AcDbHatch
  3
"ACAD_SEDONA"
 90
        0
280
     0
281
     1
  0
CLASS
  1
LWPOLYLINE
  2
AcDbPolyline
  3
"AutoCAD"
 90
        0
280
     0
281
     1
  0
ENDSEC
  0
SECTION
  2
TABLES
  0
TABLE
  2
VPORT
  5
8
100
AcDbSymbolTable
 70
     3
  0
VPORT
  5
24EE
100
AcDbSymbolTableRecord
100
AcDbViewportTableRecord
  2
*ACTIVE
 70
     0
 10
0.0
 20
0.0
 11
1.0
 21
1.0
 12
-13.26864
 22
-17.950563
 13
0.0
 23
0.0
 14
1.0
 24
1.0
 15
0.0
 25
0.0
 16
0.0
 26
0.0
 36
1.0
 17
0.0
 27
0.0
 37
0.0
 40
414.592909
 41
1.831683
 42
50.0
 43
0.0
 44
0.0
 50
0.0
 51
0.0
 71
     0
 72
   100
 73
     1
 74
     1
 75
     0
 76
     0
 77
     0
 78
     0
  0
ENDTAB
  0
TABLE
  2
LTYPE
  5
5
100
AcDbSymbolTable
 70
     6
  0
LTYPE
  5
12
100
AcDbSymbolTableRecord
100
AcDbLinetypeTableRecord
  2
BYBLOCK
 70
     0
  3

 72
    65
 73
     0
 40
0.0
  0
LTYPE
  5
13
100
AcDbSymbolTableRecord
100
AcDbLinetypeTableRecord
  2
BYLAYER
 70
     0
  3

 72
    65
 73
     0
 40
0.0
  0
LTYPE
  5
14
100
AcDbSymbolTableRecord
100
AcDbLinetypeTableRecord
  2
CONTINUOUS
 70
     0
  3
Solid line
 72
    65
 73
     0
 40
0.0
  0
LTYPE
  5
1F
100
AcDbSymbolTableRecord
100
AcDbLinetypeTableRecord
  2
CENTER
 70
     0
  3
____ _ ____ _ ____ _ ____ _ ____ _ ____ _ ____
 72
    65
 73
     4
 40
0.6
 49
0.375
 74
     0
 49
-0.075
 74
     0
 49
0.075
 74
     0
 49
-0.075
 74
     0
  0
LTYPE
  5
20
100
AcDbSymbolTableRecord
100
AcDbLinetypeTableRecord
  2
HIDDEN
 70
     0
  3
- - - - - - - - - - - - - - - - - - - -
 72
    65
 73
     2
 40
0.2
 49
0.1
 74
     0
 49
-0.1
 74
     0
  0
LTYPE
  5
21
100
AcDbSymbolTableRecord
100
AcDbLinetypeTableRecord
  2
PHANTOM
 70
     0
  3
_____ _ _ _____ _ _ _____ _ _ _____
 72
    65
 73
     6
 40
0.8
 49
0.45
 74
     0
 49
-0.05
 74
     0
 49
0.1
 74
     0
 49
-0.05
 74
     0
 49
0.1
 74
     0
 49
-0.05
 74
     0
  0
LTYPE
  5
22
100
AcDbSymbolTableRecord
100
AcDbLinetypeTableRecord
  2
DOT
 70
     0
  3
. . . . . . . . . . . . . . . . . . . .
 72
    65
 73
     2
 40
0.2
 49
0.1
 74
     0
 49
-0.1
 74
     0
  0
LTYPE
  5
23
100
AcDbSymbolTableRecord
100
AcDbLinetypeTableRecord
  2
DASHED
 70
     0
  3
- - - - - - - - - - - - - - - - - - - -
 72
    65
 73
     2
 40
0.2
 49
0.1
 74
     0
 49
-0.1
 74
     0
  0
ENDTAB
  0
TABLE
  2
LAYER
  5
2
100
AcDbSymbolTable
 70
    22
  0
LAYER
  5
E
100
AcDbSymbolTableRecord
100
AcDbLayerTableRecord
  2
0
 70
     0
 62
     7
  6
CONTINUOUS
  0
LAYER
  5
24
100
AcDbSymbolTableRecord
100
AcDbLayerTableRecord
  2
DEFAULT_1
 70
     0
 62
     7
  6
CENTER
  0
LAYER
  5
25
100
AcDbSymbolTableRecord
100
AcDbLayerTableRecord
  2
DEFAULT_2
 70
     0
 62
     8
  6
HIDDEN
  0
LAYER
  5
26
100
AcDbSymbolTableRecord
100
AcDbLayerTableRecord
  2
DEFAULT_3
 70
     0
 62
     7
  6
PHANTOM
  0
LAYER
  5
27
100
AcDbSymbolTableRecord
100
AcDbLayerTableRecord
  2
1_ALL_DRAFT_DIMS
 70
     0
 62
     7
  6
CONTINUOUS
  0
LAYER
  5
28
100
AcDbSymbolTableRecord
100
AcDbLayerTableRecord
  2
2_ALL_NOTES
 70
     0
 62
     7
  6
CONTINUOUS
  0
LAYER
  5
29
100
AcDbSymbolTableRecord
100
AcDbLayerTableRecord
  2
8_ALL_DTL_ITEMS
 70
     0
 62
     7
  6
CONTINUOUS
  0
LAYER
  5
E40
100
AcDbSymbolTableRecord
100
AcDbLayerTableRecord
  2
DEFPOINTS
 70
     0
 62
     7
  6
CONTINUOUS
  0
LAYER
  5
E7A
100
AcDbSymbolTableRecord
100
AcDbLayerTableRecord
  2
実線
 70
     0
 62
     3
  6
CONTINUOUS
  0
LAYER
  5
E7B
100
AcDbSymbolTableRecord
100
AcDbLayerTableRecord
  2
実線-細
 70
     0
 62
     4
  6
CONTINUOUS
  0
LAYER
  5
E7C
100
AcDbSymbolTableRecord
100
AcDbLayerTableRecord
  2
実線-太
 70
     0
 62
     2
  6
CONTINUOUS
  0
LAYER
  5
E7D
100
AcDbSymbolTableRecord
100
AcDbLayerTableRecord
  2
文字
 70
     0
 62
     7
  6
CONTINUOUS
  0
LAYER
  5
E7E
100
AcDbSymbolTableRecord
100
AcDbLayerTableRecord
  2
寸法
 70
     0
 62
    40
  6
CONTINUOUS
  0
LAYER
  5
E7F
100
AcDbSymbolTableRecord
100
AcDbLayerTableRecord
  2
破線
 70
     0
 62
   110
  6
HIDDEN
  0
LAYER
  5
E80
100
AcDbSymbolTableRecord
100
AcDbLayerTableRecord
  2
一点鎖線
 70
     0
 62
   120
  6
CENTER
  0
LAYER
  5
E81
100
AcDbSymbolTableRecord
100
AcDbLayerTableRecord
  2
二点鎖線
 70
     0
 62
   140
  6
PHANTOM
  0
LAYER
  5
E82
100
AcDbSymbolTableRecord
100
AcDbLayerTableRecord
  2
非表示
 70
     0
 62
     6
  6
CONTINUOUS
  0
LAYER
  5
E83
100
AcDbSymbolTableRecord
100
AcDbLayerTableRecord
  2
実線-極太
 70
     0
 62
     1
  6
CONTINUOUS
  0
LAYER
  5
E84
100
AcDbSymbolTableRecord
100
AcDbLayerTableRecord
  2
実線-極細
 70
     0
 62
     5
  6
CONTINUOUS
  0
LAYER
  5
E85
100
AcDbSymbolTableRecord
100
AcDbLayerTableRecord
  2
図面枠
 70
     0
 62
   253
  6
CONTINUOUS
  0
LAYER
  5
E9B
100
AcDbSymbolTableRecord
100
AcDbLayerTableRecord
  2
図面枠-細
 70
     0
 62
   254
  6
CONTINUOUS
  0
LAYER
  5
E9C
100
AcDbSymbolTableRecord
100
AcDbLayerTableRecord
  2
図面枠-太
 70
     0
 62
   252
  6
CONTINUOUS
  0
ENDTAB
  0
TABLE
  2
STYLE
  5
3
100
AcDbSymbolTable
 70
     4
  0
STYLE
  5
F
100
AcDbSymbolTableRecord
100
AcDbTextStyleTableRecord
  2
STANDARD
 70
     0
 40
0.0
 41
1.0
 50
0.0
 71
     0
 42
12.0
  3
txt.shx
  4
extfont.shx
  0
STYLE
  5
E86
100
AcDbSymbolTableRecord
100
AcDbTextStyleTableRecord
  2
MS-PGOTHIC
 70
     0
 40
0.0
 41
1.0
 50
0.0
 71
     0
 42
2.5
  3
MS PGothic.ttf
  4

1001
ACAD
1000
MS PGothic
1071
    32818
  0
STYLE
  5
E9D
100
AcDbSymbolTableRecord
100
AcDbTextStyleTableRecord
  2
ARIAL-B
 70
     0
 40
0.0
 41
1.0
 50
0.0
 71
     0
 42
4.0
  3
ariblk.TTF
  4

1001
ACAD
1000
Arial Black
1071
       34
  0
STYLE
  5
10B6
100
AcDbSymbolTableRecord
100
AcDbTextStyleTableRecord
  2
STANDARD1
 70
     0
 40
0.0
 41
1.0
 50
0.0
 71
     0
 42
2.8
  3
MONOTXT
  4
BIGFONT
  0
ENDTAB
  0
TABLE
  2
VIEW
  5
6
100
AcDbSymbolTable
 70
     0
  0
ENDTAB
  0
TABLE
  2
UCS
  5
7
100
AcDbSymbolTable
 70
     0
  0
ENDTAB
  0
TABLE
  2
APPID
  5
9
100
AcDbSymbolTable
 70
     6
  0
APPID
  5
10
100
AcDbSymbolTableRecord
100
AcDbRegAppTableRecord
  2
ACAD
 70
     0
  0
APPID
  5
E87
100
AcDbSymbolTableRecord
100
AcDbRegAppTableRecord
  2
CONTENTTABDATA
 70
     0
  0
APPID
  5
E88
100
AcDbSymbolTableRecord
100
AcDbRegAppTableRecord
  2
CONTENTCURRENTTAB
 70
     0
  0
APPID
  5
E99
100
AcDbSymbolTableRecord
100
AcDbRegAppTableRecord
  2
CONTENTBLOCKDESCRIPTION
 70
     0
  0
APPID
  5
E9A
100
AcDbSymbolTableRecord
100
AcDbRegAppTableRecord
  2
CONTENTBLOCKICON
 70
     0
  0
APPID
  5
F7B
100
AcDbSymbolTableRecord
100
AcDbRegAppTableRecord
  2
CONTENTLONGBLOCKNAME
 70
     0
  0
ENDTAB
  0
TABLE
  2
DIMSTYLE
  5
A
100
AcDbSymbolTable
 70
     2
  0
DIMSTYLE
105
E36
102
{ACAD_REACTORS
330
2072
330
2476
330
2483
330
24B9
330
24D1
102
}
100
AcDbSymbolTableRecord
100
AcDbDimStyleTableRecord
  2
STANDARD
 70
     0
  3

  4

  5

  6

  7

 40
1.0
 41
0.18
 42
0.0625
 43
0.38
 44
0.18
 45
0.0
 46
0.0
 47
0.0
 48
0.0
140
0.18
141
0.09
142
0.0
143
25.4
144
1.0
145
0.0
146
1.0
147
0.09
 71
     0
 72
     0
 73
     1
 74
     1
 75
     0
 76
     0
 77
     0
 78
     0
170
     0
171
     2
172
     0
173
     0
174
     0
175
     0
176
     0
177
     0
178
     0
270
     2
271
     4
272
     4
273
     2
274
     2
340
F
275
     0
280
     0
281
     0
282
     0
283
     1
284
     0
285
     0
286
     0
287
     3
288
     0
  0
DIMSTYLE
105
10B7
100
AcDbSymbolTableRecord
100
AcDbDimStyleTableRecord
  2
S1-2
 70
     0
  3

  4

  5

  6
_OPEN30
  7
_OPEN30
 40
2.0
 41
2.0
 42
1.0
 43
10.0
 44
1.0
 45
0.0
 46
0.0
 47
0.0
 48
0.0
140
2.8
141
-5.0
142
0.0
143
25.4
144
1.0
145
0.0
146
1.0
147
1.0
 71
     0
 72
     0
 73
     0
 74
     0
 75
     0
 76
     0
 77
     1
 78
    11
170
     0
171
     2
172
     1
173
     1
174
     0
175
     0
176
     0
177
     0
178
     0
270
     2
271
     8
272
     4
273
     2
274
     2
340
10B6
275
     0
280
     0
281
     0
282
     0
283
     1
284
     1
285
     0
286
     0
287
     0
288
     0
  0
ENDTAB
  0
TABLE
  2
BLOCK_RECORD
  5
1
100
AcDbSymbolTable
 70
    29
  0
BLOCK_RECORD
  5
18
100
AcDbSymbolTableRecord
100
AcDbBlockTableRecord
  2
*MODEL_SPACE
  0
BLOCK_RECORD
  5
15
100
AcDbSymbolTableRecord
100
AcDbBlockTableRecord
  2
*PAPER_SPACE
  0
BLOCK_RECORD
  5
140
100
AcDbSymbolTableRecord
100
AcDbBlockTableRecord
  2
*U0
  0
BLOCK_RECORD
  5
E61
100
AcDbSymbolTableRecord
100
AcDbBlockTableRecord
  2
_OPEN
  0
BLOCK_RECORD
  5
E74
100
AcDbSymbolTableRecord
100
AcDbBlockTableRecord
  2
_OPEN30
  0
BLOCK_RECORD
  5
E89
100
AcDbSymbolTableRecord
100
AcDbBlockTableRecord
  2
LINE
1001
CONTENTBLOCKICON
1071
        0
1004
280000002000000020000000010004000000000000020000000000000000000000000000000000000000000000008000008000000080800080000000800080008080000080808000C0C0C0000000FF0000FF000000FFFF00FF000000FF00FF00FFFF0000FFFFFF009FFBFFAFFEFFCFDFF0FFBFFAFFEFFEFF
1004
9FFBFFAFFEFFCFDFF0FFBFFAFFEFFEFF9FFBFFAFFEFFCFDFF0FFBFFAFFEFFEFF9FFBFFAFFEFFCFDFF0FFBFFAFFEFFEFF9FFBFFAFFEFFCFDFF0FFBFFAFFEFFEFF9FFBFFAFFEFFCFDFF0FFBFFAFFEFFEFF9FFBFFAFFEFFCFDFF0FFBFFAFFEFFEFF9FFBFFAFFEFFCFDFF0FFBFFAFFEFFEFF9FFBFFAFFEFFCFDF
1004
F0FFBFFAFFEFFEFF9FFBFFAFFEFFCFDFF0FFBFFAFFEFFEFF9FFBFFAFFEFFCFDFF0FFBFFAFFEFFEFF9FFBFFAFFEFFCFDFF0FFBFFAFFEFFEFF9FFBFFAFFEFFCFDFF0FFBFFAFFEFFEFF9FFBFFAFFEFFCFDFF0FFBFFAFFEFFEFF9FFBFFAFFEFFCFDFF0FFBFFAFFEFFEFF9FFBFFAFFEFFCFDFF0FFBFFAFFEFFEFF
1004
9FFBFFAFFEFFCFDFF0FFBFFAFFEFFEFF9FFBFFAFFEFFCFDFF0FFBFFAFFEFFEFF9FFBFFAFFEFFCFDFF0FFBFFAFFEFFEFF9FFBFFAFFEFFCFDFF0FFBFFAFFEFFEFF9FFBFFAFFEFFCFDFF0FFBFFAFFEFFEFF9FFBFFAFFEFFCFDFF0FFBFFAFFEFFEFF9FFBFFAFFEFFCFDFF0FFBFFAFFEFFEFF9FFBFFAFFEFFCFDF
1004
F0FFBFFAFFEFFEFF9FFBFFAFFEFFCFDFF0FFBFFAFFEFFEFF9FFBFFAFFEFFCFDFF0FFBFFAFFEFFEFF9FFBFFAFFEFFCFDFF0FFBFFAFFEFFEFF9FFBFFAFFEFFCFDFF0FFBFFAFFEFFEFF9FFBFFAFFEFFCFDFF0FFBFFAFFEFFEFF9FFBFFAFFEFFCFDFF0FFBFFAFFEFFEFF9FFBFFAFFEFFCFDFF0FFBFFAFFEFFEFF
1004
FFFFFFFFFFFFFFFFFFFFFFFFFFFFFFFF
  0
BLOCK_RECORD
  5
E9E
100
AcDbSymbolTableRecord
100
AcDbBlockTableRecord
  2
A3-O
1001
CONTENTBLOCKDESCRIPTION
1071
        0
1000
A3図面枠/外形図
1001
CONTENTBLOCKICON
1071
        0
1004
280000002000000020000000010004000000000000020000000000000000000000000000000000000000000000008000008000000080800080000000800080008080000080808000C0C0C0000000FF0000FF000000FFFF00FF000000FF00FF00FFFF0000FFFFFF00FFFFFFFFFFFFFFFFFFFFFFFFFFFFFFFF
1004
FFFFFFFFFFFFFFFFFFFFFFFFFFFFFFFFFFFFFFFFFFFFFFFFFFFFFFFFFFFFFFFFFFFFFFFFFFFFFFFFFFFFFFFFFFFFFFFF88F8F8888F8F8F8F7F8F8888F8F8F8FFFF777777777777777777777777777777FF78FFFFFFFFFFFFFFFF777777777777FF777777777777777777777777777777FF7FFFFFFFFFFFFF
1004
FFFFFFFFFFFFFFF7F87FFFFFFFFFFFFFFFFFFFFFFFFFFFF7FF7FFFFFFFFFFFFFFFFFFFFFFFFFFFF7F87FFFFFFFFFFFFFFFFFFFFFFFFFFFF7FF7FFFFFFFFFFFFFFFFFFFFFFFFFFFF7F87FFFFFFFFFFFFFFFFFFFFFFFFFFFF7FF7FFFFFFFFFFFFFFFFFFFFFFFFFFFF7777FFFFFFFFFFFFFFFFFFFFFFFFFFFF7
1004
FF7FFFFFFFFFFFFFFFFFFFFFFFFFFFF7F87FFFFFFFFFFFFFFFFFFFFFFFFFFFF7FF7FFFFFFFFFFFFFFFFFFFFFFFFFFFF7F87FFFFFFFFFFFFFFFFFFFFFFFFFFFF7FF7FFFFFFFFFFFFFFFFFFFFFFFFFFFF7F87FFFFFFFFFFFFFFFFFFFFFFFFFFFF7FF7FFFFFFFFFFFFFFFFFFFFFFFFFFFF7F87FFFFFFFFFFFFF
1004
FFFFFFFFFFFFFFF7F87FFFFFFFFFFFFFFFFFFFFFFFFFFFF7FF7F8777777777777777777777777777FF777777787777777777777777777777FFFFFFFFFFFFFFFFFFFFFFFFFFFFFFFFFFFFFFFFFFFFFFFFFFFFFFFFFFFFFFFFFFFFFFFFFFFFFFFFFFFFFFFFFFFFFFFFFFFFFFFFFFFFFFFFFFFFFFFFFFFFFFFF
1004
FFFFFFFFFFFFFFFFFFFFFFFFFFFFFFFF
  0
BLOCK_RECORD
  5
F7C
100
AcDbSymbolTableRecord
100
AcDbBlockTableRecord
  2
A3-TEXT
1001
CONTENTBLOCKDESCRIPTION
1071
        0
1000
A3図面枠/文字記入例
1001
CONTENTBLOCKICON
1071
        0
1004
280000002000000020000000010004000000000000020000000000000000000000000000000000000000000000008000008000000080800080000000800080008080000080808000C0C0C0000000FF0000FF000000FFFF00FF000000FF00FF00FFFF0000FFFFFF00FFFFFFFFFFFFFFFFFFFFFFFFFFFFFFFF
1004
FFFFFFFFFFFFFFFFFFFFFFFFFFFFFFFFFFFCFFFFFFFFFFFFFFFFFFFFFFFFFFFFFF0CCCFFFCCCCCFFFCCCCC0C0000000FFF0FCCFFFCCFFFFFFCCCFF0000000000FFFFCCFFFFFFFFFFFFFFFFFCC0000000FFFFFFFFFFFFFFFFFFFFFFFFCCFFFFFFFFFFFFFFFFFFFFFFFFFFFFFFFFFFFFFFFFFFFFFFFFFFFFFF
1004
FFFFFFFFFFFFFFFFFFFFFFFFFFFFFFFFFFFFFFFFFFFFFFFFFFFFFFFFFFFFFFFFFFFFFFFFFFFFFFFFFFFFFFFFFFFFFFFFFFFFFFFFFFFFFFFFFFFFFFFFFFFFFFFFFFFFFFFFFFFFFFFFFFFFFFFFFFFFFFFFFFFFFFFFFFFFFFFFFFFFFFFFFFFFFFFFFFFFFFFFFFFFFFFFFFFFFFFFFFFFFFFFFFFFFFFFFFFFFFFF
1004
FFFFFFFFFFFFFFFFFFFFFFFFFFFFFFFFFFFFFFFFFFFFFFFFFFFFFFFFFFFFFFFFFFFFFFFFFFFFFFFFFFFFFFFFFFFFFFFFFFFFFFFFFFFFFFFFFFFFFFFFFFFFFFFFFFFFFFFFFFFFFFFFFFFFFFFFFFFFFFFFFFFFFFFFFFFFFFFFFFFFFFFFFFFFFFFFFFFFFFFFFFFFFFFFFFFFFFFFFFFFFFFFFFFFF0000FF00000
1004
FFFFFFFFFFFFFFFFFFFFF0000FF00000FFFFFFFFFFFFFFFFFFFFFFFFFFFFFFFFFFFFFFFFFFFFFFFFFFFFFFFFFFFFFFFFFFFFFFFFFFFFFFFFFFFFFFFFFFFFFFFFFFFFFFFFFFFFFFFFFFFFFFFFFFFFFFFFFFFFFFFFFFFFFFFFFFFFFFFFFFFFFFFFFFFFFFFFFFFFFFFFFFFFFFFFFFFFFFFFFFFFFFFFFFFFFFFF
1004
FFFFFFFFFFFFFFFFFFFFFFFFFFFFFFFF
  0
BLOCK_RECORD
  5
10B8
100
AcDbSymbolTableRecord
100
AcDbBlockTableRecord
  2
KOSA
1001
CONTENTBLOCKDESCRIPTION
1071
        0
1000
外形図用寸法公差
1001
CONTENTBLOCKICON
1071
        0
1004
280000002000000020000000010004000000000000020000000000000000000000000000000000000000000000008000008000000080800080000000800080008080000080808000C0C0C0000000FF0000FF000000FFFF00FF000000FF00FF00FFFF0000FFFFFF00FFFFFFFFFFFFFFFFFFFFFFFFFFFFFFFF
1004
FFFFFFFFFFFFFFFFFFFFFFFFFFFFFFFFFFFFFFFFFFFFFFFFFFFFFFFFFFFFFFFFFFFFFFFFFFFFFFFFFFFFFFFFFFFFFFFFFFFFFFFFFFFFFFFFFFFFFFFFFFFFFFFFFFFFFFFFFFFFFFFFFFFFFFFFFFFFFFFFFFFFFFFFFFFFFFFFFFFFFFFFFFFFFFFFFFFFFAF00000000000FFAF00FFAFFFFFFFFFFAF000000000
1004
00FFAF00FFAFFFFFFFFFFA0000000000000AAA00AAAFFFFFFFFFFA0000000000000FAF00FFAFFFFFFFFFFA000000000000AAAA00AAAFFFFFFFFFFA0000000000000FAF00FFAFFFFFFFFFFA00A0000A00000AAA00AAAFFFFFFFFFFA0000000F00000FAF00FFAFFFFFFFFFFA0000000000000AAA00AAAFFFFF
1004
FFFFFA0000000F00000FAF00FFAFFFFFFFFFFA0000000A00000AAA00AAAFFFFFFFFFFAFFFF00000FFFFFA00000AFFFFFFFFFFAFFFF00000FFFFFA00F0FAFFFFFFFFFFAAAA000A000AAAAA0000AAFFFFFFFFFFAFFF0000000FFFFA0000FAFFFFFFFFFFA00000000000000000000AFFFFFFFFFFA0000000000
1004
0000000000AFFFFFFFFFFAAAAAAAAAAAAAAAAAAAAAAFFFFFFFFFFFFFFFFFFFFFFFFFFFFFFFFFFFFFFFFFFFFFFFFFFFFFFFFFFFFFFFFFFFFFFFFFFFFFFFFFFFFFFFFFFFFFFFFFFFFFFFFFFFFFFFFFFFFFFFFFFFFFFFFFFFFFFFFFFFFFFFFFFFFFFFFFFFFFFFFFFFFFFFFFFFFFFFFFFFFFFFFFFFFFFFFFFFFF
1004
FFFFFFFFFFFFFFFFFFFFFFFFFFFFFFFF
  0
BLOCK_RECORD
  5
1D16
100
AcDbSymbolTableRecord
100
AcDbBlockTableRecord
  2
*D19
  0
BLOCK_RECORD
  5
1D21
100
AcDbSymbolTableRecord
100
AcDbBlockTableRecord
  2
A$C3DD13D24
  0
BLOCK_RECORD
  5
2067
100
AcDbSymbolTableRecord
100
AcDbBlockTableRecord
  2
*D21
  0
BLOCK_RECORD
  5
246A
100
AcDbSymbolTableRecord
100
AcDbBlockTableRecord
  2
*D23
  0
BLOCK_RECORD
  5
2477
100
AcDbSymbolTableRecord
100
AcDbBlockTableRecord
  2
*D24
  0
BLOCK_RECORD
  5
24B0
100
AcDbSymbolTableRecord
100
AcDbBlockTableRecord
  2
*D27
  0
BLOCK_RECORD
  5
24C5
100
AcDbSymbolTableRecord
100
AcDbBlockTableRecord
  2
*D28
  0
ENDTAB
  0
ENDSEC
  0
SECTION
  2
BLOCKS
  0
BLOCK
  5
19
100
AcDbEntity
  8
0
100
AcDbBlockBegin
  2
*MODEL_SPACE
 70
     0
 10
0.0
 20
0.0
 30
0.0
  3
*MODEL_SPACE
  1

  0
ENDBLK
  5
1A
100
AcDbEntity
  8
0
100
AcDbBlockEnd
  0
BLOCK
  5
16
100
AcDbEntity
 67
     1
  8
0
100
AcDbBlockBegin
  2
*PAPER_SPACE
 70
     0
 10
0.0
 20
0.0
 30
0.0
  3
*PAPER_SPACE
  1

  0
ENDBLK
  5
17
100
AcDbEntity
 67
     1
  8
0
100
AcDbBlockEnd
  0
BLOCK
  5
141
100
AcDbEntity
  8
0
  6
BYBLOCK
 62
     2
100
AcDbBlockBegin
  2
*U0
 70
     1
 10
0.0
 20
0.0
 30
0.0
  3
*U0
  1

  0
TEXT
  5
142
100
AcDbEntity
  8
0
  6
BYBLOCK
 62
     2
100
AcDbText
 10
33.75
 20
35.55
 30
0.0
 40
3.0
  1
 
 50
90.0
 41
1.333333
 72
     5
 11
33.75
 21
37.95
 31
0.0
100
AcDbText
  0
ENDBLK
  5
143
100
AcDbEntity
  8
0
100
AcDbBlockEnd
  0
BLOCK
  5
E62
100
AcDbEntity
  8
0
100
AcDbBlockBegin
  2
_OPEN
 70
     0
 10
0.0
 20
0.0
 30
0.0
  3
_OPEN
  1

  0
LINE
  5
E63
100
AcDbEntity
  8
0
  6
BYBLOCK
 62
     0
100
AcDbLine
 10
-1.0
 20
0.166667
 30
0.0
 11
0.0
 21
0.0
 31
0.0
  0
LINE
  5
E64
100
AcDbEntity
  8
0
  6
BYBLOCK
 62
     0
100
AcDbLine
 10
0.0
 20
0.0
 30
0.0
 11
-1.0
 21
-0.166667
 31
0.0
  0
LINE
  5
E65
100
AcDbEntity
  8
0
  6
BYBLOCK
 62
     0
100
AcDbLine
 10
0.0
 20
0.0
 30
0.0
 11
-1.0
 21
0.0
 31
0.0
  0
ENDBLK
  5
E66
100
AcDbEntity
  8
0
100
AcDbBlockEnd
  0
BLOCK
  5
E78
100
AcDbEntity
  8
0
100
AcDbBlockBegin
  2
_OPEN30
 70
     0
 10
0.0
 20
0.0
 30
0.0
  3
_OPEN30
  1

  0
LINE
  5
E75
100
AcDbEntity
  8
0
  6
BYBLOCK
 62
     0
100
AcDbLine
 10
-1.0
 20
0.267949
 30
0.0
 11
0.0
 21
0.0
 31
0.0
  0
LINE
  5
E76
100
AcDbEntity
  8
0
  6
BYBLOCK
 62
     0
100
AcDbLine
 10
0.0
 20
0.0
 30
0.0
 11
-1.0
 21
-0.267949
 31
0.0
  0
LINE
  5
E77
100
AcDbEntity
  8
0
  6
BYBLOCK
 62
     0
100
AcDbLine
 10
0.0
 20
0.0
 30
0.0
 11
-1.0
 21
0.0
 31
0.0
  0
ENDBLK
  5
E79
100
AcDbEntity
  8
0
100
AcDbBlockEnd
  0
BLOCK
  5
E96
100
AcDbEntity
  8
0
100
AcDbBlockBegin
  2
LINE
 70
     0
 10
0.0
 20
0.0
 30
0.0
  3
LINE
  1

  0
LINE
  5
E8A
100
AcDbEntity
  8
実線-太
100
AcDbLine
 10
10.0
 20
0.0
 30
0.0
 11
10.0
 21
100.0
 31
0.0
  0
LINE
  5
E8B
100
AcDbEntity
  8
実線
100
AcDbLine
 10
20.0
 20
0.0
 30
0.0
 11
20.0
 21
100.0
 31
0.0
  0
LINE
  5
E8C
100
AcDbEntity
  8
実線-細
100
AcDbLine
 10
30.0
 20
0.0
 30
0.0
 11
30.0
 21
100.0
 31
0.0
  0
LINE
  5
E8D
100
AcDbEntity
  8
実線-極細
100
AcDbLine
 10
40.0
 20
0.0
 30
0.0
 11
40.0
 21
100.0
 31
0.0
  0
LINE
  5
E8E
100
AcDbEntity
  8
非表示
100
AcDbLine
 10
50.0
 20
0.0
 30
0.0
 11
50.0
 21
100.0
 31
0.0
  0
LINE
  5
E8F
100
AcDbEntity
  8
0
100
AcDbLine
 10
60.0
 20
0.0
 30
0.0
 11
60.0
 21
100.0
 31
0.0
  0
LINE
  5
E90
100
AcDbEntity
  8
寸法
100
AcDbLine
 10
70.0
 20
0.0
 30
0.0
 11
70.0
 21
100.0
 31
0.0
  0
LINE
  5
E91
100
AcDbEntity
  8
破線
100
AcDbLine
 10
80.0
 20
0.0
 30
0.0
 11
80.0
 21
100.0
 31
0.0
  0
LINE
  5
E92
100
AcDbEntity
  8
一点鎖線
100
AcDbLine
 10
90.0
 20
0.0
 30
0.0
 11
90.0
 21
100.0
 31
0.0
  0
LINE
  5
E93
100
AcDbEntity
  8
二点鎖線
100
AcDbLine
 10
100.0
 20
0.0
 30
0.0
 11
100.0
 21
100.0
 31
0.0
  0
LINE
  5
E94
100
AcDbEntity
  8
実線-極太
100
AcDbLine
 10
0.0
 20
0.0
 30
0.0
 11
0.0
 21
100.0
 31
0.0
  0
LINE
  5
E95
100
AcDbEntity
  8
図面枠
100
AcDbLine
 10
110.0
 20
0.0
 30
0.0
 11
110.0
 21
100.0
 31
0.0
  0
ENDBLK
  5
E97
100
AcDbEntity
  8
0
100
AcDbBlockEnd
  0
BLOCK
  5
F77
100
AcDbEntity
  8
0
100
AcDbBlockBegin
  2
A3-O
 70
     0
 10
0.0
 20
0.0
 30
0.0
  3
A3-O
  1

  0
LINE
  5
E9F
100
AcDbEntity
  8
図面枠-太
100
AcDbLine
 10
200.0
 20
-138.5
 30
0.0
 11
-190.0
 21
-138.5
 31
0.0
  0
LINE
  5
EA0
100
AcDbEntity
  8
図面枠-太
100
AcDbLine
 10
-190.0
 20
138.5
 30
0.0
 11
200.0
 21
138.5
 31
0.0
  0
LINE
  5
EA1
100
AcDbEntity
  8
図面枠-太
100
AcDbLine
 10
200.0
 20
-108.5
 30
0.0
 11
-190.0
 21
-108.5
 31
0.0
  0
LINE
  5
EA2
100
AcDbEntity
  8
図面枠-太
100
AcDbLine
 10
-154.0
 20
132.5
 30
0.0
 11
200.0
 21
132.5
 31
0.0
  0
LINE
  5
EA3
100
AcDbEntity
  8
図面枠-太
100
AcDbLine
 10
-190.0
 20
138.5
 30
0.0
 11
-190.0
 21
-138.5
 31
0.0
  0
LINE
  5
EA4
100
AcDbEntity
  8
図面枠-太
100
AcDbLine
 10
-184.0
 20
-108.5
 30
0.0
 11
-184.0
 21
-138.5
 31
0.0
  0
LINE
  5
EA5
100
AcDbEntity
  8
図面枠
100
AcDbLine
 10
-174.0
 20
-108.5
 30
0.0
 11
-174.0
 21
-138.5
 31
0.0
  0
TEXT
  5
EA6
100
AcDbEntity
  8
図面枠-細
100
AcDbText
 10
-185.25
 20
-135.633333
 30
0.0
 40
3.5
  1
改定 CHANGE
 50
90.0
 41
0.8
 72
     1
 11
-187.0
 21
-123.5
 31
0.0
100
AcDbText
 73
     2
  0
TEXT
  5
EA7
100
AcDbEntity
  8
図面枠-細
100
AcDbText
 10
-175.5
 20
-142.5
 30
0.0
 40
3.0
  1
1
 72
     1
 11
-175.0
 21
-141.0
 31
0.0
100
AcDbText
 73
     2
  0
LINE
  5
EA8
100
AcDbEntity
  8
図面枠
100
AcDbLine
 10
-180.0
 20
-114.5
 30
0.0
 11
-174.0
 21
-114.5
 31
0.0
  0
LINE
  5
EA9
100
AcDbEntity
  8
図面枠
100
AcDbLine
 10
-180.0
 20
-114.5
 30
0.0
 11
-180.0
 21
-108.5
 31
0.0
  0
TEXT
  5
EAA
100
AcDbEntity
  8
図面枠-細
100
AcDbText
 10
-175.0
 20
-112.833333
 30
0.0
 40
4.0
  1
A
 50
90.0
 72
     1
 11
-177.0
 21
-111.5
 31
0.0
100
AcDbText
 73
     2
  0
TEXT
  5
EAB
100
AcDbEntity
  8
図面枠-細
100
AcDbText
 10
-193.5
 20
-78.0
 30
0.0
 40
3.0
  1
e
 72
     1
 11
-192.5
 21
-76.5
 31
0.0
100
AcDbText
 73
     2
  0
LINE
  5
EAC
100
AcDbEntity
  8
図面枠-太
100
AcDbLine
 10
-190.0
 20
-1.5
 30
0.0
 11
-210.0
 21
-1.5
 31
0.0
  0
LINE
  5
EAD
100
AcDbEntity
  8
図面枠
100
AcDbLine
 10
-190.0
 20
-51.5
 30
0.0
 11
-200.0
 21
-51.5
 31
0.0
  0
TEXT
  5
EAE
100
AcDbEntity
  8
図面枠-細
100
AcDbText
 10
-193.5
 20
-28.0
 30
0.0
 40
3.0
  1
d
 72
     1
 11
-192.5
 21
-26.5
 31
0.0
100
AcDbText
 73
     2
  0
LINE
  5
EAF
100
AcDbEntity
  8
図面枠
100
AcDbLine
 10
-150.0
 20
-143.5
 30
0.0
 11
-150.0
 21
-138.5
 31
0.0
  0
TEXT
  5
EB0
100
AcDbEntity
  8
図面枠-細
100
AcDbText
 10
-126.0
 20
-142.5
 30
0.0
 40
3.0
  1
2
 72
     1
 11
-125.0
 21
-141.0
 31
0.0
100
AcDbText
 73
     2
  0
LINE
  5
EB1
100
AcDbEntity
  8
図面枠
100
AcDbLine
 10
-100.0
 20
-143.5
 30
0.0
 11
-100.0
 21
-138.5
 31
0.0
  0
TEXT
  5
EB2
100
AcDbEntity
  8
図面枠-細
100
AcDbText
 10
-76.0
 20
-142.5
 30
0.0
 40
3.0
  1
3
 72
     1
 11
-75.0
 21
-141.0
 31
0.0
100
AcDbText
 73
     2
  0
LINE
  5
EB3
100
AcDbEntity
  8
図面枠
100
AcDbLine
 10
-50.0
 20
-143.5
 30
0.0
 11
-50.0
 21
-138.5
 31
0.0
  0
LINE
  5
EB4
100
AcDbEntity
  8
図面枠-太
100
AcDbLine
 10
0.0
 20
-148.5
 30
0.0
 11
0.0
 21
-138.5
 31
0.0
  0
TEXT
  5
EB5
100
AcDbEntity
  8
図面枠-細
100
AcDbText
 10
-26.0
 20
-142.5
 30
0.0
 40
3.0
  1
4
 72
     1
 11
-25.0
 21
-141.0
 31
0.0
100
AcDbText
 73
     2
  0
TEXT
  5
EB6
100
AcDbEntity
  8
図面枠-細
100
AcDbText
 10
-193.5
 20
22.0
 30
0.0
 40
3.0
  1
c
 72
     1
 11
-192.5
 21
23.5
 31
0.0
100
AcDbText
 73
     2
  0
LINE
  5
EB7
100
AcDbEntity
  8
図面枠
100
AcDbLine
 10
-190.0
 20
48.5
 30
0.0
 11
-200.0
 21
48.5
 31
0.0
  0
TEXT
  5
EB8
100
AcDbEntity
  8
図面枠-細
100
AcDbText
 10
-193.5
 20
72.0
 30
0.0
 40
3.0
  1
b
 72
     1
 11
-192.5
 21
73.5
 31
0.0
100
AcDbText
 73
     2
  0
LINE
  5
EB9
100
AcDbEntity
  8
図面枠
100
AcDbLine
 10
-190.0
 20
98.5
 30
0.0
 11
-200.0
 21
98.5
 31
0.0
  0
TEXT
  5
EBA
100
AcDbEntity
  8
図面枠-細
100
AcDbText
 10
-193.5
 20
122.0
 30
0.0
 40
3.0
  1
a
 72
     1
 11
-192.5
 21
123.5
 31
0.0
100
AcDbText
 73
     2
  0
TEXT
  5
EBB
100
AcDbEntity
  8
図面枠-細
100
AcDbText
 10
-175.5
 20
139.5
 30
0.0
 40
3.0
  1
1
 72
     1
 11
-175.0
 21
141.0
 31
0.0
100
AcDbText
 73
     2
  0
LINE
  5
EBC
100
AcDbEntity
  8
図面枠
100
AcDbLine
 10
-144.0
 20
138.5
 30
0.0
 11
-144.0
 21
132.5
 31
0.0
  0
LINE
  5
EBD
100
AcDbEntity
  8
図面枠-太
100
AcDbLine
 10
-154.0
 20
138.5
 30
0.0
 11
-154.0
 21
132.5
 31
0.0
  0
TEXT
  5
EBE
100
AcDbEntity
  8
図面枠-細
100
AcDbText
 10
-152.808
 20
132.7
 30
0.0
 40
2.8
  1
コード
 41
0.8
 72
     1
 11
-149.0
 21
134.1
 31
0.0
100
AcDbText
 73
     2
  0
TEXT
  5
EBF
100
AcDbEntity
  8
図面枠-細
100
AcDbText
 10
-152.08
 20
135.5
 30
0.0
 40
2.8
  1
区分
 72
     1
 11
-149.0
 21
136.9
 31
0.0
100
AcDbText
 73
     2
  0
LINE
  5
EC0
100
AcDbEntity
  8
図面枠
100
AcDbLine
 10
-150.0
 20
138.5
 30
0.0
 11
-150.0
 21
143.5
 31
0.0
  0
TEXT
  5
EC1
100
AcDbEntity
  8
図面枠-細
100
AcDbText
 10
-126.0
 20
139.5
 30
0.0
 40
3.0
  1
2
 72
     1
 11
-125.0
 21
141.0
 31
0.0
100
AcDbText
 73
     2
  0
LINE
  5
EC2
100
AcDbEntity
  8
図面枠
100
AcDbLine
 10
-125.0
 20
138.5
 30
0.0
 11
-125.0
 21
132.5
 31
0.0
  0
LINE
  5
EC3
100
AcDbEntity
  8
図面枠
100
AcDbLine
 10
-138.0
 20
137.5
 30
0.0
 11
-138.0
 21
138.5
 31
0.0
  0
LINE
  5
EC4
100
AcDbEntity
  8
図面枠-太
100
AcDbLine
 10
-135.0
 20
138.5
 30
0.0
 11
-135.0
 21
132.5
 31
0.0
  0
LINE
  5
EC5
100
AcDbEntity
  8
図面枠
100
AcDbLine
 10
-141.0
 20
137.5
 30
0.0
 11
-141.0
 21
138.5
 31
0.0
  0
TEXT
  5
EC6
100
AcDbEntity
  8
図面枠-細
100
AcDbText
 10
-132.986667
 20
135.1
 30
0.0
 40
2.8
  1
表題
 72
     1
 11
-130.0
 21
136.5
 31
0.0
100
AcDbText
 73
     2
  0
TEXT
  5
EC7
100
AcDbEntity
  8
図面枠-細
100
AcDbText
 10
-133.466667
 20
133.1
 30
0.0
 40
2.0
  1
TITLE
 41
0.8
 72
     1
 11
-130.0
 21
134.1
 31
0.0
100
AcDbText
 73
     2
  0
LINE
  5
EC8
100
AcDbEntity
  8
図面枠
100
AcDbLine
 10
-104.0
 20
137.5
 30
0.0
 11
-104.0
 21
138.5
 31
0.0
  0
LINE
  5
EC9
100
AcDbEntity
  8
図面枠
100
AcDbLine
 10
-110.0
 20
137.5
 30
0.0
 11
-110.0
 21
138.5
 31
0.0
  0
LINE
  5
ECA
100
AcDbEntity
  8
図面枠
100
AcDbLine
 10
-107.0
 20
137.5
 30
0.0
 11
-107.0
 21
138.5
 31
0.0
  0
LINE
  5
ECB
100
AcDbEntity
  8
図面枠
100
AcDbLine
 10
-113.0
 20
137.5
 30
0.0
 11
-113.0
 21
138.5
 31
0.0
  0
LINE
  5
ECC
100
AcDbEntity
  8
図面枠
100
AcDbLine
 10
-116.0
 20
137.5
 30
0.0
 11
-116.0
 21
138.5
 31
0.0
  0
LINE
  5
ECD
100
AcDbEntity
  8
図面枠
100
AcDbLine
 10
-122.0
 20
137.5
 30
0.0
 11
-122.0
 21
138.5
 31
0.0
  0
LINE
  5
ECE
100
AcDbEntity
  8
図面枠
100
AcDbLine
 10
-119.0
 20
137.5
 30
0.0
 11
-119.0
 21
138.5
 31
0.0
  0
LINE
  5
ECF
100
AcDbEntity
  8
図面枠
100
AcDbLine
 10
-86.0
 20
137.5
 30
0.0
 11
-86.0
 21
138.5
 31
0.0
  0
LINE
  5
ED0
100
AcDbEntity
  8
図面枠
100
AcDbLine
 10
-83.0
 20
137.5
 30
0.0
 11
-83.0
 21
138.5
 31
0.0
  0
LINE
  5
ED1
100
AcDbEntity
  8
図面枠
100
AcDbLine
 10
-89.0
 20
137.5
 30
0.0
 11
-89.0
 21
138.5
 31
0.0
  0
LINE
  5
ED2
100
AcDbEntity
  8
図面枠
100
AcDbLine
 10
-92.0
 20
137.5
 30
0.0
 11
-92.0
 21
138.5
 31
0.0
  0
LINE
  5
ED3
100
AcDbEntity
  8
図面枠
100
AcDbLine
 10
-98.0
 20
137.5
 30
0.0
 11
-98.0
 21
138.5
 31
0.0
  0
LINE
  5
ED4
100
AcDbEntity
  8
図面枠
100
AcDbLine
 10
-95.0
 20
137.5
 30
0.0
 11
-95.0
 21
138.5
 31
0.0
  0
LINE
  5
ED5
100
AcDbEntity
  8
図面枠
100
AcDbLine
 10
-101.0
 20
137.5
 30
0.0
 11
-101.0
 21
138.5
 31
0.0
  0
LINE
  5
ED6
100
AcDbEntity
  8
図面枠
100
AcDbLine
 10
-100.0
 20
138.5
 30
0.0
 11
-100.0
 21
143.5
 31
0.0
  0
TEXT
  5
ED7
100
AcDbEntity
  8
図面枠-細
100
AcDbText
 10
-76.0
 20
139.5
 30
0.0
 40
3.0
  1
3
 72
     1
 11
-75.0
 21
141.0
 31
0.0
100
AcDbText
 73
     2
  0
LINE
  5
ED8
100
AcDbEntity
  8
図面枠-太
100
AcDbLine
 10
-80.0
 20
138.5
 30
0.0
 11
-80.0
 21
132.5
 31
0.0
  0
TEXT
  5
ED9
100
AcDbEntity
  8
図面枠-細
100
AcDbText
 10
-77.68
 20
133.1
 30
0.0
 40
2.0
  1
DRAWING NO.
 41
0.8
 72
     1
 11
-70.0
 21
134.1
 31
0.0
100
AcDbText
 73
     2
  0
TEXT
  5
EDA
100
AcDbEntity
  8
図面枠-細
100
AcDbText
 10
-76.44
 20
135.1
 30
0.0
 40
2.8
  1
図面番号
 72
     1
 11
-70.0
 21
136.5
 31
0.0
100
AcDbText
 73
     2
  0
LINE
  5
EDB
100
AcDbEntity
  8
図面枠
100
AcDbLine
 10
-45.0
 20
137.5
 30
0.0
 11
-45.0
 21
138.5
 31
0.0
  0
LINE
  5
EDC
100
AcDbEntity
  8
図面枠
100
AcDbLine
 10
-42.0
 20
137.5
 30
0.0
 11
-42.0
 21
138.5
 31
0.0
  0
LINE
  5
EDD
100
AcDbEntity
  8
図面枠
100
AcDbLine
 10
-48.0
 20
137.5
 30
0.0
 11
-48.0
 21
138.5
 31
0.0
  0
LINE
  5
EDE
100
AcDbEntity
  8
図面枠
100
AcDbLine
 10
-51.0
 20
137.5
 30
0.0
 11
-51.0
 21
138.5
 31
0.0
  0
LINE
  5
EDF
100
AcDbEntity
  8
図面枠
100
AcDbLine
 10
-57.0
 20
137.5
 30
0.0
 11
-57.0
 21
138.5
 31
0.0
  0
LINE
  5
EE0
100
AcDbEntity
  8
図面枠
100
AcDbLine
 10
-54.0
 20
137.5
 30
0.0
 11
-54.0
 21
138.5
 31
0.0
  0
LINE
  5
EE1
100
AcDbEntity
  8
図面枠
100
AcDbLine
 10
-60.0
 20
138.5
 30
0.0
 11
-60.0
 21
132.5
 31
0.0
  0
LINE
  5
EE2
100
AcDbEntity
  8
図面枠
100
AcDbLine
 10
-50.0
 20
138.5
 30
0.0
 11
-50.0
 21
143.5
 31
0.0
  0
LINE
  5
EE3
100
AcDbEntity
  8
図面枠-太
100
AcDbLine
 10
0.0
 20
138.5
 30
0.0
 11
0.0
 21
148.5
 31
0.0
  0
TEXT
  5
EE4
100
AcDbEntity
  8
図面枠-細
100
AcDbText
 10
-26.0
 20
139.5
 30
0.0
 40
3.0
  1
4
 72
     1
 11
-25.0
 21
141.0
 31
0.0
100
AcDbText
 73
     2
  0
LINE
  5
EE5
100
AcDbEntity
  8
図面枠
100
AcDbLine
 10
-23.0
 20
137.5
 30
0.0
 11
-23.0
 21
138.5
 31
0.0
  0
LINE
  5
EE6
100
AcDbEntity
  8
図面枠
100
AcDbLine
 10
-26.0
 20
138.5
 30
0.0
 11
-26.0
 21
132.5
 31
0.0
  0
LINE
  5
EE7
100
AcDbEntity
  8
図面枠
100
AcDbLine
 10
-39.0
 20
137.5
 30
0.0
 11
-39.0
 21
138.5
 31
0.0
  0
LINE
  5
EE8
100
AcDbEntity
  8
図面枠-太
100
AcDbLine
 10
-36.0
 20
138.5
 30
0.0
 11
-36.0
 21
132.5
 31
0.0
  0
TEXT
  5
EE9
100
AcDbEntity
  8
図面枠-細
100
AcDbText
 10
-32.6
 20
133.1
 30
0.0
 40
2.0
  1
P.G
 41
0.8
 72
     1
 11
-31.0
 21
134.1
 31
0.0
100
AcDbText
 73
     2
  0
TEXT
  5
EEA
100
AcDbEntity
  8
図面枠-細
100
AcDbText
 10
-35.458667
 20
135.75
 30
0.0
 40
1.9
  1
シート総数
 41
0.8
 72
     1
 11
-31.0
 21
136.7
 31
0.0
100
AcDbText
 73
     2
  0
LINE
  5
EEB
100
AcDbEntity
  8
図面枠
100
AcDbLine
 10
-7.0
 20
138.5
 30
0.0
 11
-7.0
 21
132.5
 31
0.0
  0
TEXT
  5
EEC
100
AcDbEntity
  8
図面枠-細
100
AcDbText
 10
-14.986667
 20
135.1
 30
0.0
 40
2.8
  1
副番
 72
     1
 11
-12.0
 21
136.5
 31
0.0
100
AcDbText
 73
     2
  0
TEXT
  5
EED
100
AcDbEntity
  8
図面枠-細
100
AcDbText
 10
-14.4
 20
133.1
 30
0.0
 40
2.0
  1
REV
 41
0.8
 72
     1
 11
-12.0
 21
134.1
 31
0.0
100
AcDbText
 73
     2
  0
LINE
  5
EEE
100
AcDbEntity
  8
図面枠
100
AcDbLine
 10
-20.0
 20
137.5
 30
0.0
 11
-20.0
 21
138.5
 31
0.0
  0
LINE
  5
EEF
100
AcDbEntity
  8
図面枠-太
100
AcDbLine
 10
-17.0
 20
138.5
 30
0.0
 11
-17.0
 21
132.5
 31
0.0
  0
LINE
  5
EF0
100
AcDbEntity
  8
図面枠-太
100
AcDbLine
 10
200.0
 20
138.5
 30
0.0
 11
200.0
 21
-138.5
 31
0.0
  0
LINE
  5
EF1
100
AcDbEntity
  8
図面枠-太
100
AcDbLine
 10
200.0
 20
-124.5
 30
0.0
 11
53.0
 21
-124.5
 31
0.0
  0
LINE
  5
EF2
100
AcDbEntity
  8
図面枠-太
100
AcDbLine
 10
128.0
 20
-108.5
 30
0.0
 11
128.0
 21
-138.5
 31
0.0
  0
LINE
  5
EF3
100
AcDbEntity
  8
図面枠
100
AcDbLine
 10
108.0
 20
-108.5
 30
0.0
 11
108.0
 21
-119.5
 31
0.0
  0
TEXT
  5
EF4
100
AcDbEntity
  8
図面枠-細
100
AcDbText
 10
101.866667
 20
-117.5
 30
0.0
 40
2.0
  1
NTS
 41
0.8
 72
     1
 11
104.0
 21
-116.5
 31
0.0
100
AcDbText
 73
     2
  0
LINE
  5
EF5
100
AcDbEntity
  8
図面枠-太
100
AcDbLine
 10
88.0
 20
-108.5
 30
0.0
 11
88.0
 21
-119.5
 31
0.0
  0
LINE
  5
EF6
100
AcDbEntity
  8
図面枠-太
100
AcDbLine
 10
73.0
 20
-108.5
 30
0.0
 11
73.0
 21
-119.5
 31
0.0
  0
TEXT
  5
EF7
100
AcDbEntity
  8
図面枠-細
100
AcDbText
 10
79.38
 20
-116.4
 30
0.0
 40
2.8
  1
IN
 41
0.6
 72
     1
 11
80.5
 21
-115.0
 31
0.0
100
AcDbText
 73
     2
  0
LINE
  5
EF8
100
AcDbEntity
  8
図面枠-細
100
AcDbLine
 10
69.0
 20
-114.0
 30
0.0
 11
69.0
 21
-118.0
 31
0.0
  0
LINE
  5
EF9
100
AcDbEntity
  8
図面枠
100
AcDbLine
 10
98.339285
 20
-114.87292
 30
0.0
 11
91.360715
 21
-118.12708
 31
0.0
  0
LINE
  5
EFA
100
AcDbEntity
  8
図面枠-太
100
AcDbLine
 10
53.0
 20
-108.5
 30
0.0
 11
53.0
 21
-138.5
 31
0.0
  0
LINE
  5
EFB
100
AcDbEntity
  8
図面枠-細
100
AcDbLine
 10
65.0
 20
-117.0
 30
0.0
 11
65.0
 21
-115.0
 31
0.0
  0
LINE
  5
EFC
100
AcDbEntity
  8
図面枠-細
  6
CENTER
100
AcDbLine
 10
58.0
 20
-112.8
 30
0.0
 11
58.0
 21
-119.2
 31
0.0
  0
CIRCLE
  5
EFD
100
AcDbEntity
  8
図面枠-細
100
AcDbCircle
 10
58.0
 20
-116.0
 30
0.0
 40
1.6
  0
CIRCLE
  5
EFE
100
AcDbEntity
  8
図面枠-細
100
AcDbCircle
 10
58.0
 20
-116.0
 30
0.0
 40
2.5
  0
LINE
  5
EFF
100
AcDbEntity
  8
図面枠-太
100
AcDbLine
 10
128.0
 20
-119.5
 30
0.0
 11
53.0
 21
-119.5
 31
0.0
  0
LINE
  5
F00
100
AcDbEntity
  8
図面枠
100
AcDbLine
 10
128.0
 20
-129.5
 30
0.0
 11
53.0
 21
-129.5
 31
0.0
  0
TEXT
  5
F01
100
AcDbEntity
  8
図面枠-細
100
AcDbText
 10
24.0
 20
-142.5
 30
0.0
 40
3.0
  1
5
 72
     1
 11
25.0
 21
-141.0
 31
0.0
100
AcDbText
 73
     2
  0
LINE
  5
F02
100
AcDbEntity
  8
図面枠
100
AcDbLine
 10
60.785865
 20
-121.53406
 30
0.0
 11
61.489368
 21
-122.733717
 31
0.0
  0
LINE
  5
F03
100
AcDbEntity
  8
図面枠
100
AcDbLine
 10
50.0
 20
-143.5
 30
0.0
 11
50.0
 21
-138.5
 31
0.0
  0
TEXT
  5
F04
100
AcDbEntity
  8
図面枠-細
100
AcDbText
 10
79.083333
 20
-119.25
 30
0.0
 40
2.0
  1
mm
 41
0.85
 72
     1
 11
80.5
 21
-118.25
 31
0.0
100
AcDbText
 73
     2
  0
LINE
  5
F05
100
AcDbEntity
  8
図面枠
100
AcDbLine
 10
68.0
 20
-130.5
 30
0.0
 11
68.0
 21
-129.5
 31
0.0
  0
LINE
  5
F06
100
AcDbEntity
  8
図面枠
100
AcDbLine
 10
68.0
 20
-137.5
 30
0.0
 11
68.0
 21
-138.5
 31
0.0
  0
TEXT
  5
F07
100
AcDbEntity
  8
図面枠-細
100
AcDbText
 10
74.0
 20
-142.5
 30
0.0
 40
3.0
  1
6
 72
     1
 11
75.0
 21
-141.0
 31
0.0
100
AcDbText
 73
     2
  0
LINE
  5
F08
100
AcDbEntity
  8
図面枠-細
100
AcDbLine
 10
69.0
 20
-118.0
 30
0.0
 11
65.0
 21
-117.0
 31
0.0
  0
TEXT
  5
F09
100
AcDbEntity
  8
図面枠-細
100
AcDbText
 10
63.833333
 20
-127.25
 30
0.0
 40
2.5
  1
検  認
 72
     1
 11
68.0
 21
-126.0
 31
0.0
100
AcDbText
 73
     2
  0
TEXT
  5
F0A
100
AcDbEntity
  8
図面枠-細
100
AcDbText
 10
62.4
 20
-128.95
 30
0.0
 40
1.4
  1
APPROVED
 72
     1
 11
68.0
 21
-128.25
 31
0.0
100
AcDbText
 73
     2
  0
TEXT
  5
F0B
100
AcDbEntity
  8
図面枠-細
100
AcDbText
 10
117.083333
 20
-127.25
 30
0.0
 40
2.5
  1
作 成
 72
     1
 11
120.5
 21
-126.0
 31
0.0
100
AcDbText
 73
     2
  0
TEXT
  5
F0C
100
AcDbEntity
  8
図面枠-細
100
AcDbText
 10
117.0
 20
-128.95
 30
0.0
 40
1.4
  1
DRAWN
 72
     1
 11
120.5
 21
-128.25
 31
0.0
100
AcDbText
 73
     2
  0
TEXT
  5
F0D
100
AcDbEntity
  8
図面枠-細
100
AcDbText
 10
102.083333
 20
-127.25
 30
0.0
 40
2.5
  1
照 査
 72
     1
 11
105.5
 21
-126.0
 31
0.0
100
AcDbText
 73
     2
  0
TEXT
  5
F0E
100
AcDbEntity
  8
図面枠-細
100
AcDbText
 10
100.833333
 20
-128.95
 30
0.0
 40
1.4
  1
CHECKED
 72
     1
 11
105.5
 21
-128.25
 31
0.0
100
AcDbText
 73
     2
  0
TEXT
  5
F0F
100
AcDbEntity
  8
図面枠-細
100
AcDbText
 10
87.083333
 20
-127.25
 30
0.0
 40
2.5
  1
設 計
 72
     1
 11
90.5
 21
-126.0
 31
0.0
100
AcDbText
 73
     2
  0
LINE
  5
F10
100
AcDbEntity
  8
図面枠
100
AcDbLine
 10
83.0
 20
-124.5
 30
0.0
 11
83.0
 21
-138.5
 31
0.0
  0
LINE
  5
F11
100
AcDbEntity
  8
図面枠
100
AcDbLine
 10
98.0
 20
-124.5
 30
0.0
 11
98.0
 21
-138.5
 31
0.0
  0
TEXT
  5
F12
100
AcDbEntity
  8
図面枠-細
100
AcDbText
 10
85.366667
 20
-128.95
 30
0.0
 40
1.4
  1
DESIGNED
 72
     1
 11
90.5
 21
-128.25
 31
0.0
100
AcDbText
 73
     2
  0
LINE
  5
F13
100
AcDbEntity
  8
図面枠
100
AcDbLine
 10
100.0
 20
-143.5
 30
0.0
 11
100.0
 21
-138.5
 31
0.0
  0
LINE
  5
F14
100
AcDbEntity
  8
図面枠
100
AcDbLine
 10
113.0
 20
-124.5
 30
0.0
 11
113.0
 21
-138.5
 31
0.0
  0
LINE
  5
F15
100
AcDbEntity
  8
図面枠
100
AcDbLine
 10
140.0
 20
-123.5
 30
0.0
 11
140.0
 21
-124.5
 31
0.0
  0
LINE
  5
F16
100
AcDbEntity
  8
図面枠
100
AcDbLine
 10
134.0
 20
-123.5
 30
0.0
 11
134.0
 21
-124.5
 31
0.0
  0
LINE
  5
F17
100
AcDbEntity
  8
図面枠
  6
HIDDEN
100
AcDbLine
 10
136.0
 20
-124.5
 30
0.0
 11
136.0
 21
-138.5
 31
0.0
  0
LINE
  5
F18
100
AcDbEntity
  8
図面枠
100
AcDbLine
 10
129.0
 20
-116.5
 30
0.0
 11
128.0
 21
-116.5
 31
0.0
  0
TEXT
  5
F19
100
AcDbEntity
  8
図面枠-細
100
AcDbText
 10
124.0
 20
-142.5
 30
0.0
 40
3.0
  1
7
 72
     1
 11
125.0
 21
-141.0
 31
0.0
100
AcDbText
 73
     2
  0
LINE
  5
F1A
100
AcDbEntity
  8
図面枠
100
AcDbLine
 10
164.0
 20
-123.5
 30
0.0
 11
164.0
 21
-124.5
 31
0.0
  0
LINE
  5
F1B
100
AcDbEntity
  8
図面枠
100
AcDbLine
 10
158.0
 20
-123.5
 30
0.0
 11
158.0
 21
-124.5
 31
0.0
  0
LINE
  5
F1C
100
AcDbEntity
  8
図面枠
100
AcDbLine
 10
152.0
 20
-123.5
 30
0.0
 11
152.0
 21
-124.5
 31
0.0
  0
LINE
  5
F1D
100
AcDbEntity
  8
図面枠
  6
HIDDEN
100
AcDbLine
 10
160.0
 20
-124.5
 30
0.0
 11
160.0
 21
-138.5
 31
0.0
  0
LINE
  5
F1E
100
AcDbEntity
  8
図面枠
  6
HIDDEN
100
AcDbLine
 10
152.0
 20
-124.5
 30
0.0
 11
152.0
 21
-138.5
 31
0.0
  0
LINE
  5
F1F
100
AcDbEntity
  8
図面枠
100
AcDbLine
 10
146.0
 20
-123.5
 30
0.0
 11
146.0
 21
-124.5
 31
0.0
  0
LINE
  5
F20
100
AcDbEntity
  8
図面枠
  6
HIDDEN
100
AcDbLine
 10
144.0
 20
-124.5
 30
0.0
 11
144.0
 21
-138.5
 31
0.0
  0
LINE
  5
F21
100
AcDbEntity
  8
図面枠
100
AcDbLine
 10
150.0
 20
-143.5
 30
0.0
 11
150.0
 21
-138.5
 31
0.0
  0
TEXT
  5
F22
100
AcDbEntity
  8
図面枠-細
100
AcDbText
 10
75.46
 20
-112.05
 30
0.0
 40
2.1
  1
DIMENSION
 41
0.6
 72
     1
 11
80.5
 21
-111.0
 31
0.0
100
AcDbText
 73
     2
  0
TEXT
  5
F23
100
AcDbEntity
  8
図面枠-細
100
AcDbText
 10
57.197333
 20
-112.6
 30
0.0
 40
3.2
  1
第三角法
 41
0.8
 72
     1
 11
63.0
 21
-111.0
 31
0.0
100
AcDbText
 73
     2
  0
LINE
  5
F24
100
AcDbEntity
  8
図面枠-細
  6
CENTER
100
AcDbLine
 10
61.2
 20
-116.0
 30
0.0
 11
54.8
 21
-116.0
 31
0.0
  0
LINE
  5
F25
100
AcDbEntity
  8
図面枠-細
100
AcDbLine
 10
65.0
 20
-115.0
 30
0.0
 11
69.0
 21
-114.0
 31
0.0
  0
LINE
  5
F26
100
AcDbEntity
  8
図面枠-細
  6
CENTER
100
AcDbLine
 10
63.0
 20
-116.0
 30
0.0
 11
71.0
 21
-116.0
 31
0.0
  0
TEXT
  5
F27
100
AcDbEntity
  8
図面枠-細
100
AcDbText
 10
110.384
 20
-112.4
 30
0.0
 40
2.8
  1
作成日付 DATE
 41
0.6
 72
     1
 11
118.0
 21
-111.0
 31
0.0
100
AcDbText
 73
     2
  0
LINE
  5
F28
100
AcDbEntity
  8
図面枠
100
AcDbLine
 10
128.0
 20
-113.5
 30
0.0
 11
88.0
 21
-113.5
 31
0.0
  0
TEXT
  5
F29
100
AcDbEntity
  8
図面枠-細
100
AcDbText
 10
91.56
 20
-112.4
 30
0.0
 40
2.8
  1
尺度 SCALE
 41
0.6
 72
     1
 11
98.0
 21
-111.0
 31
0.0
100
AcDbText
 73
     2
  0
LINE
  5
F2A
100
AcDbEntity
  8
図面枠
100
AcDbLine
 10
140.0
 20
-109.5
 30
0.0
 11
140.0
 21
-108.5
 31
0.0
  0
LINE
  5
F2B
100
AcDbEntity
  8
図面枠
100
AcDbLine
 10
134.0
 20
-109.5
 30
0.0
 11
134.0
 21
-108.5
 31
0.0
  0
LINE
  5
F2C
100
AcDbEntity
  8
図面枠
100
AcDbLine
 10
164.0
 20
-109.5
 30
0.0
 11
164.0
 21
-108.5
 31
0.0
  0
LINE
  5
F2D
100
AcDbEntity
  8
図面枠
100
AcDbLine
 10
158.0
 20
-109.5
 30
0.0
 11
158.0
 21
-108.5
 31
0.0
  0
LINE
  5
F2E
100
AcDbEntity
  8
図面枠
100
AcDbLine
 10
152.0
 20
-109.5
 30
0.0
 11
152.0
 21
-108.5
 31
0.0
  0
LINE
  5
F2F
100
AcDbEntity
  8
図面枠
100
AcDbLine
 10
146.0
 20
-109.5
 30
0.0
 11
146.0
 21
-108.5
 31
0.0
  0
LINE
  5
F30
100
AcDbEntity
  8
図面枠
100
AcDbLine
 10
182.0
 20
-123.5
 30
0.0
 11
182.0
 21
-124.5
 31
0.0
  0
LINE
  5
F31
100
AcDbEntity
  8
図面枠
  6
HIDDEN
100
AcDbLine
 10
184.0
 20
-124.5
 30
0.0
 11
184.0
 21
-138.5
 31
0.0
  0
LINE
  5
F32
100
AcDbEntity
  8
図面枠
100
AcDbLine
 10
176.0
 20
-123.5
 30
0.0
 11
176.0
 21
-124.5
 31
0.0
  0
LINE
  5
F33
100
AcDbEntity
  8
図面枠
100
AcDbLine
 10
170.0
 20
-123.5
 30
0.0
 11
170.0
 21
-124.5
 31
0.0
  0
LINE
  5
F34
100
AcDbEntity
  8
図面枠
  6
HIDDEN
100
AcDbLine
 10
176.0
 20
-124.5
 30
0.0
 11
176.0
 21
-138.5
 31
0.0
  0
LINE
  5
F35
100
AcDbEntity
  8
図面枠
  6
HIDDEN
100
AcDbLine
 10
168.0
 20
-124.5
 30
0.0
 11
168.0
 21
-138.5
 31
0.0
  0
TEXT
  5
F36
100
AcDbEntity
  8
図面枠-細
100
AcDbText
 10
174.0
 20
-142.5
 30
0.0
 40
3.0
  1
8
 72
     1
 11
175.0
 21
-141.0
 31
0.0
100
AcDbText
 73
     2
  0
LINE
  5
F37
100
AcDbEntity
  8
図面枠
100
AcDbLine
 10
199.0
 20
-116.5
 30
0.0
 11
200.0
 21
-116.5
 31
0.0
  0
LINE
  5
F38
100
AcDbEntity
  8
図面枠
100
AcDbLine
 10
194.0
 20
-123.5
 30
0.0
 11
194.0
 21
-124.5
 31
0.0
  0
LINE
  5
F39
100
AcDbEntity
  8
図面枠
100
AcDbLine
 10
188.0
 20
-123.5
 30
0.0
 11
188.0
 21
-124.5
 31
0.0
  0
LINE
  5
F3A
100
AcDbEntity
  8
図面枠-太
100
AcDbLine
 10
192.0
 20
-124.5
 30
0.0
 11
192.0
 21
-138.5
 31
0.0
  0
LINE
  5
F3B
100
AcDbEntity
  8
図面枠-細
100
AcDbLine
 10
193.401924
 20
-133.0
 30
0.0
 11
198.598076
 21
-130.0
 31
0.0
  0
LINE
  5
F3C
100
AcDbEntity
  8
図面枠
100
AcDbLine
 10
182.0
 20
-109.5
 30
0.0
 11
182.0
 21
-108.5
 31
0.0
  0
LINE
  5
F3D
100
AcDbEntity
  8
図面枠
100
AcDbLine
 10
176.0
 20
-109.5
 30
0.0
 11
176.0
 21
-108.5
 31
0.0
  0
LINE
  5
F3E
100
AcDbEntity
  8
図面枠
100
AcDbLine
 10
170.0
 20
-109.5
 30
0.0
 11
170.0
 21
-108.5
 31
0.0
  0
LINE
  5
F3F
100
AcDbEntity
  8
図面枠
100
AcDbLine
 10
194.0
 20
-109.5
 30
0.0
 11
194.0
 21
-108.5
 31
0.0
  0
LINE
  5
F40
100
AcDbEntity
  8
図面枠
100
AcDbLine
 10
188.0
 20
-109.5
 30
0.0
 11
188.0
 21
-108.5
 31
0.0
  0
TEXT
  5
F41
100
AcDbEntity
  8
図面枠-細
100
AcDbText
 10
201.5
 20
-78.0
 30
0.0
 40
3.0
  1
e
 72
     1
 11
202.5
 21
-76.5
 31
0.0
100
AcDbText
 73
     2
  0
LINE
  5
F42
100
AcDbEntity
  8
図面枠-太
100
AcDbLine
 10
200.0
 20
-1.5
 30
0.0
 11
210.0
 21
-1.5
 31
0.0
  0
LINE
  5
F43
100
AcDbEntity
  8
図面枠
100
AcDbLine
 10
200.0
 20
-51.5
 30
0.0
 11
205.0
 21
-51.5
 31
0.0
  0
TEXT
  5
F44
100
AcDbEntity
  8
図面枠-細
100
AcDbText
 10
201.5
 20
-28.0
 30
0.0
 40
3.0
  1
d
 72
     1
 11
202.5
 21
-26.5
 31
0.0
100
AcDbText
 73
     2
  0
TEXT
  5
F45
100
AcDbEntity
  8
図面枠-細
100
AcDbText
 10
24.0
 20
139.5
 30
0.0
 40
3.0
  1
5
 72
     1
 11
25.0
 21
141.0
 31
0.0
100
AcDbText
 73
     2
  0
LINE
  5
F46
100
AcDbEntity
  8
図面枠
100
AcDbLine
 10
50.0
 20
138.5
 30
0.0
 11
50.0
 21
143.5
 31
0.0
  0
TEXT
  5
F47
100
AcDbEntity
  8
図面枠-細
100
AcDbText
 10
74.0
 20
139.5
 30
0.0
 40
3.0
  1
6
 72
     1
 11
75.0
 21
141.0
 31
0.0
100
AcDbText
 73
     2
  0
LINE
  5
F48
100
AcDbEntity
  8
図面枠
100
AcDbLine
 10
100.0
 20
138.5
 30
0.0
 11
100.0
 21
143.5
 31
0.0
  0
TEXT
  5
F49
100
AcDbEntity
  8
図面枠-細
100
AcDbText
 10
124.0
 20
139.5
 30
0.0
 40
3.0
  1
7
 72
     1
 11
125.0
 21
141.0
 31
0.0
100
AcDbText
 73
     2
  0
LINE
  5
F4A
100
AcDbEntity
  8
図面枠
100
AcDbLine
 10
150.0
 20
138.5
 30
0.0
 11
150.0
 21
143.5
 31
0.0
  0
TEXT
  5
F4B
100
AcDbEntity
  8
図面枠-細
100
AcDbText
 10
201.5
 20
22.0
 30
0.0
 40
3.0
  1
c
 72
     1
 11
202.5
 21
23.5
 31
0.0
100
AcDbText
 73
     2
  0
LINE
  5
F4C
100
AcDbEntity
  8
図面枠
100
AcDbLine
 10
200.0
 20
48.5
 30
0.0
 11
205.0
 21
48.5
 31
0.0
  0
TEXT
  5
F4D
100
AcDbEntity
  8
図面枠-細
100
AcDbText
 10
201.5
 20
72.0
 30
0.0
 40
3.0
  1
b
 72
     1
 11
202.5
 21
73.5
 31
0.0
100
AcDbText
 73
     2
  0
LINE
  5
F4E
100
AcDbEntity
  8
図面枠
100
AcDbLine
 10
200.0
 20
98.5
 30
0.0
 11
205.0
 21
98.5
 31
0.0
  0
TEXT
  5
F4F
100
AcDbEntity
  8
図面枠-細
100
AcDbText
 10
174.0
 20
139.5
 30
0.0
 40
3.0
  1
8
 72
     1
 11
175.0
 21
141.0
 31
0.0
100
AcDbText
 73
     2
  0
TEXT
  5
F50
100
AcDbEntity
  8
図面枠-細
100
AcDbText
 10
201.5
 20
122.0
 30
0.0
 40
3.0
  1
a
 72
     1
 11
202.5
 21
123.5
 31
0.0
100
AcDbText
 73
     2
  0
LINE
  5
F51
100
AcDbEntity
  8
図面枠
100
AcDbLine
 10
204.0
 20
142.5
 30
0.0
 11
204.0
 21
148.5
 31
0.0
  0
LINE
  5
F52
100
AcDbEntity
  8
図面枠
100
AcDbLine
 10
204.0
 20
142.5
 30
0.0
 11
210.0
 21
142.5
 31
0.0
  0
LINE
  5
F53
100
AcDbEntity
  8
図面枠
100
AcDbLine
 10
-204.0
 20
-142.5
 30
0.0
 11
-210.0
 21
-142.5
 31
0.0
  0
LINE
  5
F54
100
AcDbEntity
  8
図面枠
100
AcDbLine
 10
-204.0
 20
-142.5
 30
0.0
 11
-204.0
 21
-148.5
 31
0.0
  0
TEXT
  5
F55
100
AcDbEntity
  8
図面枠-細
100
AcDbText
 10
63.357435
 20
-123.0
 30
0.0
 40
2.0
  1
MITSUBISHI ELECTRIC CORPORATION
  7
ARIAL-B
 72
     1
 11
93.0
 21
-122.0
 31
0.0
100
AcDbText
 73
     2
  0
LINE
  5
F56
100
AcDbEntity
  8
図面枠-細
100
AcDbLine
 10
61.390625
 20
-122.841646
 30
0.0
 11
62.640625
 21
-122.841646
 31
0.0
  0
LINE
  5
F57
100
AcDbEntity
  8
図面枠-細
100
AcDbLine
 10
61.546875
 20
-123.112279
 30
0.0
 11
62.796875
 21
-123.112279
 31
0.0
  0
LINE
  5
F58
100
AcDbEntity
  8
図面枠-細
100
AcDbLine
 10
61.234375
 20
-122.571013
 30
0.0
 11
62.484375
 21
-122.571013
 31
0.0
  0
LINE
  5
F59
100
AcDbEntity
  8
図面枠-細
100
AcDbLine
 10
61.15625
 20
-122.435696
 30
0.0
 11
62.40625
 21
-122.435696
 31
0.0
  0
LINE
  5
F5A
100
AcDbEntity
  8
図面枠-細
100
AcDbLine
 10
61.46875
 20
-122.976962
 30
0.0
 11
62.71875
 21
-122.976962
 31
0.0
  0
LINE
  5
F5B
100
AcDbEntity
  8
図面枠-細
100
AcDbLine
 10
61.3125
 20
-122.706329
 30
0.0
 11
62.5625
 21
-122.706329
 31
0.0
  0
LINE
  5
F5C
100
AcDbEntity
  8
図面枠-細
100
AcDbLine
 10
61.0
 20
-122.165064
 30
0.0
 11
62.25
 21
-122.165064
 31
0.0
  0
LINE
  5
F5D
100
AcDbEntity
  8
図面枠-細
100
AcDbLine
 10
61.078125
 20
-122.30038
 30
0.0
 11
62.328125
 21
-122.30038
 31
0.0
  0
LINE
  5
F5E
100
AcDbEntity
  8
図面枠-細
100
AcDbLine
 10
62.875
 20
-123.247595
 30
0.0
 11
61.625
 21
-123.247595
 31
0.0
  0
LINE
  5
F5F
100
AcDbEntity
  8
図面枠-細
100
AcDbLine
 10
61.0
 20
-120.0
 30
0.0
 11
61.625
 21
-121.082532
 31
0.0
  0
LINE
  5
F60
100
AcDbEntity
  8
図面枠-細
100
AcDbLine
 10
61.46875
 20
-121.353165
 30
0.0
 11
60.84375
 21
-120.270633
 31
0.0
  0
LINE
  5
F61
100
AcDbEntity
  8
図面枠-細
100
AcDbLine
 10
61.546875
 20
-121.217848
 30
0.0
 11
60.921875
 21
-120.135316
 31
0.0
  0
LINE
  5
F62
100
AcDbEntity
  8
図面枠-細
100
AcDbLine
 10
61.0
 20
-120.0
 30
0.0
 11
60.375
 21
-121.082532
 31
0.0
  0
LINE
  5
F63
100
AcDbEntity
  8
図面枠-細
100
AcDbLine
 10
61.3125
 20
-121.623798
 30
0.0
 11
60.6875
 21
-120.541266
 31
0.0
  0
LINE
  5
F64
100
AcDbEntity
  8
図面枠-細
100
AcDbLine
 10
61.390625
 20
-121.488481
 30
0.0
 11
60.765625
 21
-120.405949
 31
0.0
  0
LINE
  5
F65
100
AcDbEntity
  8
図面枠-細
100
AcDbLine
 10
61.234375
 20
-121.759114
 30
0.0
 11
60.609375
 21
-120.676582
 31
0.0
  0
LINE
  5
F66
100
AcDbEntity
  8
図面枠-細
100
AcDbLine
 10
59.125
 20
-123.247595
 30
0.0
 11
59.75
 21
-122.165064
 31
0.0
  0
LINE
  5
F67
100
AcDbEntity
  8
図面枠-細
100
AcDbLine
 10
59.90625
 20
-122.165064
 30
0.0
 11
59.28125
 21
-123.247595
 31
0.0
  0
LINE
  5
F68
100
AcDbEntity
  8
図面枠-細
100
AcDbLine
 10
59.125
 20
-123.247595
 30
0.0
 11
60.375
 21
-123.247595
 31
0.0
  0
LINE
  5
F69
100
AcDbEntity
  8
図面枠-細
100
AcDbLine
 10
61.0
 20
-122.165064
 30
0.0
 11
60.375
 21
-123.247595
 31
0.0
  0
LINE
  5
F6A
100
AcDbEntity
  8
図面枠-細
100
AcDbLine
 10
60.6875
 20
-122.165064
 30
0.0
 11
60.0625
 21
-123.247595
 31
0.0
  0
LINE
  5
F6B
100
AcDbEntity
  8
図面枠-細
100
AcDbLine
 10
60.84375
 20
-122.165064
 30
0.0
 11
60.21875
 21
-123.247595
 31
0.0
  0
LINE
  5
F6C
100
AcDbEntity
  8
図面枠-細
100
AcDbLine
 10
61.0
 20
-122.165064
 30
0.0
 11
59.75
 21
-122.165064
 31
0.0
  0
LINE
  5
F6D
100
AcDbEntity
  8
図面枠-細
100
AcDbLine
 10
60.375
 20
-122.165064
 30
0.0
 11
59.75
 21
-123.247595
 31
0.0
  0
LINE
  5
F6E
100
AcDbEntity
  8
図面枠-細
100
AcDbLine
 10
60.0625
 20
-122.165064
 30
0.0
 11
59.4375
 21
-123.247595
 31
0.0
  0
LINE
  5
F6F
100
AcDbEntity
  8
図面枠-細
100
AcDbLine
 10
60.53125
 20
-122.165064
 30
0.0
 11
59.90625
 21
-123.247595
 31
0.0
  0
LINE
  5
F70
100
AcDbEntity
  8
図面枠-細
100
AcDbLine
 10
60.21875
 20
-122.165064
 30
0.0
 11
59.59375
 21
-123.247595
 31
0.0
  0
LINE
  5
F71
100
AcDbEntity
  8
図面枠-細
100
AcDbLine
 10
61.15625
 20
-121.894431
 30
0.0
 11
60.53125
 21
-120.811899
 31
0.0
  0
LINE
  5
F72
100
AcDbEntity
  8
図面枠-細
100
AcDbLine
 10
61.078125
 20
-122.029747
 30
0.0
 11
60.453125
 21
-120.947215
 31
0.0
  0
LINE
  5
F73
100
AcDbEntity
  8
図面枠-細
100
AcDbLine
 10
61.0
 20
-122.165064
 30
0.0
 11
60.375
 21
-121.082532
 31
0.0
  0
LINE
  5
F74
100
AcDbEntity
  8
図面枠-細
100
AcDbLine
 10
61.0
 20
-122.165064
 30
0.0
 11
61.625
 21
-121.082532
 31
0.0
  0
LINE
  5
F75
100
AcDbEntity
  8
図面枠-細
100
AcDbLine
 10
61.0
 20
-122.165064
 30
0.0
 11
61.625
 21
-123.247595
 31
0.0
  0
LINE
  5
F76
100
AcDbEntity
  8
図面枠-細
100
AcDbLine
 10
62.875
 20
-123.247595
 30
0.0
 11
62.25
 21
-122.165064
 31
0.0
  0
ENDBLK
  5
F78
100
AcDbEntity
  8
0
100
AcDbBlockEnd
  0
BLOCK
  5
FA7
100
AcDbEntity
  8
0
100
AcDbBlockBegin
  2
A3-TEXT
 70
     0
 10
0.0
 20
0.0
 30
0.0
  3
A3-TEXT
  1

  0
TEXT
  5
F7D
100
AcDbEntity
  8
文字
100
AcDbText
 10
-181.0
 20
-137.5
 30
0.0
 40
2.0
  1
00-31-000E
 50
90.0
 41
0.8
 11
-183.0
 21
-137.5
 31
0.0
100
AcDbText
 73
     3
  0
TEXT
  5
F7E
100
AcDbEntity
  8
文字
100
AcDbText
 10
-143.5
 20
134.0
 30
0.0
 40
3.0
  1
10
 11
-143.5
 21
135.5
 31
0.0
100
AcDbText
 73
     2
  0
TEXT
  5
F7F
100
AcDbEntity
  8
文字
100
AcDbText
 10
-124.5
 20
134.0
 30
0.0
 40
3.0
  1
OUTLINE
 11
-124.5
 21
135.5
 31
0.0
100
AcDbText
 73
     2
  0
TEXT
  5
F80
100
AcDbEntity
  8
文字
100
AcDbText
 10
-59.5
 20
134.0
 30
0.0
 40
3.0
  1
U996G001
 11
-59.5
 21
135.5
 31
0.0
100
AcDbText
 73
     2
  0
TEXT
  5
F81
100
AcDbEntity
  8
文字
100
AcDbText
 10
-18.5
 20
134.0
 30
0.0
 40
3.0
  1
1
 72
     2
 11
-17.5
 21
135.5
 31
0.0
100
AcDbText
 73
     2
  0
TEXT
  5
F82
100
AcDbEntity
  8
文字
100
AcDbText
 10
-6.5
 20
134.0
 30
0.0
 40
3.0
  1
A
 11
-6.5
 21
135.5
 31
0.0
100
AcDbText
 73
     2
  0
TEXT
  5
F83
100
AcDbEntity
  8
文字
100
AcDbText
 10
128.5
 20
-115.0
 30
0.0
 40
5.0
  1
ＣＣＴＶ機側／カメラ／制御装置
 11
128.5
 21
-112.5
 31
0.0
100
AcDbText
 73
     2
  0
TEXT
  5
F84
100
AcDbEntity
  8
文字
100
AcDbText
 10
128.659091
 20
-134.5
 30
0.0
 40
6.0
  1
Ｕ
  7
MS-PGOTHIC
 72
     1
 11
132.0
 21
-131.5
 31
0.0
100
AcDbText
 73
     2
  0
TEXT
  5
F85
100
AcDbEntity
  8
文字
100
AcDbText
 10
87.086667
 20
-135.6
 30
0.0
 40
3.2
  1
設計
 72
     1
 11
90.5
 21
-134.0
 31
0.0
100
AcDbText
 73
     2
  0
CIRCLE
  5
F86
100
AcDbEntity
  8
実線-細
100
AcDbCircle
 10
104.0
 20
-116.5
 30
0.0
 40
3.0
  0
TEXT
  5
F87
100
AcDbEntity
  8
文字
100
AcDbText
 10
110.773333
 20
-117.5
 30
0.0
 40
2.0
  1
2002. 04. 23
 41
0.8
 72
     1
 11
118.0
 21
-116.5
 31
0.0
100
AcDbText
 73
     2
  0
TEXT
  5
F88
100
AcDbEntity
  8
文字
100
AcDbText
 10
117.086667
 20
-135.6
 30
0.0
 40
3.2
  1
作成
 72
     1
 11
120.5
 21
-134.0
 31
0.0
100
AcDbText
 73
     2
  0
TEXT
  5
F89
100
AcDbEntity
  8
非表示
100
AcDbText
 10
195.5
 20
-136.0
 30
0.0
 40
3.0
  1
1
 72
     1
 11
196.0
 21
-134.5
 31
0.0
100
AcDbText
 73
     2
  0
TEXT
  5
F8A
100
AcDbEntity
  8
文字
100
AcDbText
 10
160.642045
 20
-134.5
 30
0.0
 40
6.0
  1
Ｇ
  7
MS-PGOTHIC
 72
     1
 11
164.0
 21
-131.5
 31
0.0
100
AcDbText
 73
     2
  0
TEXT
  5
F8B
100
AcDbEntity
  8
文字
100
AcDbText
 10
145.085227
 20
-134.5
 30
0.0
 40
6.0
  1
９
  7
MS-PGOTHIC
 72
     1
 11
148.0
 21
-131.5
 31
0.0
100
AcDbText
 73
     2
  0
TEXT
  5
F8C
100
AcDbEntity
  8
文字
100
AcDbText
 10
137.085227
 20
-134.5
 30
0.0
 40
6.0
  1
９
  7
MS-PGOTHIC
 72
     1
 11
140.0
 21
-131.5
 31
0.0
100
AcDbText
 73
     2
  0
TEXT
  5
F8D
100
AcDbEntity
  8
文字
100
AcDbText
 10
153.034091
 20
-134.5
 30
0.0
 40
6.0
  1
６
  7
MS-PGOTHIC
 72
     1
 11
156.0
 21
-131.5
 31
0.0
100
AcDbText
 73
     2
  0
TEXT
  5
F8E
100
AcDbEntity
  8
文字
100
AcDbText
 10
177.068182
 20
-134.5
 30
0.0
 40
6.0
  1
８
  7
MS-PGOTHIC
 72
     1
 11
180.0
 21
-131.5
 31
0.0
100
AcDbText
 73
     2
  0
TEXT
  5
F8F
100
AcDbEntity
  8
文字
100
AcDbText
 10
169.034091
 20
-134.5
 30
0.0
 40
6.0
  1
０
  7
MS-PGOTHIC
 72
     1
 11
172.0
 21
-131.5
 31
0.0
100
AcDbText
 73
     2
  0
TEXT
  5
F90
100
AcDbEntity
  8
非表示
100
AcDbText
 10
195.5
 20
-130.0
 30
0.0
 40
3.0
  1
1
 72
     1
 11
196.0
 21
-128.5
 31
0.0
100
AcDbText
 73
     2
  0
TEXT
  5
F91
100
AcDbEntity
  8
文字
100
AcDbText
 10
185.068182
 20
-134.5
 30
0.0
 40
6.0
  1
８
  7
MS-PGOTHIC
 72
     1
 11
188.0
 21
-131.5
 31
0.0
100
AcDbText
 73
     2
  0
TEXT
  5
F92
100
AcDbEntity
  8
文字
100
AcDbText
 10
92.083333
 20
-116.5
 30
0.0
 40
2.0
  1
1
 41
0.8
 72
     1
 11
92.35
 21
-115.5
 31
0.0
100
AcDbText
 73
     2
  0
TEXT
  5
F93
100
AcDbEntity
  8
文字
100
AcDbText
 10
96.15
 20
-118.5
 30
0.0
 40
2.0
  1
20
 41
0.8
 72
     1
 11
97.35
 21
-117.5
 31
0.0
100
AcDbText
 73
     2
  0
TEXT
  5
F94
100
AcDbEntity
  8
文字
100
AcDbText
 10
128.5
 20
-123.0
 30
0.0
 40
5.0
  1
外形図
 11
128.5
 21
-120.5
 31
0.0
100
AcDbText
 73
     2
  0
LINE
  5
F95
100
AcDbEntity
  8
実線-細
100
AcDbLine
 10
107.0
 20
-116.0
 30
0.0
 11
101.0
 21
-116.0
 31
0.0
  0
LINE
  5
F96
100
AcDbEntity
  8
実線-細
100
AcDbLine
 10
107.0
 20
-117.0
 30
0.0
 11
101.0
 21
-117.0
 31
0.0
  0
LEADER
  5
F97
100
AcDbEntity
  8
非表示
100
AcDbLeader
  3
STANDARD
 73
     0
 74
     0
 75
     1
 40
2.5
 41
13.733333
 76
     3
 10
104.0
 20
-116.0
 30
0.0
 10
108.0
 20
-100.0
 30
0.0
 10
110.0
 20
-100.0
 30
0.0
 77
   256
1001
ACAD
1000
DSTYLE
1002
{
1070
     6
1000
OPEN30
1070
   343
1005
E74
1002
}
  0
MTEXT
  5
F98
102
{ACAD_REACTORS
330
F97
102
}
100
AcDbEntity
  8
非表示
100
AcDbMText
 10
111.0
 20
-99.0
 30
0.0
 40
2.5
 41
0.0
 71
     7
 72
     1
  1
\A1;どちらか消す
1001
ACAD
1000
MTEXTBEGIN
1070
    73
1070
     1
1070
    44
1040
1.0
1070
    74
1070
     0
1000
MTEXTEND
  0
LEADER
  5
F99
100
AcDbEntity
  8
非表示
100
AcDbLeader
  3
STANDARD
 76
     2
 10
104.7068
 20
-113.58445
 30
0.0
 10
108.0
 20
-100.0
 30
0.0
 77
   256
1001
ACAD
1000
DSTYLE
1002
{
1070
     6
1000
OPEN30
1070
   343
1005
E74
1002
}
  0
TEXT
  5
F9A
100
AcDbEntity
  8
非表示
100
AcDbText
 10
52.0
 20
-137.5
 30
0.0
 40
2.0
  1
参照図面やキーワードなど
 50
90.0
 41
0.8
 11
50.0
 21
-137.5
 31
0.0
100
AcDbText
 73
     3
  0
TEXT
  5
F9B
100
AcDbEntity
  8
非表示
100
AcDbText
 10
102.086667
 20
-135.6
 30
0.0
 40
3.2
  1
照査
 72
     1
 11
105.5
 21
-134.0
 31
0.0
100
AcDbText
 73
     2
  0
TEXT
  5
F9C
100
AcDbEntity
  8
非表示
100
AcDbText
 10
72.086667
 20
-135.6
 30
0.0
 40
3.2
  1
検認
 72
     1
 11
75.5
 21
-134.0
 31
0.0
100
AcDbText
 73
     2
  0
TEXT
  5
F9D
100
AcDbEntity
  8
非表示
100
AcDbText
 10
57.086667
 20
-135.6
 30
0.0
 40
3.2
  1
検認
 72
     1
 11
60.5
 21
-134.0
 31
0.0
100
AcDbText
 73
     2
  0
TEXT
  5
F9E
100
AcDbEntity
  8
非表示
100
AcDbText
 10
-80.0
 20
-123.2
 30
0.0
 40
3.2
  1
注記など
 11
-80.0
 21
-120.0
 31
0.0
100
AcDbText
 73
     3
  0
LEADER
  5
F9F
100
AcDbEntity
  8
非表示
100
AcDbLeader
  3
STANDARD
 73
     0
 74
     0
 75
     1
 40
6.666667
 41
17.166667
 76
     3
 10
-160.0
 20
-140.0
 30
0.0
 10
-150.18
 20
-121.0
 30
0.0
 10
-150.0
 20
-121.0
 30
0.0
 77
   256
340
FA0
1001
ACAD
1000
DSTYLE
1002
{
1070
     6
1000
OPEN30
1070
    77
1070
     3
1070
   147
1040
1.0
1070
   343
1005
E74
1002
}
  0
MTEXT
  5
FA0
102
{ACAD_REACTORS
330
F9F
102
}
100
AcDbEntity
  8
非表示
100
AcDbMText
 10
-149.0
 20
-120.0
 30
0.0
 40
2.5
 41
0.0
 71
     7
 72
     1
  1
引き出し注記\Pなど
1001
ACAD
1000
MTEXTBEGIN
1070
    73
1070
     1
1070
    44
1040
0.96
1070
    74
1070
     0
1000
MTEXTEND
  0
LEADER
  5
FA1
100
AcDbEntity
  8
非表示
100
AcDbLeader
  3
STANDARD
 73
     0
 74
     0
 75
     1
 40
6.666667
 41
17.166667
 76
     3
 10
-160.0
 20
-140.0
 30
0.0
 10
-150.18
 20
-129.833333
 30
0.0
 10
-150.0
 20
-129.833333
 30
0.0
 77
   256
340
FA2
213
0.0
223
4.5
233
0.0
1001
ACAD
1000
DSTYLE
1002
{
1070
     6
1000
OPEN30
1070
    77
1070
     3
1070
   147
1040
1.0
1070
   343
1005
E74
1002
}
  0
MTEXT
  5
FA2
102
{ACAD_REACTORS
330
FA1
102
}
100
AcDbEntity
  8
非表示
100
AcDbMText
 10
-149.0
 20
-130.0
 30
0.0
 40
2.5
 41
0.0
 71
     4
 72
     1
  1
引き出し注記\Pなど
1001
ACAD
1000
MTEXTBEGIN
1070
    73
1070
     1
1070
    44
1040
1.08
1070
    74
1070
     0
1000
MTEXTEND
  0
TEXT
  5
FA3
100
AcDbEntity
  8
非表示
100
AcDbText
 10
-77.653333
 20
-131.6
 30
0.0
 40
3.2
  1
%%U・・・詳細(S=1:2)
 72
     1
 11
-60.0
 21
-130.0
 31
0.0
100
AcDbText
 73
     2
  0
TEXT
  5
FA4
100
AcDbEntity
  8
非表示
100
AcDbText
 10
20.08
 20
-121.6
 30
0.0
 40
3.2
  1
%%%%Cは"%%C"
 72
     1
 11
30.0
 21
-120.0
 31
0.0
100
AcDbText
 73
     2
  0
TEXT
  5
FA5
100
AcDbEntity
  8
非表示
100
AcDbText
 10
20.08
 20
-131.6
 30
0.0
 40
3.2
  1
%%%%Pは"%%P"
 72
     1
 11
30.0
 21
-130.0
 31
0.0
100
AcDbText
 73
     2
  0
TEXT
  5
FA6
100
AcDbEntity
  8
非表示
100
AcDbText
 10
20.613333
 20
-126.6
 30
0.0
 40
3.2
  1
%%%%Dは"%%D"
 72
     1
 11
30.0
 21
-125.0
 31
0.0
100
AcDbText
 73
     2
  0
ENDBLK
  5
FA8
100
AcDbEntity
  8
0
100
AcDbBlockEnd
  0
BLOCK
  5
10D4
100
AcDbEntity
  8
0
100
AcDbBlockBegin
  2
KOSA
 70
     0
 10
0.0
 20
0.0
 30
0.0
  3
KOSA
  1

  0
TEXT
  5
10B9
100
AcDbEntity
  8
文字
 48
5.0
100
AcDbText
 10
5.966667
 20
18.5
 30
0.0
 40
2.0
  1
呼び寸法
  7
STANDARD1
 72
     4
 11
10.5
 21
19.5
 31
0.0
100
AcDbText
  0
TEXT
  5
10BA
100
AcDbEntity
  8
文字
 48
5.0
100
AcDbText
 10
1.773333
 20
21.5
 30
0.0
 40
2.0
  1
指定以外の寸法に対する寸法差
 41
0.8
  7
STANDARD1
 72
     1
 11
15.0
 21
22.5
 31
0.0
100
AcDbText
 73
     2
  0
LINE
  5
10BB
100
AcDbEntity
  8
実線
 48
5.0
100
AcDbLine
 10
0.0
 20
21.0
 30
0.0
 11
30.0
 21
21.0
 31
0.0
  0
LINE
  5
10BC
100
AcDbEntity
  8
実線
 48
5.0
100
AcDbLine
 10
0.0
 20
18.0
 30
0.0
 11
30.0
 21
18.0
 31
0.0
  0
LINE
  5
10BD
100
AcDbEntity
  8
実線
 48
5.0
100
AcDbLine
 10
0.0
 20
15.0
 30
0.0
 11
30.0
 21
15.0
 31
0.0
  0
LINE
  5
10BE
100
AcDbEntity
  8
実線
 48
5.0
100
AcDbLine
 10
30.0
 20
24.0
 30
0.0
 11
0.0
 21
24.0
 31
0.0
  0
TEXT
  5
10BF
100
AcDbEntity
  8
文字
 48
5.0
100
AcDbText
 10
3.3
 20
0.433333
 30
0.0
 40
2.0
  1
１０００をこえるもの
 41
0.6
  7
STANDARD1
 72
     4
 11
10.5
 21
1.5
 31
0.0
100
AcDbText
  0
TEXT
  5
10C0
100
AcDbEntity
  8
文字
 48
5.0
100
AcDbText
 10
1.9
 20
3.5
 30
0.0
 40
2.0
  1
５００をこえ１０００以下
 41
0.6
  7
STANDARD1
 72
     4
 11
10.5
 21
4.5
 31
0.0
100
AcDbText
  0
TEXT
  5
10C1
100
AcDbEntity
  8
文字
 48
5.0
100
AcDbText
 10
1.82
 20
6.5
 30
0.0
 40
2.0
  1
１００をこえ　５００以下
 41
0.6
  7
STANDARD1
 72
     4
 11
10.5
 21
7.5
 31
0.0
100
AcDbText
  0
TEXT
  5
10C2
100
AcDbEntity
  8
文字
 48
5.0
100
AcDbText
 10
1.9
 20
9.5
 30
0.0
 40
2.0
  1
５０　をこえ　１００以下
 41
0.6
  7
STANDARD1
 72
     4
 11
10.5
 21
10.5
 31
0.0
100
AcDbText
  0
TEXT
  5
10C3
100
AcDbEntity
  8
文字
 48
5.0
100
AcDbText
 10
1.82
 20
12.5
 30
0.0
 40
2.0
  1
１０　をこえ　　５０以下
 41
0.6
  7
STANDARD1
 72
     4
 11
10.5
 21
13.5
 31
0.0
100
AcDbText
  0
LINE
  5
10C4
100
AcDbEntity
  8
実線
 48
5.0
100
AcDbLine
 10
0.0
 20
12.0
 30
0.0
 11
30.0
 21
12.0
 31
0.0
  0
LINE
  5
10C5
100
AcDbEntity
  8
実線
 48
5.0
100
AcDbLine
 10
0.0
 20
9.0
 30
0.0
 11
30.0
 21
9.0
 31
0.0
  0
LINE
  5
10C6
100
AcDbEntity
  8
実線
 48
5.0
100
AcDbLine
 10
0.0
 20
6.0
 30
0.0
 11
30.0
 21
6.0
 31
0.0
  0
LINE
  5
10C7
100
AcDbEntity
  8
実線
 48
5.0
100
AcDbLine
 10
0.0
 20
3.0
 30
0.0
 11
30.0
 21
3.0
 31
0.0
  0
LINE
  5
10C8
100
AcDbEntity
  8
実線
 48
5.0
100
AcDbLine
 10
0.0
 20
0.0
 30
0.0
 11
30.0
 21
0.0
 31
0.0
  0
LINE
  5
10C9
100
AcDbEntity
  8
実線
 48
5.0
100
AcDbLine
 10
0.0
 20
24.0
 30
0.0
 11
0.0
 21
0.0
 31
0.0
  0
LINE
  5
10CA
100
AcDbEntity
  8
実線
 48
5.0
100
AcDbLine
 10
21.0
 20
0.0
 30
0.0
 11
21.0
 21
21.0
 31
0.0
  0
LINE
  5
10CB
100
AcDbEntity
  8
実線
 48
5.0
100
AcDbLine
 10
30.0
 20
0.0
 30
0.0
 11
30.0
 21
24.0
 31
0.0
  0
TEXT
  5
10CC
100
AcDbEntity
  8
文字
 48
5.0
100
AcDbText
 10
24.22
 20
3.5
 30
0.0
 40
2.0
  1
±４
 41
0.6
  7
STANDARD1
 72
     4
 11
25.5
 21
4.5
 31
0.0
100
AcDbText
  0
TEXT
  5
10CD
100
AcDbEntity
  8
文字
 48
5.0
100
AcDbText
 10
24.22
 20
0.5
 30
0.0
 40
2.0
  1
±５
 41
0.6
  7
STANDARD1
 72
     4
 11
25.5
 21
1.5
 31
0.0
100
AcDbText
  0
TEXT
  5
10CE
100
AcDbEntity
  8
文字
 48
5.0
100
AcDbText
 10
7.58
 20
15.5
 30
0.0
 40
2.0
  1
１０以下
 41
0.6
  7
STANDARD1
 72
     4
 11
10.5
 21
16.5
 31
0.0
100
AcDbText
  0
TEXT
  5
10CF
100
AcDbEntity
  8
文字
 48
5.0
100
AcDbText
 10
22.78
 20
15.566667
 30
0.0
 40
2.0
  1
±０．５
 41
0.6
  7
STANDARD1
 72
     4
 11
25.5
 21
16.5
 31
0.0
100
AcDbText
  0
TEXT
  5
10D0
100
AcDbEntity
  8
文字
 48
5.0
100
AcDbText
 10
24.38
 20
12.5
 30
0.0
 40
2.0
  1
±１
 41
0.6
  7
STANDARD1
 72
     4
 11
25.5
 21
13.5
 31
0.0
100
AcDbText
  0
TEXT
  5
10D1
100
AcDbEntity
  8
文字
 48
5.0
100
AcDbText
 10
24.22
 20
9.5
 30
0.0
 40
2.0
  1
±２
 41
0.6
  7
STANDARD1
 72
     4
 11
25.5
 21
10.5
 31
0.0
100
AcDbText
  0
TEXT
  5
10D2
100
AcDbEntity
  8
文字
 48
5.0
100
AcDbText
 10
24.22
 20
6.5
 30
0.0
 40
2.0
  1
±３
 41
0.6
  7
STANDARD1
 72
     4
 11
25.5
 21
7.5
 31
0.0
100
AcDbText
  0
TEXT
  5
10D3
100
AcDbEntity
  8
文字
 48
5.0
100
AcDbText
 10
23.366667
 20
18.5
 30
0.0
 40
2.0
  1
公差
  7
STANDARD1
 72
     4
 11
25.5
 21
19.5
 31
0.0
100
AcDbText
  0
ENDBLK
  5
10D5
100
AcDbEntity
  8
0
100
AcDbBlockEnd
  0
BLOCK
  5
1D1F
100
AcDbEntity
  8
0
100
AcDbBlockBegin
  2
*D19
 70
     1
 10
0.0
 20
0.0
 30
0.0
  3
*D19
  1

  0
LINE
  5
1D17
100
AcDbEntity
  8
0
  6
BYBLOCK
 62
     0
100
AcDbLine
 10
451.910239
 20
200.977919
 30
0.0
 11
432.395434
 21
200.977919
 31
0.0
  0
LINE
  5
1D18
100
AcDbEntity
  8
0
  6
BYBLOCK
 62
     0
100
AcDbLine
 10
432.395434
 20
200.977919
 30
0.0
 11
409.162496
 21
212.542304
 31
0.0
  0
MTEXT
  5
1D19
100
AcDbEntity
  8
0
  6
BYBLOCK
 62
     0
100
AcDbMText
 10
466.634028
 20
200.977919
 30
0.0
 40
4.746094
 41
0.0
 71
     5
 72
     1
  1
\A1;R63.1000
  0
SOLID
  5
1D1A
100
AcDbEntity
  8
0
  6
BYBLOCK
 62
     0
100
AcDbTrace
 10
411.101489
 20
211.949499
 30
0.0
 11
410.804417
 21
211.35268
 31
0.0
 12
409.162496
 22
212.542304
 32
0.0
 13
409.162496
 23
212.542304
 33
0.0
  0
LINE
  5
1D1B
100
AcDbEntity
  8
0
  6
BYBLOCK
 62
     0
100
AcDbLine
 10
348.893576
 20
240.660125
 30
0.0
 11
356.453576
 21
240.660125
 31
0.0
  0
LINE
  5
1D1C
100
AcDbEntity
  8
0
  6
BYBLOCK
 62
     0
100
AcDbLine
 10
352.673576
 20
236.880125
 30
0.0
 11
352.673576
 21
244.440125
 31
0.0
  0
POINT
  5
1D1D
100
AcDbEntity
  8
DEFPOINTS
  6
BYBLOCK
 62
     0
100
AcDbPoint
 10
409.162496
 20
212.542304
 30
0.0
  0
POINT
  5
1D1E
100
AcDbEntity
  8
DEFPOINTS
  6
BYBLOCK
 62
     0
100
AcDbPoint
 10
352.673576
 20
240.660125
 30
0.0
  0
ENDBLK
  5
1D20
100
AcDbEntity
  8
0
100
AcDbBlockEnd
  0
BLOCK
  5
2064
100
AcDbEntity
  8
0
100
AcDbBlockBegin
  2
A$C3DD13D24
 70
     0
 10
0.0
 20
0.0
 30
0.0
  3
A$C3DD13D24
  1

  0
DIMENSION
  5
1D22
100
AcDbEntity
  8
0
100
AcDbDimension
  2
*D19
 10
65.0
 20
73.399742
 30
0.0
 11
178.960452
 21
33.717535
 31
0.0
 12
-287.673576
 22
-167.260384
 32
0.0
 70
   132
  3
STANDARD
100
AcDbRadialDimension
 15
121.48892
 25
45.28192
 35
0.0
 40
0.0
1001
ACAD
1000
DSTYLE
1002
{
1070
   288
1070
     1
1070
   140
1040
4.746094
1070
    42
1040
2.625
1070
    44
1040
7.56
1070
    43
1040
15.96
1070
   141
1040
3.78
1070
    41
1040
2.0
1002
}
  0
LINE
  5
1D23
100
AcDbEntity
  8
0
100
AcDbLine
 10
128.2
 20
72.399742
 30
0.0
 11
1.8
 21
72.399742
 31
0.0
  0
LINE
  5
1D24
100
AcDbEntity
  8
0
100
AcDbLine
 10
1.750126
 20
97.399742
 30
0.0
 11
128.249875
 21
97.399742
 31
0.0
  0
ARC
  5
1D25
100
AcDbEntity
  8
0
100
AcDbCircle
 10
65.0
 20
73.399742
 30
0.0
 40
63.1
100
AcDbArc
 50
180.908054
 51
359.091946
  0
LINE
  5
1D26
100
AcDbEntity
  8
0
100
AcDbLine
 10
130.0
 20
82.399742
 30
0.0
 11
0.0
 21
82.399742
 31
0.0
  0
LINE
  5
1D27
100
AcDbEntity
  8
0
100
AcDbLine
 10
130.0
 20
83.399742
 30
0.0
 11
0.0
 21
83.399742
 31
0.0
  0
LINE
  5
1D28
100
AcDbEntity
  8
0
100
AcDbLine
 10
1.8
 20
72.399742
 30
0.0
 11
1.625449
 21
82.399742
 31
0.0
  0
POLYLINE
  5
1D29
100
AcDbEntity
  8
0
100
AcDb2dPolyline
 66
     1
 10
0.0
 20
0.0
 30
0.0
  0
VERTEX
  5
1D2A
100
AcDbEntity
  8
0
100
AcDbVertex
100
AcDb2dVertex
 10
21.168114
 20
89.399742
 30
0.0
  0
VERTEX
  5
1D2B
100
AcDbEntity
  8
0
100
AcDbVertex
100
AcDb2dVertex
 10
21.146264
 20
89.126146
 30
0.0
  0
VERTEX
  5
1D2C
100
AcDbEntity
  8
0
100
AcDbVertex
100
AcDb2dVertex
 10
21.081519
 20
88.864898
 30
0.0
  0
VERTEX
  5
1D2D
100
AcDbEntity
  8
0
100
AcDbVertex
100
AcDb2dVertex
 10
20.977321
 20
88.629972
 30
0.0
  0
VERTEX
  5
1D2E
100
AcDbEntity
  8
0
100
AcDbVertex
100
AcDb2dVertex
 10
20.837722
 20
88.431172
 30
0.0
  0
VERTEX
  5
1D2F
100
AcDbEntity
  8
0
100
AcDbVertex
100
AcDb2dVertex
 10
20.66649
 20
88.277516
 30
0.0
  0
VERTEX
  5
1D30
100
AcDbEntity
  8
0
100
AcDbVertex
100
AcDb2dVertex
 10
20.47401
 20
88.181533
 30
0.0
  0
VERTEX
  5
1D31
100
AcDbEntity
  8
0
100
AcDbVertex
100
AcDb2dVertex
 10
20.275497
 20
88.149741
 30
0.0
  0
SEQEND
  5
1D32
100
AcDbEntity
  8
0
  0
LINE
  5
1D33
100
AcDbEntity
  8
0
100
AcDbLine
 10
18.861282
 20
85.399742
 30
0.0
 11
20.80897
 21
85.399742
 31
0.0
  0
POLYLINE
  5
1D34
100
AcDbEntity
  8
0
100
AcDb2dPolyline
 66
     1
 10
0.0
 20
0.0
 30
0.0
  0
VERTEX
  5
1D35
100
AcDbEntity
  8
0
100
AcDbVertex
100
AcDb2dVertex
 10
20.275495
 20
90.649742
 30
0.0
  0
VERTEX
  5
1D36
100
AcDbEntity
  8
0
100
AcDbVertex
100
AcDb2dVertex
 10
20.47202
 20
90.618591
 30
0.0
  0
VERTEX
  5
1D37
100
AcDbEntity
  8
0
100
AcDbVertex
100
AcDb2dVertex
 10
20.664077
 20
90.523621
 30
0.0
  0
VERTEX
  5
1D38
100
AcDbEntity
  8
0
100
AcDbVertex
100
AcDb2dVertex
 10
20.83651
 20
90.369691
 30
0.0
  0
VERTEX
  5
1D39
100
AcDbEntity
  8
0
100
AcDbVertex
100
AcDb2dVertex
 10
20.977135
 20
90.169843
 30
0.0
  0
VERTEX
  5
1D3A
100
AcDbEntity
  8
0
100
AcDbVertex
100
AcDb2dVertex
 10
21.081303
 20
89.935219
 30
0.0
  0
VERTEX
  5
1D3B
100
AcDbEntity
  8
0
100
AcDbVertex
100
AcDb2dVertex
 10
21.146188
 20
89.673806
 30
0.0
  0
VERTEX
  5
1D3C
100
AcDbEntity
  8
0
100
AcDbVertex
100
AcDb2dVertex
 10
21.168114
 20
89.399742
 30
0.0
  0
SEQEND
  5
1D3D
100
AcDbEntity
  8
0
  0
LINE
  5
1D3E
100
AcDbEntity
  8
0
100
AcDbLine
 10
1.75
 20
96.899742
 30
0.0
 11
1.75
 21
97.399742
 31
0.0
  0
LINE
  5
1D3F
100
AcDbEntity
  8
0
100
AcDbLine
 10
1.75
 20
83.399742
 30
0.0
 11
1.75
 21
93.399742
 31
0.0
  0
LINE
  5
1D40
100
AcDbEntity
  8
0
100
AcDbLine
 10
0.0
 20
82.399742
 30
0.0
 11
0.0
 21
83.399742
 31
0.0
  0
LINE
  5
1D41
100
AcDbEntity
  8
0
100
AcDbLine
 10
2.066799
 20
96.899742
 30
0.0
 11
1.75
 21
96.899742
 31
0.0
  0
LINE
  5
1D42
100
AcDbEntity
  8
0
100
AcDbLine
 10
2.066799
 20
96.899742
 30
0.0
 11
2.066799
 21
93.399742
 31
0.0
  0
LINE
  5
1D43
100
AcDbEntity
  8
0
100
AcDbLine
 10
0.55
 20
94.099742
 30
0.0
 11
0.55
 21
93.399742
 31
0.0
  0
LINE
  5
1D44
100
AcDbEntity
  8
0
100
AcDbLine
 10
0.744241
 20
94.099742
 30
0.0
 11
0.744241
 21
93.399742
 31
0.0
  0
LINE
  5
1D45
100
AcDbEntity
  8
0
100
AcDbLine
 10
0.744241
 20
94.099742
 30
0.0
 11
0.55
 21
94.099742
 31
0.0
  0
LINE
  5
1D46
100
AcDbEntity
  8
0
100
AcDbLine
 10
1.75
 20
96.899742
 30
0.0
 11
0.55
 21
94.099742
 31
0.0
  0
POLYLINE
  5
1D47
100
AcDbEntity
  8
0
100
AcDb2dPolyline
 66
     1
 10
0.0
 20
0.0
 30
0.0
  0
VERTEX
  5
1D48
100
AcDbEntity
  8
0
100
AcDbVertex
100
AcDb2dVertex
 10
2.066799
 20
96.899742
 30
0.0
  0
VERTEX
  5
1D49
100
AcDbEntity
  8
0
100
AcDbVertex
100
AcDb2dVertex
 10
1.630033
 20
95.983406
 30
0.0
  0
VERTEX
  5
1D4A
100
AcDbEntity
  8
0
100
AcDbVertex
100
AcDb2dVertex
 10
1.18921
 20
95.050161
 30
0.0
  0
VERTEX
  5
1D4B
100
AcDbEntity
  8
0
100
AcDbVertex
100
AcDb2dVertex
 10
0.744241
 20
94.099742
 30
0.0
  0
SEQEND
  5
1D4C
100
AcDbEntity
  8
0
  0
LINE
  5
1D4D
100
AcDbEntity
  8
0
100
AcDbLine
 10
2.066799
 20
93.399742
 30
0.0
 11
0.55
 21
93.399742
 31
0.0
  0
LINE
  5
1D4E
100
AcDbEntity
  8
0
100
AcDbLine
 10
18.861282
 20
83.399742
 30
0.0
 11
18.861282
 21
85.399742
 31
0.0
  0
LINE
  5
1D4F
100
AcDbEntity
  8
0
100
AcDbLine
 10
19.921943
 20
85.399742
 30
0.0
 11
19.921943
 21
83.399742
 31
0.0
  0
POLYLINE
  5
1D50
100
AcDbEntity
  8
0
100
AcDb2dPolyline
 66
     1
 10
0.0
 20
0.0
 30
0.0
  0
VERTEX
  5
1D51
100
AcDbEntity
  8
0
100
AcDbVertex
100
AcDb2dVertex
 10
20.71401
 20
90.479046
 30
0.0
  0
VERTEX
  5
1D52
100
AcDbEntity
  8
0
100
AcDbVertex
100
AcDb2dVertex
 10
20.59487
 20
90.368684
 30
0.0
  0
VERTEX
  5
1D53
100
AcDbEntity
  8
0
100
AcDbVertex
100
AcDb2dVertex
 10
20.461596
 20
90.170043
 30
0.0
  0
VERTEX
  5
1D54
100
AcDbEntity
  8
0
100
AcDbVertex
100
AcDb2dVertex
 10
20.363695
 20
89.935274
 30
0.0
  0
VERTEX
  5
1D55
100
AcDbEntity
  8
0
100
AcDbVertex
100
AcDb2dVertex
 10
20.304456
 20
89.674129
 30
0.0
  0
VERTEX
  5
1D56
100
AcDbEntity
  8
0
100
AcDbVertex
100
AcDb2dVertex
 10
20.286715
 20
89.399742
 30
0.0
  0
SEQEND
  5
1D57
100
AcDbEntity
  8
0
  0
POLYLINE
  5
1D58
100
AcDbEntity
  8
0
100
AcDb2dPolyline
 66
     1
 10
0.0
 20
0.0
 30
0.0
  0
VERTEX
  5
1D59
100
AcDbEntity
  8
0
100
AcDbVertex
100
AcDb2dVertex
 10
19.400347
 20
89.399742
 30
0.0
  0
VERTEX
  5
1D5A
100
AcDbEntity
  8
0
100
AcDbVertex
100
AcDb2dVertex
 10
19.421361
 20
89.673337
 30
0.0
  0
VERTEX
  5
1D5B
100
AcDbEntity
  8
0
100
AcDbVertex
100
AcDb2dVertex
 10
19.483744
 20
89.934585
 30
0.0
  0
VERTEX
  5
1D5C
100
AcDbEntity
  8
0
100
AcDbVertex
100
AcDb2dVertex
 10
19.584515
 20
90.169512
 30
0.0
  0
VERTEX
  5
1D5D
100
AcDbEntity
  8
0
100
AcDbVertex
100
AcDb2dVertex
 10
19.72025
 20
90.368312
 30
0.0
  0
VERTEX
  5
1D5E
100
AcDbEntity
  8
0
100
AcDbVertex
100
AcDb2dVertex
 10
19.88789
 20
90.521968
 30
0.0
  0
VERTEX
  5
1D5F
100
AcDbEntity
  8
0
100
AcDbVertex
100
AcDb2dVertex
 10
20.077859
 20
90.61795
 30
0.0
  0
VERTEX
  5
1D60
100
AcDbEntity
  8
0
100
AcDbVertex
100
AcDb2dVertex
 10
20.275495
 20
90.649742
 30
0.0
  0
SEQEND
  5
1D61
100
AcDbEntity
  8
0
  0
POLYLINE
  5
1D62
100
AcDbEntity
  8
0
100
AcDb2dPolyline
 66
     1
 10
0.0
 20
0.0
 30
0.0
  0
VERTEX
  5
1D63
100
AcDbEntity
  8
0
100
AcDbVertex
100
AcDb2dVertex
 10
20.286715
 20
89.399742
 30
0.0
  0
VERTEX
  5
1D64
100
AcDbEntity
  8
0
100
AcDbVertex
100
AcDb2dVertex
 10
20.311204
 20
89.125513
 30
0.0
  0
VERTEX
  5
1D65
100
AcDbEntity
  8
0
100
AcDbVertex
100
AcDb2dVertex
 10
20.376921
 20
88.864198
 30
0.0
  0
VERTEX
  5
1D66
100
AcDbEntity
  8
0
100
AcDbVertex
100
AcDb2dVertex
 10
20.480493
 20
88.629658
 30
0.0
  0
VERTEX
  5
1D67
100
AcDbEntity
  8
0
100
AcDbVertex
100
AcDb2dVertex
 10
20.6196
 20
88.429869
 30
0.0
  0
VERTEX
  5
1D68
100
AcDbEntity
  8
0
100
AcDbVertex
100
AcDb2dVertex
 10
20.727654
 20
88.332401
 30
0.0
  0
SEQEND
  5
1D69
100
AcDbEntity
  8
0
  0
POLYLINE
  5
1D6A
100
AcDbEntity
  8
0
100
AcDb2dPolyline
 66
     1
 10
0.0
 20
0.0
 30
0.0
  0
VERTEX
  5
1D6B
100
AcDbEntity
  8
0
100
AcDbVertex
100
AcDb2dVertex
 10
20.275497
 20
88.149741
 30
0.0
  0
VERTEX
  5
1D6C
100
AcDbEntity
  8
0
100
AcDbVertex
100
AcDb2dVertex
 10
20.079832
 20
88.180892
 30
0.0
  0
VERTEX
  5
1D6D
100
AcDbEntity
  8
0
100
AcDbVertex
100
AcDb2dVertex
 10
19.890262
 20
88.275862
 30
0.0
  0
VERTEX
  5
1D6E
100
AcDbEntity
  8
0
100
AcDbVertex
100
AcDb2dVertex
 10
19.721432
 20
88.429793
 30
0.0
  0
VERTEX
  5
1D6F
100
AcDbEntity
  8
0
100
AcDbVertex
100
AcDb2dVertex
 10
19.584695
 20
88.62964
 30
0.0
  0
VERTEX
  5
1D70
100
AcDbEntity
  8
0
100
AcDbVertex
100
AcDb2dVertex
 10
19.483952
 20
88.864265
 30
0.0
  0
VERTEX
  5
1D71
100
AcDbEntity
  8
0
100
AcDbVertex
100
AcDb2dVertex
 10
19.421434
 20
89.125677
 30
0.0
  0
VERTEX
  5
1D72
100
AcDbEntity
  8
0
100
AcDbVertex
100
AcDb2dVertex
 10
19.400347
 20
89.399742
 30
0.0
  0
SEQEND
  5
1D73
100
AcDbEntity
  8
0
  0
LINE
  5
1D74
100
AcDbEntity
  8
0
100
AcDbLine
 10
20.80897
 20
83.399742
 30
0.0
 11
20.80897
 21
85.399742
 31
0.0
  0
LINE
  5
1D75
100
AcDbEntity
  8
0
100
AcDbLine
 10
128.2
 20
72.399742
 30
0.0
 11
128.37455
 21
82.399742
 31
0.0
  0
LINE
  5
1D76
100
AcDbEntity
  8
0
100
AcDbLine
 10
58.677442
 20
93.399742
 30
0.0
 11
71.322558
 21
93.399742
 31
0.0
  0
LINE
  5
1D77
100
AcDbEntity
  8
0
100
AcDbLine
 10
60.0
 20
94.099742
 30
0.0
 11
70.0
 21
94.099742
 31
0.0
  0
LINE
  5
1D78
100
AcDbEntity
  8
0
100
AcDbLine
 10
58.677442
 20
96.899742
 30
0.0
 11
71.322558
 21
96.899742
 31
0.0
  0
LINE
  5
1D79
100
AcDbEntity
  8
0
100
AcDbLine
 10
60.0
 20
93.399742
 30
0.0
 11
60.0
 21
94.099742
 31
0.0
  0
LINE
  5
1D7A
100
AcDbEntity
  8
0
100
AcDbLine
 10
58.677442
 20
96.899742
 30
0.0
 11
58.677442
 21
93.399742
 31
0.0
  0
POLYLINE
  5
1D7B
100
AcDbEntity
  8
0
100
AcDb2dPolyline
 66
     1
 10
0.0
 20
0.0
 30
0.0
  0
VERTEX
  5
1D7C
100
AcDbEntity
  8
0
100
AcDbVertex
100
AcDb2dVertex
 10
58.677442
 20
96.899742
 30
0.0
  0
VERTEX
  5
1D7D
100
AcDbEntity
  8
0
100
AcDbVertex
100
AcDb2dVertex
 10
59.114208
 20
95.983406
 30
0.0
  0
VERTEX
  5
1D7E
100
AcDbEntity
  8
0
100
AcDbVertex
100
AcDb2dVertex
 10
59.555031
 20
95.050161
 30
0.0
  0
VERTEX
  5
1D7F
100
AcDbEntity
  8
0
100
AcDbVertex
100
AcDb2dVertex
 10
60.0
 20
94.099742
 30
0.0
  0
SEQEND
  5
1D80
100
AcDbEntity
  8
0
  0
LINE
  5
1D81
100
AcDbEntity
  8
0
100
AcDbLine
 10
70.0
 20
93.399742
 30
0.0
 11
70.0
 21
94.099742
 31
0.0
  0
POLYLINE
  5
1D82
100
AcDbEntity
  8
0
100
AcDb2dPolyline
 66
     1
 10
0.0
 20
0.0
 30
0.0
  0
VERTEX
  5
1D83
100
AcDbEntity
  8
0
100
AcDbVertex
100
AcDb2dVertex
 10
70.0
 20
94.099742
 30
0.0
  0
VERTEX
  5
1D84
100
AcDbEntity
  8
0
100
AcDbVertex
100
AcDb2dVertex
 10
70.444978
 20
95.05018
 30
0.0
  0
VERTEX
  5
1D85
100
AcDbEntity
  8
0
100
AcDbVertex
100
AcDb2dVertex
 10
70.885801
 20
95.983425
 30
0.0
  0
VERTEX
  5
1D86
100
AcDbEntity
  8
0
100
AcDbVertex
100
AcDb2dVertex
 10
71.322558
 20
96.899742
 30
0.0
  0
SEQEND
  5
1D87
100
AcDbEntity
  8
0
  0
LINE
  5
1D88
100
AcDbEntity
  8
0
100
AcDbLine
 10
71.322558
 20
96.899742
 30
0.0
 11
71.322558
 21
93.399742
 31
0.0
  0
LINE
  5
1D89
100
AcDbEntity
  8
0
100
AcDbLine
 10
106.806551
 20
83.399742
 30
0.0
 11
106.806551
 21
97.399742
 31
0.0
  0
LINE
  5
1D8A
100
AcDbEntity
  8
0
100
AcDbLine
 10
107.160808
 20
97.399742
 30
0.0
 11
107.160808
 21
83.399742
 31
0.0
  0
LINE
  5
1D8B
100
AcDbEntity
  8
0
100
AcDbLine
 10
112.817662
 20
97.399742
 30
0.0
 11
112.817662
 21
83.399742
 31
0.0
  0
LINE
  5
1D8C
100
AcDbEntity
  8
0
100
AcDbLine
 10
128.25
 20
96.899742
 30
0.0
 11
128.25
 21
97.399742
 31
0.0
  0
LINE
  5
1D8D
100
AcDbEntity
  8
0
100
AcDbLine
 10
128.25
 20
83.399742
 30
0.0
 11
128.25
 21
93.399742
 31
0.0
  0
LINE
  5
1D8E
100
AcDbEntity
  8
0
100
AcDbLine
 10
130.0
 20
82.399742
 30
0.0
 11
130.0
 21
83.399742
 31
0.0
  0
LINE
  5
1D8F
100
AcDbEntity
  8
0
100
AcDbLine
 10
128.25
 20
96.899742
 30
0.0
 11
127.933201
 21
96.899742
 31
0.0
  0
LINE
  5
1D90
100
AcDbEntity
  8
0
100
AcDbLine
 10
127.933201
 20
93.399742
 30
0.0
 11
129.45
 21
93.399742
 31
0.0
  0
LINE
  5
1D91
100
AcDbEntity
  8
0
100
AcDbLine
 10
129.255758
 20
94.099742
 30
0.0
 11
129.45
 21
94.099742
 31
0.0
  0
LINE
  5
1D92
100
AcDbEntity
  8
0
100
AcDbLine
 10
129.255758
 20
93.399742
 30
0.0
 11
129.255758
 21
94.099742
 31
0.0
  0
LINE
  5
1D93
100
AcDbEntity
  8
0
100
AcDbLine
 10
129.45
 20
93.399742
 30
0.0
 11
129.45
 21
94.099742
 31
0.0
  0
LINE
  5
1D94
100
AcDbEntity
  8
0
100
AcDbLine
 10
127.933201
 20
96.899742
 30
0.0
 11
127.933201
 21
93.399742
 31
0.0
  0
POLYLINE
  5
1D95
100
AcDbEntity
  8
0
100
AcDb2dPolyline
 66
     1
 10
0.0
 20
0.0
 30
0.0
  0
VERTEX
  5
1D96
100
AcDbEntity
  8
0
100
AcDbVertex
100
AcDb2dVertex
 10
127.933201
 20
96.899742
 30
0.0
  0
VERTEX
  5
1D97
100
AcDbEntity
  8
0
100
AcDbVertex
100
AcDb2dVertex
 10
128.369966
 20
95.983406
 30
0.0
  0
VERTEX
  5
1D98
100
AcDbEntity
  8
0
100
AcDbVertex
100
AcDb2dVertex
 10
128.810789
 20
95.050161
 30
0.0
  0
VERTEX
  5
1D99
100
AcDbEntity
  8
0
100
AcDbVertex
100
AcDb2dVertex
 10
129.255758
 20
94.099742
 30
0.0
  0
SEQEND
  5
1D9A
100
AcDbEntity
  8
0
  0
LINE
  5
1D9B
100
AcDbEntity
  8
0
100
AcDbLine
 10
129.45
 20
94.099742
 30
0.0
 11
128.25
 21
96.899742
 31
0.0
  0
ARC
  5
1D9C
100
AcDbEntity
  8
0
100
AcDbCircle
 10
65.0
 20
257.022467
 30
0.0
 40
63.25
100
AcDbArc
 50
138.625868
 51
311.374132
  0
CIRCLE
  5
1D9D
100
AcDbEntity
  8
0
100
AcDbCircle
 10
65.0
 20
257.022467
 30
0.0
 40
65.0
  0
CIRCLE
  5
1D9E
100
AcDbEntity
  8
0
100
AcDbCircle
 10
65.0
 20
257.022467
 30
0.0
 40
61.7
  0
CIRCLE
  5
1D9F
100
AcDbEntity
  8
0
100
AcDbCircle
 10
65.0
 20
257.022467
 30
0.0
 40
62.136377
  0
CIRCLE
  5
1DA0
100
AcDbEntity
  8
0
100
AcDbCircle
 10
65.0
 20
257.022467
 30
0.0
 40
61.591883
  0
ARC
  5
1DA1
100
AcDbEntity
  8
0
100
AcDbCircle
 10
65.0
 20
257.022467
 30
0.0
 40
63.25
100
AcDbArc
 50
318.625868
 51
131.374132
  0
ARC
  5
1DA2
100
AcDbEntity
  8
0
100
AcDbCircle
 10
65.0
 20
257.022467
 30
0.0
 40
64.45
100
AcDbArc
 50
175.55055
 51
184.44945
  0
POLYLINE
  5
1DA3
100
AcDbEntity
  8
0
100
AcDb2dPolyline
 66
     1
 10
0.0
 20
0.0
 30
0.0
  0
VERTEX
  5
1DA4
100
AcDbEntity
  8
0
100
AcDbVertex
100
AcDb2dVertex
 10
22.054482
 20
212.309182
 30
0.0
  0
VERTEX
  5
1DA5
100
AcDbEntity
  8
0
100
AcDbVertex
100
AcDb2dVertex
 10
22.029126
 20
212.326908
 30
0.0
  0
VERTEX
  5
1DA6
100
AcDbEntity
  8
0
100
AcDbVertex
100
AcDb2dVertex
 10
21.960979
 20
212.386189
 30
0.0
  0
VERTEX
  5
1DA7
100
AcDbEntity
  8
0
100
AcDbVertex
100
AcDb2dVertex
 10
21.853908
 20
212.483977
 30
0.0
  0
VERTEX
  5
1DA8
100
AcDbEntity
  8
0
100
AcDbVertex
100
AcDb2dVertex
 10
21.710843
 20
212.618146
 30
0.0
  0
VERTEX
  5
1DA9
100
AcDbEntity
  8
0
100
AcDbVertex
100
AcDb2dVertex
 10
21.536537
 20
212.784978
 30
0.0
  0
VERTEX
  5
1DAA
100
AcDbEntity
  8
0
100
AcDbVertex
100
AcDb2dVertex
 10
21.343334
 20
212.9733
 30
0.0
  0
VERTEX
  5
1DAB
100
AcDbEntity
  8
0
100
AcDbVertex
100
AcDb2dVertex
 10
21.146297
 20
213.168688
 30
0.0
  0
VERTEX
  5
1DAC
100
AcDbEntity
  8
0
100
AcDbVertex
100
AcDb2dVertex
 10
20.94936
 20
213.367299
 30
0.0
  0
VERTEX
  5
1DAD
100
AcDbEntity
  8
0
100
AcDbVertex
100
AcDb2dVertex
 10
20.760606
 20
213.560978
 30
0.0
  0
VERTEX
  5
1DAE
100
AcDbEntity
  8
0
100
AcDbVertex
100
AcDb2dVertex
 10
20.59487
 20
213.734164
 30
0.0
  0
VERTEX
  5
1DAF
100
AcDbEntity
  8
0
100
AcDbVertex
100
AcDb2dVertex
 10
20.461596
 20
213.876282
 30
0.0
  0
VERTEX
  5
1DB0
100
AcDbEntity
  8
0
100
AcDbVertex
100
AcDb2dVertex
 10
20.363695
 20
213.983475
 30
0.0
  0
VERTEX
  5
1DB1
100
AcDbEntity
  8
0
100
AcDbVertex
100
AcDb2dVertex
 10
20.304456
 20
214.051575
 30
0.0
  0
VERTEX
  5
1DB2
100
AcDbEntity
  8
0
100
AcDbVertex
100
AcDb2dVertex
 10
20.286715
 20
214.076949
 30
0.0
  0
SEQEND
  5
1DB3
100
AcDbEntity
  8
0
  0
POLYLINE
  5
1DB4
100
AcDbEntity
  8
0
100
AcDb2dPolyline
 66
     1
 10
0.0
 20
0.0
 30
0.0
  0
VERTEX
  5
1DB5
100
AcDbEntity
  8
0
100
AcDbVertex
100
AcDb2dVertex
 10
20.480493
 20
213.895419
 30
0.0
  0
VERTEX
  5
1DB6
100
AcDbEntity
  8
0
100
AcDbVertex
100
AcDb2dVertex
 10
21.872873
 20
212.50304
 30
0.0
  0
VERTEX
  5
1DB7
100
AcDbEntity
  8
0
100
AcDbVertex
100
AcDb2dVertex
 10
21.974258
 20
212.399356
 30
0.0
  0
VERTEX
  5
1DB8
100
AcDbEntity
  8
0
100
AcDbVertex
100
AcDb2dVertex
 10
22.035891
 20
212.333688
 30
0.0
  0
VERTEX
  5
1DB9
100
AcDbEntity
  8
0
100
AcDbVertex
100
AcDb2dVertex
 10
22.054482
 20
212.309182
 30
0.0
  0
SEQEND
  5
1DBA
100
AcDbEntity
  8
0
  0
LINE
  5
1DBB
100
AcDbEntity
  8
0
100
AcDbLine
 10
19.921943
 20
210.883749
 30
0.0
 11
20.80897
 21
211.770777
 31
0.0
  0
LINE
  5
1DBC
100
AcDbEntity
  8
0
100
AcDbLine
 10
18.861282
 20
211.944409
 30
0.0
 11
19.74831
 21
212.831437
 31
0.0
  0
LINE
  5
1DBD
100
AcDbEntity
  8
0
100
AcDbLine
 10
18.861282
 20
211.944409
 30
0.0
 11
19.921943
 21
210.883749
 31
0.0
  0
POLYLINE
  5
1DBE
100
AcDbEntity
  8
0
100
AcDb2dPolyline
 66
     1
 10
0.0
 20
0.0
 30
0.0
  0
VERTEX
  5
1DBF
100
AcDbEntity
  8
0
100
AcDbVertex
100
AcDb2dVertex
 10
20.286715
 20
214.076949
 30
0.0
  0
VERTEX
  5
1DC0
100
AcDbEntity
  8
0
100
AcDbVertex
100
AcDb2dVertex
 10
20.311204
 20
214.058373
 30
0.0
  0
VERTEX
  5
1DC1
100
AcDbEntity
  8
0
100
AcDbVertex
100
AcDb2dVertex
 10
20.376921
 20
213.996694
 30
0.0
  0
VERTEX
  5
1DC2
100
AcDbEntity
  8
0
100
AcDbVertex
100
AcDb2dVertex
 10
20.480493
 20
213.895419
 30
0.0
  0
SEQEND
  5
1DC3
100
AcDbEntity
  8
0
  0
LINE
  5
1DC4
100
AcDbEntity
  8
0
100
AcDbLine
 10
2.066799
 20
250.699909
 30
0.0
 11
0.744241
 21
252.022467
 31
0.0
  0
ARC
  5
1DC5
100
AcDbEntity
  8
0
100
AcDbCircle
 10
65.0
 20
257.022467
 30
0.0
 40
63.75
100
AcDbArc
 50
131.402608
 51
138.597392
  0
LINE
  5
1DC6
100
AcDbEntity
  8
0
100
AcDbLine
 10
0.744241
 20
262.022467
 30
0.0
 11
2.066799
 21
263.345024
 31
0.0
  0
LINE
  5
1DC7
100
AcDbEntity
  8
0
100
AcDbLine
 10
17.536595
 20
298.829017
 30
0.0
 11
17.182338
 21
299.183274
 31
0.0
  0
LINE
  5
1DC8
100
AcDbEntity
  8
0
100
AcDbLine
 10
22.839192
 20
304.840129
 30
0.0
 11
23.193449
 21
304.485872
 31
0.0
  0
ARC
  5
1DC9
100
AcDbEntity
  8
0
100
AcDbCircle
 10
65.0
 20
257.022467
 30
0.0
 40
64.45
100
AcDbArc
 50
355.55055
 51
4.44945
  0
ARC
  5
1DCA
100
AcDbEntity
  8
0
100
AcDbCircle
 10
65.0
 20
257.022467
 30
0.0
 40
63.75
100
AcDbArc
 50
311.402608
 51
318.597392
  0
ARC
  5
1DCB
100
AcDbEntity
  8
0
100
AcDbCircle
 10
65.0
 20
257.022467
 30
0.0
 40
64.45
100
AcDbArc
 50
265.55055
 51
274.44945
  0
LINE
  5
1DCC
100
AcDbEntity
  8
0
100
AcDbLine
 10
58.677442
 20
194.089266
 30
0.0
 11
60.0
 21
192.766708
 31
0.0
  0
LINE
  5
1DCD
100
AcDbEntity
  8
0
100
AcDbLine
 10
70.0
 20
192.766708
 30
0.0
 11
71.322558
 21
194.089266
 31
0.0
  0
LINE
  5
1DCE
100
AcDbEntity
  8
0
100
AcDbLine
 10
107.160808
 20
209.204805
 30
0.0
 11
106.806551
 21
209.559062
 31
0.0
  0
LINE
  5
1DCF
100
AcDbEntity
  8
0
100
AcDbLine
 10
112.463405
 20
215.215916
 30
0.0
 11
112.817662
 21
214.861659
 31
0.0
  0
LINE
  5
1DD0
100
AcDbEntity
  8
0
100
AcDbLine
 10
127.933201
 20
250.699909
 30
0.0
 11
129.255758
 21
252.022467
 31
0.0
  0
POLYLINE
  5
1DD1
100
AcDbEntity
  8
0
100
AcDb2dPolyline
 66
     1
 10
0.0
 20
0.0
 30
0.0
  0
VERTEX
  5
1DD2
100
AcDbEntity
  8
0
100
AcDbVertex
100
AcDb2dVertex
 10
107.945517
 20
301.735751
 30
0.0
  0
VERTEX
  5
1DD3
100
AcDbEntity
  8
0
100
AcDbVertex
100
AcDb2dVertex
 10
107.970892
 20
301.71801
 30
0.0
  0
VERTEX
  5
1DD4
100
AcDbEntity
  8
0
100
AcDbVertex
100
AcDb2dVertex
 10
108.038991
 20
301.658771
 30
0.0
  0
VERTEX
  5
1DD5
100
AcDbEntity
  8
0
100
AcDbVertex
100
AcDb2dVertex
 10
108.146184
 20
301.560871
 30
0.0
  0
VERTEX
  5
1DD6
100
AcDbEntity
  8
0
100
AcDbVertex
100
AcDb2dVertex
 10
108.288301
 20
301.427597
 30
0.0
  0
VERTEX
  5
1DD7
100
AcDbEntity
  8
0
100
AcDbVertex
100
AcDb2dVertex
 10
108.461488
 20
301.261862
 30
0.0
  0
VERTEX
  5
1DD8
100
AcDbEntity
  8
0
100
AcDbVertex
100
AcDb2dVertex
 10
108.655166
 20
301.073108
 30
0.0
  0
VERTEX
  5
1DD9
100
AcDbEntity
  8
0
100
AcDbVertex
100
AcDb2dVertex
 10
108.853777
 20
300.876171
 30
0.0
  0
VERTEX
  5
1DDA
100
AcDbEntity
  8
0
100
AcDbVertex
100
AcDb2dVertex
 10
109.049166
 20
300.679134
 30
0.0
  0
VERTEX
  5
1DDB
100
AcDbEntity
  8
0
100
AcDbVertex
100
AcDb2dVertex
 10
109.237487
 20
300.48593
 30
0.0
  0
VERTEX
  5
1DDC
100
AcDbEntity
  8
0
100
AcDbVertex
100
AcDb2dVertex
 10
109.404319
 20
300.311624
 30
0.0
  0
VERTEX
  5
1DDD
100
AcDbEntity
  8
0
100
AcDbVertex
100
AcDb2dVertex
 10
109.538489
 20
300.168559
 30
0.0
  0
VERTEX
  5
1DDE
100
AcDbEntity
  8
0
100
AcDbVertex
100
AcDb2dVertex
 10
109.636278
 20
300.061488
 30
0.0
  0
VERTEX
  5
1DDF
100
AcDbEntity
  8
0
100
AcDbVertex
100
AcDb2dVertex
 10
109.695558
 20
299.993341
 30
0.0
  0
VERTEX
  5
1DE0
100
AcDbEntity
  8
0
100
AcDbVertex
100
AcDb2dVertex
 10
109.713284
 20
299.967984
 30
0.0
  0
SEQEND
  5
1DE1
100
AcDbEntity
  8
0
  0
POLYLINE
  5
1DE2
100
AcDbEntity
  8
0
100
AcDb2dPolyline
 66
     1
 10
0.0
 20
0.0
 30
0.0
  0
VERTEX
  5
1DE3
100
AcDbEntity
  8
0
100
AcDbVertex
100
AcDb2dVertex
 10
109.519426
 20
300.149594
 30
0.0
  0
VERTEX
  5
1DE4
100
AcDbEntity
  8
0
100
AcDbVertex
100
AcDb2dVertex
 10
108.127048
 20
301.541974
 30
0.0
  0
VERTEX
  5
1DE5
100
AcDbEntity
  8
0
100
AcDbVertex
100
AcDb2dVertex
 10
108.025773
 20
301.645546
 30
0.0
  0
VERTEX
  5
1DE6
100
AcDbEntity
  8
0
100
AcDbVertex
100
AcDb2dVertex
 10
107.964093
 20
301.711262
 30
0.0
  0
VERTEX
  5
1DE7
100
AcDbEntity
  8
0
100
AcDbVertex
100
AcDb2dVertex
 10
107.945517
 20
301.735751
 30
0.0
  0
SEQEND
  5
1DE8
100
AcDbEntity
  8
0
  0
POLYLINE
  5
1DE9
100
AcDbEntity
  8
0
100
AcDb2dPolyline
 66
     1
 10
0.0
 20
0.0
 30
0.0
  0
VERTEX
  5
1DEA
100
AcDbEntity
  8
0
100
AcDbVertex
100
AcDb2dVertex
 10
109.713284
 20
299.967984
 30
0.0
  0
VERTEX
  5
1DEB
100
AcDbEntity
  8
0
100
AcDbVertex
100
AcDb2dVertex
 10
109.688778
 20
299.986575
 30
0.0
  0
VERTEX
  5
1DEC
100
AcDbEntity
  8
0
100
AcDbVertex
100
AcDb2dVertex
 10
109.62311
 20
300.048209
 30
0.0
  0
VERTEX
  5
1DED
100
AcDbEntity
  8
0
100
AcDbVertex
100
AcDb2dVertex
 10
109.519426
 20
300.149594
 30
0.0
  0
SEQEND
  5
1DEE
100
AcDbEntity
  8
0
  0
ARC
  5
1DEF
100
AcDbEntity
  8
0
100
AcDbCircle
 10
65.0
 20
257.022467
 30
0.0
 40
64.45
100
AcDbArc
 50
85.55055
 51
94.44945
  0
LINE
  5
1DF0
100
AcDbEntity
  8
0
100
AcDbLine
 10
58.677442
 20
319.955668
 30
0.0
 11
60.0
 21
321.278225
 31
0.0
  0
LINE
  5
1DF1
100
AcDbEntity
  8
0
100
AcDbLine
 10
70.0
 20
321.278225
 30
0.0
 11
71.322558
 21
319.955668
 31
0.0
  0
LINE
  5
1DF2
100
AcDbEntity
  8
0
100
AcDbLine
 10
129.255758
 20
262.022467
 30
0.0
 11
127.933201
 21
263.345024
 31
0.0
  0
POLYLINE
  5
1DF3
100
AcDbEntity
  8
0
100
AcDb2dPolyline
 66
     1
 10
0.0
 20
0.0
 30
0.0
  0
VERTEX
  5
1DF4
100
AcDbEntity
  8
0
100
AcDbVertex
100
AcDb2dVertex
 10
314.168543
 20
50.038823
 30
0.0
  0
VERTEX
  5
1DF5
100
AcDbEntity
  8
0
100
AcDbVertex
100
AcDb2dVertex
 10
318.380448
 20
49.890948
 30
0.0
  0
VERTEX
  5
1DF6
100
AcDbEntity
  8
0
100
AcDbVertex
100
AcDb2dVertex
 10
322.601754
 20
49.890948
 30
0.0
  0
VERTEX
  5
1DF7
100
AcDbEntity
  8
0
100
AcDbVertex
100
AcDb2dVertex
 10
326.813659
 20
50.038823
 30
0.0
  0
SEQEND
  5
1DF8
100
AcDbEntity
  8
0
  0
POLYLINE
  5
1DF9
100
AcDbEntity
  8
0
100
AcDb2dPolyline
 66
     1
 10
0.0
 20
0.0
 30
0.0
  0
VERTEX
  5
1DFA
100
AcDbEntity
  8
0
100
AcDbVertex
100
AcDb2dVertex
 10
315.491101
 20
46.365769
 30
0.0
  0
VERTEX
  5
1DFB
100
AcDbEntity
  8
0
100
AcDbVertex
100
AcDb2dVertex
 10
320.491101
 20
46.263758
 30
0.0
  0
VERTEX
  5
1DFC
100
AcDbEntity
  8
0
100
AcDbVertex
100
AcDb2dVertex
 10
325.491101
 20
46.365769
 30
0.0
  0
SEQEND
  5
1DFD
100
AcDbEntity
  8
0
  0
POLYLINE
  5
1DFE
100
AcDbEntity
  8
0
100
AcDb2dPolyline
 66
     1
 10
0.0
 20
0.0
 30
0.0
  0
VERTEX
  5
1DFF
100
AcDbEntity
  8
0
100
AcDbVertex
100
AcDb2dVertex
 10
315.491101
 20
46.961465
 30
0.0
  0
VERTEX
  5
1E00
100
AcDbEntity
  8
0
100
AcDbVertex
100
AcDb2dVertex
 10
320.491101
 20
46.859454
 30
0.0
  0
VERTEX
  5
1E01
100
AcDbEntity
  8
0
100
AcDbVertex
100
AcDb2dVertex
 10
325.491101
 20
46.961465
 30
0.0
  0
SEQEND
  5
1E02
100
AcDbEntity
  8
0
  0
POLYLINE
  5
1E03
100
AcDbEntity
  8
0
100
AcDb2dPolyline
 66
     1
 10
0.0
 20
0.0
 30
0.0
  0
VERTEX
  5
1E04
100
AcDbEntity
  8
0
100
AcDbVertex
100
AcDb2dVertex
 10
362.297652
 20
46.674742
 30
0.0
  0
VERTEX
  5
1E05
100
AcDbEntity
  8
0
100
AcDbVertex
100
AcDb2dVertex
 10
357.365273
 20
44.612973
 30
0.0
  0
VERTEX
  5
1E06
100
AcDbEntity
  8
0
100
AcDbVertex
100
AcDb2dVertex
 10
352.066603
 20
42.819304
 30
0.0
  0
VERTEX
  5
1E07
100
AcDbEntity
  8
0
100
AcDbVertex
100
AcDb2dVertex
 10
346.454278
 20
41.311551
 30
0.0
  0
VERTEX
  5
1E08
100
AcDbEntity
  8
0
100
AcDbVertex
100
AcDb2dVertex
 10
340.584045
 20
40.10469
 30
0.0
  0
VERTEX
  5
1E09
100
AcDbEntity
  8
0
100
AcDbVertex
100
AcDb2dVertex
 10
334.514215
 20
39.210708
 30
0.0
  0
VERTEX
  5
1E0A
100
AcDbEntity
  8
0
100
AcDbVertex
100
AcDb2dVertex
 10
328.30508
 20
38.638485
 30
0.0
  0
VERTEX
  5
1E0B
100
AcDbEntity
  8
0
100
AcDbVertex
100
AcDb2dVertex
 10
322.018315
 20
38.393707
 30
0.0
  0
VERTEX
  5
1E0C
100
AcDbEntity
  8
0
100
AcDbVertex
100
AcDb2dVertex
 10
315.716369
 20
38.478806
 30
0.0
  0
VERTEX
  5
1E0D
100
AcDbEntity
  8
0
100
AcDbVertex
100
AcDb2dVertex
 10
309.461839
 20
38.892938
 30
0.0
  0
VERTEX
  5
1E0E
100
AcDbEntity
  8
0
100
AcDbVertex
100
AcDb2dVertex
 10
303.316853
 20
39.631993
 30
0.0
  0
VERTEX
  5
1E0F
100
AcDbEntity
  8
0
100
AcDbVertex
100
AcDb2dVertex
 10
297.342453
 20
40.688634
 30
0.0
  0
VERTEX
  5
1E10
100
AcDbEntity
  8
0
100
AcDbVertex
100
AcDb2dVertex
 10
291.597987
 20
42.052366
 30
0.0
  0
VERTEX
  5
1E11
100
AcDbEntity
  8
0
100
AcDbVertex
100
AcDb2dVertex
 10
286.140522
 20
43.709649
 30
0.0
  0
VERTEX
  5
1E12
100
AcDbEntity
  8
0
100
AcDbVertex
100
AcDb2dVertex
 10
281.024286
 20
45.644018
 30
0.0
  0
VERTEX
  5
1E13
100
AcDbEntity
  8
0
100
AcDbVertex
100
AcDb2dVertex
 10
276.300071
 20
47.836279
 30
0.0
  0
SEQEND
  5
1E14
100
AcDbEntity
  8
0
  0
POLYLINE
  5
1E15
100
AcDbEntity
  8
0
100
AcDb2dPolyline
 66
     1
 10
0.0
 20
0.0
 30
0.0
  0
VERTEX
  5
1E16
100
AcDbEntity
  8
0
100
AcDbVertex
100
AcDb2dVertex
 10
383.641963
 20
85.374319
 30
0.0
  0
VERTEX
  5
1E17
100
AcDbEntity
  8
0
100
AcDbVertex
100
AcDb2dVertex
 10
382.999772
 20
88.58606
 30
0.0
  0
VERTEX
  5
1E18
100
AcDbEntity
  8
0
100
AcDbVertex
100
AcDb2dVertex
 10
381.766765
 20
91.749863
 30
0.0
  0
VERTEX
  5
1E19
100
AcDbEntity
  8
0
100
AcDbVertex
100
AcDb2dVertex
 10
379.9546
 20
94.835827
 30
0.0
  0
VERTEX
  5
1E1A
100
AcDbEntity
  8
0
100
AcDbVertex
100
AcDb2dVertex
 10
377.58041
 20
97.814785
 30
0.0
  0
VERTEX
  5
1E1B
100
AcDbEntity
  8
0
100
AcDbVertex
100
AcDb2dVertex
 10
374.666637
 20
100.658583
 30
0.0
  0
VERTEX
  5
1E1C
100
AcDbEntity
  8
0
100
AcDbVertex
100
AcDb2dVertex
 10
371.240825
 20
103.340343
 30
0.0
  0
VERTEX
  5
1E1D
100
AcDbEntity
  8
0
100
AcDbVertex
100
AcDb2dVertex
 10
367.335355
 20
105.83472
 30
0.0
  0
VERTEX
  5
1E1E
100
AcDbEntity
  8
0
100
AcDbVertex
100
AcDb2dVertex
 10
362.987142
 20
108.118139
 30
0.0
  0
VERTEX
  5
1E1F
100
AcDbEntity
  8
0
100
AcDbVertex
100
AcDb2dVertex
 10
358.237284
 20
110.169021
 30
0.0
  0
VERTEX
  5
1E20
100
AcDbEntity
  8
0
100
AcDbVertex
100
AcDb2dVertex
 10
353.130674
 20
111.967982
 30
0.0
  0
VERTEX
  5
1E21
100
AcDbEntity
  8
0
100
AcDbVertex
100
AcDb2dVertex
 10
347.71558
 20
113.498022
 30
0.0
  0
VERTEX
  5
1E22
100
AcDbEntity
  8
0
100
AcDbVertex
100
AcDb2dVertex
 10
342.04318
 20
114.74468
 30
0.0
  0
VERTEX
  5
1E23
100
AcDbEntity
  8
0
100
AcDbVertex
100
AcDb2dVertex
 10
336.167087
 20
115.696175
 30
0.0
  0
VERTEX
  5
1E24
100
AcDbEntity
  8
0
100
AcDbVertex
100
AcDb2dVertex
 10
330.142837
 20
116.343513
 30
0.0
  0
VERTEX
  5
1E25
100
AcDbEntity
  8
0
100
AcDbVertex
100
AcDb2dVertex
 10
324.027368
 20
116.680579
 30
0.0
  0
VERTEX
  5
1E26
100
AcDbEntity
  8
0
100
AcDbVertex
100
AcDb2dVertex
 10
317.878478
 20
116.704186
 30
0.0
  0
VERTEX
  5
1E27
100
AcDbEntity
  8
0
100
AcDbVertex
100
AcDb2dVertex
 10
311.754281
 20
116.414111
 30
0.0
  0
VERTEX
  5
1E28
100
AcDbEntity
  8
0
100
AcDbVertex
100
AcDb2dVertex
 10
305.712658
 20
115.813097
 30
0.0
  0
VERTEX
  5
1E29
100
AcDbEntity
  8
0
100
AcDbVertex
100
AcDb2dVertex
 10
299.810711
 20
114.906822
 30
0.0
  0
VERTEX
  5
1E2A
100
AcDbEntity
  8
0
100
AcDbVertex
100
AcDb2dVertex
 10
294.10422
 20
113.703853
 30
0.0
  0
VERTEX
  5
1E2B
100
AcDbEntity
  8
0
100
AcDbVertex
100
AcDb2dVertex
 10
288.647119
 20
112.215558
 30
0.0
  0
VERTEX
  5
1E2C
100
AcDbEntity
  8
0
100
AcDbVertex
100
AcDb2dVertex
 10
283.490985
 20
110.456003
 30
0.0
  0
VERTEX
  5
1E2D
100
AcDbEntity
  8
0
100
AcDbVertex
100
AcDb2dVertex
 10
278.68455
 20
108.441817
 30
0.0
  0
SEQEND
  5
1E2E
100
AcDbEntity
  8
0
  0
POLYLINE
  5
1E2F
100
AcDbEntity
  8
0
100
AcDb2dPolyline
 66
     1
 10
0.0
 20
0.0
 30
0.0
  0
VERTEX
  5
1E30
100
AcDbEntity
  8
0
100
AcDbVertex
100
AcDb2dVertex
 10
257.526253
 20
59.780076
 30
0.0
  0
VERTEX
  5
1E31
100
AcDbEntity
  8
0
100
AcDbVertex
100
AcDb2dVertex
 10
257.690815
 20
56.948564
 30
0.0
  0
VERTEX
  5
1E32
100
AcDbEntity
  8
0
100
AcDbVertex
100
AcDb2dVertex
 10
258.618324
 20
50.707129
 30
0.0
  0
VERTEX
  5
1E33
100
AcDbEntity
  8
0
100
AcDbVertex
100
AcDb2dVertex
 10
260.160792
 20
44.601813
 30
0.0
  0
VERTEX
  5
1E34
100
AcDbEntity
  8
0
100
AcDbVertex
100
AcDb2dVertex
 10
262.28604
 20
38.723753
 30
0.0
  0
VERTEX
  5
1E35
100
AcDbEntity
  8
0
100
AcDbVertex
100
AcDb2dVertex
 10
265.320998
 20
32.466714
 30
0.0
  0
VERTEX
  5
1E36
100
AcDbEntity
  8
0
100
AcDbVertex
100
AcDb2dVertex
 10
268.694578
 20
27.053473
 30
0.0
  0
VERTEX
  5
1E37
100
AcDbEntity
  8
0
100
AcDbVertex
100
AcDb2dVertex
 10
272.18438
 20
22.494935
 30
0.0
  0
VERTEX
  5
1E38
100
AcDbEntity
  8
0
100
AcDbVertex
100
AcDb2dVertex
 10
276.65477
 20
17.704303
 30
0.0
  0
VERTEX
  5
1E39
100
AcDbEntity
  8
0
100
AcDbVertex
100
AcDb2dVertex
 10
280.994362
 20
13.881439
 30
0.0
  0
VERTEX
  5
1E3A
100
AcDbEntity
  8
0
100
AcDbVertex
100
AcDb2dVertex
 10
285.711005
 20
10.442015
 30
0.0
  0
VERTEX
  5
1E3B
100
AcDbEntity
  8
0
100
AcDbVertex
100
AcDb2dVertex
 10
290.970349
 20
7.322787
 30
0.0
  0
VERTEX
  5
1E3C
100
AcDbEntity
  8
0
100
AcDbVertex
100
AcDb2dVertex
 10
295.73726
 20
5.049514
 30
0.0
  0
VERTEX
  5
1E3D
100
AcDbEntity
  8
0
100
AcDbVertex
100
AcDb2dVertex
 10
300.695559
 20
3.17688
 30
0.0
  0
VERTEX
  5
1E3E
100
AcDbEntity
  8
0
100
AcDbVertex
100
AcDb2dVertex
 10
305.757102
 20
1.735695
 30
0.0
  0
VERTEX
  5
1E3F
100
AcDbEntity
  8
0
100
AcDbVertex
100
AcDb2dVertex
 10
310.336476
 20
0.81382
 30
0.0
  0
VERTEX
  5
1E40
100
AcDbEntity
  8
0
100
AcDbVertex
100
AcDb2dVertex
 10
315.055631
 20
0.225916
 30
0.0
  0
VERTEX
  5
1E41
100
AcDbEntity
  8
0
100
AcDbVertex
100
AcDb2dVertex
 10
319.447719
 20
0.0
 30
0.0
  0
VERTEX
  5
1E42
100
AcDbEntity
  8
0
100
AcDbVertex
100
AcDb2dVertex
 10
323.679801
 20
0.071994
 30
0.0
  0
VERTEX
  5
1E43
100
AcDbEntity
  8
0
100
AcDbVertex
100
AcDb2dVertex
 10
327.881145
 20
0.425615
 30
0.0
  0
VERTEX
  5
1E44
100
AcDbEntity
  8
0
100
AcDbVertex
100
AcDb2dVertex
 10
332.021749
 20
1.053851
 30
0.0
  0
VERTEX
  5
1E45
100
AcDbEntity
  8
0
100
AcDbVertex
100
AcDb2dVertex
 10
335.868821
 20
1.893859
 30
0.0
  0
VERTEX
  5
1E46
100
AcDbEntity
  8
0
100
AcDbVertex
100
AcDb2dVertex
 10
339.912182
 20
3.054455
 30
0.0
  0
VERTEX
  5
1E47
100
AcDbEntity
  8
0
100
AcDbVertex
100
AcDb2dVertex
 10
343.900973
 20
4.494548
 30
0.0
  0
VERTEX
  5
1E48
100
AcDbEntity
  8
0
100
AcDbVertex
100
AcDb2dVertex
 10
347.306151
 20
5.972523
 30
0.0
  0
VERTEX
  5
1E49
100
AcDbEntity
  8
0
100
AcDbVertex
100
AcDb2dVertex
 10
350.912581
 20
7.808975
 30
0.0
  0
VERTEX
  5
1E4A
100
AcDbEntity
  8
0
100
AcDbVertex
100
AcDb2dVertex
 10
354.741543
 20
10.095928
 30
0.0
  0
VERTEX
  5
1E4B
100
AcDbEntity
  8
0
100
AcDbVertex
100
AcDb2dVertex
 10
358.441659
 20
12.679419
 30
0.0
  0
VERTEX
  5
1E4C
100
AcDbEntity
  8
0
100
AcDbVertex
100
AcDb2dVertex
 10
361.576929
 20
15.200197
 30
0.0
  0
VERTEX
  5
1E4D
100
AcDbEntity
  8
0
100
AcDbVertex
100
AcDb2dVertex
 10
364.908833
 20
18.273128
 30
0.0
  0
VERTEX
  5
1E4E
100
AcDbEntity
  8
0
100
AcDbVertex
100
AcDb2dVertex
 10
368.230816
 20
21.829652
 30
0.0
  0
VERTEX
  5
1E4F
100
AcDbEntity
  8
0
100
AcDbVertex
100
AcDb2dVertex
 10
371.263166
 20
25.623955
 30
0.0
  0
VERTEX
  5
1E50
100
AcDbEntity
  8
0
100
AcDbVertex
100
AcDb2dVertex
 10
374.321715
 20
30.169117
 30
0.0
  0
VERTEX
  5
1E51
100
AcDbEntity
  8
0
100
AcDbVertex
100
AcDb2dVertex
 10
376.894175
 20
34.801742
 30
0.0
  0
VERTEX
  5
1E52
100
AcDbEntity
  8
0
100
AcDbVertex
100
AcDb2dVertex
 10
379.258284
 20
40.112508
 30
0.0
  0
VERTEX
  5
1E53
100
AcDbEntity
  8
0
100
AcDbVertex
100
AcDb2dVertex
 10
381.113896
 20
45.584611
 30
0.0
  0
VERTEX
  5
1E54
100
AcDbEntity
  8
0
100
AcDbVertex
100
AcDb2dVertex
 10
382.468224
 20
51.240371
 30
0.0
  0
VERTEX
  5
1E55
100
AcDbEntity
  8
0
100
AcDbVertex
100
AcDb2dVertex
 10
383.309635
 20
57.13808
 30
0.0
  0
VERTEX
  5
1E56
100
AcDbEntity
  8
0
100
AcDbVertex
100
AcDb2dVertex
 10
383.46262
 20
59.840691
 30
0.0
  0
SEQEND
  5
1E57
100
AcDbEntity
  8
0
  0
POLYLINE
  5
1E58
100
AcDbEntity
  8
0
100
AcDb2dPolyline
 66
     1
 10
0.0
 20
0.0
 30
0.0
  0
VERTEX
  5
1E59
100
AcDbEntity
  8
0
100
AcDbVertex
100
AcDb2dVertex
 10
257.241227
 20
83.515428
 30
0.0
  0
VERTEX
  5
1E5A
100
AcDbEntity
  8
0
100
AcDbVertex
100
AcDb2dVertex
 10
257.340063
 20
81.657805
 30
0.0
  0
VERTEX
  5
1E5B
100
AcDbEntity
  8
0
100
AcDbVertex
100
AcDb2dVertex
 10
257.98194
 20
78.446085
 30
0.0
  0
VERTEX
  5
1E5C
100
AcDbEntity
  8
0
100
AcDbVertex
100
AcDb2dVertex
 10
259.214629
 20
75.282275
 30
0.0
  0
VERTEX
  5
1E5D
100
AcDbEntity
  8
0
100
AcDbVertex
100
AcDb2dVertex
 10
261.02648
 20
72.196279
 30
0.0
  0
VERTEX
  5
1E5E
100
AcDbEntity
  8
0
100
AcDbVertex
100
AcDb2dVertex
 10
263.400369
 20
69.217263
 30
0.0
  0
VERTEX
  5
1E5F
100
AcDbEntity
  8
0
100
AcDbVertex
100
AcDb2dVertex
 10
266.31386
 20
66.373384
 30
0.0
  0
VERTEX
  5
1E60
100
AcDbEntity
  8
0
100
AcDbVertex
100
AcDb2dVertex
 10
269.73942
 20
63.69152
 30
0.0
  0
VERTEX
  5
1E61
100
AcDbEntity
  8
0
100
AcDbVertex
100
AcDb2dVertex
 10
273.644672
 20
61.197021
 30
0.0
  0
VERTEX
  5
1E62
100
AcDbEntity
  8
0
100
AcDbVertex
100
AcDb2dVertex
 10
277.992708
 20
58.913463
 30
0.0
  0
VERTEX
  5
1E63
100
AcDbEntity
  8
0
100
AcDbVertex
100
AcDb2dVertex
 10
282.742434
 20
56.862431
 30
0.0
  0
VERTEX
  5
1E64
100
AcDbEntity
  8
0
100
AcDbVertex
100
AcDb2dVertex
 10
287.848959
 20
55.063311
 30
0.0
  0
VERTEX
  5
1E65
100
AcDbEntity
  8
0
100
AcDbVertex
100
AcDb2dVertex
 10
293.264022
 20
53.53311
 30
0.0
  0
VERTEX
  5
1E66
100
AcDbEntity
  8
0
100
AcDbVertex
100
AcDb2dVertex
 10
298.936442
 20
52.286292
 30
0.0
  0
VERTEX
  5
1E67
100
AcDbEntity
  8
0
100
AcDbVertex
100
AcDb2dVertex
 10
304.812607
 20
51.334644
 30
0.0
  0
VERTEX
  5
1E68
100
AcDbEntity
  8
0
100
AcDbVertex
100
AcDb2dVertex
 10
310.836978
 20
50.687161
 30
0.0
  0
VERTEX
  5
1E69
100
AcDbEntity
  8
0
100
AcDbVertex
100
AcDb2dVertex
 10
316.952615
 20
50.349967
 30
0.0
  0
VERTEX
  5
1E6A
100
AcDbEntity
  8
0
100
AcDbVertex
100
AcDb2dVertex
 10
323.101716
 20
50.326252
 30
0.0
  0
VERTEX
  5
1E6B
100
AcDbEntity
  8
0
100
AcDbVertex
100
AcDb2dVertex
 10
329.226158
 20
50.616241
 30
0.0
  0
VERTEX
  5
1E6C
100
AcDbEntity
  8
0
100
AcDbVertex
100
AcDb2dVertex
 10
335.268055
 20
51.217197
 30
0.0
  0
VERTEX
  5
1E6D
100
AcDbEntity
  8
0
100
AcDbVertex
100
AcDb2dVertex
 10
341.170298
 20
52.123442
 30
0.0
  0
VERTEX
  5
1E6E
100
AcDbEntity
  8
0
100
AcDbVertex
100
AcDb2dVertex
 10
346.877095
 20
53.326415
 30
0.0
  0
VERTEX
  5
1E6F
100
AcDbEntity
  8
0
100
AcDbVertex
100
AcDb2dVertex
 10
352.334505
 20
54.814747
 30
0.0
  0
VERTEX
  5
1E70
100
AcDbEntity
  8
0
100
AcDbVertex
100
AcDb2dVertex
 10
357.490928
 20
56.574369
 30
0.0
  0
VERTEX
  5
1E71
100
AcDbEntity
  8
0
100
AcDbVertex
100
AcDb2dVertex
 10
362.297652
 20
58.588664
 30
0.0
  0
SEQEND
  5
1E72
100
AcDbEntity
  8
0
  0
POLYLINE
  5
1E73
100
AcDbEntity
  8
0
100
AcDb2dPolyline
 66
     1
 10
0.0
 20
0.0
 30
0.0
  0
VERTEX
  5
1E74
100
AcDbEntity
  8
0
100
AcDbVertex
100
AcDb2dVertex
 10
382.623703
 20
83.162633
 30
0.0
  0
VERTEX
  5
1E75
100
AcDbEntity
  8
0
100
AcDbVertex
100
AcDb2dVertex
 10
382.287088
 20
80.104221
 30
0.0
  0
VERTEX
  5
1E76
100
AcDbEntity
  8
0
100
AcDbVertex
100
AcDb2dVertex
 10
381.269649
 20
76.730573
 30
0.0
  0
VERTEX
  5
1E77
100
AcDbEntity
  8
0
100
AcDbVertex
100
AcDb2dVertex
 10
379.586307
 20
73.431259
 30
0.0
  0
VERTEX
  5
1E78
100
AcDbEntity
  8
0
100
AcDbVertex
100
AcDb2dVertex
 10
377.255505
 20
70.242428
 30
0.0
  0
VERTEX
  5
1E79
100
AcDbEntity
  8
0
100
AcDbVertex
100
AcDb2dVertex
 10
374.302781
 20
67.199016
 30
0.0
  0
VERTEX
  5
1E7A
100
AcDbEntity
  8
0
100
AcDbVertex
100
AcDb2dVertex
 10
370.760485
 20
64.334369
 30
0.0
  0
VERTEX
  5
1E7B
100
AcDbEntity
  8
0
100
AcDbVertex
100
AcDb2dVertex
 10
366.667428
 20
61.679871
 30
0.0
  0
VERTEX
  5
1E7C
100
AcDbEntity
  8
0
100
AcDbVertex
100
AcDb2dVertex
 10
362.068452
 20
59.264605
 30
0.0
  0
VERTEX
  5
1E7D
100
AcDbEntity
  8
0
100
AcDbVertex
100
AcDb2dVertex
 10
357.013947
 20
57.115035
 30
0.0
  0
VERTEX
  5
1E7E
100
AcDbEntity
  8
0
100
AcDbVertex
100
AcDb2dVertex
 10
351.559289
 20
55.254711
 30
0.0
  0
VERTEX
  5
1E7F
100
AcDbEntity
  8
0
100
AcDbVertex
100
AcDb2dVertex
 10
345.764242
 20
53.704015
 30
0.0
  0
VERTEX
  5
1E80
100
AcDbEntity
  8
0
100
AcDbVertex
100
AcDb2dVertex
 10
339.692297
 20
52.479938
 30
0.0
  0
VERTEX
  5
1E81
100
AcDbEntity
  8
0
100
AcDbVertex
100
AcDb2dVertex
 10
333.40998
 20
51.595889
 30
0.0
  0
VERTEX
  5
1E82
100
AcDbEntity
  8
0
100
AcDbVertex
100
AcDb2dVertex
 10
326.986121
 20
51.061556
 30
0.0
  0
VERTEX
  5
1E83
100
AcDbEntity
  8
0
100
AcDbVertex
100
AcDb2dVertex
 10
320.491101
 20
50.882792
 30
0.0
  0
VERTEX
  5
1E84
100
AcDbEntity
  8
0
100
AcDbVertex
100
AcDb2dVertex
 10
313.996081
 20
51.061556
 30
0.0
  0
VERTEX
  5
1E85
100
AcDbEntity
  8
0
100
AcDbVertex
100
AcDb2dVertex
 10
307.572222
 20
51.595889
 30
0.0
  0
VERTEX
  5
1E86
100
AcDbEntity
  8
0
100
AcDbVertex
100
AcDb2dVertex
 10
301.289904
 20
52.479938
 30
0.0
  0
VERTEX
  5
1E87
100
AcDbEntity
  8
0
100
AcDbVertex
100
AcDb2dVertex
 10
295.21796
 20
53.704015
 30
0.0
  0
VERTEX
  5
1E88
100
AcDbEntity
  8
0
100
AcDbVertex
100
AcDb2dVertex
 10
289.422913
 20
55.254711
 30
0.0
  0
VERTEX
  5
1E89
100
AcDbEntity
  8
0
100
AcDbVertex
100
AcDb2dVertex
 10
283.968255
 20
57.115035
 30
0.0
  0
VERTEX
  5
1E8A
100
AcDbEntity
  8
0
100
AcDbVertex
100
AcDb2dVertex
 10
278.913749
 20
59.264605
 30
0.0
  0
VERTEX
  5
1E8B
100
AcDbEntity
  8
0
100
AcDbVertex
100
AcDb2dVertex
 10
274.314774
 20
61.679871
 30
0.0
  0
VERTEX
  5
1E8C
100
AcDbEntity
  8
0
100
AcDbVertex
100
AcDb2dVertex
 10
270.221716
 20
64.334369
 30
0.0
  0
VERTEX
  5
1E8D
100
AcDbEntity
  8
0
100
AcDbVertex
100
AcDb2dVertex
 10
266.67942
 20
67.199016
 30
0.0
  0
VERTEX
  5
1E8E
100
AcDbEntity
  8
0
100
AcDbVertex
100
AcDb2dVertex
 10
263.726696
 20
70.242428
 30
0.0
  0
VERTEX
  5
1E8F
100
AcDbEntity
  8
0
100
AcDbVertex
100
AcDb2dVertex
 10
261.395895
 20
73.431259
 30
0.0
  0
VERTEX
  5
1E90
100
AcDbEntity
  8
0
100
AcDbVertex
100
AcDb2dVertex
 10
259.712553
 20
76.730573
 30
0.0
  0
VERTEX
  5
1E91
100
AcDbEntity
  8
0
100
AcDbVertex
100
AcDb2dVertex
 10
258.695114
 20
80.104221
 30
0.0
  0
VERTEX
  5
1E92
100
AcDbEntity
  8
0
100
AcDbVertex
100
AcDb2dVertex
 10
258.358498
 20
83.162633
 30
0.0
  0
SEQEND
  5
1E93
100
AcDbEntity
  8
0
  0
POLYLINE
  5
1E94
100
AcDbEntity
  8
0
100
AcDb2dPolyline
 66
     1
 10
0.0
 20
0.0
 30
0.0
  0
VERTEX
  5
1E95
100
AcDbEntity
  8
0
100
AcDbVertex
100
AcDb2dVertex
 10
378.936905
 20
72.542796
 30
0.0
  0
VERTEX
  5
1E96
100
AcDbEntity
  8
0
100
AcDbVertex
100
AcDb2dVertex
 10
377.190798
 20
75.0188
 30
0.0
  0
VERTEX
  5
1E97
100
AcDbEntity
  8
0
100
AcDbVertex
100
AcDb2dVertex
 10
374.438287
 20
77.965751
 30
0.0
  0
VERTEX
  5
1E98
100
AcDbEntity
  8
0
100
AcDbVertex
100
AcDb2dVertex
 10
371.132205
 20
80.751339
 30
0.0
  0
VERTEX
  5
1E99
100
AcDbEntity
  8
0
100
AcDbVertex
100
AcDb2dVertex
 10
367.306477
 20
83.34698
 30
0.0
  0
VERTEX
  5
1E9A
100
AcDbEntity
  8
0
100
AcDbVertex
100
AcDb2dVertex
 10
363.00036
 20
85.726038
 30
0.0
  0
VERTEX
  5
1E9B
100
AcDbEntity
  8
0
100
AcDbVertex
100
AcDb2dVertex
 10
358.25804
 20
87.864102
 30
0.0
  0
VERTEX
  5
1E9C
100
AcDbEntity
  8
0
100
AcDbVertex
100
AcDb2dVertex
 10
353.12818
 20
89.739232
 30
0.0
  0
VERTEX
  5
1E9D
100
AcDbEntity
  8
0
100
AcDbVertex
100
AcDb2dVertex
 10
347.66342
 20
91.332186
 30
0.0
  0
VERTEX
  5
1E9E
100
AcDbEntity
  8
0
100
AcDbVertex
100
AcDb2dVertex
 10
341.919835
 20
92.626618
 30
0.0
  0
VERTEX
  5
1E9F
100
AcDbEntity
  8
0
100
AcDbVertex
100
AcDb2dVertex
 10
335.956362
 20
93.609247
 30
0.0
  0
VERTEX
  5
1EA0
100
AcDbEntity
  8
0
100
AcDbVertex
100
AcDb2dVertex
 10
329.834195
 20
94.269989
 30
0.0
  0
VERTEX
  5
1EA1
100
AcDbEntity
  8
0
100
AcDbVertex
100
AcDb2dVertex
 10
323.616155
 20
94.602064
 30
0.0
  0
VERTEX
  5
1EA2
100
AcDbEntity
  8
0
100
AcDbVertex
100
AcDb2dVertex
 10
317.366047
 20
94.602064
 30
0.0
  0
VERTEX
  5
1EA3
100
AcDbEntity
  8
0
100
AcDbVertex
100
AcDb2dVertex
 10
311.148007
 20
94.269989
 30
0.0
  0
VERTEX
  5
1EA4
100
AcDbEntity
  8
0
100
AcDbVertex
100
AcDb2dVertex
 10
305.02584
 20
93.609247
 30
0.0
  0
VERTEX
  5
1EA5
100
AcDbEntity
  8
0
100
AcDbVertex
100
AcDb2dVertex
 10
299.062367
 20
92.626618
 30
0.0
  0
VERTEX
  5
1EA6
100
AcDbEntity
  8
0
100
AcDbVertex
100
AcDb2dVertex
 10
293.318782
 20
91.332186
 30
0.0
  0
VERTEX
  5
1EA7
100
AcDbEntity
  8
0
100
AcDbVertex
100
AcDb2dVertex
 10
287.854021
 20
89.739232
 30
0.0
  0
VERTEX
  5
1EA8
100
AcDbEntity
  8
0
100
AcDbVertex
100
AcDb2dVertex
 10
282.724162
 20
87.864102
 30
0.0
  0
VERTEX
  5
1EA9
100
AcDbEntity
  8
0
100
AcDbVertex
100
AcDb2dVertex
 10
277.981842
 20
85.726038
 30
0.0
  0
VERTEX
  5
1EAA
100
AcDbEntity
  8
0
100
AcDbVertex
100
AcDb2dVertex
 10
273.675725
 20
83.34698
 30
0.0
  0
VERTEX
  5
1EAB
100
AcDbEntity
  8
0
100
AcDbVertex
100
AcDb2dVertex
 10
269.849996
 20
80.751339
 30
0.0
  0
VERTEX
  5
1EAC
100
AcDbEntity
  8
0
100
AcDbVertex
100
AcDb2dVertex
 10
266.543915
 20
77.965751
 30
0.0
  0
VERTEX
  5
1EAD
100
AcDbEntity
  8
0
100
AcDbVertex
100
AcDb2dVertex
 10
263.791404
 20
75.0188
 30
0.0
  0
VERTEX
  5
1EAE
100
AcDbEntity
  8
0
100
AcDbVertex
100
AcDb2dVertex
 10
262.045297
 20
72.542796
 30
0.0
  0
SEQEND
  5
1EAF
100
AcDbEntity
  8
0
  0
POLYLINE
  5
1EB0
100
AcDbEntity
  8
0
100
AcDb2dPolyline
 66
     1
 10
0.0
 20
0.0
 30
0.0
  0
VERTEX
  5
1EB1
100
AcDbEntity
  8
0
100
AcDbVertex
100
AcDb2dVertex
 10
378.879051
 20
72.463644
 30
0.0
  0
VERTEX
  5
1EB2
100
AcDbEntity
  8
0
100
AcDbVertex
100
AcDb2dVertex
 10
378.626652
 20
72.923748
 30
0.0
  0
VERTEX
  5
1EB3
100
AcDbEntity
  8
0
100
AcDbVertex
100
AcDb2dVertex
 10
375.98347
 20
76.274996
 30
0.0
  0
VERTEX
  5
1EB4
100
AcDbEntity
  8
0
100
AcDbVertex
100
AcDb2dVertex
 10
372.642438
 20
79.449751
 30
0.0
  0
VERTEX
  5
1EB5
100
AcDbEntity
  8
0
100
AcDbVertex
100
AcDb2dVertex
 10
368.645574
 20
82.408088
 30
0.0
  0
VERTEX
  5
1EB6
100
AcDbEntity
  8
0
100
AcDbVertex
100
AcDb2dVertex
 10
364.043139
 20
85.112804
 30
0.0
  0
VERTEX
  5
1EB7
100
AcDbEntity
  8
0
100
AcDbVertex
100
AcDb2dVertex
 10
358.893011
 20
87.529886
 30
0.0
  0
VERTEX
  5
1EB8
100
AcDbEntity
  8
0
100
AcDbVertex
100
AcDb2dVertex
 10
353.259958
 20
89.628938
 30
0.0
  0
VERTEX
  5
1EB9
100
AcDbEntity
  8
0
100
AcDbVertex
100
AcDb2dVertex
 10
347.214817
 20
91.383563
 30
0.0
  0
VERTEX
  5
1EBA
100
AcDbEntity
  8
0
100
AcDbVertex
100
AcDb2dVertex
 10
340.83361
 20
92.771695
 30
0.0
  0
VERTEX
  5
1EBB
100
AcDbEntity
  8
0
100
AcDbVertex
100
AcDb2dVertex
 10
334.196584
 20
93.775879
 30
0.0
  0
VERTEX
  5
1EBC
100
AcDbEntity
  8
0
100
AcDbVertex
100
AcDb2dVertex
 10
327.387204
 20
94.383485
 30
0.0
  0
VERTEX
  5
1EBD
100
AcDbEntity
  8
0
100
AcDbVertex
100
AcDb2dVertex
 10
320.491101
 20
94.586873
 30
0.0
  0
VERTEX
  5
1EBE
100
AcDbEntity
  8
0
100
AcDbVertex
100
AcDb2dVertex
 10
313.594998
 20
94.383485
 30
0.0
  0
VERTEX
  5
1EBF
100
AcDbEntity
  8
0
100
AcDbVertex
100
AcDb2dVertex
 10
306.785618
 20
93.775879
 30
0.0
  0
VERTEX
  5
1EC0
100
AcDbEntity
  8
0
100
AcDbVertex
100
AcDb2dVertex
 10
300.148592
 20
92.771695
 30
0.0
  0
VERTEX
  5
1EC1
100
AcDbEntity
  8
0
100
AcDbVertex
100
AcDb2dVertex
 10
293.767385
 20
91.383563
 30
0.0
  0
VERTEX
  5
1EC2
100
AcDbEntity
  8
0
100
AcDbVertex
100
AcDb2dVertex
 10
287.722244
 20
89.628938
 30
0.0
  0
VERTEX
  5
1EC3
100
AcDbEntity
  8
0
100
AcDbVertex
100
AcDb2dVertex
 10
282.08919
 20
87.529886
 30
0.0
  0
VERTEX
  5
1EC4
100
AcDbEntity
  8
0
100
AcDbVertex
100
AcDb2dVertex
 10
276.939063
 20
85.112804
 30
0.0
  0
VERTEX
  5
1EC5
100
AcDbEntity
  8
0
100
AcDbVertex
100
AcDb2dVertex
 10
272.336628
 20
82.408088
 30
0.0
  0
VERTEX
  5
1EC6
100
AcDbEntity
  8
0
100
AcDbVertex
100
AcDb2dVertex
 10
268.339763
 20
79.449751
 30
0.0
  0
VERTEX
  5
1EC7
100
AcDbEntity
  8
0
100
AcDbVertex
100
AcDb2dVertex
 10
264.998732
 20
76.274996
 30
0.0
  0
VERTEX
  5
1EC8
100
AcDbEntity
  8
0
100
AcDbVertex
100
AcDb2dVertex
 10
262.35555
 20
72.923748
 30
0.0
  0
VERTEX
  5
1EC9
100
AcDbEntity
  8
0
100
AcDbVertex
100
AcDb2dVertex
 10
262.10315
 20
72.463644
 30
0.0
  0
SEQEND
  5
1ECA
100
AcDbEntity
  8
0
  0
POLYLINE
  5
1ECB
100
AcDbEntity
  8
0
100
AcDb2dPolyline
 66
     1
 10
0.0
 20
0.0
 30
0.0
  0
VERTEX
  5
1ECC
100
AcDbEntity
  8
0
100
AcDbVertex
100
AcDb2dVertex
 10
382.627477
 20
83.515241
 30
0.0
  0
VERTEX
  5
1ECD
100
AcDbEntity
  8
0
100
AcDbVertex
100
AcDb2dVertex
 10
382.287088
 20
86.92626
 30
0.0
  0
VERTEX
  5
1ECE
100
AcDbEntity
  8
0
100
AcDbVertex
100
AcDb2dVertex
 10
381.269649
 20
90.299908
 30
0.0
  0
VERTEX
  5
1ECF
100
AcDbEntity
  8
0
100
AcDbVertex
100
AcDb2dVertex
 10
379.586307
 20
93.599222
 30
0.0
  0
VERTEX
  5
1ED0
100
AcDbEntity
  8
0
100
AcDbVertex
100
AcDb2dVertex
 10
377.255505
 20
96.788053
 30
0.0
  0
VERTEX
  5
1ED1
100
AcDbEntity
  8
0
100
AcDbVertex
100
AcDb2dVertex
 10
374.302781
 20
99.831465
 30
0.0
  0
VERTEX
  5
1ED2
100
AcDbEntity
  8
0
100
AcDbVertex
100
AcDb2dVertex
 10
370.760485
 20
102.696113
 30
0.0
  0
VERTEX
  5
1ED3
100
AcDbEntity
  8
0
100
AcDbVertex
100
AcDb2dVertex
 10
366.667428
 20
105.350611
 30
0.0
  0
VERTEX
  5
1ED4
100
AcDbEntity
  8
0
100
AcDbVertex
100
AcDb2dVertex
 10
362.068452
 20
107.765876
 30
0.0
  0
VERTEX
  5
1ED5
100
AcDbEntity
  8
0
100
AcDbVertex
100
AcDb2dVertex
 10
357.013947
 20
109.915446
 30
0.0
  0
VERTEX
  5
1ED6
100
AcDbEntity
  8
0
100
AcDbVertex
100
AcDb2dVertex
 10
351.559289
 20
111.77577
 30
0.0
  0
VERTEX
  5
1ED7
100
AcDbEntity
  8
0
100
AcDbVertex
100
AcDb2dVertex
 10
345.764242
 20
113.326466
 30
0.0
  0
VERTEX
  5
1ED8
100
AcDbEntity
  8
0
100
AcDbVertex
100
AcDb2dVertex
 10
339.692297
 20
114.550544
 30
0.0
  0
VERTEX
  5
1ED9
100
AcDbEntity
  8
0
100
AcDbVertex
100
AcDb2dVertex
 10
333.40998
 20
115.434592
 30
0.0
  0
VERTEX
  5
1EDA
100
AcDbEntity
  8
0
100
AcDbVertex
100
AcDb2dVertex
 10
326.986121
 20
115.968925
 30
0.0
  0
VERTEX
  5
1EDB
100
AcDbEntity
  8
0
100
AcDbVertex
100
AcDb2dVertex
 10
320.491101
 20
116.147689
 30
0.0
  0
VERTEX
  5
1EDC
100
AcDbEntity
  8
0
100
AcDbVertex
100
AcDb2dVertex
 10
313.996081
 20
115.968925
 30
0.0
  0
VERTEX
  5
1EDD
100
AcDbEntity
  8
0
100
AcDbVertex
100
AcDb2dVertex
 10
307.572222
 20
115.434592
 30
0.0
  0
VERTEX
  5
1EDE
100
AcDbEntity
  8
0
100
AcDbVertex
100
AcDb2dVertex
 10
301.289904
 20
114.550544
 30
0.0
  0
VERTEX
  5
1EDF
100
AcDbEntity
  8
0
100
AcDbVertex
100
AcDb2dVertex
 10
295.21796
 20
113.326466
 30
0.0
  0
VERTEX
  5
1EE0
100
AcDbEntity
  8
0
100
AcDbVertex
100
AcDb2dVertex
 10
289.422913
 20
111.77577
 30
0.0
  0
VERTEX
  5
1EE1
100
AcDbEntity
  8
0
100
AcDbVertex
100
AcDb2dVertex
 10
283.968255
 20
109.915446
 30
0.0
  0
VERTEX
  5
1EE2
100
AcDbEntity
  8
0
100
AcDbVertex
100
AcDb2dVertex
 10
278.913749
 20
107.765876
 30
0.0
  0
VERTEX
  5
1EE3
100
AcDbEntity
  8
0
100
AcDbVertex
100
AcDb2dVertex
 10
274.314774
 20
105.350611
 30
0.0
  0
VERTEX
  5
1EE4
100
AcDbEntity
  8
0
100
AcDbVertex
100
AcDb2dVertex
 10
270.221716
 20
102.696113
 30
0.0
  0
VERTEX
  5
1EE5
100
AcDbEntity
  8
0
100
AcDbVertex
100
AcDb2dVertex
 10
266.67942
 20
99.831465
 30
0.0
  0
VERTEX
  5
1EE6
100
AcDbEntity
  8
0
100
AcDbVertex
100
AcDb2dVertex
 10
263.726696
 20
96.788053
 30
0.0
  0
VERTEX
  5
1EE7
100
AcDbEntity
  8
0
100
AcDbVertex
100
AcDb2dVertex
 10
261.395895
 20
93.599222
 30
0.0
  0
VERTEX
  5
1EE8
100
AcDbEntity
  8
0
100
AcDbVertex
100
AcDb2dVertex
 10
259.712553
 20
90.299908
 30
0.0
  0
VERTEX
  5
1EE9
100
AcDbEntity
  8
0
100
AcDbVertex
100
AcDb2dVertex
 10
258.695114
 20
86.92626
 30
0.0
  0
VERTEX
  5
1EEA
100
AcDbEntity
  8
0
100
AcDbVertex
100
AcDb2dVertex
 10
258.354724
 20
83.515241
 30
0.0
  0
SEQEND
  5
1EEB
100
AcDbEntity
  8
0
  0
POLYLINE
  5
1EEC
100
AcDbEntity
  8
0
100
AcDb2dPolyline
 66
     1
 10
0.0
 20
0.0
 30
0.0
  0
VERTEX
  5
1EED
100
AcDbEntity
  8
0
100
AcDbVertex
100
AcDb2dVertex
 10
385.491101
 20
71.601318
 30
0.0
  0
VERTEX
  5
1EEE
100
AcDbEntity
  8
0
100
AcDbVertex
100
AcDb2dVertex
 10
385.157607
 20
68.147801
 30
0.0
  0
VERTEX
  5
1EEF
100
AcDbEntity
  8
0
100
AcDbVertex
100
AcDb2dVertex
 10
384.160547
 20
64.729721
 30
0.0
  0
VERTEX
  5
1EF0
100
AcDbEntity
  8
0
100
AcDbVertex
100
AcDb2dVertex
 10
382.510152
 20
61.382153
 30
0.0
  0
VERTEX
  5
1EF1
100
AcDbEntity
  8
0
100
AcDbVertex
100
AcDb2dVertex
 10
380.223359
 20
58.139448
 30
0.0
  0
VERTEX
  5
1EF2
100
AcDbEntity
  8
0
100
AcDbVertex
100
AcDb2dVertex
 10
377.323631
 20
55.03488
 30
0.0
  0
VERTEX
  5
1EF3
100
AcDbEntity
  8
0
100
AcDbVertex
100
AcDb2dVertex
 10
373.840724
 20
52.100306
 30
0.0
  0
VERTEX
  5
1EF4
100
AcDbEntity
  8
0
100
AcDbVertex
100
AcDb2dVertex
 10
369.810379
 20
49.365838
 30
0.0
  0
VERTEX
  5
1EF5
100
AcDbEntity
  8
0
100
AcDbVertex
100
AcDb2dVertex
 10
365.273951
 20
46.859537
 30
0.0
  0
VERTEX
  5
1EF6
100
AcDbEntity
  8
0
100
AcDbVertex
100
AcDb2dVertex
 10
360.27799
 20
44.60712
 30
0.0
  0
VERTEX
  5
1EF7
100
AcDbEntity
  8
0
100
AcDbVertex
100
AcDb2dVertex
 10
354.873761
 20
42.6317
 30
0.0
  0
VERTEX
  5
1EF8
100
AcDbEntity
  8
0
100
AcDbVertex
100
AcDb2dVertex
 10
349.116721
 20
40.953547
 30
0.0
  0
VERTEX
  5
1EF9
100
AcDbEntity
  8
0
100
AcDbVertex
100
AcDb2dVertex
 10
343.065942
 20
39.589882
 30
0.0
  0
VERTEX
  5
1EFA
100
AcDbEntity
  8
0
100
AcDbVertex
100
AcDb2dVertex
 10
336.783515
 20
38.554698
 30
0.0
  0
VERTEX
  5
1EFB
100
AcDbEntity
  8
0
100
AcDbVertex
100
AcDb2dVertex
 10
330.333906
 20
37.858616
 30
0.0
  0
VERTEX
  5
1EFC
100
AcDbEntity
  8
0
100
AcDbVertex
100
AcDb2dVertex
 10
323.783297
 20
37.508781
 30
0.0
  0
VERTEX
  5
1EFD
100
AcDbEntity
  8
0
100
AcDbVertex
100
AcDb2dVertex
 10
317.198905
 20
37.508781
 30
0.0
  0
VERTEX
  5
1EFE
100
AcDbEntity
  8
0
100
AcDbVertex
100
AcDb2dVertex
 10
310.648295
 20
37.858616
 30
0.0
  0
VERTEX
  5
1EFF
100
AcDbEntity
  8
0
100
AcDbVertex
100
AcDb2dVertex
 10
304.198686
 20
38.554698
 30
0.0
  0
VERTEX
  5
1F00
100
AcDbEntity
  8
0
100
AcDbVertex
100
AcDb2dVertex
 10
297.916259
 20
39.589882
 30
0.0
  0
VERTEX
  5
1F01
100
AcDbEntity
  8
0
100
AcDbVertex
100
AcDb2dVertex
 10
291.865481
 20
40.953547
 30
0.0
  0
VERTEX
  5
1F02
100
AcDbEntity
  8
0
100
AcDbVertex
100
AcDb2dVertex
 10
286.10844
 20
42.6317
 30
0.0
  0
VERTEX
  5
1F03
100
AcDbEntity
  8
0
100
AcDbVertex
100
AcDb2dVertex
 10
280.704212
 20
44.60712
 30
0.0
  0
VERTEX
  5
1F04
100
AcDbEntity
  8
0
100
AcDbVertex
100
AcDb2dVertex
 10
275.708251
 20
46.859537
 30
0.0
  0
VERTEX
  5
1F05
100
AcDbEntity
  8
0
100
AcDbVertex
100
AcDb2dVertex
 10
271.171823
 20
49.365838
 30
0.0
  0
VERTEX
  5
1F06
100
AcDbEntity
  8
0
100
AcDbVertex
100
AcDb2dVertex
 10
267.141477
 20
52.100306
 30
0.0
  0
VERTEX
  5
1F07
100
AcDbEntity
  8
0
100
AcDbVertex
100
AcDb2dVertex
 10
263.658571
 20
55.03488
 30
0.0
  0
VERTEX
  5
1F08
100
AcDbEntity
  8
0
100
AcDbVertex
100
AcDb2dVertex
 10
260.758843
 20
58.139448
 30
0.0
  0
VERTEX
  5
1F09
100
AcDbEntity
  8
0
100
AcDbVertex
100
AcDb2dVertex
 10
258.472049
 20
61.382153
 30
0.0
  0
VERTEX
  5
1F0A
100
AcDbEntity
  8
0
100
AcDbVertex
100
AcDb2dVertex
 10
256.821655
 20
64.729721
 30
0.0
  0
VERTEX
  5
1F0B
100
AcDbEntity
  8
0
100
AcDbVertex
100
AcDb2dVertex
 10
255.824595
 20
68.147801
 30
0.0
  0
SEQEND
  5
1F0C
100
AcDbEntity
  8
0
  0
POLYLINE
  5
1F0D
100
AcDbEntity
  8
0
100
AcDb2dPolyline
 66
     1
 10
0.0
 20
0.0
 30
0.0
  0
VERTEX
  5
1F0E
100
AcDbEntity
  8
0
100
AcDbVertex
100
AcDb2dVertex
 10
385.491101
 20
70.750323
 30
0.0
  0
VERTEX
  5
1F0F
100
AcDbEntity
  8
0
100
AcDbVertex
100
AcDb2dVertex
 10
385.157607
 20
67.296806
 30
0.0
  0
VERTEX
  5
1F10
100
AcDbEntity
  8
0
100
AcDbVertex
100
AcDb2dVertex
 10
384.160547
 20
63.878726
 30
0.0
  0
VERTEX
  5
1F11
100
AcDbEntity
  8
0
100
AcDbVertex
100
AcDb2dVertex
 10
382.510152
 20
60.531159
 30
0.0
  0
VERTEX
  5
1F12
100
AcDbEntity
  8
0
100
AcDbVertex
100
AcDb2dVertex
 10
380.223359
 20
57.288454
 30
0.0
  0
VERTEX
  5
1F13
100
AcDbEntity
  8
0
100
AcDbVertex
100
AcDb2dVertex
 10
377.323631
 20
54.183885
 30
0.0
  0
VERTEX
  5
1F14
100
AcDbEntity
  8
0
100
AcDbVertex
100
AcDb2dVertex
 10
373.840724
 20
51.249311
 30
0.0
  0
VERTEX
  5
1F15
100
AcDbEntity
  8
0
100
AcDbVertex
100
AcDb2dVertex
 10
369.810379
 20
48.514844
 30
0.0
  0
VERTEX
  5
1F16
100
AcDbEntity
  8
0
100
AcDbVertex
100
AcDb2dVertex
 10
365.273951
 20
46.008542
 30
0.0
  0
VERTEX
  5
1F17
100
AcDbEntity
  8
0
100
AcDbVertex
100
AcDb2dVertex
 10
360.27799
 20
43.756125
 30
0.0
  0
VERTEX
  5
1F18
100
AcDbEntity
  8
0
100
AcDbVertex
100
AcDb2dVertex
 10
354.873761
 20
41.780705
 30
0.0
  0
VERTEX
  5
1F19
100
AcDbEntity
  8
0
100
AcDbVertex
100
AcDb2dVertex
 10
349.116721
 20
40.102553
 30
0.0
  0
VERTEX
  5
1F1A
100
AcDbEntity
  8
0
100
AcDbVertex
100
AcDb2dVertex
 10
343.065942
 20
38.738888
 30
0.0
  0
VERTEX
  5
1F1B
100
AcDbEntity
  8
0
100
AcDbVertex
100
AcDb2dVertex
 10
336.783515
 20
37.703703
 30
0.0
  0
VERTEX
  5
1F1C
100
AcDbEntity
  8
0
100
AcDbVertex
100
AcDb2dVertex
 10
330.333906
 20
37.007622
 30
0.0
  0
VERTEX
  5
1F1D
100
AcDbEntity
  8
0
100
AcDbVertex
100
AcDb2dVertex
 10
323.783297
 20
36.657786
 30
0.0
  0
VERTEX
  5
1F1E
100
AcDbEntity
  8
0
100
AcDbVertex
100
AcDb2dVertex
 10
317.198905
 20
36.657786
 30
0.0
  0
VERTEX
  5
1F1F
100
AcDbEntity
  8
0
100
AcDbVertex
100
AcDb2dVertex
 10
310.648295
 20
37.007622
 30
0.0
  0
VERTEX
  5
1F20
100
AcDbEntity
  8
0
100
AcDbVertex
100
AcDb2dVertex
 10
304.198686
 20
37.703703
 30
0.0
  0
VERTEX
  5
1F21
100
AcDbEntity
  8
0
100
AcDbVertex
100
AcDb2dVertex
 10
297.916259
 20
38.738888
 30
0.0
  0
VERTEX
  5
1F22
100
AcDbEntity
  8
0
100
AcDbVertex
100
AcDb2dVertex
 10
291.865481
 20
40.102553
 30
0.0
  0
VERTEX
  5
1F23
100
AcDbEntity
  8
0
100
AcDbVertex
100
AcDb2dVertex
 10
286.10844
 20
41.780705
 30
0.0
  0
VERTEX
  5
1F24
100
AcDbEntity
  8
0
100
AcDbVertex
100
AcDb2dVertex
 10
280.704212
 20
43.756125
 30
0.0
  0
VERTEX
  5
1F25
100
AcDbEntity
  8
0
100
AcDbVertex
100
AcDb2dVertex
 10
275.708251
 20
46.008542
 30
0.0
  0
VERTEX
  5
1F26
100
AcDbEntity
  8
0
100
AcDbVertex
100
AcDb2dVertex
 10
271.171823
 20
48.514844
 30
0.0
  0
VERTEX
  5
1F27
100
AcDbEntity
  8
0
100
AcDbVertex
100
AcDb2dVertex
 10
267.141477
 20
51.249311
 30
0.0
  0
VERTEX
  5
1F28
100
AcDbEntity
  8
0
100
AcDbVertex
100
AcDb2dVertex
 10
263.658571
 20
54.183885
 30
0.0
  0
VERTEX
  5
1F29
100
AcDbEntity
  8
0
100
AcDbVertex
100
AcDb2dVertex
 10
260.758843
 20
57.288454
 30
0.0
  0
VERTEX
  5
1F2A
100
AcDbEntity
  8
0
100
AcDbVertex
100
AcDb2dVertex
 10
258.472049
 20
60.531159
 30
0.0
  0
VERTEX
  5
1F2B
100
AcDbEntity
  8
0
100
AcDbVertex
100
AcDb2dVertex
 10
256.821655
 20
63.878726
 30
0.0
  0
VERTEX
  5
1F2C
100
AcDbEntity
  8
0
100
AcDbVertex
100
AcDb2dVertex
 10
255.824595
 20
67.296806
 30
0.0
  0
VERTEX
  5
1F2D
100
AcDbEntity
  8
0
100
AcDbVertex
100
AcDb2dVertex
 10
255.491101
 20
70.750323
 30
0.0
  0
SEQEND
  5
1F2E
100
AcDbEntity
  8
0
  0
POLYLINE
  5
1F2F
100
AcDbEntity
  8
0
100
AcDb2dPolyline
 66
     1
 10
0.0
 20
0.0
 30
0.0
  0
VERTEX
  5
1F30
100
AcDbEntity
  8
0
100
AcDbVertex
100
AcDb2dVertex
 10
383.687262
 20
61.881735
 30
0.0
  0
VERTEX
  5
1F31
100
AcDbEntity
  8
0
100
AcDbVertex
100
AcDb2dVertex
 10
383.344885
 20
58.770971
 30
0.0
  0
VERTEX
  5
1F32
100
AcDbEntity
  8
0
100
AcDbVertex
100
AcDb2dVertex
 10
382.310029
 20
55.339574
 30
0.0
  0
VERTEX
  5
1F33
100
AcDbEntity
  8
0
100
AcDbVertex
100
AcDb2dVertex
 10
380.597873
 20
51.983784
 30
0.0
  0
VERTEX
  5
1F34
100
AcDbEntity
  8
0
100
AcDbVertex
100
AcDb2dVertex
 10
378.227174
 20
48.740368
 30
0.0
  0
VERTEX
  5
1F35
100
AcDbEntity
  8
0
100
AcDbVertex
100
AcDb2dVertex
 10
375.223906
 20
45.64486
 30
0.0
  0
VERTEX
  5
1F36
100
AcDbEntity
  8
0
100
AcDbVertex
100
AcDb2dVertex
 10
371.620975
 20
42.731177
 30
0.0
  0
VERTEX
  5
1F37
100
AcDbEntity
  8
0
100
AcDbVertex
100
AcDb2dVertex
 10
367.457854
 20
40.03124
 30
0.0
  0
VERTEX
  5
1F38
100
AcDbEntity
  8
0
100
AcDbVertex
100
AcDb2dVertex
 10
362.780155
 20
37.574631
 30
0.0
  0
VERTEX
  5
1F39
100
AcDbEntity
  8
0
100
AcDbVertex
100
AcDb2dVertex
 10
357.639129
 20
35.388266
 30
0.0
  0
VERTEX
  5
1F3A
100
AcDbEntity
  8
0
100
AcDbVertex
100
AcDb2dVertex
 10
352.091101
 20
33.496098
 30
0.0
  0
VERTEX
  5
1F3B
100
AcDbEntity
  8
0
100
AcDbVertex
100
AcDb2dVertex
 10
346.196857
 20
31.918858
 30
0.0
  0
VERTEX
  5
1F3C
100
AcDbEntity
  8
0
100
AcDbVertex
100
AcDb2dVertex
 10
340.020975
 20
30.673827
 30
0.0
  0
VERTEX
  5
1F3D
100
AcDbEntity
  8
0
100
AcDbVertex
100
AcDb2dVertex
 10
333.63112
 20
29.774646
 30
0.0
  0
VERTEX
  5
1F3E
100
AcDbEntity
  8
0
100
AcDbVertex
100
AcDb2dVertex
 10
327.0973
 20
29.231166
 30
0.0
  0
VERTEX
  5
1F3F
100
AcDbEntity
  8
0
100
AcDbVertex
100
AcDb2dVertex
 10
320.491101
 20
29.049342
 30
0.0
  0
VERTEX
  5
1F40
100
AcDbEntity
  8
0
100
AcDbVertex
100
AcDb2dVertex
 10
313.884902
 20
29.231166
 30
0.0
  0
VERTEX
  5
1F41
100
AcDbEntity
  8
0
100
AcDbVertex
100
AcDb2dVertex
 10
307.351082
 20
29.774646
 30
0.0
  0
VERTEX
  5
1F42
100
AcDbEntity
  8
0
100
AcDbVertex
100
AcDb2dVertex
 10
300.961227
 20
30.673827
 30
0.0
  0
VERTEX
  5
1F43
100
AcDbEntity
  8
0
100
AcDbVertex
100
AcDb2dVertex
 10
294.785345
 20
31.918858
 30
0.0
  0
VERTEX
  5
1F44
100
AcDbEntity
  8
0
100
AcDbVertex
100
AcDb2dVertex
 10
288.891101
 20
33.496098
 30
0.0
  0
VERTEX
  5
1F45
100
AcDbEntity
  8
0
100
AcDbVertex
100
AcDb2dVertex
 10
283.343073
 20
35.388266
 30
0.0
  0
VERTEX
  5
1F46
100
AcDbEntity
  8
0
100
AcDbVertex
100
AcDb2dVertex
 10
278.202046
 20
37.574631
 30
0.0
  0
VERTEX
  5
1F47
100
AcDbEntity
  8
0
100
AcDbVertex
100
AcDb2dVertex
 10
273.524348
 20
40.03124
 30
0.0
  0
VERTEX
  5
1F48
100
AcDbEntity
  8
0
100
AcDbVertex
100
AcDb2dVertex
 10
269.361227
 20
42.731177
 30
0.0
  0
VERTEX
  5
1F49
100
AcDbEntity
  8
0
100
AcDbVertex
100
AcDb2dVertex
 10
265.758295
 20
45.64486
 30
0.0
  0
VERTEX
  5
1F4A
100
AcDbEntity
  8
0
100
AcDbVertex
100
AcDb2dVertex
 10
262.755028
 20
48.740368
 30
0.0
  0
VERTEX
  5
1F4B
100
AcDbEntity
  8
0
100
AcDbVertex
100
AcDb2dVertex
 10
260.384329
 20
51.983784
 30
0.0
  0
VERTEX
  5
1F4C
100
AcDbEntity
  8
0
100
AcDbVertex
100
AcDb2dVertex
 10
258.672172
 20
55.339574
 30
0.0
  0
VERTEX
  5
1F4D
100
AcDbEntity
  8
0
100
AcDbVertex
100
AcDb2dVertex
 10
257.637317
 20
58.770971
 30
0.0
  0
VERTEX
  5
1F4E
100
AcDbEntity
  8
0
100
AcDbVertex
100
AcDb2dVertex
 10
257.294939
 20
61.881735
 30
0.0
  0
SEQEND
  5
1F4F
100
AcDbEntity
  8
0
  0
POLYLINE
  5
1F50
100
AcDbEntity
  8
0
100
AcDb2dPolyline
 66
     1
 10
0.0
 20
0.0
 30
0.0
  0
VERTEX
  5
1F51
100
AcDbEntity
  8
0
100
AcDbVertex
100
AcDb2dVertex
 10
256.493971
 20
77.349564
 30
0.0
  0
VERTEX
  5
1F52
100
AcDbEntity
  8
0
100
AcDbVertex
100
AcDb2dVertex
 10
255.824595
 20
75.054835
 30
0.0
  0
VERTEX
  5
1F53
100
AcDbEntity
  8
0
100
AcDbVertex
100
AcDb2dVertex
 10
255.491101
 20
71.601318
 30
0.0
  0
SEQEND
  5
1F54
100
AcDbEntity
  8
0
  0
LINE
  5
1F55
100
AcDbEntity
  8
0
100
AcDbLine
 10
257.241101
 20
71.601318
 30
0.0
 11
257.241101
 21
76.957191
 31
0.0
  0
POLYLINE
  5
1F56
100
AcDbEntity
  8
0
100
AcDb2dPolyline
 66
     1
 10
0.0
 20
0.0
 30
0.0
  0
VERTEX
  5
1F57
100
AcDbEntity
  8
0
100
AcDbVertex
100
AcDb2dVertex
 10
274.352383
 20
48.917223
 30
0.0
  0
VERTEX
  5
1F58
100
AcDbEntity
  8
0
100
AcDbVertex
100
AcDb2dVertex
 10
271.311716
 20
50.713157
 30
0.0
  0
VERTEX
  5
1F59
100
AcDbEntity
  8
0
100
AcDbVertex
100
AcDb2dVertex
 10
267.813703
 20
53.215298
 30
0.0
  0
VERTEX
  5
1F5A
100
AcDbEntity
  8
0
100
AcDbVertex
100
AcDb2dVertex
 10
264.775729
 20
55.877973
 30
0.0
  0
VERTEX
  5
1F5B
100
AcDbEntity
  8
0
100
AcDbVertex
100
AcDb2dVertex
 10
262.224334
 20
58.677898
 30
0.0
  0
VERTEX
  5
1F5C
100
AcDbEntity
  8
0
100
AcDbVertex
100
AcDb2dVertex
 10
260.181764
 20
61.590624
 30
0.0
  0
VERTEX
  5
1F5D
100
AcDbEntity
  8
0
100
AcDbVertex
100
AcDb2dVertex
 10
258.665826
 20
64.590721
 30
0.0
  0
VERTEX
  5
1F5E
100
AcDbEntity
  8
0
100
AcDbVertex
100
AcDb2dVertex
 10
257.689731
 20
67.652001
 30
0.0
  0
VERTEX
  5
1F5F
100
AcDbEntity
  8
0
100
AcDbVertex
100
AcDb2dVertex
 10
257.261987
 20
70.747741
 30
0.0
  0
VERTEX
  5
1F60
100
AcDbEntity
  8
0
100
AcDbVertex
100
AcDb2dVertex
 10
257.241173
 20
71.600913
 30
0.0
  0
SEQEND
  5
1F61
100
AcDbEntity
  8
0
  0
LINE
  5
1F62
100
AcDbEntity
  8
0
100
AcDbLine
 10
274.352383
 20
49.629455
 30
0.0
 11
275.413044
 21
49.072423
 31
0.0
  0
LINE
  5
1F63
100
AcDbEntity
  8
0
100
AcDbLine
 10
274.352383
 20
49.629455
 30
0.0
 11
275.239411
 21
50.095299
 31
0.0
  0
LINE
  5
1F64
100
AcDbEntity
  8
0
100
AcDbLine
 10
274.352383
 20
47.927466
 30
0.0
 11
275.413044
 21
47.370434
 31
0.0
  0
LINE
  5
1F65
100
AcDbEntity
  8
0
100
AcDbLine
 10
274.352383
 20
47.927466
 30
0.0
 11
274.352383
 21
49.629455
 31
0.0
  0
POLYLINE
  5
1F66
100
AcDbEntity
  8
0
100
AcDb2dPolyline
 66
     1
 10
0.0
 20
0.0
 30
0.0
  0
VERTEX
  5
1F67
100
AcDbEntity
  8
0
100
AcDbVertex
100
AcDb2dVertex
 10
275.239411
 20
50.095299
 30
0.0
  0
VERTEX
  5
1F68
100
AcDbEntity
  8
0
100
AcDbVertex
100
AcDb2dVertex
 10
275.766597
 20
49.815132
 30
0.0
  0
VERTEX
  5
1F69
100
AcDbEntity
  8
0
100
AcDbVertex
100
AcDb2dVertex
 10
276.300071
 20
49.538267
 30
0.0
  0
SEQEND
  5
1F6A
100
AcDbEntity
  8
0
  0
LINE
  5
1F6B
100
AcDbEntity
  8
0
100
AcDbLine
 10
275.413044
 20
49.072423
 30
0.0
 11
276.300071
 21
49.538267
 31
0.0
  0
LINE
  5
1F6C
100
AcDbEntity
  8
0
100
AcDbLine
 10
275.413044
 20
47.370434
 30
0.0
 11
276.300071
 21
47.836279
 31
0.0
  0
LINE
  5
1F6D
100
AcDbEntity
  8
0
100
AcDbLine
 10
275.413044
 20
49.072423
 30
0.0
 11
275.413044
 21
47.370434
 31
0.0
  0
LINE
  5
1F6E
100
AcDbEntity
  8
0
100
AcDbLine
 10
276.300071
 20
47.836279
 30
0.0
 11
276.300071
 21
49.538267
 31
0.0
  0
LINE
  5
1F6F
100
AcDbEntity
  8
0
100
AcDbLine
 10
257.294768
 20
61.882843
 30
0.0
 11
257.272589
 21
62.964077
 31
0.0
  0
LINE
  5
1F70
100
AcDbEntity
  8
0
100
AcDbLine
 10
255.824595
 20
68.147801
 30
0.0
 11
255.491101
 21
71.601318
 31
0.0
  0
POLYLINE
  5
1F71
100
AcDbEntity
  8
0
100
AcDb2dPolyline
 66
     1
 10
0.0
 20
0.0
 30
0.0
  0
VERTEX
  5
1F72
100
AcDbEntity
  8
0
100
AcDbVertex
100
AcDb2dVertex
 10
274.891448
 20
53.687891
 30
0.0
  0
VERTEX
  5
1F73
100
AcDbEntity
  8
0
100
AcDbVertex
100
AcDb2dVertex
 10
274.912462
 20
53.909244
 30
0.0
  0
VERTEX
  5
1F74
100
AcDbEntity
  8
0
100
AcDbVertex
100
AcDb2dVertex
 10
274.974845
 20
54.097562
 30
0.0
  0
VERTEX
  5
1F75
100
AcDbEntity
  8
0
100
AcDbVertex
100
AcDb2dVertex
 10
275.075616
 20
54.242761
 30
0.0
  0
VERTEX
  5
1F76
100
AcDbEntity
  8
0
100
AcDbVertex
100
AcDb2dVertex
 10
275.189073
 20
54.327775
 30
0.0
  0
SEQEND
  5
1F77
100
AcDbEntity
  8
0
  0
POLYLINE
  5
1F78
100
AcDbEntity
  8
0
100
AcDb2dPolyline
 66
     1
 10
0.0
 20
0.0
 30
0.0
  0
VERTEX
  5
1F79
100
AcDbEntity
  8
0
100
AcDbVertex
100
AcDb2dVertex
 10
276.351677
 20
52.114413
 30
0.0
  0
VERTEX
  5
1F7A
100
AcDbEntity
  8
0
100
AcDbVertex
100
AcDb2dVertex
 10
276.328823
 20
52.103261
 30
0.0
  0
VERTEX
  5
1F7B
100
AcDbEntity
  8
0
100
AcDbVertex
100
AcDb2dVertex
 10
276.157591
 20
52.060541
 30
0.0
  0
VERTEX
  5
1F7C
100
AcDbEntity
  8
0
100
AcDbVertex
100
AcDb2dVertex
 10
275.965111
 20
52.078627
 30
0.0
  0
VERTEX
  5
1F7D
100
AcDbEntity
  8
0
100
AcDbVertex
100
AcDb2dVertex
 10
275.766806
 20
52.155257
 30
0.0
  0
VERTEX
  5
1F7E
100
AcDbEntity
  8
0
100
AcDbVertex
100
AcDb2dVertex
 10
275.570933
 20
52.285085
 30
0.0
  0
VERTEX
  5
1F7F
100
AcDbEntity
  8
0
100
AcDbVertex
100
AcDb2dVertex
 10
275.381363
 20
52.466767
 30
0.0
  0
VERTEX
  5
1F80
100
AcDbEntity
  8
0
100
AcDbVertex
100
AcDb2dVertex
 10
275.212533
 20
52.688319
 30
0.0
  0
VERTEX
  5
1F81
100
AcDbEntity
  8
0
100
AcDbVertex
100
AcDb2dVertex
 10
275.075796
 20
52.932241
 30
0.0
  0
VERTEX
  5
1F82
100
AcDbEntity
  8
0
100
AcDbVertex
100
AcDb2dVertex
 10
274.975053
 20
53.186611
 30
0.0
  0
VERTEX
  5
1F83
100
AcDbEntity
  8
0
100
AcDbVertex
100
AcDb2dVertex
 10
274.912535
 20
53.443148
 30
0.0
  0
VERTEX
  5
1F84
100
AcDbEntity
  8
0
100
AcDbVertex
100
AcDb2dVertex
 10
274.891448
 20
53.687891
 30
0.0
  0
SEQEND
  5
1F85
100
AcDbEntity
  8
0
  0
POLYLINE
  5
1F86
100
AcDbEntity
  8
0
100
AcDb2dPolyline
 66
     1
 10
0.0
 20
0.0
 30
0.0
  0
VERTEX
  5
1F87
100
AcDbEntity
  8
0
100
AcDbVertex
100
AcDb2dVertex
 10
275.777816
 20
54.153388
 30
0.0
  0
VERTEX
  5
1F88
100
AcDbEntity
  8
0
100
AcDbVertex
100
AcDb2dVertex
 10
275.802305
 20
53.910266
 30
0.0
  0
VERTEX
  5
1F89
100
AcDbEntity
  8
0
100
AcDbVertex
100
AcDb2dVertex
 10
275.868022
 20
53.655496
 30
0.0
  0
VERTEX
  5
1F8A
100
AcDbEntity
  8
0
100
AcDbVertex
100
AcDb2dVertex
 10
275.971594
 20
53.402716
 30
0.0
  0
VERTEX
  5
1F8B
100
AcDbEntity
  8
0
100
AcDbVertex
100
AcDb2dVertex
 10
276.110701
 20
53.160149
 30
0.0
  0
VERTEX
  5
1F8C
100
AcDbEntity
  8
0
100
AcDbVertex
100
AcDb2dVertex
 10
276.281348
 20
52.939601
 30
0.0
  0
VERTEX
  5
1F8D
100
AcDbEntity
  8
0
100
AcDbVertex
100
AcDb2dVertex
 10
276.47203
 20
52.758513
 30
0.0
  0
SEQEND
  5
1F8E
100
AcDbEntity
  8
0
  0
LINE
  5
1F8F
100
AcDbEntity
  8
0
100
AcDbLine
 10
275.787156
 20
54.269305
 30
0.0
 11
275.777816
 21
54.153388
 31
0.0
  0
POLYLINE
  5
1F90
100
AcDbEntity
  8
0
100
AcDb2dPolyline
 66
     1
 10
0.0
 20
0.0
 30
0.0
  0
VERTEX
  5
1F91
100
AcDbEntity
  8
0
100
AcDbVertex
100
AcDb2dVertex
 10
276.659215
 20
52.759504
 30
0.0
  0
VERTEX
  5
1F92
100
AcDbEntity
  8
0
100
AcDbVertex
100
AcDb2dVertex
 10
276.637365
 20
52.537711
 30
0.0
  0
VERTEX
  5
1F93
100
AcDbEntity
  8
0
100
AcDbVertex
100
AcDb2dVertex
 10
276.57262
 20
52.348153
 30
0.0
  0
VERTEX
  5
1F94
100
AcDbEntity
  8
0
100
AcDbVertex
100
AcDb2dVertex
 10
276.468422
 20
52.201154
 30
0.0
  0
VERTEX
  5
1F95
100
AcDbEntity
  8
0
100
AcDbVertex
100
AcDb2dVertex
 10
276.351677
 20
52.114413
 30
0.0
  0
SEQEND
  5
1F96
100
AcDbEntity
  8
0
  0
LINE
  5
1F97
100
AcDbEntity
  8
0
100
AcDbLine
 10
276.47203
 20
52.758513
 30
0.0
 11
276.647683
 21
52.642442
 31
0.0
  0
POLYLINE
  5
1F98
100
AcDbEntity
  8
0
100
AcDb2dPolyline
 66
     1
 10
0.0
 20
0.0
 30
0.0
  0
VERTEX
  5
1F99
100
AcDbEntity
  8
0
100
AcDbVertex
100
AcDb2dVertex
 10
275.189073
 20
54.327775
 30
0.0
  0
VERTEX
  5
1F9A
100
AcDbEntity
  8
0
100
AcDbVertex
100
AcDb2dVertex
 10
275.211351
 20
54.338625
 30
0.0
  0
VERTEX
  5
1F9B
100
AcDbEntity
  8
0
100
AcDbVertex
100
AcDb2dVertex
 10
275.378991
 20
54.379458
 30
0.0
  0
VERTEX
  5
1F9C
100
AcDbEntity
  8
0
100
AcDbVertex
100
AcDb2dVertex
 10
275.56896
 20
54.360053
 30
0.0
  0
VERTEX
  5
1F9D
100
AcDbEntity
  8
0
100
AcDbVertex
100
AcDb2dVertex
 10
275.766388
 20
54.282963
 30
0.0
  0
VERTEX
  5
1F9E
100
AcDbEntity
  8
0
100
AcDbVertex
100
AcDb2dVertex
 10
275.963121
 20
54.153586
 30
0.0
  0
VERTEX
  5
1F9F
100
AcDbEntity
  8
0
100
AcDbVertex
100
AcDb2dVertex
 10
276.155178
 20
53.97321
 30
0.0
  0
VERTEX
  5
1FA0
100
AcDbEntity
  8
0
100
AcDbVertex
100
AcDb2dVertex
 10
276.327611
 20
53.753551
 30
0.0
  0
VERTEX
  5
1FA1
100
AcDbEntity
  8
0
100
AcDbVertex
100
AcDb2dVertex
 10
276.468236
 20
53.511671
 30
0.0
  0
VERTEX
  5
1FA2
100
AcDbEntity
  8
0
100
AcDbVertex
100
AcDb2dVertex
 10
276.572404
 20
53.259099
 30
0.0
  0
VERTEX
  5
1FA3
100
AcDbEntity
  8
0
100
AcDbVertex
100
AcDb2dVertex
 10
276.637289
 20
53.003806
 30
0.0
  0
VERTEX
  5
1FA4
100
AcDbEntity
  8
0
100
AcDbVertex
100
AcDb2dVertex
 10
276.659215
 20
52.759504
 30
0.0
  0
SEQEND
  5
1FA5
100
AcDbEntity
  8
0
  0
LINE
  5
1FA6
100
AcDbEntity
  8
0
100
AcDbLine
 10
314.168543
 20
47.060342
 30
0.0
 11
315.491101
 21
46.365769
 31
0.0
  0
LINE
  5
1FA7
100
AcDbEntity
  8
0
100
AcDbLine
 10
315.491101
 20
46.365769
 30
0.0
 11
315.491101
 21
46.961465
 31
0.0
  0
LINE
  5
1FA8
100
AcDbEntity
  8
0
100
AcDbLine
 10
314.168543
 20
50.038823
 30
0.0
 11
314.168543
 21
47.060342
 31
0.0
  0
POLYLINE
  5
1FA9
100
AcDbEntity
  8
0
100
AcDb2dPolyline
 66
     1
 10
0.0
 20
0.0
 30
0.0
  0
VERTEX
  5
1FAA
100
AcDbEntity
  8
0
100
AcDbVertex
100
AcDb2dVertex
 10
314.168543
 20
50.038823
 30
0.0
  0
VERTEX
  5
1FAB
100
AcDbEntity
  8
0
100
AcDbVertex
100
AcDb2dVertex
 10
314.605309
 20
49.029648
 30
0.0
  0
VERTEX
  5
1FAC
100
AcDbEntity
  8
0
100
AcDbVertex
100
AcDb2dVertex
 10
315.046132
 20
48.003953
 30
0.0
  0
VERTEX
  5
1FAD
100
AcDbEntity
  8
0
100
AcDbVertex
100
AcDb2dVertex
 10
315.491101
 20
46.961465
 30
0.0
  0
SEQEND
  5
1FAE
100
AcDbEntity
  8
0
  0
POLYLINE
  5
1FAF
100
AcDbEntity
  8
0
100
AcDb2dPolyline
 66
     1
 10
0.0
 20
0.0
 30
0.0
  0
VERTEX
  5
1FB0
100
AcDbEntity
  8
0
100
AcDbVertex
100
AcDb2dVertex
 10
273.027696
 20
105.47098
 30
0.0
  0
VERTEX
  5
1FB1
100
AcDbEntity
  8
0
100
AcDbVertex
100
AcDb2dVertex
 10
269.192387
 20
102.946734
 30
0.0
  0
VERTEX
  5
1FB2
100
AcDbEntity
  8
0
100
AcDbVertex
100
AcDb2dVertex
 10
265.84194
 20
100.23883
 30
0.0
  0
VERTEX
  5
1FB3
100
AcDbEntity
  8
0
100
AcDbVertex
100
AcDb2dVertex
 10
263.008018
 20
97.372864
 30
0.0
  0
VERTEX
  5
1FB4
100
AcDbEntity
  8
0
100
AcDbVertex
100
AcDb2dVertex
 10
260.717407
 20
94.375923
 30
0.0
  0
VERTEX
  5
1FB5
100
AcDbEntity
  8
0
100
AcDbVertex
100
AcDb2dVertex
 10
258.991753
 20
91.276333
 30
0.0
  0
VERTEX
  5
1FB6
100
AcDbEntity
  8
0
100
AcDbVertex
100
AcDb2dVertex
 10
257.847367
 20
88.103389
 30
0.0
  0
SEQEND
  5
1FB7
100
AcDbEntity
  8
0
  0
POLYLINE
  5
1FB8
100
AcDbEntity
  8
0
100
AcDb2dPolyline
 66
     1
 10
0.0
 20
0.0
 30
0.0
  0
VERTEX
  5
1FB9
100
AcDbEntity
  8
0
100
AcDbVertex
100
AcDb2dVertex
 10
257.847367
 20
88.103389
 30
0.0
  0
VERTEX
  5
1FBA
100
AcDbEntity
  8
0
100
AcDbVertex
100
AcDb2dVertex
 10
257.295064
 20
84.88708
 30
0.0
  0
VERTEX
  5
1FBB
100
AcDbEntity
  8
0
100
AcDbVertex
100
AcDb2dVertex
 10
257.241227
 20
83.515428
 30
0.0
  0
SEQEND
  5
1FBC
100
AcDbEntity
  8
0
  0
POLYLINE
  5
1FBD
100
AcDbEntity
  8
0
100
AcDb2dPolyline
 66
     1
 10
0.0
 20
0.0
 30
0.0
  0
VERTEX
  5
1FBE
100
AcDbEntity
  8
0
100
AcDbVertex
100
AcDb2dVertex
 10
256.235342
 20
83.332832
 30
0.0
  0
VERTEX
  5
1FBF
100
AcDbEntity
  8
0
100
AcDbVertex
100
AcDb2dVertex
 10
256.68032
 20
84.375341
 30
0.0
  0
VERTEX
  5
1FC0
100
AcDbEntity
  8
0
100
AcDbVertex
100
AcDb2dVertex
 10
257.121143
 20
85.401036
 30
0.0
  0
VERTEX
  5
1FC1
100
AcDbEntity
  8
0
100
AcDbVertex
100
AcDb2dVertex
 10
257.5579
 20
86.41019
 30
0.0
  0
SEQEND
  5
1FC2
100
AcDbEntity
  8
0
  0
LINE
  5
1FC3
100
AcDbEntity
  8
0
100
AcDbLine
 10
256.235342
 20
77.48539
 30
0.0
 11
256.041101
 21
80.111263
 31
0.0
  0
LINE
  5
1FC4
100
AcDbEntity
  8
0
100
AcDbLine
 10
256.235342
 20
78.081086
 30
0.0
 11
256.041101
 21
80.706959
 31
0.0
  0
POLYLINE
  5
1FC5
100
AcDbEntity
  8
0
100
AcDb2dPolyline
 66
     1
 10
0.0
 20
0.0
 30
0.0
  0
VERTEX
  5
1FC6
100
AcDbEntity
  8
0
100
AcDbVertex
100
AcDb2dVertex
 10
257.5579
 20
79.769297
 30
0.0
  0
VERTEX
  5
1FC7
100
AcDbEntity
  8
0
100
AcDbVertex
100
AcDb2dVertex
 10
257.276327
 20
81.981282
 30
0.0
  0
VERTEX
  5
1FC8
100
AcDbEntity
  8
0
100
AcDbVertex
100
AcDb2dVertex
 10
257.241101
 20
83.089743
 30
0.0
  0
SEQEND
  5
1FC9
100
AcDbEntity
  8
0
  0
LINE
  5
1FCA
100
AcDbEntity
  8
0
100
AcDbLine
 10
256.235342
 20
78.081086
 30
0.0
 11
256.235342
 21
77.48539
 31
0.0
  0
LINE
  5
1FCB
100
AcDbEntity
  8
0
100
AcDbLine
 10
257.5579
 20
79.769297
 30
0.0
 11
257.5579
 21
76.790816
 31
0.0
  0
POLYLINE
  5
1FCC
100
AcDbEntity
  8
0
100
AcDb2dPolyline
 66
     1
 10
0.0
 20
0.0
 30
0.0
  0
VERTEX
  5
1FCD
100
AcDbEntity
  8
0
100
AcDbVertex
100
AcDb2dVertex
 10
257.5579
 20
79.769297
 30
0.0
  0
VERTEX
  5
1FCE
100
AcDbEntity
  8
0
100
AcDbVertex
100
AcDb2dVertex
 10
257.121134
 20
79.218878
 30
0.0
  0
VERTEX
  5
1FCF
100
AcDbEntity
  8
0
100
AcDbVertex
100
AcDb2dVertex
 10
256.680311
 20
78.656201
 30
0.0
  0
VERTEX
  5
1FD0
100
AcDbEntity
  8
0
100
AcDbVertex
100
AcDb2dVertex
 10
256.235342
 20
78.081086
 30
0.0
  0
SEQEND
  5
1FD1
100
AcDbEntity
  8
0
  0
LINE
  5
1FD2
100
AcDbEntity
  8
0
100
AcDbLine
 10
257.5579
 20
76.790816
 30
0.0
 11
256.235342
 21
77.48539
 31
0.0
  0
LINE
  5
1FD3
100
AcDbEntity
  8
0
100
AcDbLine
 10
256.041101
 20
80.706959
 30
0.0
 11
256.235342
 21
83.332832
 31
0.0
  0
LINE
  5
1FD4
100
AcDbEntity
  8
0
100
AcDbLine
 10
258.358498
 20
83.162633
 30
0.0
 11
258.354724
 21
83.515241
 31
0.0
  0
POLYLINE
  5
1FD5
100
AcDbEntity
  8
0
100
AcDb2dPolyline
 66
     1
 10
0.0
 20
0.0
 30
0.0
  0
VERTEX
  5
1FD6
100
AcDbEntity
  8
0
100
AcDbVertex
100
AcDb2dVertex
 10
272.673439
 20
105.657027
 30
0.0
  0
VERTEX
  5
1FD7
100
AcDbEntity
  8
0
100
AcDbVertex
100
AcDb2dVertex
 10
274.479556
 20
106.688479
 30
0.0
  0
VERTEX
  5
1FD8
100
AcDbEntity
  8
0
100
AcDbVertex
100
AcDb2dVertex
 10
276.366275
 20
107.679337
 30
0.0
  0
VERTEX
  5
1FD9
100
AcDbEntity
  8
0
100
AcDbVertex
100
AcDb2dVertex
 10
278.330293
 20
108.627864
 30
0.0
  0
SEQEND
  5
1FDA
100
AcDbEntity
  8
0
  0
LINE
  5
1FDB
100
AcDbEntity
  8
0
100
AcDbLine
 10
272.673439
 20
105.657027
 30
0.0
 11
272.673439
 21
105.237823
 31
0.0
  0
LINE
  5
1FDC
100
AcDbEntity
  8
0
100
AcDbLine
 10
273.027696
 20
105.47098
 30
0.0
 11
272.673439
 21
105.657027
 31
0.0
  0
LINE
  5
1FDD
100
AcDbEntity
  8
0
100
AcDbLine
 10
278.330293
 20
108.627864
 30
0.0
 11
278.68455
 21
108.441817
 31
0.0
  0
LINE
  5
1FDE
100
AcDbEntity
  8
0
100
AcDbLine
 10
383.741101
 20
71.601318
 30
0.0
 11
383.741101
 21
76.957191
 31
0.0
  0
POLYLINE
  5
1FDF
100
AcDbEntity
  8
0
100
AcDb2dPolyline
 66
     1
 10
0.0
 20
0.0
 30
0.0
  0
VERTEX
  5
1FE0
100
AcDbEntity
  8
0
100
AcDbVertex
100
AcDb2dVertex
 10
385.491101
 20
71.601318
 30
0.0
  0
VERTEX
  5
1FE1
100
AcDbEntity
  8
0
100
AcDbVertex
100
AcDb2dVertex
 10
385.157607
 20
75.054835
 30
0.0
  0
VERTEX
  5
1FE2
100
AcDbEntity
  8
0
100
AcDbVertex
100
AcDb2dVertex
 10
384.48823
 20
77.349564
 30
0.0
  0
SEQEND
  5
1FE3
100
AcDbEntity
  8
0
  0
POLYLINE
  5
1FE4
100
AcDbEntity
  8
0
100
AcDb2dPolyline
 66
     1
 10
0.0
 20
0.0
 30
0.0
  0
VERTEX
  5
1FE5
100
AcDbEntity
  8
0
100
AcDbVertex
100
AcDb2dVertex
 10
367.954506
 20
61.559501
 30
0.0
  0
VERTEX
  5
1FE6
100
AcDbEntity
  8
0
100
AcDbVertex
100
AcDb2dVertex
 10
371.790137
 20
64.083982
 30
0.0
  0
VERTEX
  5
1FE7
100
AcDbEntity
  8
0
100
AcDbVertex
100
AcDb2dVertex
 10
375.140784
 20
66.792122
 30
0.0
  0
VERTEX
  5
1FE8
100
AcDbEntity
  8
0
100
AcDbVertex
100
AcDb2dVertex
 10
377.974808
 20
69.658332
 30
0.0
  0
VERTEX
  5
1FE9
100
AcDbEntity
  8
0
100
AcDbVertex
100
AcDb2dVertex
 10
380.265423
 20
72.655512
 30
0.0
  0
VERTEX
  5
1FEA
100
AcDbEntity
  8
0
100
AcDbVertex
100
AcDb2dVertex
 10
381.990988
 20
75.755328
 30
0.0
  0
VERTEX
  5
1FEB
100
AcDbEntity
  8
0
100
AcDbVertex
100
AcDb2dVertex
 10
383.135203
 20
78.928479
 30
0.0
  0
VERTEX
  5
1FEC
100
AcDbEntity
  8
0
100
AcDbVertex
100
AcDb2dVertex
 10
383.687262
 20
82.144974
 30
0.0
  0
VERTEX
  5
1FED
100
AcDbEntity
  8
0
100
AcDbVertex
100
AcDb2dVertex
 10
383.740976
 20
83.515061
 30
0.0
  0
SEQEND
  5
1FEE
100
AcDbEntity
  8
0
  0
POLYLINE
  5
1FEF
100
AcDbEntity
  8
0
100
AcDb2dPolyline
 66
     1
 10
0.0
 20
0.0
 30
0.0
  0
VERTEX
  5
1FF0
100
AcDbEntity
  8
0
100
AcDbVertex
100
AcDb2dVertex
 10
383.740973
 20
71.601121
 30
0.0
  0
VERTEX
  5
1FF1
100
AcDbEntity
  8
0
100
AcDbVertex
100
AcDb2dVertex
 10
383.687109
 20
70.229108
 30
0.0
  0
VERTEX
  5
1FF2
100
AcDbEntity
  8
0
100
AcDbVertex
100
AcDb2dVertex
 10
383.134747
 20
67.01284
 30
0.0
  0
VERTEX
  5
1FF3
100
AcDbEntity
  8
0
100
AcDbVertex
100
AcDb2dVertex
 10
381.990311
 20
63.839925
 30
0.0
  0
VERTEX
  5
1FF4
100
AcDbEntity
  8
0
100
AcDbVertex
100
AcDb2dVertex
 10
380.264617
 20
60.740365
 30
0.0
  0
VERTEX
  5
1FF5
100
AcDbEntity
  8
0
100
AcDbVertex
100
AcDb2dVertex
 10
377.973982
 20
57.743464
 30
0.0
  0
VERTEX
  5
1FF6
100
AcDbEntity
  8
0
100
AcDbVertex
100
AcDb2dVertex
 10
375.140069
 20
54.877554
 30
0.0
  0
VERTEX
  5
1FF7
100
AcDbEntity
  8
0
100
AcDbVertex
100
AcDb2dVertex
 10
371.789684
 20
52.16973
 30
0.0
  0
VERTEX
  5
1FF8
100
AcDbEntity
  8
0
100
AcDbVertex
100
AcDb2dVertex
 10
368.308763
 20
49.878735
 30
0.0
  0
SEQEND
  5
1FF9
100
AcDbEntity
  8
0
  0
LINE
  5
1FFA
100
AcDbEntity
  8
0
100
AcDbLine
 10
325.491101
 20
46.365769
 30
0.0
 11
325.491101
 21
46.961465
 31
0.0
  0
LINE
  5
1FFB
100
AcDbEntity
  8
0
100
AcDbLine
 10
325.491101
 20
46.365769
 30
0.0
 11
326.813659
 21
47.060342
 31
0.0
  0
LINE
  5
1FFC
100
AcDbEntity
  8
0
100
AcDbLine
 10
326.813659
 20
50.038823
 30
0.0
 11
326.813659
 21
47.060342
 31
0.0
  0
POLYLINE
  5
1FFD
100
AcDbEntity
  8
0
100
AcDb2dPolyline
 66
     1
 10
0.0
 20
0.0
 30
0.0
  0
VERTEX
  5
1FFE
100
AcDbEntity
  8
0
100
AcDbVertex
100
AcDb2dVertex
 10
325.491101
 20
46.961465
 30
0.0
  0
VERTEX
  5
1FFF
100
AcDbEntity
  8
0
100
AcDbVertex
100
AcDb2dVertex
 10
325.936079
 20
48.003973
 30
0.0
  0
VERTEX
  5
2000
100
AcDbEntity
  8
0
100
AcDbVertex
100
AcDb2dVertex
 10
326.376902
 20
49.029668
 30
0.0
  0
VERTEX
  5
2001
100
AcDbEntity
  8
0
100
AcDbVertex
100
AcDb2dVertex
 10
326.813659
 20
50.038823
 30
0.0
  0
SEQEND
  5
2002
100
AcDbEntity
  8
0
  0
LINE
  5
2003
100
AcDbEntity
  8
0
100
AcDbLine
 10
368.308763
 20
61.373454
 30
0.0
 11
368.308763
 21
49.459531
 31
0.0
  0
LINE
  5
2004
100
AcDbEntity
  8
0
100
AcDbLine
 10
362.297652
 20
46.674742
 30
0.0
 11
362.297652
 21
58.588664
 31
0.0
  0
LINE
  5
2005
100
AcDbEntity
  8
0
100
AcDbLine
 10
362.651909
 20
58.402618
 30
0.0
 11
362.651909
 21
46.488695
 31
0.0
  0
POLYLINE
  5
2006
100
AcDbEntity
  8
0
100
AcDb2dPolyline
 66
     1
 10
0.0
 20
0.0
 30
0.0
  0
VERTEX
  5
2007
100
AcDbEntity
  8
0
100
AcDbVertex
100
AcDb2dVertex
 10
368.308763
 20
49.459531
 30
0.0
  0
VERTEX
  5
2008
100
AcDbEntity
  8
0
100
AcDbVertex
100
AcDb2dVertex
 10
366.502646
 20
48.428079
 30
0.0
  0
VERTEX
  5
2009
100
AcDbEntity
  8
0
100
AcDbVertex
100
AcDb2dVertex
 10
364.615926
 20
47.437222
 30
0.0
  0
VERTEX
  5
200A
100
AcDbEntity
  8
0
100
AcDbVertex
100
AcDb2dVertex
 10
362.651909
 20
46.488695
 30
0.0
  0
SEQEND
  5
200B
100
AcDbEntity
  8
0
  0
LINE
  5
200C
100
AcDbEntity
  8
0
100
AcDbLine
 10
362.651909
 20
46.488695
 30
0.0
 11
362.297652
 21
46.674742
 31
0.0
  0
POLYLINE
  5
200D
100
AcDbEntity
  8
0
100
AcDb2dPolyline
 66
     1
 10
0.0
 20
0.0
 30
0.0
  0
VERTEX
  5
200E
100
AcDbEntity
  8
0
100
AcDbVertex
100
AcDb2dVertex
 10
368.308763
 20
61.373454
 30
0.0
  0
VERTEX
  5
200F
100
AcDbEntity
  8
0
100
AcDbVertex
100
AcDb2dVertex
 10
366.502646
 20
60.342002
 30
0.0
  0
VERTEX
  5
2010
100
AcDbEntity
  8
0
100
AcDbVertex
100
AcDb2dVertex
 10
364.615926
 20
59.351144
 30
0.0
  0
VERTEX
  5
2011
100
AcDbEntity
  8
0
100
AcDbVertex
100
AcDb2dVertex
 10
362.651909
 20
58.402618
 30
0.0
  0
SEQEND
  5
2012
100
AcDbEntity
  8
0
  0
LINE
  5
2013
100
AcDbEntity
  8
0
100
AcDbLine
 10
362.651909
 20
58.402618
 30
0.0
 11
362.297652
 21
58.588664
 31
0.0
  0
LINE
  5
2014
100
AcDbEntity
  8
0
100
AcDbLine
 10
367.954506
 20
61.559501
 30
0.0
 11
368.308763
 21
61.373454
 31
0.0
  0
LINE
  5
2015
100
AcDbEntity
  8
0
100
AcDbLine
 10
383.687434
 20
61.882843
 30
0.0
 11
383.709613
 21
62.964077
 31
0.0
  0
POLYLINE
  5
2016
100
AcDbEntity
  8
0
100
AcDb2dPolyline
 66
     1
 10
0.0
 20
0.0
 30
0.0
  0
VERTEX
  5
2017
100
AcDbEntity
  8
0
100
AcDbVertex
100
AcDb2dVertex
 10
363.755795
 20
100.8407
 30
0.0
  0
VERTEX
  5
2018
100
AcDbEntity
  8
0
100
AcDbVertex
100
AcDb2dVertex
 10
363.779402
 20
100.852296
 30
0.0
  0
VERTEX
  5
2019
100
AcDbEntity
  8
0
100
AcDbVertex
100
AcDb2dVertex
 10
363.952589
 20
100.895905
 30
0.0
  0
VERTEX
  5
201A
100
AcDbEntity
  8
0
100
AcDbVertex
100
AcDb2dVertex
 10
364.146267
 20
100.878346
 30
0.0
  0
VERTEX
  5
201B
100
AcDbEntity
  8
0
100
AcDbVertex
100
AcDb2dVertex
 10
364.344878
 20
100.801881
 30
0.0
  0
VERTEX
  5
201C
100
AcDbEntity
  8
0
100
AcDbVertex
100
AcDb2dVertex
 10
364.540267
 20
100.671851
 30
0.0
  0
VERTEX
  5
201D
100
AcDbEntity
  8
0
100
AcDbVertex
100
AcDb2dVertex
 10
364.728588
 20
100.489547
 30
0.0
  0
VERTEX
  5
201E
100
AcDbEntity
  8
0
100
AcDbVertex
100
AcDb2dVertex
 10
364.89542
 20
100.267032
 30
0.0
  0
VERTEX
  5
201F
100
AcDbEntity
  8
0
100
AcDbVertex
100
AcDb2dVertex
 10
365.02959
 20
100.021903
 30
0.0
  0
VERTEX
  5
2020
100
AcDbEntity
  8
0
100
AcDbVertex
100
AcDb2dVertex
 10
365.127379
 20
99.766094
 30
0.0
  0
VERTEX
  5
2021
100
AcDbEntity
  8
0
100
AcDbVertex
100
AcDb2dVertex
 10
365.186659
 20
99.507913
 30
0.0
  0
VERTEX
  5
2022
100
AcDbEntity
  8
0
100
AcDbVertex
100
AcDb2dVertex
 10
365.204385
 20
99.261181
 30
0.0
  0
SEQEND
  5
2023
100
AcDbEntity
  8
0
  0
POLYLINE
  5
2024
100
AcDbEntity
  8
0
100
AcDb2dPolyline
 66
     1
 10
0.0
 20
0.0
 30
0.0
  0
VERTEX
  5
2025
100
AcDbEntity
  8
0
100
AcDbVertex
100
AcDb2dVertex
 10
364.895333
 20
98.615365
 30
0.0
  0
VERTEX
  5
2026
100
AcDbEntity
  8
0
100
AcDbVertex
100
AcDb2dVertex
 10
364.872353
 20
98.604096
 30
0.0
  0
VERTEX
  5
2027
100
AcDbEntity
  8
0
100
AcDbVertex
100
AcDb2dVertex
 10
364.702825
 20
98.562393
 30
0.0
  0
VERTEX
  5
2028
100
AcDbEntity
  8
0
100
AcDbVertex
100
AcDb2dVertex
 10
364.511698
 20
98.581286
 30
0.0
  0
VERTEX
  5
2029
100
AcDbEntity
  8
0
100
AcDbVertex
100
AcDb2dVertex
 10
364.31397
 20
98.658217
 30
0.0
  0
VERTEX
  5
202A
100
AcDbEntity
  8
0
100
AcDbVertex
100
AcDb2dVertex
 10
364.11769
 20
98.78779
 30
0.0
  0
VERTEX
  5
202B
100
AcDbEntity
  8
0
100
AcDbVertex
100
AcDb2dVertex
 10
363.926813
 20
98.968777
 30
0.0
  0
VERTEX
  5
202C
100
AcDbEntity
  8
0
100
AcDbVertex
100
AcDb2dVertex
 10
363.75629
 20
99.189389
 30
0.0
  0
VERTEX
  5
202D
100
AcDbEntity
  8
0
100
AcDbVertex
100
AcDb2dVertex
 10
363.618149
 20
99.432464
 30
0.0
  0
VERTEX
  5
202E
100
AcDbEntity
  8
0
100
AcDbVertex
100
AcDb2dVertex
 10
363.516874
 20
99.68645
 30
0.0
  0
VERTEX
  5
202F
100
AcDbEntity
  8
0
100
AcDbVertex
100
AcDb2dVertex
 10
363.455194
 20
99.943339
 30
0.0
  0
VERTEX
  5
2030
100
AcDbEntity
  8
0
100
AcDbVertex
100
AcDb2dVertex
 10
363.436618
 20
100.189567
 30
0.0
  0
SEQEND
  5
2031
100
AcDbEntity
  8
0
  0
LINE
  5
2032
100
AcDbEntity
  8
0
100
AcDbLine
 10
364.337722
 20
100.804636
 30
0.0
 11
364.322986
 21
100.655065
 31
0.0
  0
POLYLINE
  5
2033
100
AcDbEntity
  8
0
100
AcDb2dPolyline
 66
     1
 10
0.0
 20
0.0
 30
0.0
  0
VERTEX
  5
2034
100
AcDbEntity
  8
0
100
AcDbVertex
100
AcDb2dVertex
 10
365.204385
 20
99.261181
 30
0.0
  0
VERTEX
  5
2035
100
AcDbEntity
  8
0
100
AcDbVertex
100
AcDb2dVertex
 10
365.179879
 20
99.037492
 30
0.0
  0
VERTEX
  5
2036
100
AcDbEntity
  8
0
100
AcDbVertex
100
AcDb2dVertex
 10
365.114211
 20
98.847647
 30
0.0
  0
VERTEX
  5
2037
100
AcDbEntity
  8
0
100
AcDbVertex
100
AcDb2dVertex
 10
365.010527
 20
98.701098
 30
0.0
  0
VERTEX
  5
2038
100
AcDbEntity
  8
0
100
AcDbVertex
100
AcDb2dVertex
 10
364.895333
 20
98.615365
 30
0.0
  0
SEQEND
  5
2039
100
AcDbEntity
  8
0
  0
POLYLINE
  5
203A
100
AcDbEntity
  8
0
100
AcDb2dPolyline
 66
     1
 10
0.0
 20
0.0
 30
0.0
  0
VERTEX
  5
203B
100
AcDbEntity
  8
0
100
AcDbVertex
100
AcDb2dVertex
 10
363.436618
 20
100.189567
 30
0.0
  0
VERTEX
  5
203C
100
AcDbEntity
  8
0
100
AcDbVertex
100
AcDb2dVertex
 10
363.461993
 20
100.413752
 30
0.0
  0
VERTEX
  5
203D
100
AcDbEntity
  8
0
100
AcDbVertex
100
AcDb2dVertex
 10
363.530092
 20
100.604874
 30
0.0
  0
VERTEX
  5
203E
100
AcDbEntity
  8
0
100
AcDbVertex
100
AcDb2dVertex
 10
363.637285
 20
100.753246
 30
0.0
  0
VERTEX
  5
203F
100
AcDbEntity
  8
0
100
AcDbVertex
100
AcDb2dVertex
 10
363.755795
 20
100.8407
 30
0.0
  0
SEQEND
  5
2040
100
AcDbEntity
  8
0
  0
POLYLINE
  5
2041
100
AcDbEntity
  8
0
100
AcDb2dPolyline
 66
     1
 10
0.0
 20
0.0
 30
0.0
  0
VERTEX
  5
2042
100
AcDbEntity
  8
0
100
AcDbVertex
100
AcDb2dVertex
 10
364.322986
 20
100.655065
 30
0.0
  0
VERTEX
  5
2043
100
AcDbEntity
  8
0
100
AcDbVertex
100
AcDb2dVertex
 10
364.344913
 20
100.410764
 30
0.0
  0
VERTEX
  5
2044
100
AcDbEntity
  8
0
100
AcDbVertex
100
AcDb2dVertex
 10
364.409797
 20
100.155471
 30
0.0
  0
VERTEX
  5
2045
100
AcDbEntity
  8
0
100
AcDbVertex
100
AcDb2dVertex
 10
364.513965
 20
99.902899
 30
0.0
  0
VERTEX
  5
2046
100
AcDbEntity
  8
0
100
AcDbVertex
100
AcDb2dVertex
 10
364.65459
 20
99.661019
 30
0.0
  0
VERTEX
  5
2047
100
AcDbEntity
  8
0
100
AcDbVertex
100
AcDb2dVertex
 10
364.827023
 20
99.44136
 30
0.0
  0
VERTEX
  5
2048
100
AcDbEntity
  8
0
100
AcDbVertex
100
AcDb2dVertex
 10
365.01908
 20
99.260984
 30
0.0
  0
SEQEND
  5
2049
100
AcDbEntity
  8
0
  0
LINE
  5
204A
100
AcDbEntity
  8
0
100
AcDbLine
 10
365.01908
 20
99.260984
 30
0.0
 11
365.191912
 21
99.147325
 31
0.0
  0
POLYLINE
  5
204B
100
AcDbEntity
  8
0
100
AcDb2dPolyline
 66
     1
 10
0.0
 20
0.0
 30
0.0
  0
VERTEX
  5
204C
100
AcDbEntity
  8
0
100
AcDbVertex
100
AcDb2dVertex
 10
384.746859
 20
83.332832
 30
0.0
  0
VERTEX
  5
204D
100
AcDbEntity
  8
0
100
AcDbVertex
100
AcDb2dVertex
 10
384.301881
 20
84.375341
 30
0.0
  0
VERTEX
  5
204E
100
AcDbEntity
  8
0
100
AcDbVertex
100
AcDb2dVertex
 10
383.861059
 20
85.401036
 30
0.0
  0
VERTEX
  5
204F
100
AcDbEntity
  8
0
100
AcDbVertex
100
AcDb2dVertex
 10
383.443889
 20
86.364932
 30
0.0
  0
SEQEND
  5
2050
100
AcDbEntity
  8
0
  0
POLYLINE
  5
2051
100
AcDbEntity
  8
0
100
AcDb2dPolyline
 66
     1
 10
0.0
 20
0.0
 30
0.0
  0
VERTEX
  5
2052
100
AcDbEntity
  8
0
100
AcDbVertex
100
AcDb2dVertex
 10
383.741101
 20
83.089743
 30
0.0
  0
VERTEX
  5
2053
100
AcDbEntity
  8
0
100
AcDbVertex
100
AcDb2dVertex
 10
383.705875
 20
81.981282
 30
0.0
  0
VERTEX
  5
2054
100
AcDbEntity
  8
0
100
AcDbVertex
100
AcDb2dVertex
 10
383.424302
 20
79.769297
 30
0.0
  0
SEQEND
  5
2055
100
AcDbEntity
  8
0
  0
LINE
  5
2056
100
AcDbEntity
  8
0
100
AcDbLine
 10
384.746859
 20
78.081086
 30
0.0
 11
384.941101
 21
80.706959
 31
0.0
  0
LINE
  5
2057
100
AcDbEntity
  8
0
100
AcDbLine
 10
384.746859
 20
77.48539
 30
0.0
 11
384.941101
 21
80.111263
 31
0.0
  0
LINE
  5
2058
100
AcDbEntity
  8
0
100
AcDbLine
 10
383.424302
 20
76.790816
 30
0.0
 11
384.746859
 21
77.48539
 31
0.0
  0
LINE
  5
2059
100
AcDbEntity
  8
0
100
AcDbLine
 10
383.424302
 20
79.769297
 30
0.0
 11
383.424302
 21
76.790816
 31
0.0
  0
LINE
  5
205A
100
AcDbEntity
  8
0
100
AcDbLine
 10
384.746859
 20
77.48539
 30
0.0
 11
384.746859
 21
78.081086
 31
0.0
  0
POLYLINE
  5
205B
100
AcDbEntity
  8
0
100
AcDb2dPolyline
 66
     1
 10
0.0
 20
0.0
 30
0.0
  0
VERTEX
  5
205C
100
AcDbEntity
  8
0
100
AcDbVertex
100
AcDb2dVertex
 10
383.424302
 20
79.769297
 30
0.0
  0
VERTEX
  5
205D
100
AcDbEntity
  8
0
100
AcDbVertex
100
AcDb2dVertex
 10
383.861067
 20
79.218878
 30
0.0
  0
VERTEX
  5
205E
100
AcDbEntity
  8
0
100
AcDbVertex
100
AcDb2dVertex
 10
384.30189
 20
78.656201
 30
0.0
  0
VERTEX
  5
205F
100
AcDbEntity
  8
0
100
AcDbVertex
100
AcDb2dVertex
 10
384.746859
 20
78.081086
 30
0.0
  0
SEQEND
  5
2060
100
AcDbEntity
  8
0
  0
LINE
  5
2061
100
AcDbEntity
  8
0
100
AcDbLine
 10
382.627477
 20
83.515241
 30
0.0
 11
382.623703
 21
83.162633
 31
0.0
  0
LINE
  5
2062
100
AcDbEntity
  8
0
100
AcDbLine
 10
384.941101
 20
80.706959
 30
0.0
 11
384.746859
 21
83.332832
 31
0.0
  0
LINE
  5
2063
100
AcDbEntity
  8
0
100
AcDbLine
 10
383.740976
 20
83.515061
 30
0.0
 11
383.641963
 21
85.374319
 31
0.0
  0
ENDBLK
  5
2065
100
AcDbEntity
  8
0
100
AcDbBlockEnd
  0
BLOCK
  5
2068
100
AcDbEntity
  8
0
100
AcDbBlockBegin
  2
*D21
 70
     1
 10
0.0
 20
0.0
 30
0.0
  3
*D21
  1

  0
LINE
  5
2069
100
AcDbEntity
  8
0
  6
BYBLOCK
 62
     0
100
AcDbLine
 10
116.20148
 20
-959.705477
 30
0.0
 11
83.116769
 21
-928.713333
 31
0.0
  0
LINE
  5
206A
100
AcDbEntity
  8
0
  6
BYBLOCK
 62
     0
100
AcDbLine
 10
-17.742944
 20
-834.232868
 30
0.0
 11
-22.121803
 21
-830.130966
 31
0.0
  0
MTEXT
  5
206B
100
AcDbEntity
  8
0
  6
BYBLOCK
 62
     0
100
AcDbMText
 10
105.266805
 20
-942.611307
 30
0.0
 40
8.0
 41
0.0
 71
     5
 72
     1
  1
\A1;\U+2205126.2
 11
0.72981
 21
-0.68365
 31
0.0
  0
LINE
  5
206C
100
AcDbEntity
  8
0
  6
BYBLOCK
 62
     0
100
AcDbLine
 10
-13.364085
 20
-838.334769
 30
0.0
 11
78.737911
 21
-924.611431
 31
0.0
  0
INSERT
  5
206D
100
AcDbEntity
  8
0
  6
BYBLOCK
 62
     0
100
AcDbBlockReference
  2
_OPEN
 10
-13.364085
 20
-838.334769
 30
0.0
 41
6.0
 42
6.0
 43
6.0
 50
316.870451
  0
INSERT
  5
206E
100
AcDbEntity
  8
0
  6
BYBLOCK
 62
     0
100
AcDbBlockReference
  2
_OPEN
 10
78.737911
 20
-924.611431
 30
0.0
 41
6.0
 42
6.0
 43
6.0
 50
136.870451
  0
POINT
  5
206F
100
AcDbEntity
  8
DEFPOINTS
  6
BYBLOCK
 62
     0
100
AcDbPoint
 10
78.737911
 20
-924.611431
 30
0.0
  0
POINT
  5
2070
100
AcDbEntity
  8
DEFPOINTS
  6
BYBLOCK
 62
     0
100
AcDbPoint
 10
-13.364085
 20
-838.334769
 30
0.0
  0
ENDBLK
  5
2071
100
AcDbEntity
  8
0
100
AcDbBlockEnd
  0
BLOCK
  5
249C
100
AcDbEntity
  8
0
100
AcDbBlockBegin
  2
*D23
 70
     1
 10
0.0
 20
0.0
 30
0.0
  3
*D23
  1

  0
LINE
  5
249D
100
AcDbEntity
  8
0
  6
BYBLOCK
 62
     0
100
AcDbLine
 10
-270.040482
 20
-72.115733
 30
0.0
 11
-270.040482
 21
-39.803326
 31
0.0
  0
LINE
  5
249E
100
AcDbEntity
  8
0
  6
BYBLOCK
 62
     0
100
AcDbLine
 10
-140.040482
 20
-72.115733
 30
0.0
 11
-140.040482
 21
-39.803326
 31
0.0
  0
LINE
  5
249F
100
AcDbEntity
  8
0
  6
BYBLOCK
 62
     0
100
AcDbLine
 10
-264.040482
 20
-41.803326
 30
0.0
 11
-146.040482
 21
-41.803326
 31
0.0
  0
INSERT
  5
24A0
100
AcDbEntity
  8
0
  6
BYBLOCK
 62
     0
100
AcDbBlockReference
  2
_OPEN
 10
-270.040482
 20
-41.803326
 30
0.0
 41
6.0
 42
6.0
 43
6.0
 50
180.0
  0
INSERT
  5
24A1
100
AcDbEntity
  8
0
  6
BYBLOCK
 62
     0
100
AcDbBlockReference
  2
_OPEN
 10
-140.040482
 20
-41.803326
 30
0.0
 41
6.0
 42
6.0
 43
6.0
  0
MTEXT
  5
24A2
100
AcDbEntity
  8
0
  6
BYBLOCK
 62
     0
100
AcDbMText
 10
-206.054253
 20
-36.803326
 30
0.0
 40
8.0
 41
0.0
 71
     5
 72
     1
  1
\A1;φ130
  0
POINT
  5
24A3
100
AcDbEntity
  8
DEFPOINTS
  6
BYBLOCK
 62
     0
100
AcDbPoint
 10
-270.040482
 20
-74.740733
 30
0.0
  0
POINT
  5
24A4
100
AcDbEntity
  8
DEFPOINTS
  6
BYBLOCK
 62
     0
100
AcDbPoint
 10
-140.040482
 20
-74.740733
 30
0.0
  0
POINT
  5
24A5
100
AcDbEntity
  8
DEFPOINTS
  6
BYBLOCK
 62
     0
100
AcDbPoint
 10
-140.040482
 20
-41.803326
 30
0.0
  0
ENDBLK
  5
24A6
100
AcDbEntity
  8
0
100
AcDbBlockEnd
  0
BLOCK
  5
2478
100
AcDbEntity
  8
0
100
AcDbBlockBegin
  2
*D24
 70
     1
 10
0.0
 20
0.0
 30
0.0
  3
*D24
  1

  0
LINE
  5
2479
100
AcDbEntity
  8
0
  6
BYBLOCK
 62
     0
100
AcDbLine
 10
-137.415482
 20
-74.740733
 30
0.0
 11
-99.254934
 21
-74.740733
 31
0.0
  0
LINE
  5
247A
100
AcDbEntity
  8
0
  6
BYBLOCK
 62
     0
100
AcDbLine
 10
-202.415482
 20
-147.840733
 30
0.0
 11
-99.254934
 21
-147.840733
 31
0.0
  0
LINE
  5
247B
100
AcDbEntity
  8
0
  6
BYBLOCK
 62
     0
100
AcDbLine
 10
-101.254934
 20
-80.740733
 30
0.0
 11
-101.254934
 21
-141.840733
 31
0.0
  0
INSERT
  5
247C
100
AcDbEntity
  8
0
  6
BYBLOCK
 62
     0
100
AcDbBlockReference
  2
_OPEN
 10
-101.254934
 20
-74.740733
 30
0.0
 41
6.0
 42
6.0
 43
6.0
 50
90.0
  0
INSERT
  5
247D
100
AcDbEntity
  8
0
  6
BYBLOCK
 62
     0
100
AcDbBlockReference
  2
_OPEN
 10
-101.254934
 20
-147.840733
 30
0.0
 41
6.0
 42
6.0
 43
6.0
 50
270.0
  0
MTEXT
  5
247E
100
AcDbEntity
  8
0
  6
BYBLOCK
 62
     0
100
AcDbMText
 10
-106.254934
 20
-109.960265
 30
0.0
 40
8.0
 41
0.0
 71
     5
 72
     1
  1
\A1;73.1
 11
0.0
 21
1.0
 31
0.0
  0
POINT
  5
247F
100
AcDbEntity
  8
DEFPOINTS
  6
BYBLOCK
 62
     0
100
AcDbPoint
 10
-140.040482
 20
-74.740733
 30
0.0
  0
POINT
  5
2480
100
AcDbEntity
  8
DEFPOINTS
  6
BYBLOCK
 62
     0
100
AcDbPoint
 10
-205.040482
 20
-147.840733
 30
0.0
  0
POINT
  5
2481
100
AcDbEntity
  8
DEFPOINTS
  6
BYBLOCK
 62
     0
100
AcDbPoint
 10
-101.254934
 20
-147.840733
 30
0.0
  0
ENDBLK
  5
2482
100
AcDbEntity
  8
0
100
AcDbBlockEnd
  0
BLOCK
  5
24BA
100
AcDbEntity
  8
0
100
AcDbBlockBegin
  2
*D27
 70
     1
 10
0.0
 20
0.0
 30
0.0
  3
*D27
  1

  0
LINE
  5
24BB
100
AcDbEntity
  8
0
  6
BYBLOCK
 62
     0
100
AcDbLine
 10
-295.880218
 20
-154.333335
 30
0.0
 11
-255.130671
 21
-123.114982
 31
0.0
  0
MTEXT
  5
24BC
100
AcDbEntity
  8
0
  6
BYBLOCK
 62
     0
100
AcDbMText
 10
-283.309127
 20
-138.403945
 30
0.0
 40
8.0
 41
0.0
 71
     5
 72
     1
  1
\A1;SR63.1
 11
0.793822
 21
0.60815
 31
0.0
  0
LINE
  5
24BD
100
AcDbEntity
  8
0
  6
BYBLOCK
 62
     0
100
AcDbLine
 10
-205.040482
 20
-84.740733
 30
0.0
 11
-255.130671
 21
-123.114982
 31
0.0
  0
INSERT
  5
24BE
100
AcDbEntity
  8
0
  6
BYBLOCK
 62
     0
100
AcDbBlockReference
  2
_OPEN
 10
-255.130671
 20
-123.114982
 30
0.0
 41
6.0
 42
6.0
 43
6.0
 50
37.455837
  0
POINT
  5
24BF
100
AcDbEntity
  8
DEFPOINTS
  6
BYBLOCK
 62
     0
100
AcDbPoint
 10
-255.130671
 20
-123.114982
 30
0.0
  0
POINT
  5
24C0
100
AcDbEntity
  8
DEFPOINTS
  6
BYBLOCK
 62
     0
100
AcDbPoint
 10
-205.040482
 20
-84.740733
 30
0.0
  0
ENDBLK
  5
24C1
100
AcDbEntity
  8
0
100
AcDbBlockEnd
  0
BLOCK
  5
24D2
100
AcDbEntity
  8
0
100
AcDbBlockBegin
  2
*D28
 70
     1
 10
0.0
 20
0.0
 30
0.0
  3
*D28
  1

  0
LINE
  5
24D3
100
AcDbEntity
  8
0
  6
BYBLOCK
 62
     0
100
AcDbLine
 10
-202.415482
 20
-147.840733
 30
0.0
 11
-80.35924
 21
-147.840733
 31
0.0
  0
LINE
  5
24D4
100
AcDbEntity
  8
0
  6
BYBLOCK
 62
     0
100
AcDbLine
 10
-139.165482
 20
-60.740733
 30
0.0
 11
-80.35924
 21
-60.740733
 31
0.0
  0
LINE
  5
24D5
100
AcDbEntity
  8
0
  6
BYBLOCK
 62
     0
100
AcDbLine
 10
-82.35924
 20
-141.840733
 30
0.0
 11
-82.35924
 21
-66.740733
 31
0.0
  0
INSERT
  5
24D6
100
AcDbEntity
  8
0
  6
BYBLOCK
 62
     0
100
AcDbBlockReference
  2
_OPEN
 10
-82.35924
 20
-147.840733
 30
0.0
 41
6.0
 42
6.0
 43
6.0
 50
270.0
  0
INSERT
  5
24D7
100
AcDbEntity
  8
0
  6
BYBLOCK
 62
     0
100
AcDbBlockReference
  2
_OPEN
 10
-82.35924
 20
-60.740733
 30
0.0
 41
6.0
 42
6.0
 43
6.0
 50
90.0
  0
MTEXT
  5
24D8
100
AcDbEntity
  8
0
  6
BYBLOCK
 62
     0
100
AcDbMText
 10
-87.35924
 20
-104.363447
 30
0.0
 40
8.0
 41
0.0
 71
     5
 72
     1
  1
\A1;（87.1）
 11
0.0
 21
1.0
 31
0.0
  0
POINT
  5
24D9
100
AcDbEntity
  8
DEFPOINTS
  6
BYBLOCK
 62
     0
100
AcDbPoint
 10
-205.040482
 20
-147.840733
 30
0.0
  0
POINT
  5
24DA
100
AcDbEntity
  8
DEFPOINTS
  6
BYBLOCK
 62
     0
100
AcDbPoint
 10
-141.790482
 20
-60.740733
 30
0.0
  0
POINT
  5
24DB
100
AcDbEntity
  8
DEFPOINTS
  6
BYBLOCK
 62
     0
100
AcDbPoint
 10
-82.35924
 20
-60.740733
 30
0.0
  0
ENDBLK
  5
24DC
100
AcDbEntity
  8
0
100
AcDbBlockEnd
  0
ENDSEC
  0
SECTION
  2
ENTITIES
  0
INSERT
  5
1E0
100
AcDbEntity
  8
0
 62
     2
100
AcDbBlockReference
  2
*U0
 10
0.0
 20
0.0
 30
0.0
  0
MTEXT
  5
105F
100
AcDbEntity
  8
文字
100
AcDbMText
 10
-110.072591
 20
165.21644
 30
0.0
 40
8.0
 41
0.0
 71
     4
 72
     1
  1
\A1;
  0
TEXT
  5
10B1
100
AcDbEntity
  8
文字
100
AcDbText
 10
40.832699
 20
-180.614946
 30
0.0
 40
8.0
  1
斜視図
100
AcDbText
  0
DIMENSION
  5
2072
100
AcDbEntity
  8
文字
100
AcDbDimension
  2
*D21
 10
-13.364085
 20
-838.334769
 30
0.0
 11
101.848554
 21
-946.260356
 31
0.0
 70
   163
  3
STANDARD
100
AcDbDiametricDimension
 15
78.737911
 25
-924.611431
 35
0.0
 40
0.0
1001
ACAD
1000
DSTYLE
1002
{
1070
    78
1070
     8
1070
   288
1070
     1
1070
   284
1070
     8
1070
   140
1040
8.0
1070
    74
1070
     0
1070
   172
1070
     1
1070
    73
1070
     0
1070
   272
1070
     1
1070
    77
1070
     1
1070
   173
1070
     1
1070
   147
1040
1.0
1070
    42
1040
2.625
1070
    44
1040
2.0
1070
    43
1040
15.96
1070
   271
1070
     1
1070
   141
1040
3.78
1070
     7
1000
_OPEN
1070
     6
1000
_OPEN
1070
    41
1040
6.0
1002
}
  0
LINE
  5
2114
100
AcDbEntity
  8
0
100
AcDbLine
 10
-141.840482
 20
-85.740733
 30
0.0
 11
-268.240482
 21
-85.740733
 31
0.0
  0
LINE
  5
2115
100
AcDbEntity
  8
0
100
AcDbLine
 10
-268.290355
 20
-60.740733
 30
0.0
 11
-141.790607
 21
-60.740733
 31
0.0
  0
ARC
  5
2116
100
AcDbEntity
  8
0
100
AcDbCircle
 10
-205.040482
 20
-84.740733
 30
0.0
 40
63.1
100
AcDbArc
 50
180.908054
 51
359.091946
  0
LINE
  5
2117
100
AcDbEntity
  8
0
100
AcDbLine
 10
-140.040482
 20
-75.740733
 30
0.0
 11
-270.040482
 21
-75.740733
 31
0.0
  0
LINE
  5
2118
100
AcDbEntity
  8
0
100
AcDbLine
 10
-140.040482
 20
-74.740733
 30
0.0
 11
-270.040482
 21
-74.740733
 31
0.0
  0
LINE
  5
2119
100
AcDbEntity
  8
0
100
AcDbLine
 10
-268.240482
 20
-85.740733
 30
0.0
 11
-268.415033
 21
-75.740733
 31
0.0
  0
POLYLINE
  5
211A
100
AcDbEntity
  8
0
100
AcDb2dPolyline
 66
     1
 10
0.0
 20
0.0
 30
0.0
  0
VERTEX
  5
211B
100
AcDbEntity
  8
0
100
AcDbVertex
100
AcDb2dVertex
 10
-248.872368
 20
-68.740733
 30
0.0
  0
VERTEX
  5
211C
100
AcDbEntity
  8
0
100
AcDbVertex
100
AcDb2dVertex
 10
-248.894218
 20
-69.014329
 30
0.0
  0
VERTEX
  5
211D
100
AcDbEntity
  8
0
100
AcDbVertex
100
AcDb2dVertex
 10
-248.958963
 20
-69.275577
 30
0.0
  0
VERTEX
  5
211E
100
AcDbEntity
  8
0
100
AcDbVertex
100
AcDb2dVertex
 10
-249.063161
 20
-69.510504
 30
0.0
  0
VERTEX
  5
211F
100
AcDbEntity
  8
0
100
AcDbVertex
100
AcDb2dVertex
 10
-249.20276
 20
-69.709304
 30
0.0
  0
VERTEX
  5
2120
100
AcDbEntity
  8
0
100
AcDbVertex
100
AcDb2dVertex
 10
-249.373991
 20
-69.862959
 30
0.0
  0
VERTEX
  5
2121
100
AcDbEntity
  8
0
100
AcDbVertex
100
AcDb2dVertex
 10
-249.566471
 20
-69.958942
 30
0.0
  0
VERTEX
  5
2122
100
AcDbEntity
  8
0
100
AcDbVertex
100
AcDb2dVertex
 10
-249.764985
 20
-69.990734
 30
0.0
  0
SEQEND
  5
2123
100
AcDbEntity
  8
0
  0
LINE
  5
2124
100
AcDbEntity
  8
0
100
AcDbLine
 10
-251.1792
 20
-72.740733
 30
0.0
 11
-249.231512
 21
-72.740733
 31
0.0
  0
POLYLINE
  5
2125
100
AcDbEntity
  8
0
100
AcDb2dPolyline
 66
     1
 10
0.0
 20
0.0
 30
0.0
  0
VERTEX
  5
2126
100
AcDbEntity
  8
0
100
AcDbVertex
100
AcDb2dVertex
 10
-249.764987
 20
-67.490733
 30
0.0
  0
VERTEX
  5
2127
100
AcDbEntity
  8
0
100
AcDbVertex
100
AcDb2dVertex
 10
-249.568462
 20
-67.521884
 30
0.0
  0
VERTEX
  5
2128
100
AcDbEntity
  8
0
100
AcDbVertex
100
AcDb2dVertex
 10
-249.376405
 20
-67.616854
 30
0.0
  0
VERTEX
  5
2129
100
AcDbEntity
  8
0
100
AcDbVertex
100
AcDb2dVertex
 10
-249.203972
 20
-67.770785
 30
0.0
  0
VERTEX
  5
212A
100
AcDbEntity
  8
0
100
AcDbVertex
100
AcDb2dVertex
 10
-249.063347
 20
-67.970632
 30
0.0
  0
VERTEX
  5
212B
100
AcDbEntity
  8
0
100
AcDbVertex
100
AcDb2dVertex
 10
-248.959179
 20
-68.205257
 30
0.0
  0
VERTEX
  5
212C
100
AcDbEntity
  8
0
100
AcDbVertex
100
AcDb2dVertex
 10
-248.894294
 20
-68.466669
 30
0.0
  0
VERTEX
  5
212D
100
AcDbEntity
  8
0
100
AcDbVertex
100
AcDb2dVertex
 10
-248.872368
 20
-68.740733
 30
0.0
  0
SEQEND
  5
212E
100
AcDbEntity
  8
0
  0
LINE
  5
212F
100
AcDbEntity
  8
0
100
AcDbLine
 10
-268.290482
 20
-61.240733
 30
0.0
 11
-268.290482
 21
-60.740733
 31
0.0
  0
LINE
  5
2130
100
AcDbEntity
  8
0
100
AcDbLine
 10
-268.290482
 20
-74.740733
 30
0.0
 11
-268.290482
 21
-64.740733
 31
0.0
  0
LINE
  5
2131
100
AcDbEntity
  8
0
100
AcDbLine
 10
-270.040482
 20
-75.740733
 30
0.0
 11
-270.040482
 21
-74.740733
 31
0.0
  0
LINE
  5
2132
100
AcDbEntity
  8
0
100
AcDbLine
 10
-267.973683
 20
-61.240733
 30
0.0
 11
-268.290482
 21
-61.240733
 31
0.0
  0
LINE
  5
2133
100
AcDbEntity
  8
0
100
AcDbLine
 10
-267.973683
 20
-61.240733
 30
0.0
 11
-267.973683
 21
-64.740733
 31
0.0
  0
LINE
  5
2134
100
AcDbEntity
  8
0
100
AcDbLine
 10
-269.490482
 20
-64.040733
 30
0.0
 11
-269.490482
 21
-64.740733
 31
0.0
  0
LINE
  5
2135
100
AcDbEntity
  8
0
100
AcDbLine
 10
-269.296241
 20
-64.040733
 30
0.0
 11
-269.296241
 21
-64.740733
 31
0.0
  0
LINE
  5
2136
100
AcDbEntity
  8
0
100
AcDbLine
 10
-269.296241
 20
-64.040733
 30
0.0
 11
-269.490482
 21
-64.040733
 31
0.0
  0
LINE
  5
2137
100
AcDbEntity
  8
0
100
AcDbLine
 10
-268.290482
 20
-61.240733
 30
0.0
 11
-269.490482
 21
-64.040733
 31
0.0
  0
POLYLINE
  5
2138
100
AcDbEntity
  8
0
100
AcDb2dPolyline
 66
     1
 10
0.0
 20
0.0
 30
0.0
  0
VERTEX
  5
2139
100
AcDbEntity
  8
0
100
AcDbVertex
100
AcDb2dVertex
 10
-267.973683
 20
-61.240733
 30
0.0
  0
VERTEX
  5
213A
100
AcDbEntity
  8
0
100
AcDbVertex
100
AcDb2dVertex
 10
-268.410449
 20
-62.157069
 30
0.0
  0
VERTEX
  5
213B
100
AcDbEntity
  8
0
100
AcDbVertex
100
AcDb2dVertex
 10
-268.851272
 20
-63.090314
 30
0.0
  0
VERTEX
  5
213C
100
AcDbEntity
  8
0
100
AcDbVertex
100
AcDb2dVertex
 10
-269.296241
 20
-64.040733
 30
0.0
  0
SEQEND
  5
213D
100
AcDbEntity
  8
0
  0
LINE
  5
213E
100
AcDbEntity
  8
0
100
AcDbLine
 10
-267.973683
 20
-64.740733
 30
0.0
 11
-269.490482
 21
-64.740733
 31
0.0
  0
LINE
  5
213F
100
AcDbEntity
  8
0
100
AcDbLine
 10
-251.1792
 20
-74.740733
 30
0.0
 11
-251.1792
 21
-72.740733
 31
0.0
  0
LINE
  5
2140
100
AcDbEntity
  8
0
100
AcDbLine
 10
-250.118539
 20
-72.740733
 30
0.0
 11
-250.118539
 21
-74.740733
 31
0.0
  0
POLYLINE
  5
2141
100
AcDbEntity
  8
0
100
AcDb2dPolyline
 66
     1
 10
0.0
 20
0.0
 30
0.0
  0
VERTEX
  5
2142
100
AcDbEntity
  8
0
100
AcDbVertex
100
AcDb2dVertex
 10
-249.326472
 20
-67.661429
 30
0.0
  0
VERTEX
  5
2143
100
AcDbEntity
  8
0
100
AcDbVertex
100
AcDb2dVertex
 10
-249.445612
 20
-67.771792
 30
0.0
  0
VERTEX
  5
2144
100
AcDbEntity
  8
0
100
AcDbVertex
100
AcDb2dVertex
 10
-249.578885
 20
-67.970432
 30
0.0
  0
VERTEX
  5
2145
100
AcDbEntity
  8
0
100
AcDbVertex
100
AcDb2dVertex
 10
-249.676786
 20
-68.205201
 30
0.0
  0
VERTEX
  5
2146
100
AcDbEntity
  8
0
100
AcDbVertex
100
AcDb2dVertex
 10
-249.736026
 20
-68.466346
 30
0.0
  0
VERTEX
  5
2147
100
AcDbEntity
  8
0
100
AcDbVertex
100
AcDb2dVertex
 10
-249.753767
 20
-68.740733
 30
0.0
  0
SEQEND
  5
2148
100
AcDbEntity
  8
0
  0
POLYLINE
  5
2149
100
AcDbEntity
  8
0
100
AcDb2dPolyline
 66
     1
 10
0.0
 20
0.0
 30
0.0
  0
VERTEX
  5
214A
100
AcDbEntity
  8
0
100
AcDbVertex
100
AcDb2dVertex
 10
-250.640135
 20
-68.740733
 30
0.0
  0
VERTEX
  5
214B
100
AcDbEntity
  8
0
100
AcDbVertex
100
AcDb2dVertex
 10
-250.619121
 20
-68.467138
 30
0.0
  0
VERTEX
  5
214C
100
AcDbEntity
  8
0
100
AcDbVertex
100
AcDb2dVertex
 10
-250.556738
 20
-68.20589
 30
0.0
  0
VERTEX
  5
214D
100
AcDbEntity
  8
0
100
AcDbVertex
100
AcDb2dVertex
 10
-250.455967
 20
-67.970963
 30
0.0
  0
VERTEX
  5
214E
100
AcDbEntity
  8
0
100
AcDbVertex
100
AcDb2dVertex
 10
-250.320232
 20
-67.772163
 30
0.0
  0
VERTEX
  5
214F
100
AcDbEntity
  8
0
100
AcDbVertex
100
AcDb2dVertex
 10
-250.152592
 20
-67.618508
 30
0.0
  0
VERTEX
  5
2150
100
AcDbEntity
  8
0
100
AcDbVertex
100
AcDb2dVertex
 10
-249.962623
 20
-67.522525
 30
0.0
  0
VERTEX
  5
2151
100
AcDbEntity
  8
0
100
AcDbVertex
100
AcDb2dVertex
 10
-249.764987
 20
-67.490733
 30
0.0
  0
SEQEND
  5
2152
100
AcDbEntity
  8
0
  0
POLYLINE
  5
2153
100
AcDbEntity
  8
0
100
AcDb2dPolyline
 66
     1
 10
0.0
 20
0.0
 30
0.0
  0
VERTEX
  5
2154
100
AcDbEntity
  8
0
100
AcDbVertex
100
AcDb2dVertex
 10
-249.753767
 20
-68.740733
 30
0.0
  0
VERTEX
  5
2155
100
AcDbEntity
  8
0
100
AcDbVertex
100
AcDb2dVertex
 10
-249.729278
 20
-69.014962
 30
0.0
  0
VERTEX
  5
2156
100
AcDbEntity
  8
0
100
AcDbVertex
100
AcDb2dVertex
 10
-249.663561
 20
-69.276277
 30
0.0
  0
VERTEX
  5
2157
100
AcDbEntity
  8
0
100
AcDbVertex
100
AcDb2dVertex
 10
-249.559989
 20
-69.510818
 30
0.0
  0
VERTEX
  5
2158
100
AcDbEntity
  8
0
100
AcDbVertex
100
AcDb2dVertex
 10
-249.420881
 20
-69.710606
 30
0.0
  0
VERTEX
  5
2159
100
AcDbEntity
  8
0
100
AcDbVertex
100
AcDb2dVertex
 10
-249.312828
 20
-69.808074
 30
0.0
  0
SEQEND
  5
215A
100
AcDbEntity
  8
0
  0
POLYLINE
  5
215B
100
AcDbEntity
  8
0
100
AcDb2dPolyline
 66
     1
 10
0.0
 20
0.0
 30
0.0
  0
VERTEX
  5
215C
100
AcDbEntity
  8
0
100
AcDbVertex
100
AcDb2dVertex
 10
-249.764985
 20
-69.990734
 30
0.0
  0
VERTEX
  5
215D
100
AcDbEntity
  8
0
100
AcDbVertex
100
AcDb2dVertex
 10
-249.96065
 20
-69.959583
 30
0.0
  0
VERTEX
  5
215E
100
AcDbEntity
  8
0
100
AcDbVertex
100
AcDb2dVertex
 10
-250.15022
 20
-69.864613
 30
0.0
  0
VERTEX
  5
215F
100
AcDbEntity
  8
0
100
AcDbVertex
100
AcDb2dVertex
 10
-250.31905
 20
-69.710682
 30
0.0
  0
VERTEX
  5
2160
100
AcDbEntity
  8
0
100
AcDbVertex
100
AcDb2dVertex
 10
-250.455786
 20
-69.510835
 30
0.0
  0
VERTEX
  5
2161
100
AcDbEntity
  8
0
100
AcDbVertex
100
AcDb2dVertex
 10
-250.556529
 20
-69.27621
 30
0.0
  0
VERTEX
  5
2162
100
AcDbEntity
  8
0
100
AcDbVertex
100
AcDb2dVertex
 10
-250.619048
 20
-69.014798
 30
0.0
  0
VERTEX
  5
2163
100
AcDbEntity
  8
0
100
AcDbVertex
100
AcDb2dVertex
 10
-250.640135
 20
-68.740733
 30
0.0
  0
SEQEND
  5
2164
100
AcDbEntity
  8
0
  0
LINE
  5
2165
100
AcDbEntity
  8
0
100
AcDbLine
 10
-249.231512
 20
-74.740733
 30
0.0
 11
-249.231512
 21
-72.740733
 31
0.0
  0
LINE
  5
2166
100
AcDbEntity
  8
0
100
AcDbLine
 10
-141.840482
 20
-85.740733
 30
0.0
 11
-141.665931
 21
-75.740733
 31
0.0
  0
LINE
  5
2167
100
AcDbEntity
  8
0
100
AcDbLine
 10
-211.36304
 20
-64.740733
 30
0.0
 11
-198.717924
 21
-64.740733
 31
0.0
  0
LINE
  5
2168
100
AcDbEntity
  8
0
100
AcDbLine
 10
-210.040482
 20
-64.040733
 30
0.0
 11
-200.040482
 21
-64.040733
 31
0.0
  0
LINE
  5
2169
100
AcDbEntity
  8
0
100
AcDbLine
 10
-211.36304
 20
-61.240733
 30
0.0
 11
-198.717924
 21
-61.240733
 31
0.0
  0
LINE
  5
216A
100
AcDbEntity
  8
0
100
AcDbLine
 10
-210.040482
 20
-64.740733
 30
0.0
 11
-210.040482
 21
-64.040733
 31
0.0
  0
LINE
  5
216B
100
AcDbEntity
  8
0
100
AcDbLine
 10
-211.36304
 20
-61.240733
 30
0.0
 11
-211.36304
 21
-64.740733
 31
0.0
  0
POLYLINE
  5
216C
100
AcDbEntity
  8
0
100
AcDb2dPolyline
 66
     1
 10
0.0
 20
0.0
 30
0.0
  0
VERTEX
  5
216D
100
AcDbEntity
  8
0
100
AcDbVertex
100
AcDb2dVertex
 10
-211.36304
 20
-61.240733
 30
0.0
  0
VERTEX
  5
216E
100
AcDbEntity
  8
0
100
AcDbVertex
100
AcDb2dVertex
 10
-210.926274
 20
-62.157069
 30
0.0
  0
VERTEX
  5
216F
100
AcDbEntity
  8
0
100
AcDbVertex
100
AcDb2dVertex
 10
-210.485451
 20
-63.090314
 30
0.0
  0
VERTEX
  5
2170
100
AcDbEntity
  8
0
100
AcDbVertex
100
AcDb2dVertex
 10
-210.040482
 20
-64.040733
 30
0.0
  0
SEQEND
  5
2171
100
AcDbEntity
  8
0
  0
LINE
  5
2172
100
AcDbEntity
  8
0
100
AcDbLine
 10
-200.040482
 20
-64.740733
 30
0.0
 11
-200.040482
 21
-64.040733
 31
0.0
  0
POLYLINE
  5
2173
100
AcDbEntity
  8
0
100
AcDb2dPolyline
 66
     1
 10
0.0
 20
0.0
 30
0.0
  0
VERTEX
  5
2174
100
AcDbEntity
  8
0
100
AcDbVertex
100
AcDb2dVertex
 10
-200.040482
 20
-64.040733
 30
0.0
  0
VERTEX
  5
2175
100
AcDbEntity
  8
0
100
AcDbVertex
100
AcDb2dVertex
 10
-199.595504
 20
-63.090295
 30
0.0
  0
VERTEX
  5
2176
100
AcDbEntity
  8
0
100
AcDbVertex
100
AcDb2dVertex
 10
-199.154681
 20
-62.157051
 30
0.0
  0
VERTEX
  5
2177
100
AcDbEntity
  8
0
100
AcDbVertex
100
AcDb2dVertex
 10
-198.717924
 20
-61.240733
 30
0.0
  0
SEQEND
  5
2178
100
AcDbEntity
  8
0
  0
LINE
  5
2179
100
AcDbEntity
  8
0
100
AcDbLine
 10
-198.717924
 20
-61.240733
 30
0.0
 11
-198.717924
 21
-64.740733
 31
0.0
  0
LINE
  5
217A
100
AcDbEntity
  8
0
100
AcDbLine
 10
-163.233931
 20
-74.740733
 30
0.0
 11
-163.233931
 21
-60.740733
 31
0.0
  0
LINE
  5
217B
100
AcDbEntity
  8
0
100
AcDbLine
 10
-162.879674
 20
-60.740733
 30
0.0
 11
-162.879674
 21
-74.740733
 31
0.0
  0
LINE
  5
217C
100
AcDbEntity
  8
0
100
AcDbLine
 10
-157.22282
 20
-60.740733
 30
0.0
 11
-157.22282
 21
-74.740733
 31
0.0
  0
LINE
  5
217D
100
AcDbEntity
  8
0
100
AcDbLine
 10
-141.790482
 20
-61.240733
 30
0.0
 11
-141.790482
 21
-60.740733
 31
0.0
  0
LINE
  5
217E
100
AcDbEntity
  8
0
100
AcDbLine
 10
-141.790482
 20
-74.740733
 30
0.0
 11
-141.790482
 21
-64.740733
 31
0.0
  0
LINE
  5
217F
100
AcDbEntity
  8
0
100
AcDbLine
 10
-140.040482
 20
-75.740733
 30
0.0
 11
-140.040482
 21
-74.740733
 31
0.0
  0
LINE
  5
2180
100
AcDbEntity
  8
0
100
AcDbLine
 10
-141.790482
 20
-61.240733
 30
0.0
 11
-142.107281
 21
-61.240733
 31
0.0
  0
LINE
  5
2181
100
AcDbEntity
  8
0
100
AcDbLine
 10
-142.107281
 20
-64.740733
 30
0.0
 11
-140.590482
 21
-64.740733
 31
0.0
  0
LINE
  5
2182
100
AcDbEntity
  8
0
100
AcDbLine
 10
-140.784724
 20
-64.040733
 30
0.0
 11
-140.590482
 21
-64.040733
 31
0.0
  0
LINE
  5
2183
100
AcDbEntity
  8
0
100
AcDbLine
 10
-140.784724
 20
-64.740733
 30
0.0
 11
-140.784724
 21
-64.040733
 31
0.0
  0
LINE
  5
2184
100
AcDbEntity
  8
0
100
AcDbLine
 10
-140.590482
 20
-64.740733
 30
0.0
 11
-140.590482
 21
-64.040733
 31
0.0
  0
LINE
  5
2185
100
AcDbEntity
  8
0
100
AcDbLine
 10
-142.107281
 20
-61.240733
 30
0.0
 11
-142.107281
 21
-64.740733
 31
0.0
  0
POLYLINE
  5
2186
100
AcDbEntity
  8
0
100
AcDb2dPolyline
 66
     1
 10
0.0
 20
0.0
 30
0.0
  0
VERTEX
  5
2187
100
AcDbEntity
  8
0
100
AcDbVertex
100
AcDb2dVertex
 10
-142.107281
 20
-61.240733
 30
0.0
  0
VERTEX
  5
2188
100
AcDbEntity
  8
0
100
AcDbVertex
100
AcDb2dVertex
 10
-141.670516
 20
-62.157069
 30
0.0
  0
VERTEX
  5
2189
100
AcDbEntity
  8
0
100
AcDbVertex
100
AcDb2dVertex
 10
-141.229693
 20
-63.090314
 30
0.0
  0
VERTEX
  5
218A
100
AcDbEntity
  8
0
100
AcDbVertex
100
AcDb2dVertex
 10
-140.784724
 20
-64.040733
 30
0.0
  0
SEQEND
  5
218B
100
AcDbEntity
  8
0
  0
LINE
  5
218C
100
AcDbEntity
  8
0
100
AcDbLine
 10
-140.590482
 20
-64.040733
 30
0.0
 11
-141.790482
 21
-61.240733
 31
0.0
  0
ARC
  5
218D
100
AcDbEntity
  8
0
100
AcDbCircle
 10
-205.040482
 20
98.881992
 30
0.0
 40
63.25
100
AcDbArc
 50
138.625868
 51
311.374132
  0
CIRCLE
  5
218E
100
AcDbEntity
  8
0
100
AcDbCircle
 10
-205.040482
 20
98.881992
 30
0.0
 40
65.0
  0
CIRCLE
  5
218F
100
AcDbEntity
  8
0
100
AcDbCircle
 10
-205.040482
 20
98.881992
 30
0.0
 40
61.7
  0
CIRCLE
  5
2190
100
AcDbEntity
  8
0
100
AcDbCircle
 10
-205.040482
 20
98.881992
 30
0.0
 40
62.136377
  0
CIRCLE
  5
2191
100
AcDbEntity
  8
0
100
AcDbCircle
 10
-205.040482
 20
98.881992
 30
0.0
 40
61.591883
  0
ARC
  5
2192
100
AcDbEntity
  8
0
100
AcDbCircle
 10
-205.040482
 20
98.881992
 30
0.0
 40
63.25
100
AcDbArc
 50
318.625868
 51
131.374132
  0
ARC
  5
2193
100
AcDbEntity
  8
0
100
AcDbCircle
 10
-205.040482
 20
98.881992
 30
0.0
 40
64.45
100
AcDbArc
 50
175.55055
 51
184.44945
  0
POLYLINE
  5
2194
100
AcDbEntity
  8
0
100
AcDb2dPolyline
 66
     1
 10
0.0
 20
0.0
 30
0.0
  0
VERTEX
  5
2195
100
AcDbEntity
  8
0
100
AcDbVertex
100
AcDb2dVertex
 10
-247.986
 20
54.168707
 30
0.0
  0
VERTEX
  5
2196
100
AcDbEntity
  8
0
100
AcDbVertex
100
AcDb2dVertex
 10
-248.011356
 20
54.186433
 30
0.0
  0
VERTEX
  5
2197
100
AcDbEntity
  8
0
100
AcDbVertex
100
AcDb2dVertex
 10
-248.079503
 20
54.245713
 30
0.0
  0
VERTEX
  5
2198
100
AcDbEntity
  8
0
100
AcDbVertex
100
AcDb2dVertex
 10
-248.186574
 20
54.343502
 30
0.0
  0
VERTEX
  5
2199
100
AcDbEntity
  8
0
100
AcDbVertex
100
AcDb2dVertex
 10
-248.329639
 20
54.477671
 30
0.0
  0
VERTEX
  5
219A
100
AcDbEntity
  8
0
100
AcDbVertex
100
AcDb2dVertex
 10
-248.503944
 20
54.644503
 30
0.0
  0
VERTEX
  5
219B
100
AcDbEntity
  8
0
100
AcDbVertex
100
AcDb2dVertex
 10
-248.697148
 20
54.832824
 30
0.0
  0
VERTEX
  5
219C
100
AcDbEntity
  8
0
100
AcDbVertex
100
AcDb2dVertex
 10
-248.894185
 20
55.028213
 30
0.0
  0
VERTEX
  5
219D
100
AcDbEntity
  8
0
100
AcDbVertex
100
AcDb2dVertex
 10
-249.091122
 20
55.226824
 30
0.0
  0
VERTEX
  5
219E
100
AcDbEntity
  8
0
100
AcDbVertex
100
AcDb2dVertex
 10
-249.279876
 20
55.420502
 30
0.0
  0
VERTEX
  5
219F
100
AcDbEntity
  8
0
100
AcDbVertex
100
AcDb2dVertex
 10
-249.445612
 20
55.593689
 30
0.0
  0
VERTEX
  5
21A0
100
AcDbEntity
  8
0
100
AcDbVertex
100
AcDb2dVertex
 10
-249.578885
 20
55.735807
 30
0.0
  0
VERTEX
  5
21A1
100
AcDbEntity
  8
0
100
AcDbVertex
100
AcDb2dVertex
 10
-249.676786
 20
55.843
 30
0.0
  0
VERTEX
  5
21A2
100
AcDbEntity
  8
0
100
AcDbVertex
100
AcDb2dVertex
 10
-249.736026
 20
55.9111
 30
0.0
  0
VERTEX
  5
21A3
100
AcDbEntity
  8
0
100
AcDbVertex
100
AcDb2dVertex
 10
-249.753767
 20
55.936474
 30
0.0
  0
SEQEND
  5
21A4
100
AcDbEntity
  8
0
  0
POLYLINE
  5
21A5
100
AcDbEntity
  8
0
100
AcDb2dPolyline
 66
     1
 10
0.0
 20
0.0
 30
0.0
  0
VERTEX
  5
21A6
100
AcDbEntity
  8
0
100
AcDbVertex
100
AcDb2dVertex
 10
-249.559989
 20
55.754943
 30
0.0
  0
VERTEX
  5
21A7
100
AcDbEntity
  8
0
100
AcDbVertex
100
AcDb2dVertex
 10
-248.167609
 20
54.362565
 30
0.0
  0
VERTEX
  5
21A8
100
AcDbEntity
  8
0
100
AcDbVertex
100
AcDb2dVertex
 10
-248.066224
 20
54.258881
 30
0.0
  0
VERTEX
  5
21A9
100
AcDbEntity
  8
0
100
AcDbVertex
100
AcDb2dVertex
 10
-248.004591
 20
54.193213
 30
0.0
  0
VERTEX
  5
21AA
100
AcDbEntity
  8
0
100
AcDbVertex
100
AcDb2dVertex
 10
-247.986
 20
54.168707
 30
0.0
  0
SEQEND
  5
21AB
100
AcDbEntity
  8
0
  0
LINE
  5
21AC
100
AcDbEntity
  8
0
100
AcDbLine
 10
-250.118539
 20
52.743274
 30
0.0
 11
-249.231512
 21
53.630302
 31
0.0
  0
LINE
  5
21AD
100
AcDbEntity
  8
0
100
AcDbLine
 10
-251.1792
 20
53.803934
 30
0.0
 11
-250.292172
 21
54.690962
 31
0.0
  0
LINE
  5
21AE
100
AcDbEntity
  8
0
100
AcDbLine
 10
-251.1792
 20
53.803934
 30
0.0
 11
-250.118539
 21
52.743274
 31
0.0
  0
POLYLINE
  5
21AF
100
AcDbEntity
  8
0
100
AcDb2dPolyline
 66
     1
 10
0.0
 20
0.0
 30
0.0
  0
VERTEX
  5
21B0
100
AcDbEntity
  8
0
100
AcDbVertex
100
AcDb2dVertex
 10
-249.753767
 20
55.936474
 30
0.0
  0
VERTEX
  5
21B1
100
AcDbEntity
  8
0
100
AcDbVertex
100
AcDb2dVertex
 10
-249.729278
 20
55.917898
 30
0.0
  0
VERTEX
  5
21B2
100
AcDbEntity
  8
0
100
AcDbVertex
100
AcDb2dVertex
 10
-249.663561
 20
55.856219
 30
0.0
  0
VERTEX
  5
21B3
100
AcDbEntity
  8
0
100
AcDbVertex
100
AcDb2dVertex
 10
-249.559989
 20
55.754943
 30
0.0
  0
SEQEND
  5
21B4
100
AcDbEntity
  8
0
  0
LINE
  5
21B5
100
AcDbEntity
  8
0
100
AcDbLine
 10
-267.973683
 20
92.559434
 30
0.0
 11
-269.296241
 21
93.881992
 31
0.0
  0
ARC
  5
21B6
100
AcDbEntity
  8
0
100
AcDbCircle
 10
-205.040482
 20
98.881992
 30
0.0
 40
63.75
100
AcDbArc
 50
131.402608
 51
138.597392
  0
LINE
  5
21B7
100
AcDbEntity
  8
0
100
AcDbLine
 10
-269.296241
 20
103.881992
 30
0.0
 11
-267.973683
 21
105.204549
 31
0.0
  0
LINE
  5
21B8
100
AcDbEntity
  8
0
100
AcDbLine
 10
-252.503887
 20
140.688542
 30
0.0
 11
-252.858144
 21
141.042799
 31
0.0
  0
LINE
  5
21B9
100
AcDbEntity
  8
0
100
AcDbLine
 10
-247.20129
 20
146.699653
 30
0.0
 11
-246.847033
 21
146.345397
 31
0.0
  0
ARC
  5
21BA
100
AcDbEntity
  8
0
100
AcDbCircle
 10
-205.040482
 20
98.881992
 30
0.0
 40
64.45
100
AcDbArc
 50
355.55055
 51
4.44945
  0
ARC
  5
21BB
100
AcDbEntity
  8
0
100
AcDbCircle
 10
-205.040482
 20
98.881992
 30
0.0
 40
63.75
100
AcDbArc
 50
311.402608
 51
318.597392
  0
ARC
  5
21BC
100
AcDbEntity
  8
0
100
AcDbCircle
 10
-205.040482
 20
98.881992
 30
0.0
 40
64.45
100
AcDbArc
 50
265.55055
 51
274.44945
  0
LINE
  5
21BD
100
AcDbEntity
  8
0
100
AcDbLine
 10
-211.36304
 20
35.948791
 30
0.0
 11
-210.040482
 21
34.626233
 31
0.0
  0
LINE
  5
21BE
100
AcDbEntity
  8
0
100
AcDbLine
 10
-200.040482
 20
34.626233
 30
0.0
 11
-198.717924
 21
35.948791
 31
0.0
  0
LINE
  5
21BF
100
AcDbEntity
  8
0
100
AcDbLine
 10
-162.879674
 20
51.06433
 30
0.0
 11
-163.233931
 21
51.418587
 31
0.0
  0
LINE
  5
21C0
100
AcDbEntity
  8
0
100
AcDbLine
 10
-157.577077
 20
57.075441
 30
0.0
 11
-157.22282
 21
56.721184
 31
0.0
  0
LINE
  5
21C1
100
AcDbEntity
  8
0
100
AcDbLine
 10
-142.107281
 20
92.559434
 30
0.0
 11
-140.784724
 21
93.881992
 31
0.0
  0
POLYLINE
  5
21C2
100
AcDbEntity
  8
0
100
AcDb2dPolyline
 66
     1
 10
0.0
 20
0.0
 30
0.0
  0
VERTEX
  5
21C3
100
AcDbEntity
  8
0
100
AcDbVertex
100
AcDb2dVertex
 10
-162.094965
 20
143.595276
 30
0.0
  0
VERTEX
  5
21C4
100
AcDbEntity
  8
0
100
AcDbVertex
100
AcDb2dVertex
 10
-162.06959
 20
143.577535
 30
0.0
  0
VERTEX
  5
21C5
100
AcDbEntity
  8
0
100
AcDbVertex
100
AcDb2dVertex
 10
-162.001491
 20
143.518296
 30
0.0
  0
VERTEX
  5
21C6
100
AcDbEntity
  8
0
100
AcDbVertex
100
AcDb2dVertex
 10
-161.894298
 20
143.420396
 30
0.0
  0
VERTEX
  5
21C7
100
AcDbEntity
  8
0
100
AcDbVertex
100
AcDb2dVertex
 10
-161.752181
 20
143.287122
 30
0.0
  0
VERTEX
  5
21C8
100
AcDbEntity
  8
0
100
AcDbVertex
100
AcDb2dVertex
 10
-161.578994
 20
143.121387
 30
0.0
  0
VERTEX
  5
21C9
100
AcDbEntity
  8
0
100
AcDbVertex
100
AcDb2dVertex
 10
-161.385316
 20
142.932633
 30
0.0
  0
VERTEX
  5
21CA
100
AcDbEntity
  8
0
100
AcDbVertex
100
AcDb2dVertex
 10
-161.186705
 20
142.735696
 30
0.0
  0
VERTEX
  5
21CB
100
AcDbEntity
  8
0
100
AcDbVertex
100
AcDb2dVertex
 10
-160.991316
 20
142.538659
 30
0.0
  0
VERTEX
  5
21CC
100
AcDbEntity
  8
0
100
AcDbVertex
100
AcDb2dVertex
 10
-160.802995
 20
142.345455
 30
0.0
  0
VERTEX
  5
21CD
100
AcDbEntity
  8
0
100
AcDbVertex
100
AcDb2dVertex
 10
-160.636163
 20
142.171149
 30
0.0
  0
VERTEX
  5
21CE
100
AcDbEntity
  8
0
100
AcDbVertex
100
AcDb2dVertex
 10
-160.501993
 20
142.028084
 30
0.0
  0
VERTEX
  5
21CF
100
AcDbEntity
  8
0
100
AcDbVertex
100
AcDb2dVertex
 10
-160.404204
 20
141.921012
 30
0.0
  0
VERTEX
  5
21D0
100
AcDbEntity
  8
0
100
AcDbVertex
100
AcDb2dVertex
 10
-160.344924
 20
141.852866
 30
0.0
  0
VERTEX
  5
21D1
100
AcDbEntity
  8
0
100
AcDbVertex
100
AcDb2dVertex
 10
-160.327198
 20
141.827509
 30
0.0
  0
SEQEND
  5
21D2
100
AcDbEntity
  8
0
  0
POLYLINE
  5
21D3
100
AcDbEntity
  8
0
100
AcDb2dPolyline
 66
     1
 10
0.0
 20
0.0
 30
0.0
  0
VERTEX
  5
21D4
100
AcDbEntity
  8
0
100
AcDbVertex
100
AcDb2dVertex
 10
-160.521056
 20
142.009119
 30
0.0
  0
VERTEX
  5
21D5
100
AcDbEntity
  8
0
100
AcDbVertex
100
AcDb2dVertex
 10
-161.913434
 20
143.401499
 30
0.0
  0
VERTEX
  5
21D6
100
AcDbEntity
  8
0
100
AcDbVertex
100
AcDb2dVertex
 10
-162.014709
 20
143.50507
 30
0.0
  0
VERTEX
  5
21D7
100
AcDbEntity
  8
0
100
AcDbVertex
100
AcDb2dVertex
 10
-162.076389
 20
143.570787
 30
0.0
  0
VERTEX
  5
21D8
100
AcDbEntity
  8
0
100
AcDbVertex
100
AcDb2dVertex
 10
-162.094965
 20
143.595276
 30
0.0
  0
SEQEND
  5
21D9
100
AcDbEntity
  8
0
  0
POLYLINE
  5
21DA
100
AcDbEntity
  8
0
100
AcDb2dPolyline
 66
     1
 10
0.0
 20
0.0
 30
0.0
  0
VERTEX
  5
21DB
100
AcDbEntity
  8
0
100
AcDbVertex
100
AcDb2dVertex
 10
-160.327198
 20
141.827509
 30
0.0
  0
VERTEX
  5
21DC
100
AcDbEntity
  8
0
100
AcDbVertex
100
AcDb2dVertex
 10
-160.351703
 20
141.8461
 30
0.0
  0
VERTEX
  5
21DD
100
AcDbEntity
  8
0
100
AcDbVertex
100
AcDb2dVertex
 10
-160.417372
 20
141.907734
 30
0.0
  0
VERTEX
  5
21DE
100
AcDbEntity
  8
0
100
AcDbVertex
100
AcDb2dVertex
 10
-160.521056
 20
142.009119
 30
0.0
  0
SEQEND
  5
21DF
100
AcDbEntity
  8
0
  0
ARC
  5
21E0
100
AcDbEntity
  8
0
100
AcDbCircle
 10
-205.040482
 20
98.881992
 30
0.0
 40
64.45
100
AcDbArc
 50
85.55055
 51
94.44945
  0
LINE
  5
21E1
100
AcDbEntity
  8
0
100
AcDbLine
 10
-211.36304
 20
161.815192
 30
0.0
 11
-210.040482
 21
163.13775
 31
0.0
  0
LINE
  5
21E2
100
AcDbEntity
  8
0
100
AcDbLine
 10
-200.040482
 20
163.13775
 30
0.0
 11
-198.717924
 21
161.815192
 31
0.0
  0
LINE
  5
21E3
100
AcDbEntity
  8
0
100
AcDbLine
 10
-140.784724
 20
103.881992
 30
0.0
 11
-142.107281
 21
105.204549
 31
0.0
  0
POLYLINE
  5
21E4
100
AcDbEntity
  8
0
100
AcDb2dPolyline
 66
     1
 10
0.0
 20
0.0
 30
0.0
  0
VERTEX
  5
21E5
100
AcDbEntity
  8
0
100
AcDbVertex
100
AcDb2dVertex
 10
44.128061
 20
-108.101652
 30
0.0
  0
VERTEX
  5
21E6
100
AcDbEntity
  8
0
100
AcDbVertex
100
AcDb2dVertex
 10
48.339966
 20
-108.249527
 30
0.0
  0
VERTEX
  5
21E7
100
AcDbEntity
  8
0
100
AcDbVertex
100
AcDb2dVertex
 10
52.561272
 20
-108.249527
 30
0.0
  0
VERTEX
  5
21E8
100
AcDbEntity
  8
0
100
AcDbVertex
100
AcDb2dVertex
 10
56.773177
 20
-108.101652
 30
0.0
  0
SEQEND
  5
21E9
100
AcDbEntity
  8
0
  0
POLYLINE
  5
21EA
100
AcDbEntity
  8
0
100
AcDb2dPolyline
 66
     1
 10
0.0
 20
0.0
 30
0.0
  0
VERTEX
  5
21EB
100
AcDbEntity
  8
0
100
AcDbVertex
100
AcDb2dVertex
 10
45.450619
 20
-111.774707
 30
0.0
  0
VERTEX
  5
21EC
100
AcDbEntity
  8
0
100
AcDbVertex
100
AcDb2dVertex
 10
50.450619
 20
-111.876717
 30
0.0
  0
VERTEX
  5
21ED
100
AcDbEntity
  8
0
100
AcDbVertex
100
AcDb2dVertex
 10
55.450619
 20
-111.774707
 30
0.0
  0
SEQEND
  5
21EE
100
AcDbEntity
  8
0
  0
POLYLINE
  5
21EF
100
AcDbEntity
  8
0
100
AcDb2dPolyline
 66
     1
 10
0.0
 20
0.0
 30
0.0
  0
VERTEX
  5
21F0
100
AcDbEntity
  8
0
100
AcDbVertex
100
AcDb2dVertex
 10
45.450619
 20
-111.179011
 30
0.0
  0
VERTEX
  5
21F1
100
AcDbEntity
  8
0
100
AcDbVertex
100
AcDb2dVertex
 10
50.450619
 20
-111.281021
 30
0.0
  0
VERTEX
  5
21F2
100
AcDbEntity
  8
0
100
AcDbVertex
100
AcDb2dVertex
 10
55.450619
 20
-111.179011
 30
0.0
  0
SEQEND
  5
21F3
100
AcDbEntity
  8
0
  0
POLYLINE
  5
21F4
100
AcDbEntity
  8
0
100
AcDb2dPolyline
 66
     1
 10
0.0
 20
0.0
 30
0.0
  0
VERTEX
  5
21F5
100
AcDbEntity
  8
0
100
AcDbVertex
100
AcDb2dVertex
 10
92.25717
 20
-111.465733
 30
0.0
  0
VERTEX
  5
21F6
100
AcDbEntity
  8
0
100
AcDbVertex
100
AcDb2dVertex
 10
87.324791
 20
-113.527503
 30
0.0
  0
VERTEX
  5
21F7
100
AcDbEntity
  8
0
100
AcDbVertex
100
AcDb2dVertex
 10
82.026121
 20
-115.321171
 30
0.0
  0
VERTEX
  5
21F8
100
AcDbEntity
  8
0
100
AcDbVertex
100
AcDb2dVertex
 10
76.413796
 20
-116.828924
 30
0.0
  0
VERTEX
  5
21F9
100
AcDbEntity
  8
0
100
AcDbVertex
100
AcDb2dVertex
 10
70.543563
 20
-118.035785
 30
0.0
  0
VERTEX
  5
21FA
100
AcDbEntity
  8
0
100
AcDbVertex
100
AcDb2dVertex
 10
64.473733
 20
-118.929767
 30
0.0
  0
VERTEX
  5
21FB
100
AcDbEntity
  8
0
100
AcDbVertex
100
AcDb2dVertex
 10
58.264598
 20
-119.50199
 30
0.0
  0
VERTEX
  5
21FC
100
AcDbEntity
  8
0
100
AcDbVertex
100
AcDb2dVertex
 10
51.977834
 20
-119.746768
 30
0.0
  0
VERTEX
  5
21FD
100
AcDbEntity
  8
0
100
AcDbVertex
100
AcDb2dVertex
 10
45.675887
 20
-119.661669
 30
0.0
  0
VERTEX
  5
21FE
100
AcDbEntity
  8
0
100
AcDbVertex
100
AcDb2dVertex
 10
39.421357
 20
-119.247537
 30
0.0
  0
VERTEX
  5
21FF
100
AcDbEntity
  8
0
100
AcDbVertex
100
AcDb2dVertex
 10
33.276371
 20
-118.508482
 30
0.0
  0
VERTEX
  5
2200
100
AcDbEntity
  8
0
100
AcDbVertex
100
AcDb2dVertex
 10
27.301971
 20
-117.451842
 30
0.0
  0
VERTEX
  5
2201
100
AcDbEntity
  8
0
100
AcDbVertex
100
AcDb2dVertex
 10
21.557506
 20
-116.088109
 30
0.0
  0
VERTEX
  5
2202
100
AcDbEntity
  8
0
100
AcDbVertex
100
AcDb2dVertex
 10
16.10004
 20
-114.430827
 30
0.0
  0
VERTEX
  5
2203
100
AcDbEntity
  8
0
100
AcDbVertex
100
AcDb2dVertex
 10
10.983804
 20
-112.496457
 30
0.0
  0
VERTEX
  5
2204
100
AcDbEntity
  8
0
100
AcDbVertex
100
AcDb2dVertex
 10
6.259589
 20
-110.304197
 30
0.0
  0
SEQEND
  5
2205
100
AcDbEntity
  8
0
  0
POLYLINE
  5
2206
100
AcDbEntity
  8
0
100
AcDb2dPolyline
 66
     1
 10
0.0
 20
0.0
 30
0.0
  0
VERTEX
  5
2207
100
AcDbEntity
  8
0
100
AcDbVertex
100
AcDb2dVertex
 10
113.601481
 20
-72.766156
 30
0.0
  0
VERTEX
  5
2208
100
AcDbEntity
  8
0
100
AcDbVertex
100
AcDb2dVertex
 10
112.95929
 20
-69.554415
 30
0.0
  0
VERTEX
  5
2209
100
AcDbEntity
  8
0
100
AcDbVertex
100
AcDb2dVertex
 10
111.726283
 20
-66.390612
 30
0.0
  0
VERTEX
  5
220A
100
AcDbEntity
  8
0
100
AcDbVertex
100
AcDb2dVertex
 10
109.914118
 20
-63.304648
 30
0.0
  0
VERTEX
  5
220B
100
AcDbEntity
  8
0
100
AcDbVertex
100
AcDb2dVertex
 10
107.539928
 20
-60.32569
 30
0.0
  0
VERTEX
  5
220C
100
AcDbEntity
  8
0
100
AcDbVertex
100
AcDb2dVertex
 10
104.626155
 20
-57.481892
 30
0.0
  0
VERTEX
  5
220D
100
AcDbEntity
  8
0
100
AcDbVertex
100
AcDb2dVertex
 10
101.200343
 20
-54.800132
 30
0.0
  0
VERTEX
  5
220E
100
AcDbEntity
  8
0
100
AcDbVertex
100
AcDb2dVertex
 10
97.294873
 20
-52.305756
 30
0.0
  0
VERTEX
  5
220F
100
AcDbEntity
  8
0
100
AcDbVertex
100
AcDb2dVertex
 10
92.94666
 20
-50.022336
 30
0.0
  0
VERTEX
  5
2210
100
AcDbEntity
  8
0
100
AcDbVertex
100
AcDb2dVertex
 10
88.196802
 20
-47.971454
 30
0.0
  0
VERTEX
  5
2211
100
AcDbEntity
  8
0
100
AcDbVertex
100
AcDb2dVertex
 10
83.090193
 20
-46.172493
 30
0.0
  0
VERTEX
  5
2212
100
AcDbEntity
  8
0
100
AcDbVertex
100
AcDb2dVertex
 10
77.675098
 20
-44.642453
 30
0.0
  0
VERTEX
  5
2213
100
AcDbEntity
  8
0
100
AcDbVertex
100
AcDb2dVertex
 10
72.002698
 20
-43.395795
 30
0.0
  0
VERTEX
  5
2214
100
AcDbEntity
  8
0
100
AcDbVertex
100
AcDb2dVertex
 10
66.126605
 20
-42.444301
 30
0.0
  0
VERTEX
  5
2215
100
AcDbEntity
  8
0
100
AcDbVertex
100
AcDb2dVertex
 10
60.102355
 20
-41.796962
 30
0.0
  0
VERTEX
  5
2216
100
AcDbEntity
  8
0
100
AcDbVertex
100
AcDb2dVertex
 10
53.986886
 20
-41.459896
 30
0.0
  0
VERTEX
  5
2217
100
AcDbEntity
  8
0
100
AcDbVertex
100
AcDb2dVertex
 10
47.837996
 20
-41.436289
 30
0.0
  0
VERTEX
  5
2218
100
AcDbEntity
  8
0
100
AcDbVertex
100
AcDb2dVertex
 10
41.713799
 20
-41.726364
 30
0.0
  0
VERTEX
  5
2219
100
AcDbEntity
  8
0
100
AcDbVertex
100
AcDb2dVertex
 10
35.672176
 20
-42.327379
 30
0.0
  0
VERTEX
  5
221A
100
AcDbEntity
  8
0
100
AcDbVertex
100
AcDb2dVertex
 10
29.770229
 20
-43.233653
 30
0.0
  0
VERTEX
  5
221B
100
AcDbEntity
  8
0
100
AcDbVertex
100
AcDb2dVertex
 10
24.063738
 20
-44.436622
 30
0.0
  0
VERTEX
  5
221C
100
AcDbEntity
  8
0
100
AcDbVertex
100
AcDb2dVertex
 10
18.606637
 20
-45.924918
 30
0.0
  0
VERTEX
  5
221D
100
AcDbEntity
  8
0
100
AcDbVertex
100
AcDb2dVertex
 10
13.450503
 20
-47.684473
 30
0.0
  0
VERTEX
  5
221E
100
AcDbEntity
  8
0
100
AcDbVertex
100
AcDb2dVertex
 10
8.644068
 20
-49.698658
 30
0.0
  0
SEQEND
  5
221F
100
AcDbEntity
  8
0
  0
POLYLINE
  5
2220
100
AcDbEntity
  8
0
100
AcDb2dPolyline
 66
     1
 10
0.0
 20
0.0
 30
0.0
  0
VERTEX
  5
2221
100
AcDbEntity
  8
0
100
AcDbVertex
100
AcDb2dVertex
 10
-12.514229
 20
-98.360399
 30
0.0
  0
VERTEX
  5
2222
100
AcDbEntity
  8
0
100
AcDbVertex
100
AcDb2dVertex
 10
-12.349667
 20
-101.191911
 30
0.0
  0
VERTEX
  5
2223
100
AcDbEntity
  8
0
100
AcDbVertex
100
AcDb2dVertex
 10
-11.422158
 20
-107.433346
 30
0.0
  0
VERTEX
  5
2224
100
AcDbEntity
  8
0
100
AcDbVertex
100
AcDb2dVertex
 10
-9.87969
 20
-113.538662
 30
0.0
  0
VERTEX
  5
2225
100
AcDbEntity
  8
0
100
AcDbVertex
100
AcDb2dVertex
 10
-7.754442
 20
-119.416723
 30
0.0
  0
VERTEX
  5
2226
100
AcDbEntity
  8
0
100
AcDbVertex
100
AcDb2dVertex
 10
-4.719484
 20
-125.673761
 30
0.0
  0
VERTEX
  5
2227
100
AcDbEntity
  8
0
100
AcDbVertex
100
AcDb2dVertex
 10
-1.345904
 20
-131.087002
 30
0.0
  0
VERTEX
  5
2228
100
AcDbEntity
  8
0
100
AcDbVertex
100
AcDb2dVertex
 10
2.143899
 20
-135.64554
 30
0.0
  0
VERTEX
  5
2229
100
AcDbEntity
  8
0
100
AcDbVertex
100
AcDb2dVertex
 10
6.614288
 20
-140.436172
 30
0.0
  0
VERTEX
  5
222A
100
AcDbEntity
  8
0
100
AcDbVertex
100
AcDb2dVertex
 10
10.95388
 20
-144.259036
 30
0.0
  0
VERTEX
  5
222B
100
AcDbEntity
  8
0
100
AcDbVertex
100
AcDb2dVertex
 10
15.670523
 20
-147.69846
 30
0.0
  0
VERTEX
  5
222C
100
AcDbEntity
  8
0
100
AcDbVertex
100
AcDb2dVertex
 10
20.929867
 20
-150.817688
 30
0.0
  0
VERTEX
  5
222D
100
AcDbEntity
  8
0
100
AcDbVertex
100
AcDb2dVertex
 10
25.696778
 20
-153.090961
 30
0.0
  0
VERTEX
  5
222E
100
AcDbEntity
  8
0
100
AcDbVertex
100
AcDb2dVertex
 10
30.655077
 20
-154.963595
 30
0.0
  0
VERTEX
  5
222F
100
AcDbEntity
  8
0
100
AcDbVertex
100
AcDb2dVertex
 10
35.71662
 20
-156.404781
 30
0.0
  0
VERTEX
  5
2230
100
AcDbEntity
  8
0
100
AcDbVertex
100
AcDb2dVertex
 10
40.295994
 20
-157.326655
 30
0.0
  0
VERTEX
  5
2231
100
AcDbEntity
  8
0
100
AcDbVertex
100
AcDb2dVertex
 10
45.015149
 20
-157.914559
 30
0.0
  0
VERTEX
  5
2232
100
AcDbEntity
  8
0
100
AcDbVertex
100
AcDb2dVertex
 10
49.407237
 20
-158.140475
 30
0.0
  0
VERTEX
  5
2233
100
AcDbEntity
  8
0
100
AcDbVertex
100
AcDb2dVertex
 10
53.63932
 20
-158.068482
 30
0.0
  0
VERTEX
  5
2234
100
AcDbEntity
  8
0
100
AcDbVertex
100
AcDb2dVertex
 10
57.840663
 20
-157.71486
 30
0.0
  0
VERTEX
  5
2235
100
AcDbEntity
  8
0
100
AcDbVertex
100
AcDb2dVertex
 10
61.981267
 20
-157.086624
 30
0.0
  0
VERTEX
  5
2236
100
AcDbEntity
  8
0
100
AcDbVertex
100
AcDb2dVertex
 10
65.82834
 20
-156.246616
 30
0.0
  0
VERTEX
  5
2237
100
AcDbEntity
  8
0
100
AcDbVertex
100
AcDb2dVertex
 10
69.871701
 20
-155.086021
 30
0.0
  0
VERTEX
  5
2238
100
AcDbEntity
  8
0
100
AcDbVertex
100
AcDb2dVertex
 10
73.860491
 20
-153.645927
 30
0.0
  0
VERTEX
  5
2239
100
AcDbEntity
  8
0
100
AcDbVertex
100
AcDb2dVertex
 10
77.26567
 20
-152.167952
 30
0.0
  0
VERTEX
  5
223A
100
AcDbEntity
  8
0
100
AcDbVertex
100
AcDb2dVertex
 10
80.872099
 20
-150.3315
 30
0.0
  0
VERTEX
  5
223B
100
AcDbEntity
  8
0
100
AcDbVertex
100
AcDb2dVertex
 10
84.701061
 20
-148.044547
 30
0.0
  0
VERTEX
  5
223C
100
AcDbEntity
  8
0
100
AcDbVertex
100
AcDb2dVertex
 10
88.401177
 20
-145.461057
 30
0.0
  0
VERTEX
  5
223D
100
AcDbEntity
  8
0
100
AcDbVertex
100
AcDb2dVertex
 10
91.536447
 20
-142.940278
 30
0.0
  0
VERTEX
  5
223E
100
AcDbEntity
  8
0
100
AcDbVertex
100
AcDb2dVertex
 10
94.868351
 20
-139.867347
 30
0.0
  0
VERTEX
  5
223F
100
AcDbEntity
  8
0
100
AcDbVertex
100
AcDb2dVertex
 10
98.190334
 20
-136.310823
 30
0.0
  0
VERTEX
  5
2240
100
AcDbEntity
  8
0
100
AcDbVertex
100
AcDb2dVertex
 10
101.222684
 20
-132.51652
 30
0.0
  0
VERTEX
  5
2241
100
AcDbEntity
  8
0
100
AcDbVertex
100
AcDb2dVertex
 10
104.281234
 20
-127.971358
 30
0.0
  0
VERTEX
  5
2242
100
AcDbEntity
  8
0
100
AcDbVertex
100
AcDb2dVertex
 10
106.853693
 20
-123.338734
 30
0.0
  0
VERTEX
  5
2243
100
AcDbEntity
  8
0
100
AcDbVertex
100
AcDb2dVertex
 10
109.217802
 20
-118.027967
 30
0.0
  0
VERTEX
  5
2244
100
AcDbEntity
  8
0
100
AcDbVertex
100
AcDb2dVertex
 10
111.073414
 20
-112.555864
 30
0.0
  0
VERTEX
  5
2245
100
AcDbEntity
  8
0
100
AcDbVertex
100
AcDb2dVertex
 10
112.427742
 20
-106.900104
 30
0.0
  0
VERTEX
  5
2246
100
AcDbEntity
  8
0
100
AcDbVertex
100
AcDb2dVertex
 10
113.269154
 20
-101.002396
 30
0.0
  0
VERTEX
  5
2247
100
AcDbEntity
  8
0
100
AcDbVertex
100
AcDb2dVertex
 10
113.422138
 20
-98.299785
 30
0.0
  0
SEQEND
  5
2248
100
AcDbEntity
  8
0
  0
POLYLINE
  5
2249
100
AcDbEntity
  8
0
100
AcDb2dPolyline
 66
     1
 10
0.0
 20
0.0
 30
0.0
  0
VERTEX
  5
224A
100
AcDbEntity
  8
0
100
AcDbVertex
100
AcDb2dVertex
 10
-12.799255
 20
-74.625047
 30
0.0
  0
VERTEX
  5
224B
100
AcDbEntity
  8
0
100
AcDbVertex
100
AcDb2dVertex
 10
-12.700419
 20
-76.48267
 30
0.0
  0
VERTEX
  5
224C
100
AcDbEntity
  8
0
100
AcDbVertex
100
AcDb2dVertex
 10
-12.058542
 20
-79.69439
 30
0.0
  0
VERTEX
  5
224D
100
AcDbEntity
  8
0
100
AcDbVertex
100
AcDb2dVertex
 10
-10.825853
 20
-82.8582
 30
0.0
  0
VERTEX
  5
224E
100
AcDbEntity
  8
0
100
AcDbVertex
100
AcDb2dVertex
 10
-9.014002
 20
-85.944196
 30
0.0
  0
VERTEX
  5
224F
100
AcDbEntity
  8
0
100
AcDbVertex
100
AcDb2dVertex
 10
-6.640113
 20
-88.923212
 30
0.0
  0
VERTEX
  5
2250
100
AcDbEntity
  8
0
100
AcDbVertex
100
AcDb2dVertex
 10
-3.726621
 20
-91.767092
 30
0.0
  0
VERTEX
  5
2251
100
AcDbEntity
  8
0
100
AcDbVertex
100
AcDb2dVertex
 10
-0.301062
 20
-94.448955
 30
0.0
  0
VERTEX
  5
2252
100
AcDbEntity
  8
0
100
AcDbVertex
100
AcDb2dVertex
 10
3.60419
 20
-96.943455
 30
0.0
  0
VERTEX
  5
2253
100
AcDbEntity
  8
0
100
AcDbVertex
100
AcDb2dVertex
 10
7.952226
 20
-99.227012
 30
0.0
  0
VERTEX
  5
2254
100
AcDbEntity
  8
0
100
AcDbVertex
100
AcDb2dVertex
 10
12.701952
 20
-101.278044
 30
0.0
  0
VERTEX
  5
2255
100
AcDbEntity
  8
0
100
AcDbVertex
100
AcDb2dVertex
 10
17.808478
 20
-103.077164
 30
0.0
  0
VERTEX
  5
2256
100
AcDbEntity
  8
0
100
AcDbVertex
100
AcDb2dVertex
 10
23.22354
 20
-104.607365
 30
0.0
  0
VERTEX
  5
2257
100
AcDbEntity
  8
0
100
AcDbVertex
100
AcDb2dVertex
 10
28.89596
 20
-105.854183
 30
0.0
  0
VERTEX
  5
2258
100
AcDbEntity
  8
0
100
AcDbVertex
100
AcDb2dVertex
 10
34.772125
 20
-106.805832
 30
0.0
  0
VERTEX
  5
2259
100
AcDbEntity
  8
0
100
AcDbVertex
100
AcDb2dVertex
 10
40.796496
 20
-107.453314
 30
0.0
  0
VERTEX
  5
225A
100
AcDbEntity
  8
0
100
AcDbVertex
100
AcDb2dVertex
 10
46.912133
 20
-107.790508
 30
0.0
  0
VERTEX
  5
225B
100
AcDbEntity
  8
0
100
AcDbVertex
100
AcDb2dVertex
 10
53.061234
 20
-107.814224
 30
0.0
  0
VERTEX
  5
225C
100
AcDbEntity
  8
0
100
AcDbVertex
100
AcDb2dVertex
 10
59.185676
 20
-107.524234
 30
0.0
  0
VERTEX
  5
225D
100
AcDbEntity
  8
0
100
AcDbVertex
100
AcDb2dVertex
 10
65.227574
 20
-106.923278
 30
0.0
  0
VERTEX
  5
225E
100
AcDbEntity
  8
0
100
AcDbVertex
100
AcDb2dVertex
 10
71.129816
 20
-106.017033
 30
0.0
  0
VERTEX
  5
225F
100
AcDbEntity
  8
0
100
AcDbVertex
100
AcDb2dVertex
 10
76.836614
 20
-104.81406
 30
0.0
  0
VERTEX
  5
2260
100
AcDbEntity
  8
0
100
AcDbVertex
100
AcDb2dVertex
 10
82.294023
 20
-103.325728
 30
0.0
  0
VERTEX
  5
2261
100
AcDbEntity
  8
0
100
AcDbVertex
100
AcDb2dVertex
 10
87.450446
 20
-101.566106
 30
0.0
  0
VERTEX
  5
2262
100
AcDbEntity
  8
0
100
AcDbVertex
100
AcDb2dVertex
 10
92.25717
 20
-99.551811
 30
0.0
  0
SEQEND
  5
2263
100
AcDbEntity
  8
0
  0
POLYLINE
  5
2264
100
AcDbEntity
  8
0
100
AcDb2dPolyline
 66
     1
 10
0.0
 20
0.0
 30
0.0
  0
VERTEX
  5
2265
100
AcDbEntity
  8
0
100
AcDbVertex
100
AcDb2dVertex
 10
112.583222
 20
-74.977842
 30
0.0
  0
VERTEX
  5
2266
100
AcDbEntity
  8
0
100
AcDbVertex
100
AcDb2dVertex
 10
112.246606
 20
-78.036254
 30
0.0
  0
VERTEX
  5
2267
100
AcDbEntity
  8
0
100
AcDbVertex
100
AcDb2dVertex
 10
111.229167
 20
-81.409902
 30
0.0
  0
VERTEX
  5
2268
100
AcDbEntity
  8
0
100
AcDbVertex
100
AcDb2dVertex
 10
109.545825
 20
-84.709216
 30
0.0
  0
VERTEX
  5
2269
100
AcDbEntity
  8
0
100
AcDbVertex
100
AcDb2dVertex
 10
107.215024
 20
-87.898047
 30
0.0
  0
VERTEX
  5
226A
100
AcDbEntity
  8
0
100
AcDbVertex
100
AcDb2dVertex
 10
104.2623
 20
-90.941459
 30
0.0
  0
VERTEX
  5
226B
100
AcDbEntity
  8
0
100
AcDbVertex
100
AcDb2dVertex
 10
100.720004
 20
-93.806107
 30
0.0
  0
VERTEX
  5
226C
100
AcDbEntity
  8
0
100
AcDbVertex
100
AcDb2dVertex
 10
96.626946
 20
-96.460605
 30
0.0
  0
VERTEX
  5
226D
100
AcDbEntity
  8
0
100
AcDbVertex
100
AcDb2dVertex
 10
92.02797
 20
-98.87587
 30
0.0
  0
VERTEX
  5
226E
100
AcDbEntity
  8
0
100
AcDbVertex
100
AcDb2dVertex
 10
86.973465
 20
-101.02544
 30
0.0
  0
VERTEX
  5
226F
100
AcDbEntity
  8
0
100
AcDbVertex
100
AcDb2dVertex
 10
81.518807
 20
-102.885764
 30
0.0
  0
VERTEX
  5
2270
100
AcDbEntity
  8
0
100
AcDbVertex
100
AcDb2dVertex
 10
75.72376
 20
-104.43646
 30
0.0
  0
VERTEX
  5
2271
100
AcDbEntity
  8
0
100
AcDbVertex
100
AcDb2dVertex
 10
69.651815
 20
-105.660537
 30
0.0
  0
VERTEX
  5
2272
100
AcDbEntity
  8
0
100
AcDbVertex
100
AcDb2dVertex
 10
63.369498
 20
-106.544586
 30
0.0
  0
VERTEX
  5
2273
100
AcDbEntity
  8
0
100
AcDbVertex
100
AcDb2dVertex
 10
56.945639
 20
-107.078919
 30
0.0
  0
VERTEX
  5
2274
100
AcDbEntity
  8
0
100
AcDbVertex
100
AcDb2dVertex
 10
50.450619
 20
-107.257683
 30
0.0
  0
VERTEX
  5
2275
100
AcDbEntity
  8
0
100
AcDbVertex
100
AcDb2dVertex
 10
43.955599
 20
-107.078919
 30
0.0
  0
VERTEX
  5
2276
100
AcDbEntity
  8
0
100
AcDbVertex
100
AcDb2dVertex
 10
37.53174
 20
-106.544586
 30
0.0
  0
VERTEX
  5
2277
100
AcDbEntity
  8
0
100
AcDbVertex
100
AcDb2dVertex
 10
31.249423
 20
-105.660537
 30
0.0
  0
VERTEX
  5
2278
100
AcDbEntity
  8
0
100
AcDbVertex
100
AcDb2dVertex
 10
25.177478
 20
-104.43646
 30
0.0
  0
VERTEX
  5
2279
100
AcDbEntity
  8
0
100
AcDbVertex
100
AcDb2dVertex
 10
19.382431
 20
-102.885764
 30
0.0
  0
VERTEX
  5
227A
100
AcDbEntity
  8
0
100
AcDbVertex
100
AcDb2dVertex
 10
13.927773
 20
-101.02544
 30
0.0
  0
VERTEX
  5
227B
100
AcDbEntity
  8
0
100
AcDbVertex
100
AcDb2dVertex
 10
8.873268
 20
-98.87587
 30
0.0
  0
VERTEX
  5
227C
100
AcDbEntity
  8
0
100
AcDbVertex
100
AcDb2dVertex
 10
4.274292
 20
-96.460605
 30
0.0
  0
VERTEX
  5
227D
100
AcDbEntity
  8
0
100
AcDbVertex
100
AcDb2dVertex
 10
0.181234
 20
-93.806107
 30
0.0
  0
VERTEX
  5
227E
100
AcDbEntity
  8
0
100
AcDbVertex
100
AcDb2dVertex
 10
-3.361062
 20
-90.941459
 30
0.0
  0
VERTEX
  5
227F
100
AcDbEntity
  8
0
100
AcDbVertex
100
AcDb2dVertex
 10
-6.313786
 20
-87.898047
 30
0.0
  0
VERTEX
  5
2280
100
AcDbEntity
  8
0
100
AcDbVertex
100
AcDb2dVertex
 10
-8.644587
 20
-84.709216
 30
0.0
  0
VERTEX
  5
2281
100
AcDbEntity
  8
0
100
AcDbVertex
100
AcDb2dVertex
 10
-10.327929
 20
-81.409902
 30
0.0
  0
VERTEX
  5
2282
100
AcDbEntity
  8
0
100
AcDbVertex
100
AcDb2dVertex
 10
-11.345368
 20
-78.036254
 30
0.0
  0
VERTEX
  5
2283
100
AcDbEntity
  8
0
100
AcDbVertex
100
AcDb2dVertex
 10
-11.681984
 20
-74.977842
 30
0.0
  0
SEQEND
  5
2284
100
AcDbEntity
  8
0
  0
POLYLINE
  5
2285
100
AcDbEntity
  8
0
100
AcDb2dPolyline
 66
     1
 10
0.0
 20
0.0
 30
0.0
  0
VERTEX
  5
2286
100
AcDbEntity
  8
0
100
AcDbVertex
100
AcDb2dVertex
 10
108.896423
 20
-85.59768
 30
0.0
  0
VERTEX
  5
2287
100
AcDbEntity
  8
0
100
AcDbVertex
100
AcDb2dVertex
 10
107.150316
 20
-83.121676
 30
0.0
  0
VERTEX
  5
2288
100
AcDbEntity
  8
0
100
AcDbVertex
100
AcDb2dVertex
 10
104.397805
 20
-80.174724
 30
0.0
  0
VERTEX
  5
2289
100
AcDbEntity
  8
0
100
AcDbVertex
100
AcDb2dVertex
 10
101.091723
 20
-77.389136
 30
0.0
  0
VERTEX
  5
228A
100
AcDbEntity
  8
0
100
AcDbVertex
100
AcDb2dVertex
 10
97.265995
 20
-74.793495
 30
0.0
  0
VERTEX
  5
228B
100
AcDbEntity
  8
0
100
AcDbVertex
100
AcDb2dVertex
 10
92.959878
 20
-72.414437
 30
0.0
  0
VERTEX
  5
228C
100
AcDbEntity
  8
0
100
AcDbVertex
100
AcDb2dVertex
 10
88.217558
 20
-70.276373
 30
0.0
  0
VERTEX
  5
228D
100
AcDbEntity
  8
0
100
AcDbVertex
100
AcDb2dVertex
 10
83.087698
 20
-68.401244
 30
0.0
  0
VERTEX
  5
228E
100
AcDbEntity
  8
0
100
AcDbVertex
100
AcDb2dVertex
 10
77.622938
 20
-66.80829
 30
0.0
  0
VERTEX
  5
228F
100
AcDbEntity
  8
0
100
AcDbVertex
100
AcDb2dVertex
 10
71.879353
 20
-65.513857
 30
0.0
  0
VERTEX
  5
2290
100
AcDbEntity
  8
0
100
AcDbVertex
100
AcDb2dVertex
 10
65.91588
 20
-64.531228
 30
0.0
  0
VERTEX
  5
2291
100
AcDbEntity
  8
0
100
AcDbVertex
100
AcDb2dVertex
 10
59.793713
 20
-63.870486
 30
0.0
  0
VERTEX
  5
2292
100
AcDbEntity
  8
0
100
AcDbVertex
100
AcDb2dVertex
 10
53.575673
 20
-63.538411
 30
0.0
  0
VERTEX
  5
2293
100
AcDbEntity
  8
0
100
AcDbVertex
100
AcDb2dVertex
 10
47.325565
 20
-63.538411
 30
0.0
  0
VERTEX
  5
2294
100
AcDbEntity
  8
0
100
AcDbVertex
100
AcDb2dVertex
 10
41.107525
 20
-63.870486
 30
0.0
  0
VERTEX
  5
2295
100
AcDbEntity
  8
0
100
AcDbVertex
100
AcDb2dVertex
 10
34.985358
 20
-64.531228
 30
0.0
  0
VERTEX
  5
2296
100
AcDbEntity
  8
0
100
AcDbVertex
100
AcDb2dVertex
 10
29.021885
 20
-65.513857
 30
0.0
  0
VERTEX
  5
2297
100
AcDbEntity
  8
0
100
AcDbVertex
100
AcDb2dVertex
 10
23.2783
 20
-66.80829
 30
0.0
  0
VERTEX
  5
2298
100
AcDbEntity
  8
0
100
AcDbVertex
100
AcDb2dVertex
 10
17.813539
 20
-68.401244
 30
0.0
  0
VERTEX
  5
2299
100
AcDbEntity
  8
0
100
AcDbVertex
100
AcDb2dVertex
 10
12.68368
 20
-70.276373
 30
0.0
  0
VERTEX
  5
229A
100
AcDbEntity
  8
0
100
AcDbVertex
100
AcDb2dVertex
 10
7.94136
 20
-72.414437
 30
0.0
  0
VERTEX
  5
229B
100
AcDbEntity
  8
0
100
AcDbVertex
100
AcDb2dVertex
 10
3.635243
 20
-74.793495
 30
0.0
  0
VERTEX
  5
229C
100
AcDbEntity
  8
0
100
AcDbVertex
100
AcDb2dVertex
 10
-0.190485
 20
-77.389136
 30
0.0
  0
VERTEX
  5
229D
100
AcDbEntity
  8
0
100
AcDbVertex
100
AcDb2dVertex
 10
-3.496567
 20
-80.174724
 30
0.0
  0
VERTEX
  5
229E
100
AcDbEntity
  8
0
100
AcDbVertex
100
AcDb2dVertex
 10
-6.249078
 20
-83.121676
 30
0.0
  0
VERTEX
  5
229F
100
AcDbEntity
  8
0
100
AcDbVertex
100
AcDb2dVertex
 10
-7.995185
 20
-85.59768
 30
0.0
  0
SEQEND
  5
22A0
100
AcDbEntity
  8
0
  0
POLYLINE
  5
22A1
100
AcDbEntity
  8
0
100
AcDb2dPolyline
 66
     1
 10
0.0
 20
0.0
 30
0.0
  0
VERTEX
  5
22A2
100
AcDbEntity
  8
0
100
AcDbVertex
100
AcDb2dVertex
 10
108.838569
 20
-85.676831
 30
0.0
  0
VERTEX
  5
22A3
100
AcDbEntity
  8
0
100
AcDbVertex
100
AcDb2dVertex
 10
108.58617
 20
-85.216727
 30
0.0
  0
VERTEX
  5
22A4
100
AcDbEntity
  8
0
100
AcDbVertex
100
AcDb2dVertex
 10
105.942988
 20
-81.865479
 30
0.0
  0
VERTEX
  5
22A5
100
AcDbEntity
  8
0
100
AcDbVertex
100
AcDb2dVertex
 10
102.601956
 20
-78.690724
 30
0.0
  0
VERTEX
  5
22A6
100
AcDbEntity
  8
0
100
AcDbVertex
100
AcDb2dVertex
 10
98.605092
 20
-75.732387
 30
0.0
  0
VERTEX
  5
22A7
100
AcDbEntity
  8
0
100
AcDbVertex
100
AcDb2dVertex
 10
94.002657
 20
-73.027671
 30
0.0
  0
VERTEX
  5
22A8
100
AcDbEntity
  8
0
100
AcDbVertex
100
AcDb2dVertex
 10
88.85253
 20
-70.610589
 30
0.0
  0
VERTEX
  5
22A9
100
AcDbEntity
  8
0
100
AcDbVertex
100
AcDb2dVertex
 10
83.219476
 20
-68.511537
 30
0.0
  0
VERTEX
  5
22AA
100
AcDbEntity
  8
0
100
AcDbVertex
100
AcDb2dVertex
 10
77.174335
 20
-66.756912
 30
0.0
  0
VERTEX
  5
22AB
100
AcDbEntity
  8
0
100
AcDbVertex
100
AcDb2dVertex
 10
70.793128
 20
-65.36878
 30
0.0
  0
VERTEX
  5
22AC
100
AcDbEntity
  8
0
100
AcDbVertex
100
AcDb2dVertex
 10
64.156102
 20
-64.364597
 30
0.0
  0
VERTEX
  5
22AD
100
AcDbEntity
  8
0
100
AcDbVertex
100
AcDb2dVertex
 10
57.346722
 20
-63.75699
 30
0.0
  0
VERTEX
  5
22AE
100
AcDbEntity
  8
0
100
AcDbVertex
100
AcDb2dVertex
 10
50.450619
 20
-63.553602
 30
0.0
  0
VERTEX
  5
22AF
100
AcDbEntity
  8
0
100
AcDbVertex
100
AcDb2dVertex
 10
43.554516
 20
-63.75699
 30
0.0
  0
VERTEX
  5
22B0
100
AcDbEntity
  8
0
100
AcDbVertex
100
AcDb2dVertex
 10
36.745136
 20
-64.364597
 30
0.0
  0
VERTEX
  5
22B1
100
AcDbEntity
  8
0
100
AcDbVertex
100
AcDb2dVertex
 10
30.10811
 20
-65.36878
 30
0.0
  0
VERTEX
  5
22B2
100
AcDbEntity
  8
0
100
AcDbVertex
100
AcDb2dVertex
 10
23.726903
 20
-66.756912
 30
0.0
  0
VERTEX
  5
22B3
100
AcDbEntity
  8
0
100
AcDbVertex
100
AcDb2dVertex
 10
17.681762
 20
-68.511537
 30
0.0
  0
VERTEX
  5
22B4
100
AcDbEntity
  8
0
100
AcDbVertex
100
AcDb2dVertex
 10
12.048708
 20
-70.610589
 30
0.0
  0
VERTEX
  5
22B5
100
AcDbEntity
  8
0
100
AcDbVertex
100
AcDb2dVertex
 10
6.898581
 20
-73.027671
 30
0.0
  0
VERTEX
  5
22B6
100
AcDbEntity
  8
0
100
AcDbVertex
100
AcDb2dVertex
 10
2.296146
 20
-75.732387
 30
0.0
  0
VERTEX
  5
22B7
100
AcDbEntity
  8
0
100
AcDbVertex
100
AcDb2dVertex
 10
-1.700719
 20
-78.690724
 30
0.0
  0
VERTEX
  5
22B8
100
AcDbEntity
  8
0
100
AcDbVertex
100
AcDb2dVertex
 10
-5.04175
 20
-81.865479
 30
0.0
  0
VERTEX
  5
22B9
100
AcDbEntity
  8
0
100
AcDbVertex
100
AcDb2dVertex
 10
-7.684932
 20
-85.216727
 30
0.0
  0
VERTEX
  5
22BA
100
AcDbEntity
  8
0
100
AcDbVertex
100
AcDb2dVertex
 10
-7.937332
 20
-85.676831
 30
0.0
  0
SEQEND
  5
22BB
100
AcDbEntity
  8
0
  0
POLYLINE
  5
22BC
100
AcDbEntity
  8
0
100
AcDb2dPolyline
 66
     1
 10
0.0
 20
0.0
 30
0.0
  0
VERTEX
  5
22BD
100
AcDbEntity
  8
0
100
AcDbVertex
100
AcDb2dVertex
 10
112.586996
 20
-74.625235
 30
0.0
  0
VERTEX
  5
22BE
100
AcDbEntity
  8
0
100
AcDbVertex
100
AcDb2dVertex
 10
112.246606
 20
-71.214215
 30
0.0
  0
VERTEX
  5
22BF
100
AcDbEntity
  8
0
100
AcDbVertex
100
AcDb2dVertex
 10
111.229167
 20
-67.840567
 30
0.0
  0
VERTEX
  5
22C0
100
AcDbEntity
  8
0
100
AcDbVertex
100
AcDb2dVertex
 10
109.545825
 20
-64.541253
 30
0.0
  0
VERTEX
  5
22C1
100
AcDbEntity
  8
0
100
AcDbVertex
100
AcDb2dVertex
 10
107.215024
 20
-61.352422
 30
0.0
  0
VERTEX
  5
22C2
100
AcDbEntity
  8
0
100
AcDbVertex
100
AcDb2dVertex
 10
104.2623
 20
-58.30901
 30
0.0
  0
VERTEX
  5
22C3
100
AcDbEntity
  8
0
100
AcDbVertex
100
AcDb2dVertex
 10
100.720004
 20
-55.444363
 30
0.0
  0
VERTEX
  5
22C4
100
AcDbEntity
  8
0
100
AcDbVertex
100
AcDb2dVertex
 10
96.626946
 20
-52.789864
 30
0.0
  0
VERTEX
  5
22C5
100
AcDbEntity
  8
0
100
AcDbVertex
100
AcDb2dVertex
 10
92.02797
 20
-50.374599
 30
0.0
  0
VERTEX
  5
22C6
100
AcDbEntity
  8
0
100
AcDbVertex
100
AcDb2dVertex
 10
86.973465
 20
-48.225029
 30
0.0
  0
VERTEX
  5
22C7
100
AcDbEntity
  8
0
100
AcDbVertex
100
AcDb2dVertex
 10
81.518807
 20
-46.364705
 30
0.0
  0
VERTEX
  5
22C8
100
AcDbEntity
  8
0
100
AcDbVertex
100
AcDb2dVertex
 10
75.72376
 20
-44.814009
 30
0.0
  0
VERTEX
  5
22C9
100
AcDbEntity
  8
0
100
AcDbVertex
100
AcDb2dVertex
 10
69.651815
 20
-43.589932
 30
0.0
  0
VERTEX
  5
22CA
100
AcDbEntity
  8
0
100
AcDbVertex
100
AcDb2dVertex
 10
63.369498
 20
-42.705883
 30
0.0
  0
VERTEX
  5
22CB
100
AcDbEntity
  8
0
100
AcDbVertex
100
AcDb2dVertex
 10
56.945639
 20
-42.17155
 30
0.0
  0
VERTEX
  5
22CC
100
AcDbEntity
  8
0
100
AcDbVertex
100
AcDb2dVertex
 10
50.450619
 20
-41.992786
 30
0.0
  0
VERTEX
  5
22CD
100
AcDbEntity
  8
0
100
AcDbVertex
100
AcDb2dVertex
 10
43.955599
 20
-42.17155
 30
0.0
  0
VERTEX
  5
22CE
100
AcDbEntity
  8
0
100
AcDbVertex
100
AcDb2dVertex
 10
37.53174
 20
-42.705883
 30
0.0
  0
VERTEX
  5
22CF
100
AcDbEntity
  8
0
100
AcDbVertex
100
AcDb2dVertex
 10
31.249423
 20
-43.589932
 30
0.0
  0
VERTEX
  5
22D0
100
AcDbEntity
  8
0
100
AcDbVertex
100
AcDb2dVertex
 10
25.177478
 20
-44.814009
 30
0.0
  0
VERTEX
  5
22D1
100
AcDbEntity
  8
0
100
AcDbVertex
100
AcDb2dVertex
 10
19.382431
 20
-46.364705
 30
0.0
  0
VERTEX
  5
22D2
100
AcDbEntity
  8
0
100
AcDbVertex
100
AcDb2dVertex
 10
13.927773
 20
-48.225029
 30
0.0
  0
VERTEX
  5
22D3
100
AcDbEntity
  8
0
100
AcDbVertex
100
AcDb2dVertex
 10
8.873268
 20
-50.374599
 30
0.0
  0
VERTEX
  5
22D4
100
AcDbEntity
  8
0
100
AcDbVertex
100
AcDb2dVertex
 10
4.274292
 20
-52.789864
 30
0.0
  0
VERTEX
  5
22D5
100
AcDbEntity
  8
0
100
AcDbVertex
100
AcDb2dVertex
 10
0.181234
 20
-55.444363
 30
0.0
  0
VERTEX
  5
22D6
100
AcDbEntity
  8
0
100
AcDbVertex
100
AcDb2dVertex
 10
-3.361062
 20
-58.30901
 30
0.0
  0
VERTEX
  5
22D7
100
AcDbEntity
  8
0
100
AcDbVertex
100
AcDb2dVertex
 10
-6.313786
 20
-61.352422
 30
0.0
  0
VERTEX
  5
22D8
100
AcDbEntity
  8
0
100
AcDbVertex
100
AcDb2dVertex
 10
-8.644587
 20
-64.541253
 30
0.0
  0
VERTEX
  5
22D9
100
AcDbEntity
  8
0
100
AcDbVertex
100
AcDb2dVertex
 10
-10.327929
 20
-67.840567
 30
0.0
  0
VERTEX
  5
22DA
100
AcDbEntity
  8
0
100
AcDbVertex
100
AcDb2dVertex
 10
-11.345368
 20
-71.214215
 30
0.0
  0
VERTEX
  5
22DB
100
AcDbEntity
  8
0
100
AcDbVertex
100
AcDb2dVertex
 10
-11.685758
 20
-74.625235
 30
0.0
  0
SEQEND
  5
22DC
100
AcDbEntity
  8
0
  0
POLYLINE
  5
22DD
100
AcDbEntity
  8
0
100
AcDb2dPolyline
 66
     1
 10
0.0
 20
0.0
 30
0.0
  0
VERTEX
  5
22DE
100
AcDbEntity
  8
0
100
AcDbVertex
100
AcDb2dVertex
 10
115.450619
 20
-86.539157
 30
0.0
  0
VERTEX
  5
22DF
100
AcDbEntity
  8
0
100
AcDbVertex
100
AcDb2dVertex
 10
115.117125
 20
-89.992675
 30
0.0
  0
VERTEX
  5
22E0
100
AcDbEntity
  8
0
100
AcDbVertex
100
AcDb2dVertex
 10
114.120065
 20
-93.410754
 30
0.0
  0
VERTEX
  5
22E1
100
AcDbEntity
  8
0
100
AcDbVertex
100
AcDb2dVertex
 10
112.469671
 20
-96.758322
 30
0.0
  0
VERTEX
  5
22E2
100
AcDbEntity
  8
0
100
AcDbVertex
100
AcDb2dVertex
 10
110.182877
 20
-100.001027
 30
0.0
  0
VERTEX
  5
22E3
100
AcDbEntity
  8
0
100
AcDbVertex
100
AcDb2dVertex
 10
107.283149
 20
-103.105595
 30
0.0
  0
VERTEX
  5
22E4
100
AcDbEntity
  8
0
100
AcDbVertex
100
AcDb2dVertex
 10
103.800243
 20
-106.04017
 30
0.0
  0
VERTEX
  5
22E5
100
AcDbEntity
  8
0
100
AcDbVertex
100
AcDb2dVertex
 10
99.769897
 20
-108.774637
 30
0.0
  0
VERTEX
  5
22E6
100
AcDbEntity
  8
0
100
AcDbVertex
100
AcDb2dVertex
 10
95.233469
 20
-111.280938
 30
0.0
  0
VERTEX
  5
22E7
100
AcDbEntity
  8
0
100
AcDbVertex
100
AcDb2dVertex
 10
90.237508
 20
-113.533355
 30
0.0
  0
VERTEX
  5
22E8
100
AcDbEntity
  8
0
100
AcDbVertex
100
AcDb2dVertex
 10
84.83328
 20
-115.508775
 30
0.0
  0
VERTEX
  5
22E9
100
AcDbEntity
  8
0
100
AcDbVertex
100
AcDb2dVertex
 10
79.076239
 20
-117.186928
 30
0.0
  0
VERTEX
  5
22EA
100
AcDbEntity
  8
0
100
AcDbVertex
100
AcDb2dVertex
 10
73.02546
 20
-118.550593
 30
0.0
  0
VERTEX
  5
22EB
100
AcDbEntity
  8
0
100
AcDbVertex
100
AcDb2dVertex
 10
66.743034
 20
-119.585778
 30
0.0
  0
VERTEX
  5
22EC
100
AcDbEntity
  8
0
100
AcDbVertex
100
AcDb2dVertex
 10
60.293424
 20
-120.281859
 30
0.0
  0
VERTEX
  5
22ED
100
AcDbEntity
  8
0
100
AcDbVertex
100
AcDb2dVertex
 10
53.742815
 20
-120.631694
 30
0.0
  0
VERTEX
  5
22EE
100
AcDbEntity
  8
0
100
AcDbVertex
100
AcDb2dVertex
 10
47.158423
 20
-120.631694
 30
0.0
  0
VERTEX
  5
22EF
100
AcDbEntity
  8
0
100
AcDbVertex
100
AcDb2dVertex
 10
40.607813
 20
-120.281859
 30
0.0
  0
VERTEX
  5
22F0
100
AcDbEntity
  8
0
100
AcDbVertex
100
AcDb2dVertex
 10
34.158204
 20
-119.585778
 30
0.0
  0
VERTEX
  5
22F1
100
AcDbEntity
  8
0
100
AcDbVertex
100
AcDb2dVertex
 10
27.875777
 20
-118.550593
 30
0.0
  0
VERTEX
  5
22F2
100
AcDbEntity
  8
0
100
AcDbVertex
100
AcDb2dVertex
 10
21.824999
 20
-117.186928
 30
0.0
  0
VERTEX
  5
22F3
100
AcDbEntity
  8
0
100
AcDbVertex
100
AcDb2dVertex
 10
16.067958
 20
-115.508775
 30
0.0
  0
VERTEX
  5
22F4
100
AcDbEntity
  8
0
100
AcDbVertex
100
AcDb2dVertex
 10
10.66373
 20
-113.533355
 30
0.0
  0
VERTEX
  5
22F5
100
AcDbEntity
  8
0
100
AcDbVertex
100
AcDb2dVertex
 10
5.667769
 20
-111.280938
 30
0.0
  0
VERTEX
  5
22F6
100
AcDbEntity
  8
0
100
AcDbVertex
100
AcDb2dVertex
 10
1.131341
 20
-108.774637
 30
0.0
  0
VERTEX
  5
22F7
100
AcDbEntity
  8
0
100
AcDbVertex
100
AcDb2dVertex
 10
-2.899005
 20
-106.04017
 30
0.0
  0
VERTEX
  5
22F8
100
AcDbEntity
  8
0
100
AcDbVertex
100
AcDb2dVertex
 10
-6.381911
 20
-103.105595
 30
0.0
  0
VERTEX
  5
22F9
100
AcDbEntity
  8
0
100
AcDbVertex
100
AcDb2dVertex
 10
-9.281639
 20
-100.001027
 30
0.0
  0
VERTEX
  5
22FA
100
AcDbEntity
  8
0
100
AcDbVertex
100
AcDb2dVertex
 10
-11.568433
 20
-96.758322
 30
0.0
  0
VERTEX
  5
22FB
100
AcDbEntity
  8
0
100
AcDbVertex
100
AcDb2dVertex
 10
-13.218827
 20
-93.410754
 30
0.0
  0
VERTEX
  5
22FC
100
AcDbEntity
  8
0
100
AcDbVertex
100
AcDb2dVertex
 10
-14.215887
 20
-89.992675
 30
0.0
  0
SEQEND
  5
22FD
100
AcDbEntity
  8
0
  0
POLYLINE
  5
22FE
100
AcDbEntity
  8
0
100
AcDb2dPolyline
 66
     1
 10
0.0
 20
0.0
 30
0.0
  0
VERTEX
  5
22FF
100
AcDbEntity
  8
0
100
AcDbVertex
100
AcDb2dVertex
 10
115.450619
 20
-87.390152
 30
0.0
  0
VERTEX
  5
2300
100
AcDbEntity
  8
0
100
AcDbVertex
100
AcDb2dVertex
 10
115.117125
 20
-90.843669
 30
0.0
  0
VERTEX
  5
2301
100
AcDbEntity
  8
0
100
AcDbVertex
100
AcDb2dVertex
 10
114.120065
 20
-94.261749
 30
0.0
  0
VERTEX
  5
2302
100
AcDbEntity
  8
0
100
AcDbVertex
100
AcDb2dVertex
 10
112.469671
 20
-97.609316
 30
0.0
  0
VERTEX
  5
2303
100
AcDbEntity
  8
0
100
AcDbVertex
100
AcDb2dVertex
 10
110.182877
 20
-100.852022
 30
0.0
  0
VERTEX
  5
2304
100
AcDbEntity
  8
0
100
AcDbVertex
100
AcDb2dVertex
 10
107.283149
 20
-103.95659
 30
0.0
  0
VERTEX
  5
2305
100
AcDbEntity
  8
0
100
AcDbVertex
100
AcDb2dVertex
 10
103.800243
 20
-106.891164
 30
0.0
  0
VERTEX
  5
2306
100
AcDbEntity
  8
0
100
AcDbVertex
100
AcDb2dVertex
 10
99.769897
 20
-109.625631
 30
0.0
  0
VERTEX
  5
2307
100
AcDbEntity
  8
0
100
AcDbVertex
100
AcDb2dVertex
 10
95.233469
 20
-112.131933
 30
0.0
  0
VERTEX
  5
2308
100
AcDbEntity
  8
0
100
AcDbVertex
100
AcDb2dVertex
 10
90.237508
 20
-114.38435
 30
0.0
  0
VERTEX
  5
2309
100
AcDbEntity
  8
0
100
AcDbVertex
100
AcDb2dVertex
 10
84.83328
 20
-116.35977
 30
0.0
  0
VERTEX
  5
230A
100
AcDbEntity
  8
0
100
AcDbVertex
100
AcDb2dVertex
 10
79.076239
 20
-118.037923
 30
0.0
  0
VERTEX
  5
230B
100
AcDbEntity
  8
0
100
AcDbVertex
100
AcDb2dVertex
 10
73.02546
 20
-119.401588
 30
0.0
  0
VERTEX
  5
230C
100
AcDbEntity
  8
0
100
AcDbVertex
100
AcDb2dVertex
 10
66.743034
 20
-120.436772
 30
0.0
  0
VERTEX
  5
230D
100
AcDbEntity
  8
0
100
AcDbVertex
100
AcDb2dVertex
 10
60.293424
 20
-121.132853
 30
0.0
  0
VERTEX
  5
230E
100
AcDbEntity
  8
0
100
AcDbVertex
100
AcDb2dVertex
 10
53.742815
 20
-121.482689
 30
0.0
  0
VERTEX
  5
230F
100
AcDbEntity
  8
0
100
AcDbVertex
100
AcDb2dVertex
 10
47.158423
 20
-121.482689
 30
0.0
  0
VERTEX
  5
2310
100
AcDbEntity
  8
0
100
AcDbVertex
100
AcDb2dVertex
 10
40.607813
 20
-121.132853
 30
0.0
  0
VERTEX
  5
2311
100
AcDbEntity
  8
0
100
AcDbVertex
100
AcDb2dVertex
 10
34.158204
 20
-120.436772
 30
0.0
  0
VERTEX
  5
2312
100
AcDbEntity
  8
0
100
AcDbVertex
100
AcDb2dVertex
 10
27.875777
 20
-119.401588
 30
0.0
  0
VERTEX
  5
2313
100
AcDbEntity
  8
0
100
AcDbVertex
100
AcDb2dVertex
 10
21.824999
 20
-118.037923
 30
0.0
  0
VERTEX
  5
2314
100
AcDbEntity
  8
0
100
AcDbVertex
100
AcDb2dVertex
 10
16.067958
 20
-116.35977
 30
0.0
  0
VERTEX
  5
2315
100
AcDbEntity
  8
0
100
AcDbVertex
100
AcDb2dVertex
 10
10.66373
 20
-114.38435
 30
0.0
  0
VERTEX
  5
2316
100
AcDbEntity
  8
0
100
AcDbVertex
100
AcDb2dVertex
 10
5.667769
 20
-112.131933
 30
0.0
  0
VERTEX
  5
2317
100
AcDbEntity
  8
0
100
AcDbVertex
100
AcDb2dVertex
 10
1.131341
 20
-109.625631
 30
0.0
  0
VERTEX
  5
2318
100
AcDbEntity
  8
0
100
AcDbVertex
100
AcDb2dVertex
 10
-2.899005
 20
-106.891164
 30
0.0
  0
VERTEX
  5
2319
100
AcDbEntity
  8
0
100
AcDbVertex
100
AcDb2dVertex
 10
-6.381911
 20
-103.95659
 30
0.0
  0
VERTEX
  5
231A
100
AcDbEntity
  8
0
100
AcDbVertex
100
AcDb2dVertex
 10
-9.281639
 20
-100.852022
 30
0.0
  0
VERTEX
  5
231B
100
AcDbEntity
  8
0
100
AcDbVertex
100
AcDb2dVertex
 10
-11.568433
 20
-97.609316
 30
0.0
  0
VERTEX
  5
231C
100
AcDbEntity
  8
0
100
AcDbVertex
100
AcDb2dVertex
 10
-13.218827
 20
-94.261749
 30
0.0
  0
VERTEX
  5
231D
100
AcDbEntity
  8
0
100
AcDbVertex
100
AcDb2dVertex
 10
-14.215887
 20
-90.843669
 30
0.0
  0
VERTEX
  5
231E
100
AcDbEntity
  8
0
100
AcDbVertex
100
AcDb2dVertex
 10
-14.549381
 20
-87.390152
 30
0.0
  0
SEQEND
  5
231F
100
AcDbEntity
  8
0
  0
POLYLINE
  5
2320
100
AcDbEntity
  8
0
100
AcDb2dPolyline
 66
     1
 10
0.0
 20
0.0
 30
0.0
  0
VERTEX
  5
2321
100
AcDbEntity
  8
0
100
AcDbVertex
100
AcDb2dVertex
 10
113.64678
 20
-96.25874
 30
0.0
  0
VERTEX
  5
2322
100
AcDbEntity
  8
0
100
AcDbVertex
100
AcDb2dVertex
 10
113.304403
 20
-99.369505
 30
0.0
  0
VERTEX
  5
2323
100
AcDbEntity
  8
0
100
AcDbVertex
100
AcDb2dVertex
 10
112.269547
 20
-102.800901
 30
0.0
  0
VERTEX
  5
2324
100
AcDbEntity
  8
0
100
AcDbVertex
100
AcDb2dVertex
 10
110.557391
 20
-106.156691
 30
0.0
  0
VERTEX
  5
2325
100
AcDbEntity
  8
0
100
AcDbVertex
100
AcDb2dVertex
 10
108.186692
 20
-109.400107
 30
0.0
  0
VERTEX
  5
2326
100
AcDbEntity
  8
0
100
AcDbVertex
100
AcDb2dVertex
 10
105.183424
 20
-112.495615
 30
0.0
  0
VERTEX
  5
2327
100
AcDbEntity
  8
0
100
AcDbVertex
100
AcDb2dVertex
 10
101.580493
 20
-115.409298
 30
0.0
  0
VERTEX
  5
2328
100
AcDbEntity
  8
0
100
AcDbVertex
100
AcDb2dVertex
 10
97.417372
 20
-118.109235
 30
0.0
  0
VERTEX
  5
2329
100
AcDbEntity
  8
0
100
AcDbVertex
100
AcDb2dVertex
 10
92.739673
 20
-120.565844
 30
0.0
  0
VERTEX
  5
232A
100
AcDbEntity
  8
0
100
AcDbVertex
100
AcDb2dVertex
 10
87.598647
 20
-122.752209
 30
0.0
  0
VERTEX
  5
232B
100
AcDbEntity
  8
0
100
AcDbVertex
100
AcDb2dVertex
 10
82.050619
 20
-124.644377
 30
0.0
  0
VERTEX
  5
232C
100
AcDbEntity
  8
0
100
AcDbVertex
100
AcDb2dVertex
 10
76.156375
 20
-126.221617
 30
0.0
  0
VERTEX
  5
232D
100
AcDbEntity
  8
0
100
AcDbVertex
100
AcDb2dVertex
 10
69.980493
 20
-127.466648
 30
0.0
  0
VERTEX
  5
232E
100
AcDbEntity
  8
0
100
AcDbVertex
100
AcDb2dVertex
 10
63.590638
 20
-128.365829
 30
0.0
  0
VERTEX
  5
232F
100
AcDbEntity
  8
0
100
AcDbVertex
100
AcDb2dVertex
 10
57.056818
 20
-128.909309
 30
0.0
  0
VERTEX
  5
2330
100
AcDbEntity
  8
0
100
AcDbVertex
100
AcDb2dVertex
 10
50.450619
 20
-129.091133
 30
0.0
  0
VERTEX
  5
2331
100
AcDbEntity
  8
0
100
AcDbVertex
100
AcDb2dVertex
 10
43.84442
 20
-128.909309
 30
0.0
  0
VERTEX
  5
2332
100
AcDbEntity
  8
0
100
AcDbVertex
100
AcDb2dVertex
 10
37.3106
 20
-128.365829
 30
0.0
  0
VERTEX
  5
2333
100
AcDbEntity
  8
0
100
AcDbVertex
100
AcDb2dVertex
 10
30.920745
 20
-127.466648
 30
0.0
  0
VERTEX
  5
2334
100
AcDbEntity
  8
0
100
AcDbVertex
100
AcDb2dVertex
 10
24.744863
 20
-126.221617
 30
0.0
  0
VERTEX
  5
2335
100
AcDbEntity
  8
0
100
AcDbVertex
100
AcDb2dVertex
 10
18.850619
 20
-124.644377
 30
0.0
  0
VERTEX
  5
2336
100
AcDbEntity
  8
0
100
AcDbVertex
100
AcDb2dVertex
 10
13.302591
 20
-122.752209
 30
0.0
  0
VERTEX
  5
2337
100
AcDbEntity
  8
0
100
AcDbVertex
100
AcDb2dVertex
 10
8.161565
 20
-120.565844
 30
0.0
  0
VERTEX
  5
2338
100
AcDbEntity
  8
0
100
AcDbVertex
100
AcDb2dVertex
 10
3.483866
 20
-118.109235
 30
0.0
  0
VERTEX
  5
2339
100
AcDbEntity
  8
0
100
AcDbVertex
100
AcDb2dVertex
 10
-0.679255
 20
-115.409298
 30
0.0
  0
VERTEX
  5
233A
100
AcDbEntity
  8
0
100
AcDbVertex
100
AcDb2dVertex
 10
-4.282187
 20
-112.495615
 30
0.0
  0
VERTEX
  5
233B
100
AcDbEntity
  8
0
100
AcDbVertex
100
AcDb2dVertex
 10
-7.285454
 20
-109.400107
 30
0.0
  0
VERTEX
  5
233C
100
AcDbEntity
  8
0
100
AcDbVertex
100
AcDb2dVertex
 10
-9.656153
 20
-106.156691
 30
0.0
  0
VERTEX
  5
233D
100
AcDbEntity
  8
0
100
AcDbVertex
100
AcDb2dVertex
 10
-11.368309
 20
-102.800901
 30
0.0
  0
VERTEX
  5
233E
100
AcDbEntity
  8
0
100
AcDbVertex
100
AcDb2dVertex
 10
-12.403165
 20
-99.369505
 30
0.0
  0
VERTEX
  5
233F
100
AcDbEntity
  8
0
100
AcDbVertex
100
AcDb2dVertex
 10
-12.745542
 20
-96.25874
 30
0.0
  0
SEQEND
  5
2340
100
AcDbEntity
  8
0
  0
POLYLINE
  5
2341
100
AcDbEntity
  8
0
100
AcDb2dPolyline
 66
     1
 10
0.0
 20
0.0
 30
0.0
  0
VERTEX
  5
2342
100
AcDbEntity
  8
0
100
AcDbVertex
100
AcDb2dVertex
 10
-13.546511
 20
-80.790911
 30
0.0
  0
VERTEX
  5
2343
100
AcDbEntity
  8
0
100
AcDbVertex
100
AcDb2dVertex
 10
-14.215887
 20
-83.08564
 30
0.0
  0
VERTEX
  5
2344
100
AcDbEntity
  8
0
100
AcDbVertex
100
AcDb2dVertex
 10
-14.549381
 20
-86.539157
 30
0.0
  0
SEQEND
  5
2345
100
AcDbEntity
  8
0
  0
LINE
  5
2346
100
AcDbEntity
  8
0
100
AcDbLine
 10
-12.799381
 20
-86.539157
 30
0.0
 11
-12.799381
 21
-81.183284
 31
0.0
  0
POLYLINE
  5
2347
100
AcDbEntity
  8
0
100
AcDb2dPolyline
 66
     1
 10
0.0
 20
0.0
 30
0.0
  0
VERTEX
  5
2348
100
AcDbEntity
  8
0
100
AcDbVertex
100
AcDb2dVertex
 10
4.311901
 20
-109.223252
 30
0.0
  0
VERTEX
  5
2349
100
AcDbEntity
  8
0
100
AcDbVertex
100
AcDb2dVertex
 10
1.271234
 20
-107.427318
 30
0.0
  0
VERTEX
  5
234A
100
AcDbEntity
  8
0
100
AcDbVertex
100
AcDb2dVertex
 10
-2.226779
 20
-104.925177
 30
0.0
  0
VERTEX
  5
234B
100
AcDbEntity
  8
0
100
AcDbVertex
100
AcDb2dVertex
 10
-5.264753
 20
-102.262502
 30
0.0
  0
VERTEX
  5
234C
100
AcDbEntity
  8
0
100
AcDbVertex
100
AcDb2dVertex
 10
-7.816148
 20
-99.462577
 30
0.0
  0
VERTEX
  5
234D
100
AcDbEntity
  8
0
100
AcDbVertex
100
AcDb2dVertex
 10
-9.858718
 20
-96.549851
 30
0.0
  0
VERTEX
  5
234E
100
AcDbEntity
  8
0
100
AcDbVertex
100
AcDb2dVertex
 10
-11.374656
 20
-93.549754
 30
0.0
  0
VERTEX
  5
234F
100
AcDbEntity
  8
0
100
AcDbVertex
100
AcDb2dVertex
 10
-12.35075
 20
-90.488474
 30
0.0
  0
VERTEX
  5
2350
100
AcDbEntity
  8
0
100
AcDbVertex
100
AcDb2dVertex
 10
-12.778495
 20
-87.392734
 30
0.0
  0
VERTEX
  5
2351
100
AcDbEntity
  8
0
100
AcDbVertex
100
AcDb2dVertex
 10
-12.799309
 20
-86.539562
 30
0.0
  0
SEQEND
  5
2352
100
AcDbEntity
  8
0
  0
LINE
  5
2353
100
AcDbEntity
  8
0
100
AcDbLine
 10
4.311901
 20
-108.51102
 30
0.0
 11
5.372562
 21
-109.068052
 31
0.0
  0
LINE
  5
2354
100
AcDbEntity
  8
0
100
AcDbLine
 10
4.311901
 20
-108.51102
 30
0.0
 11
5.198929
 21
-108.045176
 31
0.0
  0
LINE
  5
2355
100
AcDbEntity
  8
0
100
AcDbLine
 10
4.311901
 20
-110.213009
 30
0.0
 11
5.372562
 21
-110.770041
 31
0.0
  0
LINE
  5
2356
100
AcDbEntity
  8
0
100
AcDbLine
 10
4.311901
 20
-110.213009
 30
0.0
 11
4.311901
 21
-108.51102
 31
0.0
  0
POLYLINE
  5
2357
100
AcDbEntity
  8
0
100
AcDb2dPolyline
 66
     1
 10
0.0
 20
0.0
 30
0.0
  0
VERTEX
  5
2358
100
AcDbEntity
  8
0
100
AcDbVertex
100
AcDb2dVertex
 10
5.198929
 20
-108.045176
 30
0.0
  0
VERTEX
  5
2359
100
AcDbEntity
  8
0
100
AcDbVertex
100
AcDb2dVertex
 10
5.726115
 20
-108.325343
 30
0.0
  0
VERTEX
  5
235A
100
AcDbEntity
  8
0
100
AcDbVertex
100
AcDb2dVertex
 10
6.259589
 20
-108.602208
 30
0.0
  0
SEQEND
  5
235B
100
AcDbEntity
  8
0
  0
LINE
  5
235C
100
AcDbEntity
  8
0
100
AcDbLine
 10
5.372562
 20
-109.068052
 30
0.0
 11
6.259589
 21
-108.602208
 31
0.0
  0
LINE
  5
235D
100
AcDbEntity
  8
0
100
AcDbLine
 10
5.372562
 20
-110.770041
 30
0.0
 11
6.259589
 21
-110.304197
 31
0.0
  0
LINE
  5
235E
100
AcDbEntity
  8
0
100
AcDbLine
 10
5.372562
 20
-109.068052
 30
0.0
 11
5.372562
 21
-110.770041
 31
0.0
  0
LINE
  5
235F
100
AcDbEntity
  8
0
100
AcDbLine
 10
6.259589
 20
-110.304197
 30
0.0
 11
6.259589
 21
-108.602208
 31
0.0
  0
LINE
  5
2360
100
AcDbEntity
  8
0
100
AcDbLine
 10
-12.745714
 20
-96.257632
 30
0.0
 11
-12.767893
 21
-95.176398
 31
0.0
  0
LINE
  5
2361
100
AcDbEntity
  8
0
100
AcDbLine
 10
-14.215887
 20
-89.992675
 30
0.0
 11
-14.549381
 21
-86.539157
 31
0.0
  0
POLYLINE
  5
2362
100
AcDbEntity
  8
0
100
AcDb2dPolyline
 66
     1
 10
0.0
 20
0.0
 30
0.0
  0
VERTEX
  5
2363
100
AcDbEntity
  8
0
100
AcDbVertex
100
AcDb2dVertex
 10
4.850966
 20
-104.452585
 30
0.0
  0
VERTEX
  5
2364
100
AcDbEntity
  8
0
100
AcDbVertex
100
AcDb2dVertex
 10
4.87198
 20
-104.231232
 30
0.0
  0
VERTEX
  5
2365
100
AcDbEntity
  8
0
100
AcDbVertex
100
AcDb2dVertex
 10
4.934363
 20
-104.042913
 30
0.0
  0
VERTEX
  5
2366
100
AcDbEntity
  8
0
100
AcDbVertex
100
AcDb2dVertex
 10
5.035134
 20
-103.897714
 30
0.0
  0
VERTEX
  5
2367
100
AcDbEntity
  8
0
100
AcDbVertex
100
AcDb2dVertex
 10
5.148591
 20
-103.8127
 30
0.0
  0
SEQEND
  5
2368
100
AcDbEntity
  8
0
  0
POLYLINE
  5
2369
100
AcDbEntity
  8
0
100
AcDb2dPolyline
 66
     1
 10
0.0
 20
0.0
 30
0.0
  0
VERTEX
  5
236A
100
AcDbEntity
  8
0
100
AcDbVertex
100
AcDb2dVertex
 10
6.311195
 20
-106.026062
 30
0.0
  0
VERTEX
  5
236B
100
AcDbEntity
  8
0
100
AcDbVertex
100
AcDb2dVertex
 10
6.288341
 20
-106.037214
 30
0.0
  0
VERTEX
  5
236C
100
AcDbEntity
  8
0
100
AcDbVertex
100
AcDb2dVertex
 10
6.11711
 20
-106.079934
 30
0.0
  0
VERTEX
  5
236D
100
AcDbEntity
  8
0
100
AcDbVertex
100
AcDb2dVertex
 10
5.92463
 20
-106.061848
 30
0.0
  0
VERTEX
  5
236E
100
AcDbEntity
  8
0
100
AcDbVertex
100
AcDb2dVertex
 10
5.726324
 20
-105.985218
 30
0.0
  0
VERTEX
  5
236F
100
AcDbEntity
  8
0
100
AcDbVertex
100
AcDb2dVertex
 10
5.530451
 20
-105.85539
 30
0.0
  0
VERTEX
  5
2370
100
AcDbEntity
  8
0
100
AcDbVertex
100
AcDb2dVertex
 10
5.340881
 20
-105.673708
 30
0.0
  0
VERTEX
  5
2371
100
AcDbEntity
  8
0
100
AcDbVertex
100
AcDb2dVertex
 10
5.172051
 20
-105.452156
 30
0.0
  0
VERTEX
  5
2372
100
AcDbEntity
  8
0
100
AcDbVertex
100
AcDb2dVertex
 10
5.035315
 20
-105.208234
 30
0.0
  0
VERTEX
  5
2373
100
AcDbEntity
  8
0
100
AcDbVertex
100
AcDb2dVertex
 10
4.934572
 20
-104.953864
 30
0.0
  0
VERTEX
  5
2374
100
AcDbEntity
  8
0
100
AcDbVertex
100
AcDb2dVertex
 10
4.872053
 20
-104.697327
 30
0.0
  0
VERTEX
  5
2375
100
AcDbEntity
  8
0
100
AcDbVertex
100
AcDb2dVertex
 10
4.850966
 20
-104.452585
 30
0.0
  0
SEQEND
  5
2376
100
AcDbEntity
  8
0
  0
POLYLINE
  5
2377
100
AcDbEntity
  8
0
100
AcDb2dPolyline
 66
     1
 10
0.0
 20
0.0
 30
0.0
  0
VERTEX
  5
2378
100
AcDbEntity
  8
0
100
AcDbVertex
100
AcDb2dVertex
 10
5.737334
 20
-103.987087
 30
0.0
  0
VERTEX
  5
2379
100
AcDbEntity
  8
0
100
AcDbVertex
100
AcDb2dVertex
 10
5.761823
 20
-104.23021
 30
0.0
  0
VERTEX
  5
237A
100
AcDbEntity
  8
0
100
AcDbVertex
100
AcDb2dVertex
 10
5.82754
 20
-104.484979
 30
0.0
  0
VERTEX
  5
237B
100
AcDbEntity
  8
0
100
AcDbVertex
100
AcDb2dVertex
 10
5.931112
 20
-104.737759
 30
0.0
  0
VERTEX
  5
237C
100
AcDbEntity
  8
0
100
AcDbVertex
100
AcDb2dVertex
 10
6.07022
 20
-104.980327
 30
0.0
  0
VERTEX
  5
237D
100
AcDbEntity
  8
0
100
AcDbVertex
100
AcDb2dVertex
 10
6.240866
 20
-105.200874
 30
0.0
  0
VERTEX
  5
237E
100
AcDbEntity
  8
0
100
AcDbVertex
100
AcDb2dVertex
 10
6.431548
 20
-105.381962
 30
0.0
  0
SEQEND
  5
237F
100
AcDbEntity
  8
0
  0
LINE
  5
2380
100
AcDbEntity
  8
0
100
AcDbLine
 10
5.746674
 20
-103.87117
 30
0.0
 11
5.737334
 21
-103.987087
 31
0.0
  0
POLYLINE
  5
2381
100
AcDbEntity
  8
0
100
AcDb2dPolyline
 66
     1
 10
0.0
 20
0.0
 30
0.0
  0
VERTEX
  5
2382
100
AcDbEntity
  8
0
100
AcDbVertex
100
AcDb2dVertex
 10
6.618733
 20
-105.380971
 30
0.0
  0
VERTEX
  5
2383
100
AcDbEntity
  8
0
100
AcDbVertex
100
AcDb2dVertex
 10
6.596883
 20
-105.602764
 30
0.0
  0
VERTEX
  5
2384
100
AcDbEntity
  8
0
100
AcDbVertex
100
AcDb2dVertex
 10
6.532138
 20
-105.792322
 30
0.0
  0
VERTEX
  5
2385
100
AcDbEntity
  8
0
100
AcDbVertex
100
AcDb2dVertex
 10
6.42794
 20
-105.939321
 30
0.0
  0
VERTEX
  5
2386
100
AcDbEntity
  8
0
100
AcDbVertex
100
AcDb2dVertex
 10
6.311195
 20
-106.026062
 30
0.0
  0
SEQEND
  5
2387
100
AcDbEntity
  8
0
  0
LINE
  5
2388
100
AcDbEntity
  8
0
100
AcDbLine
 10
6.431548
 20
-105.381962
 30
0.0
 11
6.607201
 21
-105.498034
 31
0.0
  0
POLYLINE
  5
2389
100
AcDbEntity
  8
0
100
AcDb2dPolyline
 66
     1
 10
0.0
 20
0.0
 30
0.0
  0
VERTEX
  5
238A
100
AcDbEntity
  8
0
100
AcDbVertex
100
AcDb2dVertex
 10
5.148591
 20
-103.8127
 30
0.0
  0
VERTEX
  5
238B
100
AcDbEntity
  8
0
100
AcDbVertex
100
AcDb2dVertex
 10
5.170869
 20
-103.80185
 30
0.0
  0
VERTEX
  5
238C
100
AcDbEntity
  8
0
100
AcDbVertex
100
AcDb2dVertex
 10
5.338509
 20
-103.761017
 30
0.0
  0
VERTEX
  5
238D
100
AcDbEntity
  8
0
100
AcDbVertex
100
AcDb2dVertex
 10
5.528478
 20
-103.780422
 30
0.0
  0
VERTEX
  5
238E
100
AcDbEntity
  8
0
100
AcDbVertex
100
AcDb2dVertex
 10
5.725906
 20
-103.857512
 30
0.0
  0
VERTEX
  5
238F
100
AcDbEntity
  8
0
100
AcDbVertex
100
AcDb2dVertex
 10
5.922639
 20
-103.986889
 30
0.0
  0
VERTEX
  5
2390
100
AcDbEntity
  8
0
100
AcDbVertex
100
AcDb2dVertex
 10
6.114696
 20
-104.167265
 30
0.0
  0
VERTEX
  5
2391
100
AcDbEntity
  8
0
100
AcDbVertex
100
AcDb2dVertex
 10
6.287129
 20
-104.386924
 30
0.0
  0
VERTEX
  5
2392
100
AcDbEntity
  8
0
100
AcDbVertex
100
AcDb2dVertex
 10
6.427754
 20
-104.628804
 30
0.0
  0
VERTEX
  5
2393
100
AcDbEntity
  8
0
100
AcDbVertex
100
AcDb2dVertex
 10
6.531922
 20
-104.881376
 30
0.0
  0
VERTEX
  5
2394
100
AcDbEntity
  8
0
100
AcDbVertex
100
AcDb2dVertex
 10
6.596807
 20
-105.13667
 30
0.0
  0
VERTEX
  5
2395
100
AcDbEntity
  8
0
100
AcDbVertex
100
AcDb2dVertex
 10
6.618733
 20
-105.380971
 30
0.0
  0
SEQEND
  5
2396
100
AcDbEntity
  8
0
  0
LINE
  5
2397
100
AcDbEntity
  8
0
100
AcDbLine
 10
44.128061
 20
-111.080133
 30
0.0
 11
45.450619
 21
-111.774707
 31
0.0
  0
LINE
  5
2398
100
AcDbEntity
  8
0
100
AcDbLine
 10
45.450619
 20
-111.774707
 30
0.0
 11
45.450619
 21
-111.179011
 31
0.0
  0
LINE
  5
2399
100
AcDbEntity
  8
0
100
AcDbLine
 10
44.128061
 20
-108.101652
 30
0.0
 11
44.128061
 21
-111.080133
 31
0.0
  0
POLYLINE
  5
239A
100
AcDbEntity
  8
0
100
AcDb2dPolyline
 66
     1
 10
0.0
 20
0.0
 30
0.0
  0
VERTEX
  5
239B
100
AcDbEntity
  8
0
100
AcDbVertex
100
AcDb2dVertex
 10
44.128061
 20
-108.101652
 30
0.0
  0
VERTEX
  5
239C
100
AcDbEntity
  8
0
100
AcDbVertex
100
AcDb2dVertex
 10
44.564827
 20
-109.110827
 30
0.0
  0
VERTEX
  5
239D
100
AcDbEntity
  8
0
100
AcDbVertex
100
AcDb2dVertex
 10
45.00565
 20
-110.136523
 30
0.0
  0
VERTEX
  5
239E
100
AcDbEntity
  8
0
100
AcDbVertex
100
AcDb2dVertex
 10
45.450619
 20
-111.179011
 30
0.0
  0
SEQEND
  5
239F
100
AcDbEntity
  8
0
  0
POLYLINE
  5
23A0
100
AcDbEntity
  8
0
100
AcDb2dPolyline
 66
     1
 10
0.0
 20
0.0
 30
0.0
  0
VERTEX
  5
23A1
100
AcDbEntity
  8
0
100
AcDbVertex
100
AcDb2dVertex
 10
2.987214
 20
-52.669495
 30
0.0
  0
VERTEX
  5
23A2
100
AcDbEntity
  8
0
100
AcDbVertex
100
AcDb2dVertex
 10
-0.848095
 20
-55.193741
 30
0.0
  0
VERTEX
  5
23A3
100
AcDbEntity
  8
0
100
AcDbVertex
100
AcDb2dVertex
 10
-4.198542
 20
-57.901645
 30
0.0
  0
VERTEX
  5
23A4
100
AcDbEntity
  8
0
100
AcDbVertex
100
AcDb2dVertex
 10
-7.032463
 20
-60.767611
 30
0.0
  0
VERTEX
  5
23A5
100
AcDbEntity
  8
0
100
AcDbVertex
100
AcDb2dVertex
 10
-9.323075
 20
-63.764552
 30
0.0
  0
VERTEX
  5
23A6
100
AcDbEntity
  8
0
100
AcDbVertex
100
AcDb2dVertex
 10
-11.048729
 20
-66.864143
 30
0.0
  0
VERTEX
  5
23A7
100
AcDbEntity
  8
0
100
AcDbVertex
100
AcDb2dVertex
 10
-12.193115
 20
-70.037087
 30
0.0
  0
SEQEND
  5
23A8
100
AcDbEntity
  8
0
  0
POLYLINE
  5
23A9
100
AcDbEntity
  8
0
100
AcDb2dPolyline
 66
     1
 10
0.0
 20
0.0
 30
0.0
  0
VERTEX
  5
23AA
100
AcDbEntity
  8
0
100
AcDbVertex
100
AcDb2dVertex
 10
-12.193115
 20
-70.037087
 30
0.0
  0
VERTEX
  5
23AB
100
AcDbEntity
  8
0
100
AcDbVertex
100
AcDb2dVertex
 10
-12.745418
 20
-73.253395
 30
0.0
  0
VERTEX
  5
23AC
100
AcDbEntity
  8
0
100
AcDbVertex
100
AcDb2dVertex
 10
-12.799255
 20
-74.625047
 30
0.0
  0
SEQEND
  5
23AD
100
AcDbEntity
  8
0
  0
POLYLINE
  5
23AE
100
AcDbEntity
  8
0
100
AcDb2dPolyline
 66
     1
 10
0.0
 20
0.0
 30
0.0
  0
VERTEX
  5
23AF
100
AcDbEntity
  8
0
100
AcDbVertex
100
AcDb2dVertex
 10
-13.80514
 20
-74.807643
 30
0.0
  0
VERTEX
  5
23B0
100
AcDbEntity
  8
0
100
AcDbVertex
100
AcDb2dVertex
 10
-13.360162
 20
-73.765135
 30
0.0
  0
VERTEX
  5
23B1
100
AcDbEntity
  8
0
100
AcDbVertex
100
AcDb2dVertex
 10
-12.919339
 20
-72.739439
 30
0.0
  0
VERTEX
  5
23B2
100
AcDbEntity
  8
0
100
AcDbVertex
100
AcDb2dVertex
 10
-12.482582
 20
-71.730285
 30
0.0
  0
SEQEND
  5
23B3
100
AcDbEntity
  8
0
  0
LINE
  5
23B4
100
AcDbEntity
  8
0
100
AcDbLine
 10
-13.80514
 20
-80.655086
 30
0.0
 11
-13.999381
 21
-78.029212
 31
0.0
  0
LINE
  5
23B5
100
AcDbEntity
  8
0
100
AcDbLine
 10
-13.80514
 20
-80.059389
 30
0.0
 11
-13.999381
 21
-77.433516
 31
0.0
  0
POLYLINE
  5
23B6
100
AcDbEntity
  8
0
100
AcDb2dPolyline
 66
     1
 10
0.0
 20
0.0
 30
0.0
  0
VERTEX
  5
23B7
100
AcDbEntity
  8
0
100
AcDbVertex
100
AcDb2dVertex
 10
-12.482582
 20
-78.371179
 30
0.0
  0
VERTEX
  5
23B8
100
AcDbEntity
  8
0
100
AcDbVertex
100
AcDb2dVertex
 10
-12.764155
 20
-76.159193
 30
0.0
  0
VERTEX
  5
23B9
100
AcDbEntity
  8
0
100
AcDbVertex
100
AcDb2dVertex
 10
-12.799381
 20
-75.050732
 30
0.0
  0
SEQEND
  5
23BA
100
AcDbEntity
  8
0
  0
LINE
  5
23BB
100
AcDbEntity
  8
0
100
AcDbLine
 10
-13.80514
 20
-80.059389
 30
0.0
 11
-13.80514
 21
-80.655086
 31
0.0
  0
LINE
  5
23BC
100
AcDbEntity
  8
0
100
AcDbLine
 10
-12.482582
 20
-78.371179
 30
0.0
 11
-12.482582
 21
-81.349659
 31
0.0
  0
POLYLINE
  5
23BD
100
AcDbEntity
  8
0
100
AcDb2dPolyline
 66
     1
 10
0.0
 20
0.0
 30
0.0
  0
VERTEX
  5
23BE
100
AcDbEntity
  8
0
100
AcDbVertex
100
AcDb2dVertex
 10
-12.482582
 20
-78.371179
 30
0.0
  0
VERTEX
  5
23BF
100
AcDbEntity
  8
0
100
AcDbVertex
100
AcDb2dVertex
 10
-12.919348
 20
-78.921597
 30
0.0
  0
VERTEX
  5
23C0
100
AcDbEntity
  8
0
100
AcDbVertex
100
AcDb2dVertex
 10
-13.360171
 20
-79.484274
 30
0.0
  0
VERTEX
  5
23C1
100
AcDbEntity
  8
0
100
AcDbVertex
100
AcDb2dVertex
 10
-13.80514
 20
-80.059389
 30
0.0
  0
SEQEND
  5
23C2
100
AcDbEntity
  8
0
  0
LINE
  5
23C3
100
AcDbEntity
  8
0
100
AcDbLine
 10
-12.482582
 20
-81.349659
 30
0.0
 11
-13.80514
 21
-80.655086
 31
0.0
  0
LINE
  5
23C4
100
AcDbEntity
  8
0
100
AcDbLine
 10
-13.999381
 20
-77.433516
 30
0.0
 11
-13.80514
 21
-74.807643
 31
0.0
  0
LINE
  5
23C5
100
AcDbEntity
  8
0
100
AcDbLine
 10
-11.681984
 20
-74.977842
 30
0.0
 11
-11.685758
 21
-74.625235
 31
0.0
  0
POLYLINE
  5
23C6
100
AcDbEntity
  8
0
100
AcDb2dPolyline
 66
     1
 10
0.0
 20
0.0
 30
0.0
  0
VERTEX
  5
23C7
100
AcDbEntity
  8
0
100
AcDbVertex
100
AcDb2dVertex
 10
2.632957
 20
-52.483448
 30
0.0
  0
VERTEX
  5
23C8
100
AcDbEntity
  8
0
100
AcDbVertex
100
AcDb2dVertex
 10
4.439074
 20
-51.451996
 30
0.0
  0
VERTEX
  5
23C9
100
AcDbEntity
  8
0
100
AcDbVertex
100
AcDb2dVertex
 10
6.325794
 20
-50.461138
 30
0.0
  0
VERTEX
  5
23CA
100
AcDbEntity
  8
0
100
AcDbVertex
100
AcDb2dVertex
 10
8.289811
 20
-49.512612
 30
0.0
  0
SEQEND
  5
23CB
100
AcDbEntity
  8
0
  0
LINE
  5
23CC
100
AcDbEntity
  8
0
100
AcDbLine
 10
2.632957
 20
-52.483448
 30
0.0
 11
2.632957
 21
-52.902652
 31
0.0
  0
LINE
  5
23CD
100
AcDbEntity
  8
0
100
AcDbLine
 10
2.987214
 20
-52.669495
 30
0.0
 11
2.632957
 21
-52.483448
 31
0.0
  0
LINE
  5
23CE
100
AcDbEntity
  8
0
100
AcDbLine
 10
8.289811
 20
-49.512612
 30
0.0
 11
8.644068
 21
-49.698658
 31
0.0
  0
LINE
  5
23CF
100
AcDbEntity
  8
0
100
AcDbLine
 10
113.700619
 20
-86.539157
 30
0.0
 11
113.700619
 21
-81.183284
 31
0.0
  0
POLYLINE
  5
23D0
100
AcDbEntity
  8
0
100
AcDb2dPolyline
 66
     1
 10
0.0
 20
0.0
 30
0.0
  0
VERTEX
  5
23D1
100
AcDbEntity
  8
0
100
AcDbVertex
100
AcDb2dVertex
 10
115.450619
 20
-86.539157
 30
0.0
  0
VERTEX
  5
23D2
100
AcDbEntity
  8
0
100
AcDbVertex
100
AcDb2dVertex
 10
115.117125
 20
-83.08564
 30
0.0
  0
VERTEX
  5
23D3
100
AcDbEntity
  8
0
100
AcDbVertex
100
AcDb2dVertex
 10
114.447748
 20
-80.790911
 30
0.0
  0
SEQEND
  5
23D4
100
AcDbEntity
  8
0
  0
POLYLINE
  5
23D5
100
AcDbEntity
  8
0
100
AcDb2dPolyline
 66
     1
 10
0.0
 20
0.0
 30
0.0
  0
VERTEX
  5
23D6
100
AcDbEntity
  8
0
100
AcDbVertex
100
AcDb2dVertex
 10
97.914024
 20
-96.580974
 30
0.0
  0
VERTEX
  5
23D7
100
AcDbEntity
  8
0
100
AcDbVertex
100
AcDb2dVertex
 10
101.749655
 20
-94.056493
 30
0.0
  0
VERTEX
  5
23D8
100
AcDbEntity
  8
0
100
AcDbVertex
100
AcDb2dVertex
 10
105.100302
 20
-91.348353
 30
0.0
  0
VERTEX
  5
23D9
100
AcDbEntity
  8
0
100
AcDbVertex
100
AcDb2dVertex
 10
107.934326
 20
-88.482143
 30
0.0
  0
VERTEX
  5
23DA
100
AcDbEntity
  8
0
100
AcDbVertex
100
AcDb2dVertex
 10
110.224941
 20
-85.484963
 30
0.0
  0
VERTEX
  5
23DB
100
AcDbEntity
  8
0
100
AcDbVertex
100
AcDb2dVertex
 10
111.950506
 20
-82.385147
 30
0.0
  0
VERTEX
  5
23DC
100
AcDbEntity
  8
0
100
AcDbVertex
100
AcDb2dVertex
 10
113.094721
 20
-79.211997
 30
0.0
  0
VERTEX
  5
23DD
100
AcDbEntity
  8
0
100
AcDbVertex
100
AcDb2dVertex
 10
113.64678
 20
-75.995501
 30
0.0
  0
VERTEX
  5
23DE
100
AcDbEntity
  8
0
100
AcDbVertex
100
AcDb2dVertex
 10
113.700494
 20
-74.625414
 30
0.0
  0
SEQEND
  5
23DF
100
AcDbEntity
  8
0
  0
POLYLINE
  5
23E0
100
AcDbEntity
  8
0
100
AcDb2dPolyline
 66
     1
 10
0.0
 20
0.0
 30
0.0
  0
VERTEX
  5
23E1
100
AcDbEntity
  8
0
100
AcDbVertex
100
AcDb2dVertex
 10
113.700491
 20
-86.539354
 30
0.0
  0
VERTEX
  5
23E2
100
AcDbEntity
  8
0
100
AcDbVertex
100
AcDb2dVertex
 10
113.646627
 20
-87.911368
 30
0.0
  0
VERTEX
  5
23E3
100
AcDbEntity
  8
0
100
AcDbVertex
100
AcDb2dVertex
 10
113.094265
 20
-91.127635
 30
0.0
  0
VERTEX
  5
23E4
100
AcDbEntity
  8
0
100
AcDbVertex
100
AcDb2dVertex
 10
111.949829
 20
-94.30055
 30
0.0
  0
VERTEX
  5
23E5
100
AcDbEntity
  8
0
100
AcDbVertex
100
AcDb2dVertex
 10
110.224135
 20
-97.40011
 30
0.0
  0
VERTEX
  5
23E6
100
AcDbEntity
  8
0
100
AcDbVertex
100
AcDb2dVertex
 10
107.9335
 20
-100.397011
 30
0.0
  0
VERTEX
  5
23E7
100
AcDbEntity
  8
0
100
AcDbVertex
100
AcDb2dVertex
 10
105.099587
 20
-103.262921
 30
0.0
  0
VERTEX
  5
23E8
100
AcDbEntity
  8
0
100
AcDbVertex
100
AcDb2dVertex
 10
101.749202
 20
-105.970745
 30
0.0
  0
VERTEX
  5
23E9
100
AcDbEntity
  8
0
100
AcDbVertex
100
AcDb2dVertex
 10
98.268281
 20
-108.26174
 30
0.0
  0
SEQEND
  5
23EA
100
AcDbEntity
  8
0
  0
LINE
  5
23EB
100
AcDbEntity
  8
0
100
AcDbLine
 10
55.450619
 20
-111.774707
 30
0.0
 11
55.450619
 21
-111.179011
 31
0.0
  0
LINE
  5
23EC
100
AcDbEntity
  8
0
100
AcDbLine
 10
55.450619
 20
-111.774707
 30
0.0
 11
56.773177
 21
-111.080133
 31
0.0
  0
LINE
  5
23ED
100
AcDbEntity
  8
0
100
AcDbLine
 10
56.773177
 20
-108.101652
 30
0.0
 11
56.773177
 21
-111.080133
 31
0.0
  0
POLYLINE
  5
23EE
100
AcDbEntity
  8
0
100
AcDb2dPolyline
 66
     1
 10
0.0
 20
0.0
 30
0.0
  0
VERTEX
  5
23EF
100
AcDbEntity
  8
0
100
AcDbVertex
100
AcDb2dVertex
 10
55.450619
 20
-111.179011
 30
0.0
  0
VERTEX
  5
23F0
100
AcDbEntity
  8
0
100
AcDbVertex
100
AcDb2dVertex
 10
55.895597
 20
-110.136502
 30
0.0
  0
VERTEX
  5
23F1
100
AcDbEntity
  8
0
100
AcDbVertex
100
AcDb2dVertex
 10
56.33642
 20
-109.110807
 30
0.0
  0
VERTEX
  5
23F2
100
AcDbEntity
  8
0
100
AcDbVertex
100
AcDb2dVertex
 10
56.773177
 20
-108.101652
 30
0.0
  0
SEQEND
  5
23F3
100
AcDbEntity
  8
0
  0
LINE
  5
23F4
100
AcDbEntity
  8
0
100
AcDbLine
 10
98.268281
 20
-96.767021
 30
0.0
 11
98.268281
 21
-108.680944
 31
0.0
  0
LINE
  5
23F5
100
AcDbEntity
  8
0
100
AcDbLine
 10
92.25717
 20
-111.465733
 30
0.0
 11
92.25717
 21
-99.551811
 31
0.0
  0
LINE
  5
23F6
100
AcDbEntity
  8
0
100
AcDbLine
 10
92.611427
 20
-99.737857
 30
0.0
 11
92.611427
 21
-111.65178
 31
0.0
  0
POLYLINE
  5
23F7
100
AcDbEntity
  8
0
100
AcDb2dPolyline
 66
     1
 10
0.0
 20
0.0
 30
0.0
  0
VERTEX
  5
23F8
100
AcDbEntity
  8
0
100
AcDbVertex
100
AcDb2dVertex
 10
98.268281
 20
-108.680944
 30
0.0
  0
VERTEX
  5
23F9
100
AcDbEntity
  8
0
100
AcDbVertex
100
AcDb2dVertex
 10
96.462164
 20
-109.712396
 30
0.0
  0
VERTEX
  5
23FA
100
AcDbEntity
  8
0
100
AcDbVertex
100
AcDb2dVertex
 10
94.575444
 20
-110.703253
 30
0.0
  0
VERTEX
  5
23FB
100
AcDbEntity
  8
0
100
AcDbVertex
100
AcDb2dVertex
 10
92.611427
 20
-111.65178
 30
0.0
  0
SEQEND
  5
23FC
100
AcDbEntity
  8
0
  0
LINE
  5
23FD
100
AcDbEntity
  8
0
100
AcDbLine
 10
92.611427
 20
-111.65178
 30
0.0
 11
92.25717
 21
-111.465733
 31
0.0
  0
POLYLINE
  5
23FE
100
AcDbEntity
  8
0
100
AcDb2dPolyline
 66
     1
 10
0.0
 20
0.0
 30
0.0
  0
VERTEX
  5
23FF
100
AcDbEntity
  8
0
100
AcDbVertex
100
AcDb2dVertex
 10
98.268281
 20
-96.767021
 30
0.0
  0
VERTEX
  5
2400
100
AcDbEntity
  8
0
100
AcDbVertex
100
AcDb2dVertex
 10
96.462164
 20
-97.798473
 30
0.0
  0
VERTEX
  5
2401
100
AcDbEntity
  8
0
100
AcDbVertex
100
AcDb2dVertex
 10
94.575444
 20
-98.789331
 30
0.0
  0
VERTEX
  5
2402
100
AcDbEntity
  8
0
100
AcDbVertex
100
AcDb2dVertex
 10
92.611427
 20
-99.737857
 30
0.0
  0
SEQEND
  5
2403
100
AcDbEntity
  8
0
  0
LINE
  5
2404
100
AcDbEntity
  8
0
100
AcDbLine
 10
92.611427
 20
-99.737857
 30
0.0
 11
92.25717
 21
-99.551811
 31
0.0
  0
LINE
  5
2405
100
AcDbEntity
  8
0
100
AcDbLine
 10
97.914024
 20
-96.580974
 30
0.0
 11
98.268281
 21
-96.767021
 31
0.0
  0
LINE
  5
2406
100
AcDbEntity
  8
0
100
AcDbLine
 10
113.646952
 20
-96.257632
 30
0.0
 11
113.669131
 21
-95.176398
 31
0.0
  0
POLYLINE
  5
2407
100
AcDbEntity
  8
0
100
AcDb2dPolyline
 66
     1
 10
0.0
 20
0.0
 30
0.0
  0
VERTEX
  5
2408
100
AcDbEntity
  8
0
100
AcDbVertex
100
AcDb2dVertex
 10
93.715313
 20
-57.299775
 30
0.0
  0
VERTEX
  5
2409
100
AcDbEntity
  8
0
100
AcDbVertex
100
AcDb2dVertex
 10
93.73892
 20
-57.288179
 30
0.0
  0
VERTEX
  5
240A
100
AcDbEntity
  8
0
100
AcDbVertex
100
AcDb2dVertex
 10
93.912107
 20
-57.24457
 30
0.0
  0
VERTEX
  5
240B
100
AcDbEntity
  8
0
100
AcDbVertex
100
AcDb2dVertex
 10
94.105785
 20
-57.262129
 30
0.0
  0
VERTEX
  5
240C
100
AcDbEntity
  8
0
100
AcDbVertex
100
AcDb2dVertex
 10
94.304396
 20
-57.338594
 30
0.0
  0
VERTEX
  5
240D
100
AcDbEntity
  8
0
100
AcDbVertex
100
AcDb2dVertex
 10
94.499785
 20
-57.468625
 30
0.0
  0
VERTEX
  5
240E
100
AcDbEntity
  8
0
100
AcDbVertex
100
AcDb2dVertex
 10
94.688106
 20
-57.650928
 30
0.0
  0
VERTEX
  5
240F
100
AcDbEntity
  8
0
100
AcDbVertex
100
AcDb2dVertex
 10
94.854938
 20
-57.873443
 30
0.0
  0
VERTEX
  5
2410
100
AcDbEntity
  8
0
100
AcDbVertex
100
AcDb2dVertex
 10
94.989108
 20
-58.118572
 30
0.0
  0
VERTEX
  5
2411
100
AcDbEntity
  8
0
100
AcDbVertex
100
AcDb2dVertex
 10
95.086897
 20
-58.374382
 30
0.0
  0
VERTEX
  5
2412
100
AcDbEntity
  8
0
100
AcDbVertex
100
AcDb2dVertex
 10
95.146177
 20
-58.632563
 30
0.0
  0
VERTEX
  5
2413
100
AcDbEntity
  8
0
100
AcDbVertex
100
AcDb2dVertex
 10
95.163903
 20
-58.879294
 30
0.0
  0
SEQEND
  5
2414
100
AcDbEntity
  8
0
  0
POLYLINE
  5
2415
100
AcDbEntity
  8
0
100
AcDb2dPolyline
 66
     1
 10
0.0
 20
0.0
 30
0.0
  0
VERTEX
  5
2416
100
AcDbEntity
  8
0
100
AcDbVertex
100
AcDb2dVertex
 10
94.854851
 20
-59.52511
 30
0.0
  0
VERTEX
  5
2417
100
AcDbEntity
  8
0
100
AcDbVertex
100
AcDb2dVertex
 10
94.831871
 20
-59.536379
 30
0.0
  0
VERTEX
  5
2418
100
AcDbEntity
  8
0
100
AcDbVertex
100
AcDb2dVertex
 10
94.662343
 20
-59.578082
 30
0.0
  0
VERTEX
  5
2419
100
AcDbEntity
  8
0
100
AcDbVertex
100
AcDb2dVertex
 10
94.471217
 20
-59.559189
 30
0.0
  0
VERTEX
  5
241A
100
AcDbEntity
  8
0
100
AcDbVertex
100
AcDb2dVertex
 10
94.273488
 20
-59.482259
 30
0.0
  0
VERTEX
  5
241B
100
AcDbEntity
  8
0
100
AcDbVertex
100
AcDb2dVertex
 10
94.077208
 20
-59.352685
 30
0.0
  0
VERTEX
  5
241C
100
AcDbEntity
  8
0
100
AcDbVertex
100
AcDb2dVertex
 10
93.886331
 20
-59.171698
 30
0.0
  0
VERTEX
  5
241D
100
AcDbEntity
  8
0
100
AcDbVertex
100
AcDb2dVertex
 10
93.715808
 20
-58.951086
 30
0.0
  0
VERTEX
  5
241E
100
AcDbEntity
  8
0
100
AcDbVertex
100
AcDb2dVertex
 10
93.577667
 20
-58.708012
 30
0.0
  0
VERTEX
  5
241F
100
AcDbEntity
  8
0
100
AcDbVertex
100
AcDb2dVertex
 10
93.476392
 20
-58.454026
 30
0.0
  0
VERTEX
  5
2420
100
AcDbEntity
  8
0
100
AcDbVertex
100
AcDb2dVertex
 10
93.414712
 20
-58.197136
 30
0.0
  0
VERTEX
  5
2421
100
AcDbEntity
  8
0
100
AcDbVertex
100
AcDb2dVertex
 10
93.396136
 20
-57.950908
 30
0.0
  0
SEQEND
  5
2422
100
AcDbEntity
  8
0
  0
LINE
  5
2423
100
AcDbEntity
  8
0
100
AcDbLine
 10
94.29724
 20
-57.335839
 30
0.0
 11
94.282504
 21
-57.48541
 31
0.0
  0
POLYLINE
  5
2424
100
AcDbEntity
  8
0
100
AcDb2dPolyline
 66
     1
 10
0.0
 20
0.0
 30
0.0
  0
VERTEX
  5
2425
100
AcDbEntity
  8
0
100
AcDbVertex
100
AcDb2dVertex
 10
95.163903
 20
-58.879294
 30
0.0
  0
VERTEX
  5
2426
100
AcDbEntity
  8
0
100
AcDbVertex
100
AcDb2dVertex
 10
95.139398
 20
-59.102984
 30
0.0
  0
VERTEX
  5
2427
100
AcDbEntity
  8
0
100
AcDbVertex
100
AcDb2dVertex
 10
95.073729
 20
-59.292828
 30
0.0
  0
VERTEX
  5
2428
100
AcDbEntity
  8
0
100
AcDbVertex
100
AcDb2dVertex
 10
94.970045
 20
-59.439377
 30
0.0
  0
VERTEX
  5
2429
100
AcDbEntity
  8
0
100
AcDbVertex
100
AcDb2dVertex
 10
94.854851
 20
-59.52511
 30
0.0
  0
SEQEND
  5
242A
100
AcDbEntity
  8
0
  0
POLYLINE
  5
242B
100
AcDbEntity
  8
0
100
AcDb2dPolyline
 66
     1
 10
0.0
 20
0.0
 30
0.0
  0
VERTEX
  5
242C
100
AcDbEntity
  8
0
100
AcDbVertex
100
AcDb2dVertex
 10
93.396136
 20
-57.950908
 30
0.0
  0
VERTEX
  5
242D
100
AcDbEntity
  8
0
100
AcDbVertex
100
AcDb2dVertex
 10
93.421511
 20
-57.726723
 30
0.0
  0
VERTEX
  5
242E
100
AcDbEntity
  8
0
100
AcDbVertex
100
AcDb2dVertex
 10
93.48961
 20
-57.535601
 30
0.0
  0
VERTEX
  5
242F
100
AcDbEntity
  8
0
100
AcDbVertex
100
AcDb2dVertex
 10
93.596803
 20
-57.38723
 30
0.0
  0
VERTEX
  5
2430
100
AcDbEntity
  8
0
100
AcDbVertex
100
AcDb2dVertex
 10
93.715313
 20
-57.299775
 30
0.0
  0
SEQEND
  5
2431
100
AcDbEntity
  8
0
  0
POLYLINE
  5
2432
100
AcDbEntity
  8
0
100
AcDb2dPolyline
 66
     1
 10
0.0
 20
0.0
 30
0.0
  0
VERTEX
  5
2433
100
AcDbEntity
  8
0
100
AcDbVertex
100
AcDb2dVertex
 10
94.282504
 20
-57.48541
 30
0.0
  0
VERTEX
  5
2434
100
AcDbEntity
  8
0
100
AcDbVertex
100
AcDb2dVertex
 10
94.304431
 20
-57.729711
 30
0.0
  0
VERTEX
  5
2435
100
AcDbEntity
  8
0
100
AcDbVertex
100
AcDb2dVertex
 10
94.369316
 20
-57.985005
 30
0.0
  0
VERTEX
  5
2436
100
AcDbEntity
  8
0
100
AcDbVertex
100
AcDb2dVertex
 10
94.473483
 20
-58.237576
 30
0.0
  0
VERTEX
  5
2437
100
AcDbEntity
  8
0
100
AcDbVertex
100
AcDb2dVertex
 10
94.614108
 20
-58.479456
 30
0.0
  0
VERTEX
  5
2438
100
AcDbEntity
  8
0
100
AcDbVertex
100
AcDb2dVertex
 10
94.786541
 20
-58.699115
 30
0.0
  0
VERTEX
  5
2439
100
AcDbEntity
  8
0
100
AcDbVertex
100
AcDb2dVertex
 10
94.978598
 20
-58.879491
 30
0.0
  0
SEQEND
  5
243A
100
AcDbEntity
  8
0
  0
LINE
  5
243B
100
AcDbEntity
  8
0
100
AcDbLine
 10
94.978598
 20
-58.879491
 30
0.0
 11
95.15143
 21
-58.99315
 31
0.0
  0
POLYLINE
  5
243C
100
AcDbEntity
  8
0
100
AcDb2dPolyline
 66
     1
 10
0.0
 20
0.0
 30
0.0
  0
VERTEX
  5
243D
100
AcDbEntity
  8
0
100
AcDbVertex
100
AcDb2dVertex
 10
114.706377
 20
-74.807643
 30
0.0
  0
VERTEX
  5
243E
100
AcDbEntity
  8
0
100
AcDbVertex
100
AcDb2dVertex
 10
114.2614
 20
-73.765135
 30
0.0
  0
VERTEX
  5
243F
100
AcDbEntity
  8
0
100
AcDbVertex
100
AcDb2dVertex
 10
113.820577
 20
-72.739439
 30
0.0
  0
VERTEX
  5
2440
100
AcDbEntity
  8
0
100
AcDbVertex
100
AcDb2dVertex
 10
113.403407
 20
-71.775543
 30
0.0
  0
SEQEND
  5
2441
100
AcDbEntity
  8
0
  0
POLYLINE
  5
2442
100
AcDbEntity
  8
0
100
AcDb2dPolyline
 66
     1
 10
0.0
 20
0.0
 30
0.0
  0
VERTEX
  5
2443
100
AcDbEntity
  8
0
100
AcDbVertex
100
AcDb2dVertex
 10
113.700619
 20
-75.050732
 30
0.0
  0
VERTEX
  5
2444
100
AcDbEntity
  8
0
100
AcDbVertex
100
AcDb2dVertex
 10
113.665393
 20
-76.159193
 30
0.0
  0
VERTEX
  5
2445
100
AcDbEntity
  8
0
100
AcDbVertex
100
AcDb2dVertex
 10
113.38382
 20
-78.371179
 30
0.0
  0
SEQEND
  5
2446
100
AcDbEntity
  8
0
  0
LINE
  5
2447
100
AcDbEntity
  8
0
100
AcDbLine
 10
114.706377
 20
-80.059389
 30
0.0
 11
114.900619
 21
-77.433516
 31
0.0
  0
LINE
  5
2448
100
AcDbEntity
  8
0
100
AcDbLine
 10
114.706377
 20
-80.655086
 30
0.0
 11
114.900619
 21
-78.029212
 31
0.0
  0
LINE
  5
2449
100
AcDbEntity
  8
0
100
AcDbLine
 10
113.38382
 20
-81.349659
 30
0.0
 11
114.706377
 21
-80.655086
 31
0.0
  0
LINE
  5
244A
100
AcDbEntity
  8
0
100
AcDbLine
 10
113.38382
 20
-78.371179
 30
0.0
 11
113.38382
 21
-81.349659
 31
0.0
  0
LINE
  5
244B
100
AcDbEntity
  8
0
100
AcDbLine
 10
114.706377
 20
-80.655086
 30
0.0
 11
114.706377
 21
-80.059389
 31
0.0
  0
POLYLINE
  5
244C
100
AcDbEntity
  8
0
100
AcDb2dPolyline
 66
     1
 10
0.0
 20
0.0
 30
0.0
  0
VERTEX
  5
244D
100
AcDbEntity
  8
0
100
AcDbVertex
100
AcDb2dVertex
 10
113.38382
 20
-78.371179
 30
0.0
  0
VERTEX
  5
244E
100
AcDbEntity
  8
0
100
AcDbVertex
100
AcDb2dVertex
 10
113.820585
 20
-78.921597
 30
0.0
  0
VERTEX
  5
244F
100
AcDbEntity
  8
0
100
AcDbVertex
100
AcDb2dVertex
 10
114.261408
 20
-79.484274
 30
0.0
  0
VERTEX
  5
2450
100
AcDbEntity
  8
0
100
AcDbVertex
100
AcDb2dVertex
 10
114.706377
 20
-80.059389
 30
0.0
  0
SEQEND
  5
2451
100
AcDbEntity
  8
0
  0
LINE
  5
2452
100
AcDbEntity
  8
0
100
AcDbLine
 10
112.586996
 20
-74.625235
 30
0.0
 11
112.583222
 21
-74.977842
 31
0.0
  0
LINE
  5
2453
100
AcDbEntity
  8
0
100
AcDbLine
 10
114.900619
 20
-77.433516
 30
0.0
 11
114.706377
 21
-74.807643
 31
0.0
  0
LINE
  5
2454
100
AcDbEntity
  8
0
100
AcDbLine
 10
113.700494
 20
-74.625414
 30
0.0
 11
113.601481
 21
-72.766156
 31
0.0
  0
DIMENSION
  5
2476
100
AcDbEntity
  8
文字
100
AcDbDimension
  2
*D23
 10
-140.040482
 20
-41.803326
 30
0.0
 11
-206.054253
 21
-41.803326
 31
0.0
 70
   160
  1
φ130
  3
STANDARD
100
AcDbAlignedDimension
 13
-270.040482
 23
-74.740733
 33
0.0
 14
-140.040482
 24
-74.740733
 34
0.0
100
AcDbRotatedDimension
1001
ACAD
1000
DSTYLE
1002
{
1070
    78
1070
     8
1070
   288
1070
     1
1070
   284
1070
     8
1070
   140
1040
8.0
1070
    74
1070
     0
1070
   172
1070
     1
1070
    73
1070
     0
1070
   272
1070
     1
1070
    77
1070
     1
1070
   173
1070
     1
1070
   147
1040
1.0
1070
    42
1040
2.625
1070
    44
1040
2.0
1070
    43
1040
15.96
1070
   271
1070
     1
1070
   141
1040
3.78
1070
     7
1000
_OPEN
1070
     6
1000
_OPEN
1070
    41
1040
6.0
1002
}
  0
DIMENSION
  5
2483
100
AcDbEntity
  8
文字
100
AcDbDimension
  2
*D24
 10
-101.254934
 20
-147.840733
 30
0.0
 11
-101.254934
 21
-109.960265
 31
0.0
 70
   160
  3
STANDARD
100
AcDbAlignedDimension
 13
-140.040482
 23
-74.740733
 33
0.0
 14
-205.040482
 24
-147.840733
 34
0.0
 50
90.0
100
AcDbRotatedDimension
1001
ACAD
1000
DSTYLE
1002
{
1070
    78
1070
     8
1070
   288
1070
     1
1070
   284
1070
     8
1070
   140
1040
8.0
1070
    74
1070
     0
1070
   172
1070
     1
1070
    73
1070
     0
1070
   272
1070
     1
1070
    77
1070
     1
1070
   173
1070
     1
1070
   147
1040
1.0
1070
    42
1040
2.625
1070
    44
1040
2.0
1070
    43
1040
15.96
1070
   271
1070
     1
1070
   141
1040
3.78
1070
     7
1000
_OPEN
1070
     6
1000
_OPEN
1070
    41
1040
6.0
1002
}
  0
DIMENSION
  5
24B9
100
AcDbEntity
  8
文字
100
AcDbDimension
  2
*D27
 10
-205.040482
 20
-84.740733
 30
0.0
 11
-280.268379
 21
-142.373057
 31
0.0
 70
   164
  1
S<>
  3
STANDARD
100
AcDbRadialDimension
 15
-255.130671
 25
-123.114982
 35
0.0
 40
0.0
1001
ACAD
1000
DSTYLE
1002
{
1070
    78
1070
     8
1070
   288
1070
     1
1070
   284
1070
     8
1070
   140
1040
8.0
1070
    74
1070
     0
1070
   172
1070
     1
1070
    73
1070
     0
1070
   272
1070
     1
1070
    77
1070
     1
1070
   173
1070
     1
1070
   147
1040
1.0
1070
    42
1040
2.625
1070
    44
1040
2.0
1070
    43
1040
15.96
1070
   271
1070
     1
1070
   141
1040
3.78
1070
     7
1000
_OPEN
1070
     6
1000
_OPEN
1070
    41
1040
6.0
1002
}
  0
LINE
  5
24C2
100
AcDbEntity
  8
文字
100
AcDbLine
 10
-273.667167
 20
98.881992
 30
0.0
 11
-136.117213
 21
98.881992
 31
0.0
  0
LINE
  5
24C3
100
AcDbEntity
  8
文字
100
AcDbLine
 10
-205.040482
 20
29.648855
 30
0.0
 11
-205.040482
 21
166.698413
 31
0.0
  0
DIMENSION
  5
24D1
100
AcDbEntity
  8
文字
100
AcDbDimension
  2
*D28
 10
-82.35924
 20
-60.740733
 30
0.0
 11
-82.35924
 21
-104.363447
 31
0.0
 70
   160
  1
（<>）
  3
STANDARD
100
AcDbAlignedDimension
 13
-205.040482
 23
-147.840733
 33
0.0
 14
-141.790482
 24
-60.740733
 34
0.0
 50
90.0
100
AcDbRotatedDimension
1001
ACAD
1000
DSTYLE
1002
{
1070
    78
1070
     8
1070
   288
1070
     1
1070
   284
1070
     8
1070
   140
1040
8.0
1070
    74
1070
     0
1070
   172
1070
     1
1070
    73
1070
     0
1070
   272
1070
     1
1070
    77
1070
     1
1070
   173
1070
     1
1070
   147
1040
1.0
1070
    42
1040
2.625
1070
    44
1040
2.0
1070
    43
1040
15.96
1070
   271
1070
     1
1070
   141
1040
3.78
1070
     7
1000
_OPEN
1070
     6
1000
_OPEN
1070
    41
1040
6.0
1002
}
  0
TEXT
  5
24E6
100
AcDbEntity
  8
文字
100
AcDbText
 10
171.026552
 20
-187.497484
 30
0.0
 40
10.0
  1
ドームカバー（スモーク）
 11
171.026552
 21
-182.497484
 31
0.0
100
AcDbText
 73
     2
  0
TEXT
  5
24E7
100
AcDbEntity
  8
文字
100
AcDbText
 10
174.138008
 20
-207.494334
 30
0.0
 40
10.0
  1
Ｋ－９７５１
 11
174.138008
 21
-202.494334
 31
0.0
100
AcDbText
 73
     2
  0
TEXT
  5
24E8
100
AcDbEntity
  8
文字
100
AcDbText
 10
130.862257
 20
-205.572691
 30
0.0
 40
10.0
  1
型名
 11
130.862257
 21
-200.572691
 31
0.0
100
AcDbText
 73
     2
  0
TEXT
  5
24E9
100
AcDbEntity
  8
文字
100
AcDbText
 10
130.862257
 20
-185.575841
 30
0.0
 40
10.0
  1
品名
 11
130.862257
 21
-180.575841
 31
0.0
100
AcDbText
 73
     2
  0
LWPOLYLINE
  5
24EA
100
AcDbEntity
  8
文字
100
AcDbPolyline
 90
        4
 70
     1
 43
0.0
 10
117.261569
 20
-168.386897
 10
347.103924
 20
-168.386897
 10
347.103924
 20
-212.584639
 10
117.261569
 20
-212.584639
  0
LINE
  5
24EB
100
AcDbEntity
  8
文字
100
AcDbLine
 10
117.261569
 20
-190.485768
 30
0.0
 11
347.103924
 21
-190.485768
 31
0.0
  0
LINE
  5
24EC
100
AcDbEntity
  8
文字
100
AcDbLine
 10
163.42238
 20
-168.386897
 30
0.0
 11
163.42238
 21
-212.584639
 31
0.0
  0
ENDSEC
  0
SECTION
  2
OBJECTS
  0
DICTIONARY
  5
C
100
AcDbDictionary
  3
ACAD_GROUP
350
D
  3
ACAD_MLINESTYLE
350
1B
  3
ACDBVARIABLEDICTIONARY
350
107F
  3
CONTENTDICTIONARY
350
109B
  0
DICTIONARY
  5
D
102
{ACAD_REACTORS
330
C
102
}
100
AcDbDictionary
  0
DICTIONARY
  5
1B
102
{ACAD_REACTORS
330
C
102
}
100
AcDbDictionary
  3
STANDARD
350
1C
  0
DICTIONARY
  5
107F
102
{ACAD_REACTORS
330
C
102
}
100
AcDbDictionary
  3
SORTENTS
350
1080
  0
DICTIONARY
  5
109B
102
{ACAD_REACTORS
330
C
102
}
100
AcDbDictionary
  0
MLINESTYLE
  5
1C
102
{ACAD_REACTORS
330
1B
102
}
100
AcDbMlineStyle
  2
STANDARD
 70
     0
  3

 62
   256
 51
90.0
 52
90.0
 71
     2
 49
0.5
 62
   256
  6
BYLAYER
 49
-0.5
 62
   256
  6
BYLAYER
  0
DICTIONARYVAR
  5
1080
102
{ACAD_REACTORS
330
107F
102
}
100
DictionaryVariables
280
     0
  1
96
  0
ENDSEC
  0
EOF
